<?xml version="1.0" standalone="no"?>
<!DOCTYPE svg PUBLIC "-//W3C//DTD SVG 1.1//EN" "http://www.w3.org/Graphics/SVG/1.1/DTD/svg11.dtd" >
<svg xmlns="http://www.w3.org/2000/svg" xmlns:xlink="http://www.w3.org/1999/xlink" version="1.1">
<metadata>
Created by FontForge 20170731 at Mon Dec 21 18:11:36 2020
 By Aleksey,,,
Copyright (c) 2015, 2018 by Jakob Runge, under exclusive license to TypeMates. All rights reserved.
</metadata>
<defs>
<font id="CeraPro-ThinItalic" horiz-adv-x="1146" >
  <font-face 
    font-family="Cera Pro"
    font-weight="250"
    font-style="italic"
    font-stretch="normal"
    units-per-em="2048"
    panose-1="0 0 3 0 0 0 0 0 0 0"
    ascent="1655"
    descent="-393"
    x-height="983"
    cap-height="1352"
    bbox="-844 -526 2609 2048"
    underline-thickness="61"
    underline-position="-265"
    slope="-10"
    unicode-range="U+0020-FB02"
  />
<missing-glyph horiz-adv-x="1437" 
d="M362 1352h1016l-237 -1352h-1016zM1090 59l217 1235h-895z" />
    <glyph glyph-name="fi" unicode="fi" horiz-adv-x="1056" 
d="M776 1534l-10 -51q-75 16 -119 16q-194 0 -235 -221l-52 -295h269l-11 -57h-268l-186 -1057q-20 -123 -95.5 -190.5t-191.5 -67.5q-55 0 -135 22l10 52q80 -17 119 -17q194 0 235 221l183 1037h-144l11 57h143l55 315q20 123 95.5 190.5t191.5 67.5q55 0 135 -22zM705 0
l172 983h61l-172 -983h-61zM907 1364q0 29 20.5 49.5t49.5 20.5t49.5 -20.5t20.5 -49.5t-20.5 -49.5t-49.5 -20.5t-49.5 20.5t-20.5 49.5z" />
    <glyph glyph-name="fl" unicode="fl" horiz-adv-x="1056" 
d="M776 1534l-10 -51q-75 16 -119 16q-194 0 -235 -221l-52 -295h269l-11 -57h-268l-186 -1057q-20 -123 -95.5 -190.5t-191.5 -67.5q-55 0 -135 22l10 52q80 -17 119 -17q194 0 235 221l183 1037h-144l11 57h143l55 315q20 123 95.5 190.5t191.5 67.5q55 0 135 -22zM705 0
l270 1536h61l-270 -1536h-61z" />
    <glyph glyph-name=".notdef" horiz-adv-x="1437" 
d="M362 1352h1016l-237 -1352h-1016zM1090 59l217 1235h-895z" />
    <glyph glyph-name=".null" horiz-adv-x="0" 
 />
    <glyph glyph-name="nonmarkingreturn" horiz-adv-x="682" 
 />
    <glyph glyph-name="space" unicode=" " horiz-adv-x="573" 
 />
    <glyph glyph-name="exclam" unicode="!" horiz-adv-x="555" 
d="M227 373l160 979h80l-182 -979h-58zM121 57q0 36 23 59t55 23q34 0 58 -22.5t24 -59.5q0 -34 -24 -55.5t-58 -21.5q-32 0 -55 21.5t-23 55.5z" />
    <glyph glyph-name="quotedbl" unicode="&#x22;" horiz-adv-x="829" 
d="M279 860l124 492h82l-151 -492h-55zM565 860l125 492h82l-151 -492h-56z" />
    <glyph glyph-name="numbersign" unicode="#" horiz-adv-x="1093" 
d="M1108 877h-203l-71 -402h204l-10 -57h-203l-73 -418h-62l74 418h-463l-74 -418h-61l74 418h-199l10 57h199l69 402h-198l10 57h199l73 418h60l-74 -418h465l74 418h59l-74 -418h205zM309 475h465l70 402h-463z" />
    <glyph glyph-name="dollar" unicode="$" horiz-adv-x="1093" 
d="M717 1229l-92 -522l47 -29q119 -72 173 -146t54 -165q0 -146 -106 -234t-283 -88l-41 -231h-63l43 239q-229 38 -357 279l58 28q113 -210 307 -245l98 559l-51 33q-115 69 -167 137.5t-52 150.5q0 140 102 221.5t279 81.5l43 240h63l-43 -248q175 -34 272 -200l-53 -33
q-89 145 -231 172zM567 741l88 496h-20q-127 0 -205 -66t-78 -172q0 -69 45 -126t148 -117zM637 625l-25 14l-92 -533h17q131 0 212.5 72t81.5 187q0 75 -46 137t-148 123z" />
    <glyph glyph-name="percent" unicode="%" horiz-adv-x="1626" 
d="M221 1038q0 139 97 236.5t235 97.5q131 0 219 -90t88 -223q0 -139 -97 -236.5t-237 -97.5q-129 0 -217 90t-88 223zM289 0l1054 1352h68l-1055 -1352h-67zM795 1059q0 113 -67 184.5t-173 71.5q-116 0 -193 -80q-75 -75 -75 -197q0 -110 69.5 -183t175.5 -73
q113 0 188 79.5t75 197.5zM834 293q0 139 96.5 236.5t234.5 97.5q131 0 219.5 -90.5t88.5 -223.5q0 -139 -97 -236t-237 -97q-129 0 -217 90t-88 223zM1407 313q0 113 -67 184.5t-173 71.5q-115 0 -192 -80q-76 -76 -76 -196q0 -110 70 -183t176 -73q112 0 187 78.5
t75 197.5z" />
    <glyph glyph-name="ampersand" unicode="&#x26;" horiz-adv-x="1204" 
d="M1171 530l-71 -81q-122 -143 -189 -213l156 -236h-76l-125 190q-108 -108 -207.5 -159t-212.5 -51q-158 0 -262 91t-104 230q0 129 90 230t322 233q-113 182 -113 303q0 129 83.5 217t205.5 88q111 0 182.5 -70t71.5 -178q0 -100 -78 -187.5t-266 -195.5l299 -454
q19 19 145 166q12 13 46 53.5t56 64.5zM444 1065q0 -62 23.5 -125.5t77.5 -148.5q168 93 239.5 170t71.5 167q0 82 -51.5 132.5t-136.5 50.5q-100 0 -162 -68t-62 -178zM834 242l-310 473q-230 -137 -303.5 -216.5t-73.5 -191.5q0 -118 84 -193t215 -75q101 0 193.5 50
t194.5 153z" />
    <glyph glyph-name="quotesingle" unicode="'" horiz-adv-x="542" 
d="M279 860l124 492h82l-151 -492h-55z" />
    <glyph glyph-name="parenleft" unicode="(" horiz-adv-x="647" 
d="M178 362q-3 253 71.5 493.5t205 410.5t286.5 227l19 -49q-142 -61 -262.5 -227t-189.5 -395t-66 -464q0 -197 57.5 -345t167.5 -236l-33 -45q-256 197 -256 630z" />
    <glyph glyph-name="parenright" unicode=")" horiz-adv-x="645" 
d="M-53 -268l-19 49q142 61 262.5 226.5t189.5 394.5t66 464q0 197 -57.5 345.5t-167.5 236.5l33 45q256 -197 256 -631q3 -253 -71.5 -493.5t-205 -410t-286.5 -226.5z" />
    <glyph glyph-name="asterisk" unicode="*" horiz-adv-x="745" 
d="M786 1319l-223 -86l178 -160l-30 -37l-187 150l-49 -236l-49 8l35 238l-225 -76l-19 47l223 86l-178 160l31 37l186 -150l49 236l50 -8l-35 -238l225 76z" />
    <glyph glyph-name="plus" unicode="+" 
d="M489 186l74 418h-407l10 58h407l74 417h62l-74 -417h405l-10 -58h-405l-74 -418h-62z" />
    <glyph glyph-name="comma" unicode="," horiz-adv-x="573" 
d="M68 -369l127 498h81l-151 -498h-57z" />
    <glyph glyph-name="hyphen" unicode="-" horiz-adv-x="696" 
d="M143 604l11 58h450l-10 -58h-451z" />
    <glyph glyph-name="period" unicode="." horiz-adv-x="573" 
d="M131 57q0 36 23 59t55 23q34 0 58 -22.5t24 -59.5q0 -34 -24 -55.5t-58 -21.5q-32 0 -55 21.5t-23 55.5z" />
    <glyph glyph-name="slash" unicode="/" horiz-adv-x="1179" 
d="M-109 -248l1387 1845h74l-1387 -1845h-74z" />
    <glyph glyph-name="zero" unicode="0" horiz-adv-x="1228" 
d="M164 485q0 176 53 383q55 204 182 355q128 149 336 149q189 0 290 -133.5t101 -374.5q0 -176 -53 -383q-52 -203 -182 -354q-126 -147 -334 -147q-189 0 -291 133t-102 372zM1059 879q0 230 -96 331q-94 101 -236 101q-180 0 -291 -144q-110 -143 -157 -338
q-48 -200 -48 -356q0 -229 97 -334q94 -98 235 -98q181 0 291 143q112 145 158 338q47 196 47 357z" />
    <glyph glyph-name="one" unicode="1" horiz-adv-x="747" 
d="M616 1352h31l-237 -1352h-66l225 1284l-344 -78l-8 58z" />
    <glyph glyph-name="two" unicode="2" horiz-adv-x="1107" 
d="M641 451l-491 -394h770l-11 -57h-895l4 25l584 471q174 142 256 261t82 253q0 139 -82 220t-223 81q-157 0 -254.5 -109t-97.5 -282q0 -52 2 -66h-68q-4 46 -4 70q0 192 121 320t303 128q167 0 270 -99.5t103 -260.5q0 -144 -90.5 -276t-278.5 -285z" />
    <glyph glyph-name="three" unicode="3" horiz-adv-x="1081" 
d="M1059 1352l-4 -25l-498 -500q165 -9 274 -119.5t109 -269.5q0 -194 -137.5 -326t-339.5 -132q-298 0 -430 292l55 29q117 -264 377 -264q175 0 292 114.5t117 286.5q0 152 -105 243t-282 91h-49l4 25l490 497h-645l10 58h762z" />
    <glyph glyph-name="four" unicode="4" horiz-adv-x="1073" 
d="M987 332l-10 -58h-213l-49 -274h-66l49 274h-684l4 25l648 1053h67l-627 -1020h601l92 518h65l-92 -518h215z" />
    <glyph glyph-name="five" unicode="5" horiz-adv-x="1120" 
d="M1067 1294h-627l-82 -477q10 0 80 4l94 2q211 0 330 -101.5t119 -281.5q0 -200 -134 -330t-339 -130q-301 0 -436 292l55 29q66 -137 157.5 -200.5t221.5 -63.5q180 0 294.5 113t114.5 288q0 154 -100 241t-278 87h-254l102 586h692z" />
    <glyph glyph-name="six" unicode="6" horiz-adv-x="1110" 
d="M975 428q0 -91 -36 -173.5t-97 -143t-145.5 -96t-176.5 -35.5q-175 0 -294.5 117.5t-119.5 291.5q0 109 44.5 196t193.5 273l399 494h82l-471 -574q94 58 209 58q177 0 294.5 -117t117.5 -291zM909 426q0 151 -99 251.5t-247 100.5q-162 0 -276.5 -114.5t-114.5 -278.5
q0 -149 99.5 -248.5t248.5 -99.5q164 0 276.5 112.5t112.5 276.5z" />
    <glyph glyph-name="seven" unicode="7" horiz-adv-x="987" 
d="M217 1352h866l-4 -25l-973 -1327h-69l948 1294h-778z" />
    <glyph glyph-name="eight" unicode="8" horiz-adv-x="1163" 
d="M1004 350q0 -158 -130.5 -264t-326.5 -106q-201 0 -324 95t-123 249q0 142 116.5 246.5t326.5 148.5q-252 126 -252 313q0 141 114.5 237.5t282.5 96.5q170 0 272.5 -83t102.5 -220q0 -131 -94 -221.5t-277 -134.5q312 -145 312 -357zM623 743q190 47 282 124t92 188
q0 115 -85.5 184.5t-225.5 69.5t-235 -79t-95 -196q0 -84 62 -151.5t205 -139.5zM938 354q0 92 -72 164q-77 77 -254 162q-446 -95 -446 -352q0 -133 103.5 -212t277.5 -79q171 0 281 89t110 228z" />
    <glyph glyph-name="nine" unicode="9" horiz-adv-x="1110" 
d="M1069 963q0 -109 -44.5 -196t-193.5 -273l-399 -494h-82l471 573q-92 -57 -209 -57q-176 0 -293.5 117t-117.5 291q0 185 133.5 316.5t320.5 131.5q175 0 294.5 -117.5t119.5 -291.5zM1004 967q0 151 -99 249.5t-250 98.5q-164 0 -276.5 -112.5t-112.5 -276.5
q0 -151 99 -252t247 -101q162 0 277 115t115 279z" />
    <glyph glyph-name="colon" unicode=":" horiz-adv-x="573" 
d="M281 905q0 36 22.5 59t54.5 23q34 0 58 -22.5t24 -59.5q0 -34 -24.5 -56t-57.5 -22q-32 0 -54.5 22t-22.5 56zM131 57q0 36 23 59t55 23q34 0 58 -22.5t24 -59.5q0 -34 -24 -55.5t-58 -21.5q-32 0 -55 21.5t-23 55.5z" />
    <glyph glyph-name="semicolon" unicode=";" horiz-adv-x="573" 
d="M281 905q0 36 22.5 59t54.5 23q34 0 58 -22.5t24 -59.5q0 -34 -24.5 -56t-57.5 -22q-32 0 -54.5 22t-22.5 56zM68 -369l127 498h81l-151 -498h-57z" />
    <glyph glyph-name="less" unicode="&#x3c;" 
d="M1073 1004l-10 -66l-793 -305l684 -305l-10 -62l-792 357l4 24z" />
    <glyph glyph-name="equal" unicode="=" 
d="M211 809l10 57h834l-11 -57h-833zM139 397l11 58h833l-10 -58h-834z" />
    <glyph glyph-name="greater" unicode="&#x3e;" 
d="M254 1004l793 -357l-5 -24l-915 -357l12 68l785 303l-680 307z" />
    <glyph glyph-name="question" unicode="?" horiz-adv-x="901" 
d="M569 725q120 107 166 155.5t65.5 90.5t22.5 108q0 109 -63 172.5t-172 63.5q-188 0 -293 -205l-53 27q58 110 149.5 172.5t202.5 62.5q131 0 213 -79t82 -206q-4 -106 -53.5 -177t-229.5 -232q-100 -87 -135 -152q-34 -60 -49 -153h-62q15 101 58 180q45 82 151 172z
M283 59q0 35 23.5 57.5t55.5 22.5t56 -23t24 -57q0 -35 -24 -57t-56 -22q-33 0 -56 21.5t-23 57.5z" />
    <glyph glyph-name="at" unicode="@" horiz-adv-x="1851" 
d="M1749 629q0 -251 -143.5 -403t-380.5 -152h-47l32 184q-52 -83 -143 -131.5t-199 -48.5q-160 0 -267 111t-107 278q0 189 133.5 323t322.5 134q118 0 212 -61t126 -158l35 200h61l-137 -776q196 0 316 138t120 360q3 183 -86 330t-247 229t-353 80q-161 4 -312 -60.5
t-260.5 -174t-174.5 -260t-62 -310.5q-2 -141 56 -270.5t157 -222.5t236.5 -147.5t286.5 -51.5q137 0 256 43l16 -52q-122 -49 -281 -49q-162 -3 -310 55.5t-254.5 159t-168.5 240.5t-59 293q-4 172 66 333t188.5 278.5t281 187t336.5 65.5q159 2 300 -51t241 -145.5
t157.5 -222t55.5 -275.5zM1260 557q0 137 -87.5 223t-226.5 86q-158 0 -272.5 -117t-114.5 -278q0 -145 93 -241.5t233 -96.5q155 0 265 125t110 299z" />
    <glyph glyph-name="A" unicode="A" horiz-adv-x="1363" 
d="M1130 0l-88 360h-741l-211 -360h-74l815 1372h31l332 -1372h-64zM1030 418l-203 833l-493 -833h696z" />
    <glyph glyph-name="B" unicode="B" horiz-adv-x="1249" 
d="M1124 399q0 -177 -131 -288t-340 -111h-528l237 1352h412q155 0 242.5 -78t87.5 -215q0 -117 -62.5 -202t-173.5 -120q119 -32 187.5 -121.5t68.5 -216.5zM418 1294l-92 -530h399q139 0 225 81t86 212q0 115 -70.5 176t-201.5 61h-346zM1057 399q0 137 -89 220t-237 83
h-418l-112 -645h452q179 0 291.5 95t112.5 247z" />
    <glyph glyph-name="C" unicode="C" horiz-adv-x="1452" 
d="M152 621q-3 146 57.5 285.5t162.5 242.5t240.5 164.5t284.5 58.5q168 0 304 -76t218 -215l-53 -37q-79 128 -200.5 197.5t-272.5 69.5q-175 4 -332.5 -91t-250.5 -256t-89 -341q-3 -163 71 -297.5t205 -211t289 -73.5q141 0 271 57.5t227 161.5l45 -41
q-105 -115 -248.5 -177t-298.5 -62q-174 -3 -320 81.5t-229.5 233t-80.5 326.5z" />
    <glyph glyph-name="D" unicode="D" horiz-adv-x="1435" 
d="M125 0l237 1352h306q306 0 494 -170.5t188 -448.5q3 -211 -100.5 -380t-290.5 -262.5t-422 -90.5h-412zM201 55h340q159 -2 297.5 48t236 139.5t152.5 216.5t53 274q0 254 -167.5 407.5t-448.5 153.5h-246z" />
    <glyph glyph-name="E" unicode="E" horiz-adv-x="1150" 
d="M125 0l237 1352h832l-10 -58h-766l-94 -530h602l-8 -57h-603l-114 -650h790l-10 -57h-856z" />
    <glyph glyph-name="F" unicode="F" horiz-adv-x="1052" 
d="M125 0l237 1352h812l-11 -58h-745l-101 -569h623l-10 -57h-623l-117 -668h-65z" />
    <glyph glyph-name="G" unicode="G" horiz-adv-x="1533" 
d="M152 621q-3 146 58 285.5t162.5 242.5t240 164.5t282.5 58.5q165 0 302.5 -76t223.5 -215l-53 -37q-78 128 -201.5 197.5t-275.5 69.5q-131 3 -255.5 -53t-216.5 -150t-146.5 -222t-51.5 -263q-3 -163 71 -297.5t205 -211t289 -73.5q147 0 280 64.5t232 181.5l54 301
h-529l11 57h593l-65 -375q-100 -135 -256 -212.5t-326 -77.5q-130 -2 -247.5 48t-201.5 136t-132.5 205.5t-46.5 251.5z" />
    <glyph glyph-name="H" unicode="H" horiz-adv-x="1441" 
d="M125 0l237 1352h66l-102 -588h888l103 588h65l-237 -1352h-66l123 707h-889l-123 -707h-65z" />
    <glyph glyph-name="I" unicode="I" horiz-adv-x="487" 
d="M125 0l237 1352h66l-238 -1352h-65z" />
    <glyph glyph-name="J" unicode="J" horiz-adv-x="741" 
d="M-23 10l11 58q108 -27 182 -27q110 0 173 55t83 170l190 1086h66l-193 -1090q-49 -282 -317 -282q-93 0 -195 30z" />
    <glyph glyph-name="K" unicode="K" horiz-adv-x="1224" 
d="M362 1352h66l-238 -1352h-65zM1249 1352l-805 -621l613 -731h-80l-619 735l793 617h98z" />
    <glyph glyph-name="L" unicode="L" horiz-adv-x="1009" 
d="M125 0l237 1352h66l-227 -1295h684l-11 -57h-749z" />
    <glyph glyph-name="M" unicode="M" horiz-adv-x="1601" 
d="M1516 1372h30l-241 -1372h-66l209 1192l-635 -739h-31l-381 753l-211 -1206h-65l242 1372h30l414 -827z" />
    <glyph glyph-name="N" unicode="N" horiz-adv-x="1441" 
d="M1317 1352h65l-241 -1372h-31l-707 1247l-213 -1227h-65l242 1372h30l705 -1255z" />
    <glyph glyph-name="O" unicode="O" horiz-adv-x="1605" 
d="M152 623q-4 147 56.5 286.5t161.5 241.5t239.5 163t283.5 58q174 3 319.5 -81.5t228 -233t79.5 -326.5q4 -148 -56.5 -288t-162 -242t-240 -163t-283.5 -58q-172 -3 -317.5 82t-228.5 234t-80 327zM1450 731q3 161 -70.5 295t-203 210t-285.5 73q-132 2 -256.5 -53.5
t-216 -148.5t-146 -221t-51.5 -263q-2 -162 71 -296t202.5 -210.5t285.5 -73.5q131 -3 255.5 53t216 150t146 222t52.5 263z" />
    <glyph glyph-name="P" unicode="P" 
d="M125 0l237 1352h408q172 0 272.5 -88t100.5 -240q0 -173 -123.5 -280t-321.5 -107h-395l-113 -637h-65zM313 694h381q174 0 276.5 89t102.5 241q0 131 -81 200.5t-234 69.5h-340z" />
    <glyph glyph-name="Q" unicode="Q" horiz-adv-x="1607" 
d="M1929 -322l-8 -53q-77 -14 -174 -14q-213 0 -408 86q-192 86 -329 321q-110 -38 -232 -38q-175 -3 -320.5 84t-226.5 235.5t-79 323.5q-3 118 35.5 232.5t109.5 207.5t164 164t205.5 109t226.5 36q131 2 249 -48.5t201 -137t130.5 -205.5t46.5 -250q0 -227 -127 -416
q-124 -184 -326 -274q141 -222 317 -293q180 -76 402 -76q52 0 143 6zM780 41q175 -4 332 92t249.5 257.5t88.5 340.5q0 162 -70 294t-198.5 209t-290.5 77q-133 3 -258 -53t-216 -150t-145 -222t-51 -263q-3 -159 68.5 -293.5t201.5 -213t289 -75.5z" />
    <glyph glyph-name="R" unicode="R" horiz-adv-x="1245" 
d="M737 639l375 -639h-76l-372 637h-361l-113 -637h-65l237 1352h408q174 0 273.5 -87.5t99.5 -240.5q0 -164 -111 -269.5t-295 -115.5zM418 1294l-105 -600h381q174 0 276.5 89t102.5 241q0 131 -81 200.5t-234 69.5h-340z" />
    <glyph glyph-name="S" unicode="S" horiz-adv-x="1136" 
d="M66 297l59 29q75 -140 185.5 -212.5t246.5 -72.5q148 0 240 81.5t92 211.5q0 87 -50.5 156t-166.5 137l-150 90q-125 75 -183 152t-58 169q0 143 110.5 238.5t276.5 95.5q270 0 405 -231l-53 -33q-67 104 -152 153.5t-200 49.5q-141 0 -229.5 -75t-88.5 -194
q0 -79 48.5 -141.5t166.5 -134.5l142 -86q130 -79 190.5 -161t60.5 -183q0 -154 -115 -255t-290 -101q-158 0 -281.5 80.5t-205.5 236.5z" />
    <glyph glyph-name="T" unicode="T" horiz-adv-x="1196" 
d="M479 0l228 1294h-510l10 58h1085l-10 -58h-510l-227 -1294h-66z" />
    <glyph glyph-name="U" unicode="U" horiz-adv-x="1390" 
d="M190 432q0 46 11 117l139 803h66l-142 -809q-8 -41 -8 -105q0 -175 114 -286t294 -111t305 113q126 111 161 301l154 897h66l-156 -903q-38 -217 -182 -343t-348 -126q-207 0 -340.5 127t-133.5 325z" />
    <glyph glyph-name="V" unicode="V" horiz-adv-x="1363" 
d="M1339 1352h74l-815 -1372h-31l-331 1372h63l303 -1252z" />
    <glyph glyph-name="W" unicode="W" horiz-adv-x="2205" 
d="M2154 1352h70l-731 -1372h-31l-248 1255l-688 -1255h-30l-252 1372h63l223 -1246l691 1266h30l246 -1259z" />
    <glyph glyph-name="X" unicode="X" horiz-adv-x="1183" 
d="M1219 1352l-551 -664l348 -688h-70l-323 641l-549 -641h-80l596 698l-324 654h70l299 -609l504 609h80z" />
    <glyph glyph-name="Y" unicode="Y" horiz-adv-x="1249" 
d="M1268 1352l-606 -768l-103 -584h-65l102 588l-336 764h64l311 -709l557 709h76z" />
    <glyph glyph-name="Z" unicode="Z" horiz-adv-x="1208" 
d="M1276 1352l-4 -25l-1163 -1270h942l-11 -57h-1040l4 25l1163 1269h-850l11 58h948z" />
    <glyph glyph-name="bracketleft" unicode="[" horiz-adv-x="690" 
d="M98 -268l308 1761h335l-8 -57h-274l-289 -1647h274l-10 -57h-336z" />
    <glyph glyph-name="backslash" unicode="\" horiz-adv-x="1185" 
d="M967 -248l-750 1845h64l751 -1845h-65z" />
    <glyph glyph-name="bracketright" unicode="]" horiz-adv-x="690" 
d="M-10 -268l10 57h276l289 1647h-276l10 57h338l-309 -1761h-338z" />
    <glyph glyph-name="asciicircum" unicode="^" horiz-adv-x="1009" 
d="M160 598l483 774h31l213 -774h-64l-180 657l-412 -657h-71z" />
    <glyph glyph-name="underscore" unicode="_" horiz-adv-x="1024" 
d="M-25 -229l11 57h819l-10 -57h-820z" />
    <glyph glyph-name="grave" unicode="`" horiz-adv-x="1024" 
d="M678 1151l-70 436l4 10h68l45 -446h-47z" />
    <glyph glyph-name="a" unicode="a" horiz-adv-x="1294" 
d="M1114 983h62l-175 -983h-61l35 195q-62 -100 -170.5 -157.5t-237.5 -57.5q-189 0 -319.5 138t-130.5 339q-3 145 69.5 272t196.5 202t266 73q146 0 264 -80q114 -78 156 -201zM649 946q-91 2 -178 -38t-151 -107t-102 -157.5t-36 -184.5q0 -180 113 -301t283 -121
q119 -3 226 68.5t170 192t60 253.5q0 179 -106 285q-104 110 -279 110z" />
    <glyph glyph-name="b" unicode="b" horiz-adv-x="1292" 
d="M1176 528q2 -148 -68.5 -275.5t-192.5 -201.5t-264 -71q-145 0 -266 77q-118 80 -158 199l-45 -256h-61l268 1536h62l-134 -754q60 103 168.5 162.5t235.5 59.5q194 0 324.5 -136t130.5 -340zM1110 526q0 184 -111 302t-284 118q-122 3 -228.5 -69t-168.5 -195.5
t-60 -265.5q0 -163 112 -271t281 -108q124 0 230 66t167.5 178.5t61.5 244.5z" />
    <glyph glyph-name="c" unicode="c" horiz-adv-x="1136" 
d="M119 463q-2 108 40.5 209t115.5 174t172.5 116.5t205.5 41.5q128 0 231.5 -53.5t166.5 -151.5l-50 -35q-57 87 -147 133.5t-199 46.5q-94 2 -182 -36t-152 -102.5t-101.5 -153.5t-35.5 -185q0 -185 117 -306.5t295 -121.5q100 0 190 39.5t156 111.5l41 -38
q-147 -172 -385 -172q-205 0 -342 138t-137 345z" />
    <glyph glyph-name="d" unicode="d" horiz-adv-x="1294" 
d="M1212 1536h62l-270 -1536h-62l35 193q-62 -99 -171 -156t-237 -57q-195 0 -322.5 136t-127.5 347q-3 146 69 272t195.5 199t265.5 70q149 0 265.5 -78t154.5 -201zM1036 559q0 170 -110 278.5t-279 108.5q-93 0 -178.5 -38.5t-148 -103.5t-99.5 -154.5t-37 -186.5
q0 -189 110.5 -307.5t283.5 -118.5q91 -3 177 41t148 116.5t98.5 169t34.5 195.5z" />
    <glyph glyph-name="e" unicode="e" horiz-adv-x="1157" 
d="M1036 485h-852v-22q0 -186 115 -306t295 -120q100 0 191.5 40t158.5 113l39 -38q-74 -82 -176.5 -127t-214.5 -45q-203 0 -338 137t-135 344q-2 107 40.5 208.5t113.5 175.5t168 117.5t198 41.5q180 0 297 -113.5t117 -288.5q0 -64 -17 -117zM190 543h795q2 14 2 57
q0 154 -96.5 250t-251.5 96q-168 0 -296 -116t-153 -287z" />
    <glyph glyph-name="f" unicode="f" horiz-adv-x="555" 
d="M776 1534l-10 -51q-75 16 -119 16q-194 0 -235 -221l-52 -295h269l-11 -57h-268l-186 -1057q-20 -123 -95.5 -190.5t-191.5 -67.5q-55 0 -135 22l10 52q80 -17 119 -17q194 0 235 221l183 1037h-144l11 57h143l55 315q20 123 95.5 190.5t191.5 67.5q55 0 135 -22z" />
    <glyph glyph-name="g" unicode="g" horiz-adv-x="1292" 
d="M1110 983h61l-161 -938q-35 -201 -171 -317.5t-337 -116.5q-140 0 -261 61.5t-188 167.5l51 37q62 -98 167.5 -153.5t232.5 -55.5q177 0 294.5 101.5t149.5 281.5l29 156q-62 -95 -173.5 -151t-240.5 -56q-191 0 -318.5 129t-127.5 324q-2 150 71 278t199 202t272 71
q143 0 259 -78q111 -75 149 -199zM1034 559q0 170 -106.5 278.5t-272.5 108.5q-126 0 -235 -66.5t-173.5 -179.5t-64.5 -245q0 -172 113 -285t283 -113q124 0 229 67.5t166 183t61 251.5z" />
    <glyph glyph-name="h" unicode="h" horiz-adv-x="1128" 
d="M971 692q0 -45 -13 -110l-100 -582h-61l102 590q12 60 12 102q0 113 -75.5 183.5t-196.5 70.5q-127 0 -223.5 -83t-120.5 -220l-113 -643h-61l268 1536h62l-121 -686q119 154 313 154q146 0 237 -86.5t91 -225.5z" />
    <glyph glyph-name="i" unicode="i" horiz-adv-x="471" 
d="M119 0l172 983h61l-172 -983h-61zM322 1364q0 29 20 49.5t49 20.5t49.5 -20.5t20.5 -49.5t-20.5 -49.5t-49.5 -20.5t-49 20.5t-20 49.5z" />
    <glyph glyph-name="j" unicode="j" horiz-adv-x="473" 
d="M-262 -367l10 54q65 -19 125 -19q189 0 223 199l197 1116h61l-196 -1122q-23 -126 -97 -188t-190 -62q-69 0 -133 22zM322 1364q0 29 20 49.5t49 20.5t49.5 -20.5t20.5 -49.5t-20.5 -49.5t-49.5 -20.5t-49 20.5t-20 49.5z" />
    <glyph glyph-name="k" unicode="k" horiz-adv-x="946" 
d="M389 1536h62l-271 -1536h-61zM961 983l-562 -446l420 -537h-76l-430 543l555 440h93z" />
    <glyph glyph-name="l" unicode="l" horiz-adv-x="471" 
d="M119 0l270 1536h62l-271 -1536h-61z" />
    <glyph glyph-name="m" unicode="m" horiz-adv-x="1763" 
d="M1608 692q0 -19 -2 -38.5t-4 -31.5t-4.5 -24.5t-2.5 -15.5l-104 -582h-61l106 590q10 65 10 90q0 119 -70 192.5t-188 73.5q-123 0 -217 -84t-119 -219l-116 -643h-62l107 590q10 65 10 90q0 121 -70.5 193.5t-187.5 72.5q-124 0 -217 -81.5t-119 -221.5l-117 -643h-61
l174 983h61l-22 -131q115 152 305 152q116 0 196 -61.5t105 -166.5q50 106 143 167t209 61q145 0 231.5 -87t86.5 -225z" />
    <glyph glyph-name="n" unicode="n" horiz-adv-x="1128" 
d="M973 692q0 -26 -12 -110l-105 -582h-61l106 590q10 65 10 94q0 118 -73 190t-197 72q-130 0 -224 -81.5t-120 -221.5l-117 -643h-61l174 983h61l-22 -135q118 156 313 156q148 0 238 -87t90 -225z" />
    <glyph glyph-name="o" unicode="o" horiz-adv-x="1249" 
d="M119 463q-2 108 41 209t116 174t173 116.5t206 41.5q203 0 340.5 -138.5t137.5 -343.5q2 -107 -42 -208.5t-117.5 -175t-174.5 -117t-207 -41.5q-202 0 -337.5 138.5t-135.5 344.5zM1067 520q0 181 -119.5 302.5t-294.5 121.5q-128 0 -236 -65t-170.5 -175.5
t-62.5 -240.5q0 -185 116 -304.5t294 -119.5q96 0 183.5 38.5t151 103t101 153.5t37.5 186z" />
    <glyph glyph-name="p" unicode="p" horiz-adv-x="1290" 
d="M1174 537q0 -154 -69.5 -282t-190.5 -201.5t-265 -73.5q-145 0 -266 77q-116 77 -158 201l-110 -627h-62l240 1352h61l-35 -195q62 100 170 158t238 58q193 0 320 -133t127 -334zM717 944q-188 4 -326 -156.5t-135 -377.5q0 -160 111.5 -265.5t281.5 -105.5
q126 0 231.5 66t166.5 180t61 250q0 180 -109 294.5t-282 114.5z" />
    <glyph glyph-name="q" unicode="q" horiz-adv-x="1292" 
d="M1112 983h62l-238 -1352h-62l101 564q-62 -100 -170.5 -157.5t-237.5 -57.5q-191 0 -320.5 133t-129.5 331q-2 118 39.5 223.5t113 179.5t170.5 116t207 41q148 0 264 -76q115 -75 156 -193zM1036 569q0 171 -108.5 274t-282.5 103q-128 0 -233.5 -63.5t-167.5 -179
t-62 -259.5q0 -177 112.5 -292t283.5 -115q124 0 229.5 70.5t167 193t61.5 268.5z" />
    <glyph glyph-name="r" unicode="r" horiz-adv-x="698" 
d="M748 975l-9 -49q-49 6 -77 6q-137 0 -244 -84q-105 -85 -125 -213l-113 -635h-61l174 983h61l-26 -147q121 151 329 151q51 0 91 -12z" />
    <glyph glyph-name="s" unicode="s" horiz-adv-x="931" 
d="M82 207l53 35q112 -205 316 -205q109 0 181.5 57.5t72.5 143.5q0 61 -45.5 107.5t-159.5 107.5l-84 45q-110 61 -157.5 120t-47.5 138q0 106 85 177t214 71q189 0 303 -164l-47 -39q-109 145 -258 145q-102 0 -167 -53t-65 -135q0 -63 39 -109t138 -100l88 -47
q121 -65 175 -125.5t54 -140.5q0 -112 -91.5 -184t-232.5 -72q-116 0 -210 59t-154 168z" />
    <glyph glyph-name="t" unicode="t" horiz-adv-x="716" 
d="M377 926l-115 -652q-6 -35 -6 -61q0 -176 233 -176q35 0 97 6l-11 -53q-45 -10 -98 -10q-137 0 -209.5 58.5t-72.5 168.5q0 37 6 72l114 647h-176l8 57h179l51 287h61l-51 -287h326l-8 -57h-328z" />
    <glyph glyph-name="u" unicode="u" horiz-adv-x="1107" 
d="M160 309q0 43 6 78l104 596h62l-107 -602q-6 -35 -6 -70q0 -122 80 -198t209 -76q122 0 211 79.5t112 209.5l117 657h62l-117 -661q-27 -155 -137 -248q-107 -94 -254 -94q-151 0 -246 92q-96 93 -96 237z" />
    <glyph glyph-name="v" unicode="v" horiz-adv-x="1064" 
d="M989 983h72l-615 -1003h-30l-271 1003h66l238 -895z" />
    <glyph glyph-name="w" unicode="w" horiz-adv-x="1724" 
d="M1653 983h67l-551 -1003h-30l-224 899l-532 -899h-31l-207 1003h66l176 -885l531 906h30l219 -912z" />
    <glyph glyph-name="x" unicode="x" horiz-adv-x="956" 
d="M956 983l-434 -483l287 -500h-70l-264 457l-418 -457h-82l469 510l-272 473h70l247 -434l385 434h82z" />
    <glyph glyph-name="y" unicode="y" horiz-adv-x="1130" 
d="M950 983h62l-178 -1008q-29 -167 -139.5 -265.5t-268.5 -98.5q-119 0 -219 59.5t-160 167.5l51 35q54 -97 140 -151t190 -54q134 0 226 83t118 229l27 151q-114 -151 -312 -151q-146 0 -236.5 86t-90.5 225q0 26 12 110l102 582h62l-105 -590q-10 -65 -10 -90
q0 -119 73.5 -192.5t197.5 -73.5q130 0 224 81.5t120 221.5z" />
    <glyph glyph-name="z" unicode="z" horiz-adv-x="915" 
d="M915 983l-4 -25l-811 -901h664l-10 -57h-762l4 25l811 901h-606l10 57h704z" />
    <glyph glyph-name="braceleft" unicode="{" horiz-adv-x="804" 
d="M756 1493h100l-10 -57h-92q-133 0 -192.5 -88t-59.5 -281v-152q0 -161 -36 -229t-128 -78q102 -30 102 -133q0 -38 -15 -87t-54 -152q-33 -88 -45.5 -123.5t-23.5 -81.5t-11 -80q0 -78 45 -120t131 -42h92l-8 -55h-86q-116 0 -177 54t-61 157q0 59 20 126.5t66 184.5
q37 90 51.5 135.5t14.5 79.5q0 113 -123 113h-115l11 57h114q103 0 138.5 55t35.5 219v152q0 226 74.5 326t241.5 100z" />
    <glyph glyph-name="bar" unicode="|" horiz-adv-x="679" 
d="M342 -248v1845h61v-1845h-61z" />
    <glyph glyph-name="braceright" unicode="}" horiz-adv-x="804" 
d="M592 641h115l-11 -57h-114q-103 0 -138.5 -55.5t-35.5 -219.5v-151q0 -225 -75 -325.5t-243 -100.5h-98l10 57h92q133 0 192.5 88t59.5 281v151q0 161 36 229t128 78q-102 30 -102 134q0 38 15 87t54 152q33 88 45.5 123.5t23.5 81.5t11 80q0 78 -45 120t-131 42h-92
l8 55h86q116 0 177 -54t61 -157q0 -60 -20 -129.5t-66 -181.5q-37 -90 -51.5 -135.5t-14.5 -79.5q0 -113 123 -113z" />
    <glyph glyph-name="asciitilde" unicode="~" 
d="M664 551l-179 119q-85 59 -135 59q-47 0 -72.5 -37t-33.5 -117h-60q18 211 164 211q44 0 77.5 -15.5t104.5 -61.5l179 -119q87 -60 135 -60q47 0 72.5 37t33.5 117h60q-18 -211 -164 -211q-44 0 -77 15.5t-105 62.5z" />
    <glyph glyph-name="uni00A0" unicode="&#xa0;" horiz-adv-x="573" 
 />
    <glyph glyph-name="exclamdown" unicode="&#xa1;" horiz-adv-x="555" 
d="M274 926q0 34 24.5 56t57.5 22q32 0 55 -22t23 -56q0 -36 -23 -59t-55 -23q-33 0 -57.5 23t-24.5 59zM90 -369l180 979h58l-158 -979h-80z" />
    <glyph glyph-name="cent" unicode="&#xa2;" horiz-adv-x="1134" 
d="M705 1122l-115 -901q98 2 188.5 42.5t159.5 113.5l41 -39q-75 -85 -181.5 -131.5t-215.5 -42.5l-45 -350h-64l45 356q-184 25 -298 156.5t-114 316.5q-2 107 42 208.5t118.5 174.5t175.5 116.5t207 41.5l45 354h64l-47 -358q106 -12 194.5 -65.5t143.5 -139.5l-52 -33
q-110 159 -292 180zM526 225l115 901q-126 0 -234 -65.5t-171.5 -176t-63.5 -237.5q0 -165 100 -284t254 -138z" />
    <glyph glyph-name="sterling" unicode="&#xa3;" horiz-adv-x="1011" 
d="M1032 1034l-67 -14q-19 139 -93.5 215t-193.5 76q-132 0 -219 -90q-84 -90 -84 -230q0 -78 47 -227q34 -109 45 -176h332l-11 -58h-315q2 -10 2 -43q0 -136 -63 -248.5t-179 -181.5h607l-11 -57h-776l4 25q172 75 262.5 191t90.5 263q0 41 -2 51h-240l10 58h221
q-9 60 -43 157q-51 155 -51 246q0 164 105.5 272.5t265.5 108.5q146 0 241 -90t115 -248z" />
    <glyph glyph-name="currency" unicode="&#xa4;" horiz-adv-x="1366" 
d="M1049 317l225 -245l-41 -39l-225 248q-143 -115 -328 -115q-99 0 -188.5 36.5t-155.5 104.5l-283 -274l-41 43l287 274q-102 132 -102 307q0 112 43 211.5t122 173.5l-206 238l41 37l209 -238q142 107 317 107q103 0 194 -39t158 -109l297 279l41 -43l-299 -279
q96 -134 96 -297q0 -107 -42.5 -206t-118.5 -175zM680 225q122 -3 231 62t173 175.5t61 233.5q0 183 -121.5 306.5t-300.5 123.5q-192 0 -326.5 -137t-134.5 -332q0 -184 121 -308t297 -124z" />
    <glyph glyph-name="yen" unicode="&#xa5;" horiz-adv-x="1056" 
d="M1184 1352l-586 -658h424l-10 -57h-424l-45 -248h426l-11 -57h-426l-57 -332h-65l57 332h-420l10 57h420l45 248h-422l11 57h421v2l-356 656h66l329 -604l533 604h80z" />
    <glyph glyph-name="brokenbar" unicode="&#xa6;" horiz-adv-x="679" 
d="M342 983v614h61v-614h-61zM342 -248v615h61v-615h-61z" />
    <glyph glyph-name="section" unicode="&#xa7;" horiz-adv-x="1118" 
d="M1006 373q0 -115 -84.5 -190t-221.5 -83q7 -28 7 -53q0 -110 -85.5 -189t-205.5 -79q-88 0 -165 46t-126 130l49 35q44 -73 108 -113.5t136 -40.5q94 0 158.5 59.5t64.5 149.5q0 60 -31.5 116.5t-103.5 125.5l-191 186q-172 166 -172 303q0 115 84 191t219 84
q-6 24 -6 53q0 110 85.5 189t205.5 79q88 0 165 -46t126 -130l-49 -35q-44 73 -108 113.5t-136 40.5q-94 0 -158.5 -59.5t-64.5 -149.5q0 -60 31.5 -116.5t103.5 -125.5l190 -186q93 -91 134 -162.5t41 -142.5zM940 371q0 59 -34.5 119.5t-110.5 136.5l-203 198
q-91 88 -127 168q-117 -6 -186.5 -63.5t-69.5 -149.5q0 -61 34 -121.5t109 -134.5l203 -198q90 -87 127 -168q118 6 188 63.5t70 149.5z" />
    <glyph glyph-name="dieresis" unicode="&#xa8;" horiz-adv-x="1024" 
d="M391 1364q0 29 20.5 49.5t49.5 20.5t49 -20.5t20 -49.5t-20 -49.5t-49 -20.5t-49.5 20.5t-20.5 49.5zM803 1364q0 29 20 49.5t49 20.5t49.5 -20.5t20.5 -49.5t-20.5 -49.5t-49.5 -20.5t-49 20.5t-20 49.5z" />
    <glyph glyph-name="copyright" unicode="&#xa9;" horiz-adv-x="1624" 
d="M156 647q-3 140 57 275t159 234t233 159t272 57q105 2 205.5 -32t182 -97t143 -145.5t95 -184.5t31.5 -208q3 -140 -57 -275t-159 -234t-233 -159t-272 -57q-131 -2 -254 51.5t-211.5 144t-141 215t-50.5 256.5zM1470 705q2 121 -45.5 235t-128.5 196.5t-192 131.5
t-230 47q-128 2 -250 -52.5t-211.5 -145.5t-143 -215t-50.5 -255q-3 -162 77.5 -304t219.5 -225.5t299 -80.5q128 -2 250 52.5t211.5 145.5t143 215t50.5 255zM444 655q0 115 58.5 214t158.5 157.5t216 58.5q96 0 178.5 -45t136.5 -127l-47 -34q-47 72 -117.5 110.5
t-155.5 38.5q-152 0 -257 -110t-105 -267q0 -138 94.5 -232.5t229.5 -94.5q157 0 270 122l39 -36q-128 -144 -314 -144q-162 0 -273.5 112.5t-111.5 276.5z" />
    <glyph glyph-name="ordfeminine" unicode="&#xaa;" horiz-adv-x="864" 
d="M762 1118h59l-108 -618h-60l21 116q-37 -60 -104 -95.5t-146 -35.5q-120 0 -201 84q-80 86 -80 213q0 146 100.5 249.5t241.5 103.5q90 0 157.5 -46t92.5 -120zM709 850q0 100 -62 162.5t-162 62.5q-113 0 -195.5 -85.5t-82.5 -203.5q0 -106 65.5 -174.5t167.5 -68.5
q111 0 190 90t79 217z" />
    <glyph glyph-name="guillemotleft" unicode="&#xab;" horiz-adv-x="872" 
d="M375 186l-273 353l4 24l392 352l41 -45l-357 -325l242 -324zM680 186l-272 353l4 24l391 352l41 -45l-357 -325l242 -324z" />
    <glyph glyph-name="logicalnot" unicode="&#xac;" 
d="M831 182l76 422h-751l10 58h813l-86 -480h-62z" />
    <glyph glyph-name="uni00AD" unicode="&#xad;" horiz-adv-x="696" 
d="M143 604l11 58h450l-10 -58h-451z" />
    <glyph glyph-name="registered" unicode="&#xae;" horiz-adv-x="1167" 
d="M1133 911q2 -95 -39 -187t-109.5 -159.5t-161.5 -108t-190 -38.5q-189 0 -323 132.5t-134 321.5q-3 127 66.5 243t187 185t246.5 66q189 0 323 -133t134 -322zM1073 913q0 166 -115 281t-282 115q-118 0 -219.5 -59t-161 -160t-59.5 -218q0 -167 114.5 -282t280.5 -115
q115 -3 218.5 58t164.5 164t59 216zM737 856l133 -221h-73l-127 213h-129l-37 -213h-62l88 514h191q63 0 104 -40t41 -103q0 -57 -34 -97t-95 -53zM582 1094l-33 -191h127q60 0 93.5 27t33.5 74q0 42 -25 66t-69 24h-127z" />
    <glyph glyph-name="overscore" unicode="&#xaf;" horiz-adv-x="1024" 
d="M403 1337l11 58h516l-10 -58h-517z" />
    <glyph glyph-name="degree" unicode="&#xb0;" horiz-adv-x="739" 
d="M180 1075q0 121 89 209t212 88q118 0 201.5 -82t83.5 -198q0 -122 -89.5 -209.5t-213.5 -87.5q-120 0 -201.5 80.5t-81.5 199.5zM698 1092q0 94 -62 158.5t-153 64.5q-94 0 -166 -72q-69 -69 -69 -168q0 -94 62.5 -158.5t154.5 -64.5q97 0 164 70q69 69 69 170z" />
    <glyph glyph-name="plusminus" unicode="&#xb1;" 
d="M500 248l67 387h-387l10 57h388l69 387h62l-70 -387h385l-10 -57h-385l-68 -387h-61zM70 0l10 57h833l-10 -57h-833z" />
    <glyph glyph-name="uni00B2" unicode="&#xb2;" horiz-adv-x="735" 
d="M528 1022l-268 -219h447l-11 -58h-575l4 19l367 301q106 87 155 160.5t49 148.5q0 82 -49 130t-131 48q-92 0 -150.5 -65t-58.5 -168q0 -31 2 -39h-63q-2 6 -2 41q0 125 78 207t196 82q109 0 176.5 -64t67.5 -168q0 -87 -54.5 -170t-179.5 -186z" />
    <glyph glyph-name="uni00B3" unicode="&#xb3;" horiz-adv-x="718" 
d="M788 1597l-4 -20l-295 -307q98 -12 161 -80.5t63 -165.5q0 -124 -88 -207.5t-217 -83.5q-194 0 -279 189l51 28q70 -162 228 -162q104 0 171.5 65.5t67.5 168.5q0 91 -61.5 144t-167.5 53h-41l4 20l289 301h-383l10 57h491z" />
    <glyph glyph-name="acute" unicode="&#xb4;" horiz-adv-x="1024" 
d="M487 1151l275 446h82v-10l-297 -436h-60z" />
    <glyph glyph-name="uni00B5" unicode="&#xb5;" horiz-adv-x="1183" 
d="M1055 43l-11 -53q-24 -8 -59 -8q-69 0 -113.5 42t-44.5 121q-56 -80 -138.5 -122.5t-182.5 -42.5q-108 0 -187 48.5t-110 133.5l-94 -531h-62l240 1352h61l-104 -590q-10 -65 -10 -90q0 -121 73.5 -193.5t196.5 -72.5q129 0 224 83.5t120 219.5l115 643h61l-131 -741
q-10 -65 -10 -95q0 -54 28.5 -81t79.5 -27q12 0 58 4z" />
    <glyph glyph-name="paragraph" unicode="&#xb6;" horiz-adv-x="1271" 
d="M178 936q0 184 132 300t339 116h125v-840h-125q-205 0 -338 119.5t-133 304.5zM524 -369v58q93 -19 138 -19q110 0 168.5 56.5t58.5 185.5v1440h61v-1440q0 -154 -74 -227.5t-208 -73.5q-71 0 -144 20z" />
    <glyph glyph-name="middot" unicode="&#xb7;" horiz-adv-x="575" 
d="M233 631q0 36 23 59t55 23q34 0 58 -22.5t24 -59.5q0 -34 -24.5 -56t-57.5 -22q-32 0 -55 22t-23 56z" />
    <glyph glyph-name="cedilla" unicode="&#xb8;" horiz-adv-x="1024" 
d="M180 -360l10 53q97 -23 136 -23q84 0 135 48t51 126q0 45 -17.5 78.5t-64.5 77.5l29 20q116 -63 116 -184q0 -95 -71 -160t-172 -65q-67 0 -152 29z" />
    <glyph glyph-name="uni00B9" unicode="&#xb9;" horiz-adv-x="698" 
d="M152 745l10 58h227l129 737h-229l10 57h291l-139 -794h206l-10 -58h-495z" />
    <glyph glyph-name="ordmasculine" unicode="&#xba;" horiz-adv-x="821" 
d="M143 793q0 139 102.5 240.5t241.5 101.5q128 0 216 -88.5t88 -217.5q0 -139 -103 -240.5t-244 -101.5q-129 0 -215 88.5t-86 217.5zM727 827q0 109 -70 179q-71 71 -172 71q-115 0 -195.5 -82.5t-80.5 -201.5q0 -106 67.5 -177t169.5 -71q115 0 198 83t83 199z" />
    <glyph glyph-name="guillemotright" unicode="&#xbb;" horiz-adv-x="874" 
d="M397 186l-41 45l357 326l-242 324l49 34l273 -352l-5 -24zM92 186l-41 45l357 326l-242 324l49 34l272 -352l-4 -24z" />
    <glyph glyph-name="onequarter" unicode="&#xbc;" horiz-adv-x="1787" 
d="M109 500l10 57h227l129 737h-229l10 58h291l-139 -795h206l-10 -57h-495zM442 0l1014 1352h68l-1014 -1352h-68zM1698 225l-10 -57h-134l-28 -168h-64l29 168h-428l4 20l397 664h70l-379 -627h346l55 310h64l-55 -310h133z" />
    <glyph glyph-name="onehalf" unicode="&#xbd;" horiz-adv-x="1865" 
d="M109 500l10 57h227l129 737h-229l10 58h291l-139 -795h206l-10 -57h-495zM442 0l1014 1352h68l-1014 -1352h-68zM1528 276l-268 -219h446l-10 -57h-576l4 18l367 301q106 87 155.5 161t49.5 149q0 82 -49 130t-131 48q-92 0 -150.5 -65.5t-58.5 -168.5q0 -30 2 -38h-64
q-2 6 -2 40q0 125 78.5 207t196.5 82q109 0 176 -63.5t67 -167.5q0 -88 -54.5 -171t-178.5 -186z" />
    <glyph glyph-name="threequarters" unicode="&#xbe;" horiz-adv-x="1736" 
d="M745 1352l-4 -21l-295 -307q98 -12 161 -80.5t63 -165.5q0 -124 -88 -207.5t-217 -83.5q-194 0 -279 189l51 29q70 -162 228 -162q105 0 172 65.5t67 167.5q0 91 -61.5 144t-167.5 53h-41l4 20l289 301h-383l10 58h491zM391 0l1014 1352h68l-1014 -1352h-68zM1647 225
l-11 -57h-133l-28 -168h-64l29 168h-428l4 20l397 664h70l-379 -627h346l55 310h64l-56 -310h134z" />
    <glyph glyph-name="questiondown" unicode="&#xbf;" horiz-adv-x="901" 
d="M459 924q0 35 24 57.5t56 22.5q33 0 56 -22t23 -58q0 -35 -23.5 -57.5t-55.5 -22.5t-56 23t-24 57zM12 -104q2 75 24.5 126t77 110.5t181.5 172.5q98 85 135 148q34 58 49 139h62q-12 -97 -56 -168q-46 -75 -153 -166q-120 -107 -166 -155.5t-65.5 -90.5t-22.5 -108
q0 -108 64.5 -172t170.5 -64q188 0 293 205l53 -27q-57 -112 -149 -173.5t-203 -61.5q-131 0 -213 79t-82 206z" />
    <glyph glyph-name="Agrave" unicode="&#xc0;" horiz-adv-x="1363" 
d="M1130 0l-88 360h-741l-211 -360h-74l815 1372h31l332 -1372h-64zM1030 418l-203 833l-493 -833h696zM827 1483l-151 370v11h74l129 -381h-52z" />
    <glyph glyph-name="Aacute" unicode="&#xc1;" horiz-adv-x="1363" 
d="M1130 0l-88 360h-741l-211 -360h-74l815 1372h31l332 -1372h-64zM1030 418l-203 833l-493 -833h696zM819 1483l258 381h82l-2 -11l-283 -370h-55z" />
    <glyph glyph-name="Acircumflex" unicode="&#xc2;" horiz-adv-x="1363" 
d="M1130 0l-88 360h-741l-211 -360h-74l815 1372h31l332 -1372h-64zM1030 418l-203 833l-493 -833h696zM1161 1483h-51l-207 299l-309 -299h-62l367 381h31z" />
    <glyph glyph-name="Atilde" unicode="&#xc3;" horiz-adv-x="1363" 
d="M1130 0l-88 360h-741l-211 -360h-74l815 1372h31l332 -1372h-64zM1030 418l-203 833l-493 -833h696zM891 1604l-66 53q-32 25 -49 34t-39 9q-41 0 -62 -31.5t-32 -103.5h-59q11 94 46 143t105 49q39 0 63.5 -12.5t65.5 -46.5l64 -53q52 -43 90 -43q41 0 62 31.5t32 103.5
h59q-21 -193 -155 -193q-34 0 -59 13t-66 47z" />
    <glyph glyph-name="Adieresis" unicode="&#xc4;" horiz-adv-x="1363" 
d="M1130 0l-88 360h-741l-211 -360h-74l815 1372h31l332 -1372h-64zM1030 418l-203 833l-493 -833h696zM582 1651q0 29 20 49t49 20t49.5 -20t20.5 -49t-20.5 -49.5t-49.5 -20.5t-49 20.5t-20 49.5zM1034 1651q0 29 20.5 49t49.5 20t49.5 -20t20.5 -49t-20.5 -49.5
t-49.5 -20.5t-49.5 20.5t-20.5 49.5z" />
    <glyph glyph-name="Aring" unicode="&#xc5;" horiz-adv-x="1363" 
d="M1130 0l-88 360h-741l-211 -360h-74l815 1372h31l332 -1372h-64zM1030 418l-203 833l-493 -833h696zM682 1657q0 84 61 145q65 62 152 62q81 0 136.5 -55t55.5 -134q0 -84 -63 -147q-62 -62 -150 -62q-80 0 -136 56t-56 135zM1024 1671q0 57 -38 96t-95 39
q-60 0 -103 -43t-43 -104q0 -57 38 -96t94 -39q61 0 104 43.5t43 103.5z" />
    <glyph glyph-name="AE" unicode="&#xc6;" horiz-adv-x="1632" 
d="M1663 1294h-707l2 -530h449l-10 -57h-439l3 -650h512l-11 -57h-565v360h-618l-250 -360h-74l940 1352h778zM897 418l-2 829l-576 -829h578z" />
    <glyph glyph-name="Ccedilla" unicode="&#xc7;" horiz-adv-x="1452" 
d="M152 621q-3 146 57.5 285.5t162.5 242.5t240.5 164.5t284.5 58.5q168 0 304 -76t218 -215l-53 -37q-79 128 -200.5 197.5t-272.5 69.5q-175 4 -332.5 -91t-250.5 -256t-89 -341q-3 -163 71 -297.5t205 -211t289 -73.5q141 0 271 57.5t227 161.5l45 -41
q-105 -115 -248.5 -177t-298.5 -62q-174 -3 -320 81.5t-229.5 233t-80.5 326.5zM430 -360l10 53q97 -23 135 -23q85 0 136 48t51 126q0 45 -17.5 78.5t-64.5 77.5l29 20q116 -63 116 -184q0 -95 -71 -160t-172 -65q-67 0 -152 29z" />
    <glyph glyph-name="Egrave" unicode="&#xc8;" horiz-adv-x="1150" 
d="M125 0l237 1352h832l-10 -58h-766l-94 -530h602l-8 -57h-603l-114 -650h790l-10 -57h-856zM770 1483l-152 370v11h74l129 -381h-51z" />
    <glyph glyph-name="Eacute" unicode="&#xc9;" horiz-adv-x="1150" 
d="M125 0l237 1352h832l-10 -58h-766l-94 -530h602l-8 -57h-603l-114 -650h790l-10 -57h-856zM762 1483l258 381h82l-2 -11l-283 -370h-55z" />
    <glyph glyph-name="Ecircumflex" unicode="&#xca;" horiz-adv-x="1150" 
d="M125 0l237 1352h832l-10 -58h-766l-94 -530h602l-8 -57h-603l-114 -650h790l-10 -57h-856zM1104 1483h-51l-207 299l-309 -299h-62l367 381h30z" />
    <glyph glyph-name="Edieresis" unicode="&#xcb;" horiz-adv-x="1150" 
d="M125 0l237 1352h832l-10 -58h-766l-94 -530h602l-8 -57h-603l-114 -650h790l-10 -57h-856zM524 1651q0 29 20.5 49t49.5 20t49.5 -20t20.5 -49t-20.5 -49.5t-49.5 -20.5t-49.5 20.5t-20.5 49.5zM977 1651q0 29 20.5 49t49.5 20t49 -20t20 -49t-20 -49.5t-49 -20.5
t-49.5 20.5t-20.5 49.5z" />
    <glyph glyph-name="Igrave" unicode="&#xcc;" horiz-adv-x="487" 
d="M125 0l237 1352h66l-238 -1352h-65zM397 1483l-151 370v11h73l130 -381h-52z" />
    <glyph glyph-name="Iacute" unicode="&#xcd;" horiz-adv-x="487" 
d="M125 0l237 1352h66l-238 -1352h-65zM389 1483l258 381h82l-2 -11l-283 -370h-55z" />
    <glyph glyph-name="Icircumflex" unicode="&#xce;" horiz-adv-x="487" 
d="M125 0l237 1352h66l-238 -1352h-65zM731 1483h-51l-207 299l-309 -299h-62l367 381h31z" />
    <glyph glyph-name="Idieresis" unicode="&#xcf;" horiz-adv-x="487" 
d="M125 0l237 1352h66l-238 -1352h-65zM152 1651q0 29 20 49t49 20t49.5 -20t20.5 -49t-20.5 -49.5t-49.5 -20.5t-49 20.5t-20 49.5zM604 1651q0 29 20.5 49t49.5 20t49 -20t20 -49t-20 -49.5t-49 -20.5t-49.5 20.5t-20.5 49.5z" />
    <glyph glyph-name="Eth" unicode="&#xd0;" horiz-adv-x="1435" 
d="M1350 733q3 -211 -100.5 -380t-290.5 -262.5t-422 -90.5h-412l102 588h-211l11 57h211l124 707h306q306 0 494 -170.5t188 -448.5zM1280 733q0 254 -167.5 407.5t-448.5 153.5h-246l-115 -649h309l-10 -57h-307l-94 -533h340q159 -2 297.5 48t236 139.5t152.5 216.5
t53 274z" />
    <glyph glyph-name="Ntilde" unicode="&#xd1;" horiz-adv-x="1441" 
d="M1317 1352h65l-241 -1372h-31l-707 1247l-213 -1227h-65l242 1372h30l705 -1255zM938 1604l-66 53q-32 25 -49 34t-39 9q-41 0 -62 -31.5t-32 -103.5h-59q11 94 46 143t105 49q38 0 63 -12.5t66 -46.5l64 -53q52 -43 90 -43q41 0 62 31.5t32 103.5h60q-21 -193 -156 -193
q-34 0 -59 13t-66 47z" />
    <glyph glyph-name="Ograve" unicode="&#xd2;" horiz-adv-x="1605" 
d="M152 623q-4 147 56.5 286.5t161.5 241.5t239.5 163t283.5 58q174 3 319.5 -81.5t228 -233t79.5 -326.5q4 -148 -56.5 -288t-162 -242t-240 -163t-283.5 -58q-172 -3 -317.5 82t-228.5 234t-80 327zM1450 731q3 161 -70.5 295t-203 210t-285.5 73q-132 2 -256.5 -53.5
t-216 -148.5t-146 -221t-51.5 -263q-2 -162 71 -296t202.5 -210.5t285.5 -73.5q131 -3 255.5 53t216 150t146 222t52.5 263zM956 1483l-151 370v11h74l129 -381h-52z" />
    <glyph glyph-name="Oacute" unicode="&#xd3;" horiz-adv-x="1605" 
d="M152 623q-4 147 56.5 286.5t161.5 241.5t239.5 163t283.5 58q174 3 319.5 -81.5t228 -233t79.5 -326.5q4 -148 -56.5 -288t-162 -242t-240 -163t-283.5 -58q-172 -3 -317.5 82t-228.5 234t-80 327zM1450 731q3 161 -70.5 295t-203 210t-285.5 73q-132 2 -256.5 -53.5
t-216 -148.5t-146 -221t-51.5 -263q-2 -162 71 -296t202.5 -210.5t285.5 -73.5q131 -3 255.5 53t216 150t146 222t52.5 263zM948 1483l258 381h82l-2 -11l-282 -370h-56z" />
    <glyph glyph-name="Ocircumflex" unicode="&#xd4;" horiz-adv-x="1605" 
d="M152 623q-4 147 56.5 286.5t161.5 241.5t239.5 163t283.5 58q174 3 319.5 -81.5t228 -233t79.5 -326.5q4 -148 -56.5 -288t-162 -242t-240 -163t-283.5 -58q-172 -3 -317.5 82t-228.5 234t-80 327zM1450 731q3 161 -70.5 295t-203 210t-285.5 73q-132 2 -256.5 -53.5
t-216 -148.5t-146 -221t-51.5 -263q-2 -162 71 -296t202.5 -210.5t285.5 -73.5q131 -3 255.5 53t216 150t146 222t52.5 263zM1290 1483h-51l-207 299l-309 -299h-61l366 381h31z" />
    <glyph glyph-name="Otilde" unicode="&#xd5;" horiz-adv-x="1605" 
d="M152 623q-4 147 56.5 286.5t161.5 241.5t239.5 163t283.5 58q174 3 319.5 -81.5t228 -233t79.5 -326.5q4 -148 -56.5 -288t-162 -242t-240 -163t-283.5 -58q-172 -3 -317.5 82t-228.5 234t-80 327zM1450 731q3 161 -70.5 295t-203 210t-285.5 73q-132 2 -256.5 -53.5
t-216 -148.5t-146 -221t-51.5 -263q-2 -162 71 -296t202.5 -210.5t285.5 -73.5q131 -3 255.5 53t216 150t146 222t52.5 263zM1020 1604l-66 53q-32 25 -49 34t-39 9q-41 0 -62 -31.5t-32 -103.5h-59q11 94 46 143t105 49q38 0 63 -12.5t66 -46.5l64 -53q52 -43 90 -43
q41 0 62 31.5t32 103.5h59q-21 -193 -155 -193q-34 0 -59 13t-66 47z" />
    <glyph glyph-name="Odieresis" unicode="&#xd6;" horiz-adv-x="1605" 
d="M152 623q-4 147 56.5 286.5t161.5 241.5t239.5 163t283.5 58q174 3 319.5 -81.5t228 -233t79.5 -326.5q4 -148 -56.5 -288t-162 -242t-240 -163t-283.5 -58q-172 -3 -317.5 82t-228.5 234t-80 327zM1450 731q3 161 -70.5 295t-203 210t-285.5 73q-132 2 -256.5 -53.5
t-216 -148.5t-146 -221t-51.5 -263q-2 -162 71 -296t202.5 -210.5t285.5 -73.5q131 -3 255.5 53t216 150t146 222t52.5 263zM711 1651q0 29 20 49t49 20t49.5 -20t20.5 -49t-20.5 -49.5t-49.5 -20.5t-49 20.5t-20 49.5zM1163 1651q0 29 20.5 49t49.5 20t49.5 -20t20.5 -49
t-20.5 -49.5t-49.5 -20.5t-49.5 20.5t-20.5 49.5z" />
    <glyph glyph-name="multiply" unicode="&#xd7;" 
d="M883 242l-289 350l-381 -322l-37 43l381 322l-291 348l47 39l289 -348l379 319l37 -43l-381 -319l291 -350z" />
    <glyph glyph-name="Oslash" unicode="&#xd8;" horiz-adv-x="1581" 
d="M1552 1329l-186 -178q143 -176 143 -420q4 -146 -57 -285.5t-163 -242.5t-241 -164.5t-284 -58.5q-264 0 -440 176l-187 -176l-41 43l189 178q-146 179 -146 422q-3 146 58 286t163 242.5t240.5 163.5t282.5 57q266 0 442 -176l186 176zM209 623q0 -219 123 -375l946 901
q-75 78 -178 120t-221 42q-132 2 -256.5 -53.5t-216 -149t-146 -222t-51.5 -263.5zM1440 731q0 219 -123 373l-946 -901q74 -78 176.5 -120t220.5 -42q175 -4 332.5 92t250.5 257.5t89 340.5z" />
    <glyph glyph-name="Ugrave" unicode="&#xd9;" horiz-adv-x="1390" 
d="M190 432q0 46 11 117l139 803h66l-142 -809q-8 -41 -8 -105q0 -175 114 -286t294 -111t305 113q126 111 161 301l154 897h66l-156 -903q-38 -217 -182 -343t-348 -126q-207 0 -340.5 127t-133.5 325zM848 1483l-152 370v11h74l129 -381h-51z" />
    <glyph glyph-name="Uacute" unicode="&#xda;" horiz-adv-x="1390" 
d="M190 432q0 46 11 117l139 803h66l-142 -809q-8 -41 -8 -105q0 -175 114 -286t294 -111t305 113q126 111 161 301l154 897h66l-156 -903q-38 -217 -182 -343t-348 -126q-207 0 -340.5 127t-133.5 325zM840 1483l258 381h82l-2 -11l-283 -370h-55z" />
    <glyph glyph-name="Ucircumflex" unicode="&#xdb;" horiz-adv-x="1390" 
d="M190 432q0 46 11 117l139 803h66l-142 -809q-8 -41 -8 -105q0 -175 114 -286t294 -111t305 113q126 111 161 301l154 897h66l-156 -903q-38 -217 -182 -343t-348 -126q-207 0 -340.5 127t-133.5 325zM1182 1483h-52l-206 299l-310 -299h-61l367 381h30z" />
    <glyph glyph-name="Udieresis" unicode="&#xdc;" horiz-adv-x="1390" 
d="M190 432q0 46 11 117l139 803h66l-142 -809q-8 -41 -8 -105q0 -175 114 -286t294 -111t305 113q126 111 161 301l154 897h66l-156 -903q-38 -217 -182 -343t-348 -126q-207 0 -340.5 127t-133.5 325zM602 1651q0 29 20.5 49t49.5 20t49 -20t20 -49t-20 -49.5t-49 -20.5
t-49.5 20.5t-20.5 49.5zM1055 1651q0 29 20 49t49 20t49.5 -20t20.5 -49t-20.5 -49.5t-49.5 -20.5t-49 20.5t-20 49.5z" />
    <glyph glyph-name="Yacute" unicode="&#xdd;" horiz-adv-x="1249" 
d="M1268 1352l-606 -768l-103 -584h-65l102 588l-336 764h64l311 -709l557 709h76zM756 1483l258 381h82l-2 -11l-283 -370h-55z" />
    <glyph glyph-name="Thorn" unicode="&#xde;" horiz-adv-x="1138" 
d="M1083 739q0 -174 -124 -284.5t-320 -110.5h-387l-62 -344h-65l237 1352h66l-47 -273h330q172 0 272 -91t100 -249zM1014 739q0 134 -83.5 208.5t-232.5 74.5h-327l-111 -621h375q172 0 275.5 92t103.5 246z" />
    <glyph glyph-name="germandbls" unicode="&#xdf;" horiz-adv-x="1191" 
d="M432 164l45 37q68 -88 136 -126t159 -38q111 0 179.5 53t68.5 139q0 55 -33 88q-49 49 -133 107q-95 66 -139 113q-37 40 -37 96q0 31 12 69q21 54 60 127l143 285q59 121 59 203q0 84 -58.5 133t-158.5 49q-134 0 -229 -91.5t-121 -248.5l-203 -1159h-61l203 1161
q30 178 145 287q117 108 274 108q123 0 199 -64.5t76 -170.5q0 -96 -66 -225l-147 -289q-38 -77 -51 -110t-13 -58q0 -38 30 -71.5t116 -94.5l78 -55q120 -81 120 -187q0 -107 -92 -179t-227 -72q-199 0 -334 184z" />
    <glyph glyph-name="agrave" unicode="&#xe0;" horiz-adv-x="1294" 
d="M1114 983h62l-175 -983h-61l35 195q-62 -100 -170.5 -157.5t-237.5 -57.5q-189 0 -319.5 138t-130.5 339q-3 145 69.5 272t196.5 202t266 73q146 0 264 -80q114 -78 156 -201zM649 946q-91 2 -178 -38t-151 -107t-102 -157.5t-36 -184.5q0 -180 113 -301t283 -121
q119 -3 226 68.5t170 192t60 253.5q0 179 -106 285q-104 110 -279 110zM692 1151l-69 436l4 10h67l45 -446h-47z" />
    <glyph glyph-name="aacute" unicode="&#xe1;" horiz-adv-x="1294" 
d="M1114 983h62l-175 -983h-61l35 195q-62 -100 -170.5 -157.5t-237.5 -57.5q-189 0 -319.5 138t-130.5 339q-3 145 69.5 272t196.5 202t266 73q146 0 264 -80q114 -78 156 -201zM649 946q-91 2 -178 -38t-151 -107t-102 -157.5t-36 -184.5q0 -180 113 -301t283 -121
q119 -3 226 68.5t170 192t60 253.5q0 179 -106 285q-104 110 -279 110zM659 1151l275 446h82v-10l-297 -436h-60z" />
    <glyph glyph-name="acircumflex" unicode="&#xe2;" horiz-adv-x="1294" 
d="M1114 983h62l-175 -983h-61l35 195q-62 -100 -170.5 -157.5t-237.5 -57.5q-189 0 -319.5 138t-130.5 339q-3 145 69.5 272t196.5 202t266 73q146 0 264 -80q114 -78 156 -201zM649 946q-91 2 -178 -38t-151 -107t-102 -157.5t-36 -184.5q0 -180 113 -301t283 -121
q119 -3 226 68.5t170 192t60 253.5q0 179 -106 285q-104 110 -279 110zM1004 1151h-52l-178 352l-299 -352h-59l356 446h31z" />
    <glyph glyph-name="atilde" unicode="&#xe3;" horiz-adv-x="1294" 
d="M1114 983h62l-175 -983h-61l35 195q-62 -100 -170.5 -157.5t-237.5 -57.5q-189 0 -319.5 138t-130.5 339q-3 145 69.5 272t196.5 202t266 73q146 0 264 -80q114 -78 156 -201zM649 946q-91 2 -178 -38t-151 -107t-102 -157.5t-36 -184.5q0 -180 113 -301t283 -121
q119 -3 226 68.5t170 192t60 253.5q0 179 -106 285q-104 110 -279 110zM748 1315l-41 55q-39 51 -82 51q-42 0 -63 -33.5t-32 -109.5h-59q11 98 46.5 149.5t105.5 51.5q72 0 122 -68l41 -55q39 -51 82 -51q42 0 63 33.5t32 109.5h59q-11 -98 -46.5 -149.5t-105.5 -51.5
q-72 0 -122 68z" />
    <glyph glyph-name="adieresis" unicode="&#xe4;" horiz-adv-x="1294" 
d="M1114 983h62l-175 -983h-61l35 195q-62 -100 -170.5 -157.5t-237.5 -57.5q-189 0 -319.5 138t-130.5 339q-3 145 69.5 272t196.5 202t266 73q146 0 264 -80q114 -78 156 -201zM649 946q-91 2 -178 -38t-151 -107t-102 -157.5t-36 -184.5q0 -180 113 -301t283 -121
q119 -3 226 68.5t170 192t60 253.5q0 179 -106 285q-104 110 -279 110zM469 1364q0 29 20.5 49.5t49.5 20.5t49 -20.5t20 -49.5t-20 -49.5t-49 -20.5t-49.5 20.5t-20.5 49.5zM881 1364q0 29 20 49.5t49 20.5t49.5 -20.5t20.5 -49.5t-20.5 -49.5t-49.5 -20.5t-49 20.5
t-20 49.5z" />
    <glyph glyph-name="aring" unicode="&#xe5;" horiz-adv-x="1294" 
d="M1114 983h62l-175 -983h-61l35 195q-62 -100 -170.5 -157.5t-237.5 -57.5q-189 0 -319.5 138t-130.5 339q-3 145 69.5 272t196.5 202t266 73q146 0 264 -80q114 -78 156 -201zM649 946q-91 2 -178 -38t-151 -107t-102 -157.5t-36 -184.5q0 -180 113 -301t283 -121
q119 -3 226 68.5t170 192t60 253.5q0 179 -106 285q-104 110 -279 110zM549 1356q0 84 61 145q65 62 152 62q81 0 136.5 -55t55.5 -134q0 -84 -63 -147q-62 -62 -150 -62q-80 0 -136 56t-56 135zM891 1370q0 57 -38 96t-95 39q-60 0 -103 -43t-43 -104q0 -57 38 -96t93 -39
q61 0 104.5 43.5t43.5 103.5z" />
    <glyph glyph-name="ae" unicode="&#xe6;" horiz-adv-x="1845" 
d="M1724 469h-845v-16q0 -182 113 -299t290 -117q100 0 191.5 40t158.5 113l39 -38q-74 -82 -176.5 -127t-214.5 -45q-158 0 -278 86t-164 229q-44 -148 -162.5 -231.5t-282.5 -83.5q-148 0 -237.5 70t-89.5 186q0 134 104.5 212t282.5 78h362l12 76q9 50 9 70
q0 127 -74.5 200.5t-202.5 73.5q-85 0 -158 -34.5t-151 -112.5l-37 41q154 164 352 164q135 0 221 -69.5t105 -191.5q70 119 186.5 188.5t251.5 69.5q180 0 296 -113t116 -290q0 -49 -17 -129zM883 526h788l4 74q0 154 -96.5 249t-251.5 95q-172 0 -295.5 -118t-148.5 -300z
M788 362l17 107h-361q-150 0 -230.5 -58t-80.5 -167q0 -96 70.5 -151.5t189.5 -55.5q149 0 262 90q112 93 133 235z" />
    <glyph glyph-name="ccedilla" unicode="&#xe7;" horiz-adv-x="1136" 
d="M119 463q-2 108 40.5 209t115.5 174t172.5 116.5t205.5 41.5q128 0 231.5 -53.5t166.5 -151.5l-50 -35q-57 87 -147 133.5t-199 46.5q-94 2 -182 -36t-152 -102.5t-101.5 -153.5t-35.5 -185q0 -185 117 -306.5t295 -121.5q100 0 190 39.5t156 111.5l41 -38
q-147 -172 -385 -172q-205 0 -342 138t-137 345zM238 -360l10 53q97 -23 135 -23q84 0 135 48t51 126q0 45 -17.5 78.5t-64.5 77.5l29 20q57 -31 87 -79t30 -105q0 -94 -72 -160q-71 -65 -172 -65q-66 0 -151 29z" />
    <glyph glyph-name="egrave" unicode="&#xe8;" horiz-adv-x="1157" 
d="M1036 485h-852v-22q0 -186 115 -306t295 -120q100 0 191.5 40t158.5 113l39 -38q-74 -82 -176.5 -127t-214.5 -45q-203 0 -338 137t-135 344q-2 107 40.5 208.5t113.5 175.5t168 117.5t198 41.5q180 0 297 -113.5t117 -288.5q0 -64 -17 -117zM190 543h795q2 14 2 57
q0 154 -96.5 250t-251.5 96q-168 0 -296 -116t-153 -287zM643 1151l-70 436l5 10h67l45 -446h-47z" />
    <glyph glyph-name="eacute" unicode="&#xe9;" horiz-adv-x="1157" 
d="M1036 485h-852v-22q0 -186 115 -306t295 -120q100 0 191.5 40t158.5 113l39 -38q-74 -82 -176.5 -127t-214.5 -45q-203 0 -338 137t-135 344q-2 107 40.5 208.5t113.5 175.5t168 117.5t198 41.5q180 0 297 -113.5t117 -288.5q0 -64 -17 -117zM190 543h795q2 14 2 57
q0 154 -96.5 250t-251.5 96q-168 0 -296 -116t-153 -287zM610 1151l275 446h82v-10l-297 -436h-60z" />
    <glyph glyph-name="ecircumflex" unicode="&#xea;" horiz-adv-x="1157" 
d="M1036 485h-852v-22q0 -186 115 -306t295 -120q100 0 191.5 40t158.5 113l39 -38q-74 -82 -176.5 -127t-214.5 -45q-203 0 -338 137t-135 344q-2 107 40.5 208.5t113.5 175.5t168 117.5t198 41.5q180 0 297 -113.5t117 -288.5q0 -64 -17 -117zM190 543h795q2 14 2 57
q0 154 -96.5 250t-251.5 96q-168 0 -296 -116t-153 -287zM954 1151h-51l-178 352l-299 -352h-59l356 446h31z" />
    <glyph glyph-name="edieresis" unicode="&#xeb;" horiz-adv-x="1157" 
d="M1036 485h-852v-22q0 -186 115 -306t295 -120q100 0 191.5 40t158.5 113l39 -38q-74 -82 -176.5 -127t-214.5 -45q-203 0 -338 137t-135 344q-2 107 40.5 208.5t113.5 175.5t168 117.5t198 41.5q180 0 297 -113.5t117 -288.5q0 -64 -17 -117zM190 543h795q2 14 2 57
q0 154 -96.5 250t-251.5 96q-168 0 -296 -116t-153 -287zM420 1364q0 29 20 49.5t49 20.5t49.5 -20.5t20.5 -49.5t-20.5 -49.5t-49.5 -20.5t-49 20.5t-20 49.5zM831 1364q0 29 20.5 49.5t49.5 20.5t49.5 -20.5t20.5 -49.5t-20.5 -49.5t-49.5 -20.5t-49.5 20.5t-20.5 49.5z
" />
    <glyph glyph-name="igrave" unicode="&#xec;" horiz-adv-x="471" 
d="M119 0l172 983h61l-172 -983h-61zM328 1151l-78 436l2 10h70l57 -446h-51z" />
    <glyph glyph-name="iacute" unicode="&#xed;" horiz-adv-x="471" 
d="M119 0l172 983h61l-172 -983h-61zM324 1151l213 446h79l-2 -10l-233 -436h-57z" />
    <glyph glyph-name="icircumflex" unicode="&#xee;" horiz-adv-x="471" 
d="M119 0l172 983h61l-172 -983h-61zM645 1151h-51l-178 352l-299 -352h-60l357 446h30z" />
    <glyph glyph-name="idieresis" unicode="&#xef;" horiz-adv-x="471" 
d="M119 0l172 983h61l-172 -983h-61zM156 1364q0 29 20 49.5t49 20.5t49.5 -20.5t20.5 -49.5t-20.5 -49.5t-49.5 -20.5t-49 20.5t-20 49.5zM485 1364q0 29 20.5 49.5t49.5 20.5t49.5 -20.5t20.5 -49.5t-20.5 -49.5t-49.5 -20.5t-49.5 20.5t-20.5 49.5z" />
    <glyph glyph-name="eth" unicode="&#xf0;" horiz-adv-x="1150" 
d="M1026 481q1 -99 -38.5 -192t-106 -161.5t-158 -109t-188.5 -38.5q-181 0 -302.5 127.5t-121.5 318.5q0 128 65 237t176.5 172.5t243.5 63.5q160 0 266 -98l-282 448l-347 -135l-18 53l334 131l-143 228l51 30l149 -237l330 129l18 -51l-319 -125l229 -365
q89 -141 127 -239q35 -90 35 -187zM961 479q0 159 -102 261t-263 102q-177 0 -298.5 -119.5t-121.5 -296.5q0 -169 102.5 -279t260.5 -110q114 0 211 59t154 161t57 222z" />
    <glyph glyph-name="ntilde" unicode="&#xf1;" horiz-adv-x="1128" 
d="M973 692q0 -26 -12 -110l-105 -582h-61l106 590q10 65 10 94q0 118 -73 190t-197 72q-130 0 -224 -81.5t-120 -221.5l-117 -643h-61l174 983h61l-22 -135q118 156 313 156q148 0 238 -87t90 -225zM735 1315l-41 55q-39 51 -82 51q-41 0 -62 -33.5t-32 -109.5h-59
q11 98 46 149.5t105 51.5q73 0 123 -68l41 -55q39 -51 82 -51q41 0 62 33.5t32 109.5h60q-11 -98 -46.5 -149.5t-105.5 -51.5q-73 0 -123 68z" />
    <glyph glyph-name="ograve" unicode="&#xf2;" horiz-adv-x="1249" 
d="M119 463q-2 108 41 209t116 174t173 116.5t206 41.5q203 0 340.5 -138.5t137.5 -343.5q2 -107 -42 -208.5t-117.5 -175t-174.5 -117t-207 -41.5q-202 0 -337.5 138.5t-135.5 344.5zM1067 520q0 181 -119.5 302.5t-294.5 121.5q-128 0 -236 -65t-170.5 -175.5
t-62.5 -240.5q0 -185 116 -304.5t294 -119.5q96 0 183.5 38.5t151 103t101 153.5t37.5 186zM682 1151l-70 436l4 10h68l45 -446h-47z" />
    <glyph glyph-name="oacute" unicode="&#xf3;" horiz-adv-x="1249" 
d="M119 463q-2 108 41 209t116 174t173 116.5t206 41.5q203 0 340.5 -138.5t137.5 -343.5q2 -107 -42 -208.5t-117.5 -175t-174.5 -117t-207 -41.5q-202 0 -337.5 138.5t-135.5 344.5zM1067 520q0 181 -119.5 302.5t-294.5 121.5q-128 0 -236 -65t-170.5 -175.5
t-62.5 -240.5q0 -185 116 -304.5t294 -119.5q96 0 183.5 38.5t151 103t101 153.5t37.5 186zM649 1151l275 446h82v-10l-297 -436h-60z" />
    <glyph glyph-name="ocircumflex" unicode="&#xf4;" horiz-adv-x="1249" 
d="M119 463q-2 108 41 209t116 174t173 116.5t206 41.5q203 0 340.5 -138.5t137.5 -343.5q2 -107 -42 -208.5t-117.5 -175t-174.5 -117t-207 -41.5q-202 0 -337.5 138.5t-135.5 344.5zM1067 520q0 181 -119.5 302.5t-294.5 121.5q-128 0 -236 -65t-170.5 -175.5
t-62.5 -240.5q0 -185 116 -304.5t294 -119.5q96 0 183.5 38.5t151 103t101 153.5t37.5 186zM993 1151h-51l-178 352l-299 -352h-59l356 446h31z" />
    <glyph glyph-name="otilde" unicode="&#xf5;" horiz-adv-x="1249" 
d="M119 463q-2 108 41 209t116 174t173 116.5t206 41.5q203 0 340.5 -138.5t137.5 -343.5q2 -107 -42 -208.5t-117.5 -175t-174.5 -117t-207 -41.5q-202 0 -337.5 138.5t-135.5 344.5zM1067 520q0 181 -119.5 302.5t-294.5 121.5q-128 0 -236 -65t-170.5 -175.5
t-62.5 -240.5q0 -185 116 -304.5t294 -119.5q96 0 183.5 38.5t151 103t101 153.5t37.5 186zM737 1315l-41 55q-39 51 -82 51q-41 0 -62 -33.5t-32 -109.5h-59q11 98 46 149.5t105 51.5q73 0 123 -68l41 -55q39 -51 82 -51q41 0 62 33.5t32 109.5h60q-11 -98 -46.5 -149.5
t-105.5 -51.5q-73 0 -123 68z" />
    <glyph glyph-name="odieresis" unicode="&#xf6;" horiz-adv-x="1249" 
d="M119 463q-2 108 41 209t116 174t173 116.5t206 41.5q203 0 340.5 -138.5t137.5 -343.5q2 -107 -42 -208.5t-117.5 -175t-174.5 -117t-207 -41.5q-202 0 -337.5 138.5t-135.5 344.5zM1067 520q0 181 -119.5 302.5t-294.5 121.5q-128 0 -236 -65t-170.5 -175.5
t-62.5 -240.5q0 -185 116 -304.5t294 -119.5q96 0 183.5 38.5t151 103t101 153.5t37.5 186zM459 1364q0 29 20 49.5t49 20.5t49.5 -20.5t20.5 -49.5t-20.5 -49.5t-49.5 -20.5t-49 20.5t-20 49.5zM870 1364q0 29 20.5 49.5t49.5 20.5t49.5 -20.5t20.5 -49.5t-20.5 -49.5
t-49.5 -20.5t-49.5 20.5t-20.5 49.5z" />
    <glyph glyph-name="divide" unicode="&#xf7;" 
d="M592 981q0 31 20.5 51.5t51.5 20.5t51 -20.5t20 -51.5t-20 -51.5t-51 -20.5t-51.5 20.5t-20.5 51.5zM158 604l8 58h874l-8 -58h-874zM469 283q0 31 20.5 51t51.5 20t51 -20t20 -51t-20 -51.5t-51 -20.5t-51.5 20.5t-20.5 51.5z" />
    <glyph glyph-name="oslash" unicode="&#xf8;" horiz-adv-x="1280" 
d="M1151 952l-117 -118q113 -128 113 -318q2 -104 -42 -203.5t-118 -173t-175 -117.5t-206 -42q-182 0 -311 114l-123 -123l-43 43l123 123q-119 138 -119 330q-3 141 71.5 267t200 199.5t265.5 70.5q192 0 323 -125l115 116zM199 465q0 -160 96 -285l655 656
q-113 110 -282 110q-126 0 -234 -65.5t-171.5 -176.5t-63.5 -239zM1081 516q0 156 -90 275l-653 -654q112 -100 270 -100q124 -3 234.5 63t176 178.5t62.5 237.5z" />
    <glyph glyph-name="ugrave" unicode="&#xf9;" horiz-adv-x="1107" 
d="M160 309q0 43 6 78l104 596h62l-107 -602q-6 -35 -6 -70q0 -122 80 -198t209 -76q122 0 211 79.5t112 209.5l117 657h62l-117 -661q-27 -155 -137 -248q-107 -94 -254 -94q-151 0 -246 92q-96 93 -96 237zM631 1151l-70 436l4 10h68l45 -446h-47z" />
    <glyph glyph-name="uacute" unicode="&#xfa;" horiz-adv-x="1107" 
d="M160 309q0 43 6 78l104 596h62l-107 -602q-6 -35 -6 -70q0 -122 80 -198t209 -76q122 0 211 79.5t112 209.5l117 657h62l-117 -661q-27 -155 -137 -248q-107 -94 -254 -94q-151 0 -246 92q-96 93 -96 237zM598 1151l274 446h82v-10l-297 -436h-59z" />
    <glyph glyph-name="ucircumflex" unicode="&#xfb;" horiz-adv-x="1107" 
d="M160 309q0 43 6 78l104 596h62l-107 -602q-6 -35 -6 -70q0 -122 80 -198t209 -76q122 0 211 79.5t112 209.5l117 657h62l-117 -661q-27 -155 -137 -248q-107 -94 -254 -94q-151 0 -246 92q-96 93 -96 237zM942 1151h-51l-178 352l-299 -352h-60l357 446h30z" />
    <glyph glyph-name="udieresis" unicode="&#xfc;" horiz-adv-x="1107" 
d="M160 309q0 43 6 78l104 596h62l-107 -602q-6 -35 -6 -70q0 -122 80 -198t209 -76q122 0 211 79.5t112 209.5l117 657h62l-117 -661q-27 -155 -137 -248q-107 -94 -254 -94q-151 0 -246 92q-96 93 -96 237zM408 1364q0 29 20 49.5t49 20.5t49.5 -20.5t20.5 -49.5
t-20.5 -49.5t-49.5 -20.5t-49 20.5t-20 49.5zM819 1364q0 29 20.5 49.5t49.5 20.5t49 -20.5t20 -49.5t-20 -49.5t-49 -20.5t-49.5 20.5t-20.5 49.5z" />
    <glyph glyph-name="yacute" unicode="&#xfd;" horiz-adv-x="1130" 
d="M950 983h62l-178 -1008q-29 -167 -139.5 -265.5t-268.5 -98.5q-119 0 -219 59.5t-160 167.5l51 35q54 -97 140 -151t190 -54q134 0 226 83t118 229l27 151q-114 -151 -312 -151q-146 0 -236.5 86t-90.5 225q0 26 12 110l102 582h62l-105 -590q-10 -65 -10 -90
q0 -119 73.5 -192.5t197.5 -73.5q130 0 224 81.5t120 221.5zM618 1151l275 446h82v-10l-297 -436h-60z" />
    <glyph glyph-name="thorn" unicode="&#xfe;" horiz-adv-x="1290" 
d="M1174 539q0 -154 -69.5 -282.5t-190.5 -202.5t-265 -74q-145 0 -266 77q-116 77 -158 201l-110 -627h-62l336 1905h62l-134 -754q62 103 171 162.5t239 59.5q189 0 318 -133.5t129 -331.5zM717 944q-188 4 -326 -156.5t-135 -377.5q0 -160 111.5 -265.5t281.5 -105.5
q126 0 231.5 66t166.5 180t61 250q0 180 -109 294.5t-282 114.5z" />
    <glyph glyph-name="ydieresis" unicode="&#xff;" horiz-adv-x="1130" 
d="M950 983h62l-178 -1008q-29 -167 -139.5 -265.5t-268.5 -98.5q-119 0 -219 59.5t-160 167.5l51 35q54 -97 140 -151t190 -54q134 0 226 83t118 229l27 151q-114 -151 -312 -151q-146 0 -236.5 86t-90.5 225q0 26 12 110l102 582h62l-105 -590q-10 -65 -10 -90
q0 -119 73.5 -192.5t197.5 -73.5q130 0 224 81.5t120 221.5zM428 1364q0 29 20.5 49.5t49.5 20.5t49 -20.5t20 -49.5t-20 -49.5t-49 -20.5t-49.5 20.5t-20.5 49.5zM840 1364q0 29 20 49.5t49 20.5t49.5 -20.5t20.5 -49.5t-20.5 -49.5t-49.5 -20.5t-49 20.5t-20 49.5z" />
    <glyph glyph-name="Amacron" unicode="&#x100;" horiz-adv-x="1363" 
d="M1130 0l-88 360h-741l-211 -360h-74l815 1372h31l332 -1372h-64zM1030 418l-203 833l-493 -833h696zM592 1602l10 57h557l-10 -57h-557z" />
    <glyph glyph-name="amacron" unicode="&#x101;" horiz-adv-x="1294" 
d="M1114 983h62l-175 -983h-61l35 195q-62 -100 -170.5 -157.5t-237.5 -57.5q-189 0 -319.5 138t-130.5 339q-3 145 69.5 272t196.5 202t266 73q146 0 264 -80q114 -78 156 -201zM649 946q-91 2 -178 -38t-151 -107t-102 -157.5t-36 -184.5q0 -180 113 -301t283 -121
q119 -3 226 68.5t170 192t60 253.5q0 179 -106 285q-104 110 -279 110zM485 1337l11 58h516l-11 -58h-516z" />
    <glyph glyph-name="Abreve" unicode="&#x102;" horiz-adv-x="1363" 
d="M1130 0l-88 360h-741l-211 -360h-74l815 1372h31l332 -1372h-64zM1030 418l-203 833l-493 -833h696zM627 1747q0 46 14 117h61q-14 -71 -14 -109q0 -90 54.5 -144.5t142.5 -54.5q91 0 152.5 59t78.5 163l14 86h62l-14 -86q-23 -130 -102 -204.5t-195 -74.5
q-109 0 -181.5 71t-72.5 177z" />
    <glyph glyph-name="abreve" unicode="&#x103;" horiz-adv-x="1294" 
d="M1114 983h62l-175 -983h-61l35 195q-62 -100 -170.5 -157.5t-237.5 -57.5q-189 0 -319.5 138t-130.5 339q-3 145 69.5 272t196.5 202t266 73q146 0 264 -80q114 -78 156 -201zM649 946q-91 2 -178 -38t-151 -107t-102 -157.5t-36 -184.5q0 -180 113 -301t283 -121
q119 -3 226 68.5t170 192t60 253.5q0 179 -106 285q-104 110 -279 110zM467 1425q0 46 14 117h62q-15 -76 -15 -108q0 -90 54.5 -144.5t142.5 -54.5q91 0 152.5 58.5t78.5 162.5l15 86h61l-14 -86q-23 -130 -102 -204t-195 -74q-109 0 -181.5 70.5t-72.5 176.5z" />
    <glyph glyph-name="Aogonek" unicode="&#x104;" horiz-adv-x="1363" 
d="M1130 0l-88 360h-741l-211 -360h-74l815 1372h31l332 -1372h-64zM1030 418l-203 833l-493 -833h696zM831 -244q0 76 76 140q77 62 275 145l12 -41l-150 -82q-80 -44 -113.5 -80.5t-33.5 -77.5q0 -92 145 -92q42 0 95 6l-9 -53q-62 -10 -102 -10q-88 0 -141.5 39.5
t-53.5 105.5z" />
    <glyph glyph-name="aogonek" unicode="&#x105;" horiz-adv-x="1294" 
d="M1114 983h62l-175 -983h-61l35 195q-62 -100 -170.5 -157.5t-237.5 -57.5q-189 0 -319.5 138t-130.5 339q-3 145 69.5 272t196.5 202t266 73q146 0 264 -80q114 -78 156 -201zM649 946q-91 2 -178 -38t-151 -107t-102 -157.5t-36 -184.5q0 -180 113 -301t283 -121
q119 -3 226 68.5t170 192t60 253.5q0 179 -106 285q-104 110 -279 110zM639 -244q0 76 76 140q78 63 274 145l12 -41l-149 -82q-80 -44 -113.5 -80.5t-33.5 -77.5q0 -92 145 -92q42 0 94 6l-8 -53q-62 -10 -102 -10q-88 0 -141.5 39.5t-53.5 105.5z" />
    <glyph glyph-name="Cacute" unicode="&#x106;" horiz-adv-x="1452" 
d="M152 621q-3 146 57.5 285.5t162.5 242.5t240.5 164.5t284.5 58.5q168 0 304 -76t218 -215l-53 -37q-79 128 -200.5 197.5t-272.5 69.5q-175 4 -332.5 -91t-250.5 -256t-89 -341q-3 -163 71 -297.5t205 -211t289 -73.5q141 0 271 57.5t227 161.5l45 -41
q-105 -115 -248.5 -177t-298.5 -62q-174 -3 -320 81.5t-229.5 233t-80.5 326.5zM950 1483l258 381h82l-2 -11l-282 -370h-56z" />
    <glyph glyph-name="cacute" unicode="&#x107;" horiz-adv-x="1136" 
d="M119 463q-2 108 40.5 209t115.5 174t172.5 116.5t205.5 41.5q128 0 231.5 -53.5t166.5 -151.5l-50 -35q-57 87 -147 133.5t-199 46.5q-94 2 -182 -36t-152 -102.5t-101.5 -153.5t-35.5 -185q0 -185 117 -306.5t295 -121.5q100 0 190 39.5t156 111.5l41 -38
q-147 -172 -385 -172q-205 0 -342 138t-137 345zM635 1151l274 446h82v-10l-297 -436h-59z" />
    <glyph glyph-name="Ccircumflex" unicode="&#x108;" horiz-adv-x="1452" 
d="M152 621q-3 146 57.5 285.5t162.5 242.5t240.5 164.5t284.5 58.5q168 0 304 -76t218 -215l-53 -37q-79 128 -200.5 197.5t-272.5 69.5q-175 4 -332.5 -91t-250.5 -256t-89 -341q-3 -163 71 -297.5t205 -211t289 -73.5q141 0 271 57.5t227 161.5l45 -41
q-105 -115 -248.5 -177t-298.5 -62q-174 -3 -320 81.5t-229.5 233t-80.5 326.5zM1292 1483h-51l-207 299l-309 -299h-61l366 381h31z" />
    <glyph glyph-name="ccircumflex" unicode="&#x109;" horiz-adv-x="1136" 
d="M119 463q-2 108 40.5 209t115.5 174t172.5 116.5t205.5 41.5q128 0 231.5 -53.5t166.5 -151.5l-50 -35q-57 87 -147 133.5t-199 46.5q-94 2 -182 -36t-152 -102.5t-101.5 -153.5t-35.5 -185q0 -185 117 -306.5t295 -121.5q100 0 190 39.5t156 111.5l41 -38
q-147 -172 -385 -172q-205 0 -342 138t-137 345zM979 1151h-51l-178 352l-299 -352h-60l357 446h30z" />
    <glyph glyph-name="Cdotaccent" unicode="&#x10a;" horiz-adv-x="1452" 
d="M152 621q-3 146 57.5 285.5t162.5 242.5t240.5 164.5t284.5 58.5q168 0 304 -76t218 -215l-53 -37q-79 128 -200.5 197.5t-272.5 69.5q-175 4 -332.5 -91t-250.5 -256t-89 -341q-3 -163 71 -297.5t205 -211t289 -73.5q141 0 271 57.5t227 161.5l45 -41
q-105 -115 -248.5 -177t-298.5 -62q-174 -3 -320 81.5t-229.5 233t-80.5 326.5zM940 1651q0 29 20.5 49t49.5 20t49 -20t20 -49t-20 -49.5t-49 -20.5t-49.5 20.5t-20.5 49.5z" />
    <glyph glyph-name="cdotaccent" unicode="&#x10b;" horiz-adv-x="1136" 
d="M119 463q-2 108 40.5 209t115.5 174t172.5 116.5t205.5 41.5q128 0 231.5 -53.5t166.5 -151.5l-50 -35q-57 87 -147 133.5t-199 46.5q-94 2 -182 -36t-152 -102.5t-101.5 -153.5t-35.5 -185q0 -185 117 -306.5t295 -121.5q100 0 190 39.5t156 111.5l41 -38
q-147 -172 -385 -172q-205 0 -342 138t-137 345zM655 1364q0 29 20.5 49.5t49.5 20.5t49.5 -20.5t20.5 -49.5t-20.5 -49.5t-49.5 -20.5t-49.5 20.5t-20.5 49.5z" />
    <glyph glyph-name="Ccaron" unicode="&#x10c;" horiz-adv-x="1452" 
d="M152 621q-3 146 57.5 285.5t162.5 242.5t240.5 164.5t284.5 58.5q168 0 304 -76t218 -215l-53 -37q-79 128 -200.5 197.5t-272.5 69.5q-175 4 -332.5 -91t-250.5 -256t-89 -341q-3 -163 71 -297.5t205 -211t289 -73.5q141 0 271 57.5t227 161.5l45 -41
q-105 -115 -248.5 -177t-298.5 -62q-174 -3 -320 81.5t-229.5 233t-80.5 326.5zM1298 1864h62l-367 -381h-30l-232 381h51l207 -299z" />
    <glyph glyph-name="ccaron" unicode="&#x10d;" horiz-adv-x="1136" 
d="M119 463q-2 108 40.5 209t115.5 174t172.5 116.5t205.5 41.5q128 0 231.5 -53.5t166.5 -151.5l-50 -35q-57 87 -147 133.5t-199 46.5q-94 2 -182 -36t-152 -102.5t-101.5 -153.5t-35.5 -185q0 -185 117 -306.5t295 -121.5q100 0 190 39.5t156 111.5l41 -38
q-147 -172 -385 -172q-205 0 -342 138t-137 345zM1001 1597h60l-356 -446h-31l-201 446h51l178 -352z" />
    <glyph glyph-name="Dcaron" unicode="&#x10e;" horiz-adv-x="1435" 
d="M125 0l237 1352h306q306 0 494 -170.5t188 -448.5q3 -211 -100.5 -380t-290.5 -262.5t-422 -90.5h-412zM201 55h340q159 -2 297.5 48t236 139.5t152.5 216.5t53 274q0 254 -167.5 407.5t-448.5 153.5h-246zM1071 1864h62l-367 -381h-31l-231 381h51l207 -299z" />
    <glyph glyph-name="dcaron" unicode="&#x10f;" horiz-adv-x="1445" 
d="M1212 1536h62l-270 -1536h-62l35 193q-62 -99 -171 -156t-237 -57q-195 0 -322.5 136t-127.5 347q-3 146 69 272t195.5 199t265.5 70q149 0 265.5 -78t154.5 -201zM1036 559q0 170 -110 278.5t-279 108.5q-93 0 -178.5 -38.5t-148 -103.5t-99.5 -154.5t-37 -186.5
q0 -189 110.5 -307.5t283.5 -118.5q91 -3 177 41t148 116.5t98.5 169t34.5 195.5zM1436 1106l116 430h78l-141 -430h-53z" />
    <glyph glyph-name="Dcroat" unicode="&#x110;" horiz-adv-x="1435" 
d="M1350 733q3 -211 -100.5 -380t-290.5 -262.5t-422 -90.5h-412l102 588h-211l11 57h211l124 707h306q306 0 494 -170.5t188 -448.5zM1280 733q0 254 -167.5 407.5t-448.5 153.5h-246l-115 -649h309l-10 -57h-307l-94 -533h340q159 -2 297.5 48t236 139.5t152.5 216.5
t53 274z" />
    <glyph glyph-name="dslash" unicode="&#x111;" horiz-adv-x="1294" 
d="M1409 1294l-10 -57h-178l-217 -1237h-62l35 193q-62 -99 -171 -156t-237 -57q-198 0 -324 135.5t-126 347.5q-3 146 69 272t195.5 199t265.5 70q149 0 264.5 -79.5t153.5 -207.5l92 520h-469l10 57h469l43 242h62l-43 -242h178zM1036 559q0 170 -109.5 278.5
t-279.5 108.5q-93 0 -178.5 -38.5t-148 -103.5t-99.5 -154.5t-37 -186.5q0 -188 110 -307t284 -119q71 -2 140.5 25t126.5 77t101 115t68 144.5t22 160.5z" />
    <glyph glyph-name="Emacron" unicode="&#x112;" horiz-adv-x="1150" 
d="M125 0l237 1352h832l-10 -58h-766l-94 -530h602l-8 -57h-603l-114 -650h790l-10 -57h-856zM535 1602l10 57h557l-10 -57h-557z" />
    <glyph glyph-name="emacron" unicode="&#x113;" horiz-adv-x="1157" 
d="M1036 485h-852v-22q0 -186 115 -306t295 -120q100 0 191.5 40t158.5 113l39 -38q-74 -82 -176.5 -127t-214.5 -45q-203 0 -338 137t-135 344q-2 107 40.5 208.5t113.5 175.5t168 117.5t198 41.5q180 0 297 -113.5t117 -288.5q0 -64 -17 -117zM190 543h795q2 14 2 57
q0 154 -96.5 250t-251.5 96q-168 0 -296 -116t-153 -287zM436 1337l10 58h517l-11 -58h-516z" />
    <glyph glyph-name="Ebreve" unicode="&#x114;" horiz-adv-x="1150" 
d="M125 0l237 1352h832l-10 -58h-766l-94 -530h602l-8 -57h-603l-114 -650h790l-10 -57h-856zM569 1747q0 41 15 117h61q-14 -71 -14 -109q0 -90 54 -144.5t142 -54.5q91 0 153 59t79 163l14 86h62l-15 -86q-23 -130 -102 -204.5t-195 -74.5q-109 0 -181.5 71t-72.5 177z
" />
    <glyph glyph-name="ebreve" unicode="&#x115;" horiz-adv-x="1157" 
d="M1036 485h-852v-22q0 -186 115 -306t295 -120q100 0 191.5 40t158.5 113l39 -38q-74 -82 -176.5 -127t-214.5 -45q-203 0 -338 137t-135 344q-2 107 40.5 208.5t113.5 175.5t168 117.5t198 41.5q180 0 297 -113.5t117 -288.5q0 -64 -17 -117zM190 543h795q2 14 2 57
q0 154 -96.5 250t-251.5 96q-168 0 -296 -116t-153 -287zM418 1425q0 46 14 117h62q-15 -76 -15 -108q0 -90 54.5 -144.5t142.5 -54.5q91 0 152.5 58.5t78.5 162.5l15 86h61l-14 -86q-23 -130 -102 -204t-195 -74q-109 0 -181.5 70.5t-72.5 176.5z" />
    <glyph glyph-name="Edotaccent" unicode="&#x116;" horiz-adv-x="1150" 
d="M125 0l237 1352h832l-10 -58h-766l-94 -530h602l-8 -57h-603l-114 -650h790l-10 -57h-856zM752 1651q0 29 20 49t49 20t49.5 -20t20.5 -49t-20.5 -49.5t-49.5 -20.5t-49 20.5t-20 49.5z" />
    <glyph glyph-name="edotaccent" unicode="&#x117;" horiz-adv-x="1157" 
d="M1036 485h-852v-22q0 -186 115 -306t295 -120q100 0 191.5 40t158.5 113l39 -38q-74 -82 -176.5 -127t-214.5 -45q-203 0 -338 137t-135 344q-2 107 40.5 208.5t113.5 175.5t168 117.5t198 41.5q180 0 297 -113.5t117 -288.5q0 -64 -17 -117zM190 543h795q2 14 2 57
q0 154 -96.5 250t-251.5 96q-168 0 -296 -116t-153 -287zM631 1364q0 29 20 49.5t49 20.5t49.5 -20.5t20.5 -49.5t-20.5 -49.5t-49.5 -20.5t-49 20.5t-20 49.5z" />
    <glyph glyph-name="Eogonek" unicode="&#x118;" horiz-adv-x="1150" 
d="M125 0l237 1352h832l-10 -58h-766l-94 -530h602l-8 -57h-603l-114 -650h790l-10 -57h-856zM618 -244q0 76 76 140q77 62 275 145l12 -41l-150 -82q-80 -44 -113.5 -80.5t-33.5 -77.5q0 -92 145 -92q43 0 95 6l-9 -53q-62 -10 -102 -10q-88 0 -141.5 39.5t-53.5 105.5z
" />
    <glyph glyph-name="eogonek" unicode="&#x119;" horiz-adv-x="1157" 
d="M1036 485h-852v-22q0 -186 115 -306t295 -120q100 0 191.5 40t158.5 113l39 -38q-74 -82 -176.5 -127t-214.5 -45q-203 0 -338 137t-135 344q-2 107 40.5 208.5t113.5 175.5t168 117.5t198 41.5q180 0 297 -113.5t117 -288.5q0 -64 -17 -117zM190 543h795q2 14 2 57
q0 154 -96.5 250t-251.5 96q-168 0 -296 -116t-153 -287zM567 -244q0 51 25 99q25 44 94 108q79 72 225 193l72 -4l-209 -189q-141 -126 -141 -203q0 -92 145 -92q42 0 94 6l-8 -53q-62 -10 -102 -10q-87 0 -141 38.5t-54 106.5z" />
    <glyph glyph-name="Ecaron" unicode="&#x11a;" horiz-adv-x="1150" 
d="M125 0l237 1352h832l-10 -58h-766l-94 -530h602l-8 -57h-603l-114 -650h790l-10 -57h-856zM1110 1864h61l-366 -381h-31l-231 381h51l207 -299z" />
    <glyph glyph-name="ecaron" unicode="&#x11b;" horiz-adv-x="1157" 
d="M1036 485h-852v-22q0 -186 115 -306t295 -120q100 0 191.5 40t158.5 113l39 -38q-74 -82 -176.5 -127t-214.5 -45q-203 0 -338 137t-135 344q-2 107 40.5 208.5t113.5 175.5t168 117.5t198 41.5q180 0 297 -113.5t117 -288.5q0 -64 -17 -117zM190 543h795q2 14 2 57
q0 154 -96.5 250t-251.5 96q-168 0 -296 -116t-153 -287zM977 1597h59l-356 -446h-31l-200 446h51l178 -352z" />
    <glyph glyph-name="Gcircumflex" unicode="&#x11c;" horiz-adv-x="1533" 
d="M152 621q-3 146 58 285.5t162.5 242.5t240 164.5t282.5 58.5q165 0 302.5 -76t223.5 -215l-53 -37q-78 128 -201.5 197.5t-275.5 69.5q-131 3 -255.5 -53t-216.5 -150t-146.5 -222t-51.5 -263q-3 -163 71 -297.5t205 -211t289 -73.5q147 0 280 64.5t232 181.5l54 301
h-529l11 57h593l-65 -375q-100 -135 -256 -212.5t-326 -77.5q-130 -2 -247.5 48t-201.5 136t-132.5 205.5t-46.5 251.5zM1288 1483h-51l-207 299l-309 -299h-62l367 381h31z" />
    <glyph glyph-name="gcircumflex" unicode="&#x11d;" horiz-adv-x="1292" 
d="M1110 983h61l-161 -938q-35 -201 -171 -317.5t-337 -116.5q-140 0 -261 61.5t-188 167.5l51 37q62 -98 167.5 -153.5t232.5 -55.5q177 0 294.5 101.5t149.5 281.5l29 156q-62 -95 -173.5 -151t-240.5 -56q-191 0 -318.5 129t-127.5 324q-2 150 71 278t199 202t272 71
q143 0 259 -78q111 -75 149 -199zM1034 559q0 170 -106.5 278.5t-272.5 108.5q-126 0 -235 -66.5t-173.5 -179.5t-64.5 -245q0 -172 113 -285t283 -113q124 0 229 67.5t166 183t61 251.5zM985 1151h-51l-178 352l-299 -352h-60l357 446h30z" />
    <glyph glyph-name="Gbreve" unicode="&#x11e;" horiz-adv-x="1533" 
d="M152 621q-3 146 58 285.5t162.5 242.5t240 164.5t282.5 58.5q165 0 302.5 -76t223.5 -215l-53 -37q-78 128 -201.5 197.5t-275.5 69.5q-131 3 -255.5 -53t-216.5 -150t-146.5 -222t-51.5 -263q-3 -163 71 -297.5t205 -211t289 -73.5q147 0 280 64.5t232 181.5l54 301
h-529l11 57h593l-65 -375q-100 -135 -256 -212.5t-326 -77.5q-130 -2 -247.5 48t-201.5 136t-132.5 205.5t-46.5 251.5zM754 1747q0 46 14 117h61q-14 -71 -14 -109q0 -90 54.5 -144.5t142.5 -54.5q91 0 152.5 59t78.5 163l14 86h62l-14 -86q-23 -130 -102 -204.5
t-195 -74.5q-109 0 -181.5 71t-72.5 177z" />
    <glyph glyph-name="gbreve" unicode="&#x11f;" horiz-adv-x="1292" 
d="M1110 983h61l-161 -938q-35 -201 -171 -317.5t-337 -116.5q-140 0 -261 61.5t-188 167.5l51 37q62 -98 167.5 -153.5t232.5 -55.5q177 0 294.5 101.5t149.5 281.5l29 156q-62 -95 -173.5 -151t-240.5 -56q-191 0 -318.5 129t-127.5 324q-2 150 71 278t199 202t272 71
q143 0 259 -78q111 -75 149 -199zM1034 559q0 170 -106.5 278.5t-272.5 108.5q-126 0 -235 -66.5t-173.5 -179.5t-64.5 -245q0 -172 113 -285t283 -113q124 0 229 67.5t166 183t61 251.5zM449 1425q0 46 14 117h61q-14 -71 -14 -108q0 -90 54.5 -144.5t142.5 -54.5
q91 0 152.5 58.5t78.5 162.5l14 86h62l-15 -86q-23 -130 -102 -204t-195 -74q-109 0 -181 70.5t-72 176.5z" />
    <glyph glyph-name="Gdotaccent" unicode="&#x120;" horiz-adv-x="1533" 
d="M152 621q-3 146 58 285.5t162.5 242.5t240 164.5t282.5 58.5q165 0 302.5 -76t223.5 -215l-53 -37q-78 128 -201.5 197.5t-275.5 69.5q-131 3 -255.5 -53t-216.5 -150t-146.5 -222t-51.5 -263q-3 -163 71 -297.5t205 -211t289 -73.5q147 0 280 64.5t232 181.5l54 301
h-529l11 57h593l-65 -375q-100 -135 -256 -212.5t-326 -77.5q-130 -2 -247.5 48t-201.5 136t-132.5 205.5t-46.5 251.5zM936 1651q0 29 20.5 49t49.5 20t49 -20t20 -49t-20 -49.5t-49 -20.5t-49.5 20.5t-20.5 49.5z" />
    <glyph glyph-name="gdotaccent" unicode="&#x121;" horiz-adv-x="1292" 
d="M1110 983h61l-161 -938q-35 -201 -171 -317.5t-337 -116.5q-140 0 -261 61.5t-188 167.5l51 37q62 -98 167.5 -153.5t232.5 -55.5q177 0 294.5 101.5t149.5 281.5l29 156q-62 -95 -173.5 -151t-240.5 -56q-191 0 -318.5 129t-127.5 324q-2 150 71 278t199 202t272 71
q143 0 259 -78q111 -75 149 -199zM1034 559q0 170 -106.5 278.5t-272.5 108.5q-126 0 -235 -66.5t-173.5 -179.5t-64.5 -245q0 -172 113 -285t283 -113q124 0 229 67.5t166 183t61 251.5zM662 1364q0 29 20 49.5t49 20.5t49.5 -20.5t20.5 -49.5t-20.5 -49.5t-49.5 -20.5
t-49 20.5t-20 49.5z" />
    <glyph glyph-name="uni0122" unicode="&#x122;" horiz-adv-x="1533" 
d="M152 621q-3 146 58 285.5t162.5 242.5t240 164.5t282.5 58.5q165 0 302.5 -76t223.5 -215l-53 -37q-78 128 -201.5 197.5t-275.5 69.5q-131 3 -255.5 -53t-216.5 -150t-146.5 -222t-51.5 -263q-3 -163 71 -297.5t205 -211t289 -73.5q147 0 280 64.5t232 181.5l54 301
h-529l11 57h593l-65 -375q-100 -135 -256 -212.5t-326 -77.5q-130 -2 -247.5 48t-201.5 136t-132.5 205.5t-46.5 251.5zM569 -451l90 345h74l-110 -345h-54z" />
    <glyph glyph-name="uni0123" unicode="&#x123;" horiz-adv-x="1292" 
d="M1110 983h61l-161 -938q-35 -201 -171 -317.5t-337 -116.5q-140 0 -261 61.5t-188 167.5l51 37q62 -98 167.5 -153.5t232.5 -55.5q177 0 294.5 101.5t149.5 281.5l29 156q-62 -95 -173.5 -151t-240.5 -56q-191 0 -318.5 129t-127.5 324q-2 150 71 278t199 202t272 71
q143 0 259 -78q111 -75 149 -199zM1034 559q0 170 -106.5 278.5t-272.5 108.5q-126 0 -235 -66.5t-173.5 -179.5t-64.5 -245q0 -172 113 -285t283 -113q124 0 229 67.5t166 183t61 251.5zM651 1151l140 446h53l-119 -446h-74z" />
    <glyph glyph-name="Hcircumflex" unicode="&#x124;" horiz-adv-x="1441" 
d="M125 0l237 1352h66l-102 -588h888l103 588h65l-237 -1352h-66l123 707h-889l-123 -707h-65zM1208 1483h-51l-207 299l-309 -299h-61l366 381h31z" />
    <glyph glyph-name="hcircumflex" unicode="&#x125;" horiz-adv-x="1128" 
d="M971 692q0 -45 -13 -110l-100 -582h-61l102 590q12 60 12 102q0 113 -75.5 183.5t-196.5 70.5q-127 0 -223.5 -83t-120.5 -220l-113 -643h-61l268 1536h62l-121 -686q119 154 313 154q146 0 237 -86.5t91 -225.5zM762 1667h-51l-207 299l-309 -299h-62l367 381h30z" />
    <glyph glyph-name="Hbar" unicode="&#x126;" horiz-adv-x="1454" 
d="M1550 1040l-10 -57h-217l-172 -983h-66l103 588h-889l-102 -588h-66l172 983h-217l10 57h217l56 312h65l-55 -312h889l55 312h66l-56 -312h217zM1198 645l59 338h-888l-60 -338h889z" />
    <glyph glyph-name="hbar" unicode="&#x127;" horiz-adv-x="1124" 
d="M965 674q0 -31 -13 -111l-98 -563h-61l100 571q10 65 10 91q0 120 -73.5 193t-196.5 73q-129 0 -224.5 -82t-119.5 -221l-111 -625h-61l215 1237h-174l10 57h174l43 242h61l-40 -242h430l-11 -57h-430l-71 -408q115 156 313 156q148 0 238 -86.5t90 -224.5z" />
    <glyph glyph-name="Itilde" unicode="&#x128;" horiz-adv-x="487" 
d="M125 0l237 1352h66l-238 -1352h-65zM461 1604l-66 53q-32 25 -49 34t-39 9q-41 0 -62 -31.5t-32 -103.5h-59q11 94 46 143t105 49q39 0 63.5 -12.5t65.5 -46.5l64 -53q52 -43 90 -43q41 0 62 31.5t32 103.5h59q-21 -193 -155 -193q-34 0 -59 13t-66 47z" />
    <glyph glyph-name="itilde" unicode="&#x129;" horiz-adv-x="471" 
d="M119 0l172 983h61l-172 -983h-61zM385 1319l-31 49q-20 31 -33.5 42t-35.5 11q-76 0 -97 -143h-59q24 201 152 201q39 0 64.5 -18t47.5 -54l31 -49q20 -31 34 -42t36 -11q75 0 96 143h59q-24 -201 -151 -201q-68 0 -113 72z" />
    <glyph glyph-name="Imacron" unicode="&#x12a;" horiz-adv-x="487" 
d="M125 0l237 1352h66l-238 -1352h-65zM162 1602l10 57h557l-10 -57h-557z" />
    <glyph glyph-name="imacron" unicode="&#x12b;" horiz-adv-x="471" 
d="M119 0l172 983h61l-172 -983h-61zM188 1335l11 58h393l-10 -58h-394z" />
    <glyph glyph-name="Ibreve" unicode="&#x12c;" horiz-adv-x="487" 
d="M125 0l237 1352h66l-238 -1352h-65zM197 1747q0 46 14 117h61q-14 -71 -14 -109q0 -90 54.5 -144.5t142.5 -54.5q91 0 152.5 59t78.5 163l14 86h62l-14 -86q-23 -130 -102 -204.5t-195 -74.5q-109 0 -181.5 71t-72.5 177z" />
    <glyph glyph-name="ibreve" unicode="&#x12d;" horiz-adv-x="471" 
d="M119 0l172 983h61l-172 -983h-61zM109 1425q0 46 14 117h61q-14 -71 -14 -108q0 -90 54.5 -144.5t142.5 -54.5q91 0 152.5 58.5t78.5 162.5l14 86h62l-15 -86q-23 -130 -102 -204t-195 -74q-109 0 -181 70.5t-72 176.5z" />
    <glyph glyph-name="Iogonek" unicode="&#x12e;" horiz-adv-x="487" 
d="M125 0l237 1352h66l-238 -1352h-65zM-172 -244q0 74 78 140q80 64 272 145l12 -41l-149 -82q-80 -44 -113.5 -80.5t-33.5 -77.5q0 -92 145 -92q41 0 94 6l-8 -53q-62 -10 -102 -10q-88 0 -141.5 39.5t-53.5 105.5z" />
    <glyph glyph-name="iogonek" unicode="&#x12f;" horiz-adv-x="471" 
d="M119 0l172 983h61l-172 -983h-61zM322 1364q0 29 20 49.5t49 20.5t49.5 -20.5t20.5 -49.5t-20.5 -49.5t-49.5 -20.5t-49 20.5t-20 49.5zM-182 -244q0 74 78 140q80 64 272 145l12 -41l-149 -82q-80 -44 -114 -80.5t-34 -77.5q0 -92 146 -92q41 0 94 6l-8 -53
q-62 -10 -103 -10q-88 0 -141 39.5t-53 105.5z" />
    <glyph glyph-name="Idot" unicode="&#x130;" horiz-adv-x="487" 
d="M125 0l237 1352h66l-238 -1352h-65zM379 1651q0 29 20.5 49t49.5 20t49 -20t20 -49t-20 -49.5t-49 -20.5t-49.5 20.5t-20.5 49.5z" />
    <glyph glyph-name="dotlessi" unicode="&#x131;" horiz-adv-x="471" 
d="M119 0l172 983h61l-172 -983h-61z" />
    <glyph glyph-name="IJ" unicode="&#x132;" horiz-adv-x="1228" 
d="M125 0l237 1352h66l-238 -1352h-65zM465 10l10 58q108 -27 182 -27q110 0 173 55t83 170l191 1086h65l-192 -1090q-49 -282 -318 -282q-92 0 -194 30z" />
    <glyph glyph-name="ij" unicode="&#x133;" horiz-adv-x="944" 
d="M119 0l172 983h61l-172 -983h-61zM322 1364q0 29 20 49.5t49 20.5t49.5 -20.5t20.5 -49.5t-20.5 -49.5t-49.5 -20.5t-49 20.5t-20 49.5zM209 -367l10 54q65 -19 125 -19q189 0 223 199l197 1116h61l-196 -1122q-23 -126 -97 -188t-190 -62q-69 0 -133 22zM793 1364
q0 29 20 49.5t49 20.5t49.5 -20.5t20.5 -49.5t-20.5 -49.5t-49.5 -20.5t-49 20.5t-20 49.5z" />
    <glyph glyph-name="Jcircumflex" unicode="&#x134;" horiz-adv-x="741" 
d="M-23 10l11 58q108 -27 182 -27q110 0 173 55t83 170l190 1086h66l-193 -1090q-49 -282 -317 -282q-93 0 -195 30zM979 1483h-51l-207 299l-309 -299h-62l367 381h31z" />
    <glyph glyph-name="jcircumflex" unicode="&#x135;" horiz-adv-x="473" 
d="M-262 -367l10 54q65 -19 125 -19q189 0 223 199l197 1116h61l-196 -1122q-23 -126 -97 -188t-190 -62q-69 0 -133 22zM645 1151h-51l-178 352l-299 -352h-60l357 446h30z" />
    <glyph glyph-name="uni0136" unicode="&#x136;" horiz-adv-x="1224" 
d="M362 1352h66l-238 -1352h-65zM1249 1352l-805 -621l613 -731h-80l-619 735l793 617h98zM381 -451l90 345h74l-111 -345h-53z" />
    <glyph glyph-name="uni0137" unicode="&#x137;" horiz-adv-x="946" 
d="M389 1536h62l-271 -1536h-61zM961 983l-562 -446l420 -537h-76l-430 543l555 440h93zM244 -451l90 345h74l-111 -345h-53z" />
    <glyph glyph-name="Lacute" unicode="&#x139;" horiz-adv-x="1009" 
d="M125 0l237 1352h66l-227 -1295h684l-11 -57h-749zM389 1483l258 381h82l-2 -11l-283 -370h-55z" />
    <glyph glyph-name="lacute" unicode="&#x13a;" horiz-adv-x="471" 
d="M119 0l270 1536h62l-271 -1536h-61zM414 1667l258 381h82l-2 -10l-283 -371h-55z" />
    <glyph glyph-name="uni013B" unicode="&#x13b;" horiz-adv-x="1009" 
d="M125 0l237 1352h66l-227 -1295h684l-11 -57h-749zM346 -451l90 345h74l-111 -345h-53z" />
    <glyph glyph-name="uni013C" unicode="&#x13c;" horiz-adv-x="471" 
d="M119 0l270 1536h62l-271 -1536h-61zM4 -451l90 345h74l-111 -345h-53z" />
    <glyph glyph-name="Lcaron" unicode="&#x13d;" horiz-adv-x="1009" 
d="M125 0l237 1352h66l-227 -1295h684l-11 -57h-749zM836 922l116 430h78l-141 -430h-53z" />
    <glyph glyph-name="lcaron" unicode="&#x13e;" horiz-adv-x="598" 
d="M119 0l270 1536h62l-271 -1536h-61zM588 1106l117 430h77l-141 -430h-53z" />
    <glyph glyph-name="Ldot" unicode="&#x13f;" horiz-adv-x="1009" 
d="M125 0l237 1352h66l-227 -1295h684l-11 -57h-749zM715 737q0 36 23 59t55 23q34 0 57.5 -22.5t23.5 -59.5q0 -34 -24 -56t-57 -22q-32 0 -55 22t-23 56z" />
    <glyph glyph-name="ldot" unicode="&#x140;" horiz-adv-x="475" 
d="M119 0l270 1536h62l-271 -1536h-61zM420 631q0 36 23 59t55 23q34 0 58 -22.5t24 -59.5q0 -34 -24.5 -56t-57.5 -22q-32 0 -55 22t-23 56z" />
    <glyph glyph-name="Lslash" unicode="&#x141;" horiz-adv-x="1009" 
d="M201 57h684l-11 -57h-749l104 600l-182 -78l10 64l185 78l120 688h66l-117 -666l533 225l-10 -63l-533 -223z" />
    <glyph glyph-name="lslash" unicode="&#x142;" horiz-adv-x="466" 
d="M514 913l-10 -61l-195 -84l-135 -768h-61l131 748l-187 -80l11 61l188 80l127 727h61l-125 -707z" />
    <glyph glyph-name="Nacute" unicode="&#x143;" horiz-adv-x="1441" 
d="M1317 1352h65l-241 -1372h-31l-707 1247l-213 -1227h-65l242 1372h30l705 -1255zM866 1483l258 381h82l-2 -11l-282 -370h-56z" />
    <glyph glyph-name="nacute" unicode="&#x144;" horiz-adv-x="1128" 
d="M973 692q0 -26 -12 -110l-105 -582h-61l106 590q10 65 10 94q0 118 -73 190t-197 72q-130 0 -224 -81.5t-120 -221.5l-117 -643h-61l174 983h61l-22 -135q118 156 313 156q148 0 238 -87t90 -225zM647 1151l275 446h82v-10l-297 -436h-60z" />
    <glyph glyph-name="uni0145" unicode="&#x145;" horiz-adv-x="1441" 
d="M1317 1352h65l-241 -1372h-31l-707 1247l-213 -1227h-65l242 1372h30l705 -1255zM489 -451l91 345h73l-110 -345h-54z" />
    <glyph glyph-name="uni0146" unicode="&#x146;" horiz-adv-x="1128" 
d="M973 692q0 -26 -12 -110l-105 -582h-61l106 590q10 65 10 94q0 118 -73 190t-197 72q-130 0 -224 -81.5t-120 -221.5l-117 -643h-61l174 983h61l-22 -135q118 156 313 156q148 0 238 -87t90 -225zM350 -451l90 345h74l-111 -345h-53z" />
    <glyph glyph-name="Ncaron" unicode="&#x147;" horiz-adv-x="1441" 
d="M1317 1352h65l-241 -1372h-31l-707 1247l-213 -1227h-65l242 1372h30l705 -1255zM1214 1864h62l-367 -381h-30l-232 381h51l207 -299z" />
    <glyph glyph-name="ncaron" unicode="&#x148;" horiz-adv-x="1128" 
d="M973 692q0 -26 -12 -110l-105 -582h-61l106 590q10 65 10 94q0 118 -73 190t-197 72q-130 0 -224 -81.5t-120 -221.5l-117 -643h-61l174 983h61l-22 -135q118 156 313 156q148 0 238 -87t90 -225zM1014 1597h59l-356 -446h-31l-201 446h52l178 -352z" />
    <glyph glyph-name="Eng" unicode="&#x14a;" horiz-adv-x="1439" 
d="M1313 1352h65l-260 -1491q-23 -122 -96 -186t-191 -64q-69 0 -133 22l11 56q73 -17 125 -17q97 0 149 49t70 146l24 139l-669 1215l-215 -1221h-66l240 1372h30l697 -1270z" />
    <glyph glyph-name="eng" unicode="&#x14b;" horiz-adv-x="1126" 
d="M971 692q0 -45 -13 -110l-124 -707q-46 -264 -287 -264q-69 0 -133 22l10 54q65 -19 125 -19q184 0 225 215l125 707q10 65 10 90q0 120 -73.5 193t-196.5 73q-130 0 -224 -81.5t-120 -221.5l-115 -643h-61l172 983h61l-22 -135q118 156 313 156q148 0 238 -87t90 -225z
" />
    <glyph glyph-name="Omacron" unicode="&#x14c;" horiz-adv-x="1605" 
d="M152 623q-4 147 56.5 286.5t161.5 241.5t239.5 163t283.5 58q174 3 319.5 -81.5t228 -233t79.5 -326.5q4 -148 -56.5 -288t-162 -242t-240 -163t-283.5 -58q-172 -3 -317.5 82t-228.5 234t-80 327zM1450 731q3 161 -70.5 295t-203 210t-285.5 73q-132 2 -256.5 -53.5
t-216 -148.5t-146 -221t-51.5 -263q-2 -162 71 -296t202.5 -210.5t285.5 -73.5q131 -3 255.5 53t216 150t146 222t52.5 263zM721 1602l10 57h557l-10 -57h-557z" />
    <glyph glyph-name="omacron" unicode="&#x14d;" horiz-adv-x="1249" 
d="M119 463q-2 108 41 209t116 174t173 116.5t206 41.5q203 0 340.5 -138.5t137.5 -343.5q2 -107 -42 -208.5t-117.5 -175t-174.5 -117t-207 -41.5q-202 0 -337.5 138.5t-135.5 344.5zM1067 520q0 181 -119.5 302.5t-294.5 121.5q-128 0 -236 -65t-170.5 -175.5
t-62.5 -240.5q0 -185 116 -304.5t294 -119.5q96 0 183.5 38.5t151 103t101 153.5t37.5 186zM475 1337l10 58h516l-10 -58h-516z" />
    <glyph glyph-name="Obreve" unicode="&#x14e;" horiz-adv-x="1605" 
d="M152 623q-4 147 56.5 286.5t161.5 241.5t239.5 163t283.5 58q174 3 319.5 -81.5t228 -233t79.5 -326.5q4 -148 -56.5 -288t-162 -242t-240 -163t-283.5 -58q-172 -3 -317.5 82t-228.5 234t-80 327zM1450 731q3 161 -70.5 295t-203 210t-285.5 73q-132 2 -256.5 -53.5
t-216 -148.5t-146 -221t-51.5 -263q-2 -162 71 -296t202.5 -210.5t285.5 -73.5q131 -3 255.5 53t216 150t146 222t52.5 263zM756 1747q0 46 14 117h61q-14 -71 -14 -109q0 -90 54.5 -144.5t142.5 -54.5q91 0 152.5 59t78.5 163l15 86h61l-14 -86q-23 -130 -102 -204.5
t-195 -74.5q-109 0 -181.5 71t-72.5 177z" />
    <glyph glyph-name="obreve" unicode="&#x14f;" horiz-adv-x="1249" 
d="M119 463q-2 108 41 209t116 174t173 116.5t206 41.5q203 0 340.5 -138.5t137.5 -343.5q2 -107 -42 -208.5t-117.5 -175t-174.5 -117t-207 -41.5q-202 0 -337.5 138.5t-135.5 344.5zM1067 520q0 181 -119.5 302.5t-294.5 121.5q-128 0 -236 -65t-170.5 -175.5
t-62.5 -240.5q0 -185 116 -304.5t294 -119.5q96 0 183.5 38.5t151 103t101 153.5t37.5 186zM457 1425q0 46 14 117h61q-14 -71 -14 -108q0 -90 54.5 -144.5t142.5 -54.5q91 0 152.5 58.5t78.5 162.5l15 86h61l-14 -86q-23 -130 -102 -204t-195 -74q-109 0 -181.5 70.5
t-72.5 176.5z" />
    <glyph glyph-name="Ohungarumlaut" unicode="&#x150;" horiz-adv-x="1605" 
d="M152 623q-4 147 56.5 286.5t161.5 241.5t239.5 163t283.5 58q174 3 319.5 -81.5t228 -233t79.5 -326.5q4 -148 -56.5 -288t-162 -242t-240 -163t-283.5 -58q-172 -3 -317.5 82t-228.5 234t-80 327zM1450 731q3 161 -70.5 295t-203 210t-285.5 73q-132 2 -256.5 -53.5
t-216 -148.5t-146 -221t-51.5 -263q-2 -162 71 -296t202.5 -210.5t285.5 -73.5q131 -3 255.5 53t216 150t146 222t52.5 263zM717 1483l264 381h80l-2 -11l-283 -370h-59zM1135 1483l264 381h80l-2 -11l-283 -370h-59z" />
    <glyph glyph-name="ohungarumlaut" unicode="&#x151;" horiz-adv-x="1249" 
d="M119 463q-2 108 41 209t116 174t173 116.5t206 41.5q203 0 340.5 -138.5t137.5 -343.5q2 -107 -42 -208.5t-117.5 -175t-174.5 -117t-207 -41.5q-202 0 -337.5 138.5t-135.5 344.5zM1067 520q0 181 -119.5 302.5t-294.5 121.5q-128 0 -236 -65t-170.5 -175.5
t-62.5 -240.5q0 -185 116 -304.5t294 -119.5q96 0 183.5 38.5t151 103t101 153.5t37.5 186zM473 1151l275 446h81l-2 -10l-295 -436h-59zM850 1151l274 446h82l-2 -10l-295 -436h-59z" />
    <glyph glyph-name="OE" unicode="&#x152;" horiz-adv-x="2359" 
d="M2392 1294h-766l-92 -530h602l-10 -57h-602l-115 -650h791l-11 -57h-856l58 324q-80 -157 -244 -252q-164 -92 -365 -92q-130 -2 -248 48t-202.5 136t-133 205.5t-46.5 251.5q-3 150 57.5 290t163 242t244.5 162t294 57q218 0 386 -126t202 -312l72 418h831zM1460 778
q0 230 -157 381.5t-396 151.5q-136 3 -264 -52t-221.5 -148.5t-148.5 -222.5t-52 -267q0 -165 74 -297.5t205 -207.5t295 -75q136 -3 260 55t213.5 157t141.5 237t50 288z" />
    <glyph glyph-name="oe" unicode="&#x153;" horiz-adv-x="2064" 
d="M1944 485h-840v-22q0 -186 113 -306t286 -120q98 0 190 40.5t158 112.5l39 -38q-72 -81 -175 -126.5t-214 -45.5q-159 0 -278 91t-160 244q-57 -145 -193 -243q-133 -92 -290 -92q-195 0 -328 139.5t-133 343.5q-2 105 41 206t115 175t170.5 118t201.5 42
q157 0 275.5 -92t160.5 -242q58 145 187 239q127 92 280 92q180 0 295 -115t115 -292q0 -59 -16 -109zM1044 520q0 180 -115.5 303t-285.5 123q-91 0 -176 -39t-147 -104t-99 -155t-37 -187q0 -181 114 -302.5t284 -121.5q120 -3 228 64t172.5 180.5t61.5 238.5zM1110 543
h782q2 10 2 49q0 158 -95 255t-249 97q-165 0 -290 -115t-150 -286z" />
    <glyph glyph-name="Racute" unicode="&#x154;" horiz-adv-x="1245" 
d="M737 639l375 -639h-76l-372 637h-361l-113 -637h-65l237 1352h408q174 0 273.5 -87.5t99.5 -240.5q0 -164 -111 -269.5t-295 -115.5zM418 1294l-105 -600h381q174 0 276.5 89t102.5 241q0 131 -81 200.5t-234 69.5h-340zM686 1483l258 381h82l-2 -11l-283 -370h-55z" />
    <glyph glyph-name="racute" unicode="&#x155;" horiz-adv-x="698" 
d="M748 975l-9 -49q-49 6 -77 6q-137 0 -244 -84q-105 -85 -125 -213l-113 -635h-61l174 983h61l-26 -147q121 151 329 151q51 0 91 -12zM410 1151l274 446h82v-10l-297 -436h-59z" />
    <glyph glyph-name="uni0156" unicode="&#x156;" horiz-adv-x="1245" 
d="M737 639l375 -639h-76l-372 637h-361l-113 -637h-65l237 1352h408q174 0 273.5 -87.5t99.5 -240.5q0 -164 -111 -269.5t-295 -115.5zM418 1294l-105 -600h381q174 0 276.5 89t102.5 241q0 131 -81 200.5t-234 69.5h-340zM391 -451l90 345h74l-111 -345h-53z" />
    <glyph glyph-name="uni0157" unicode="&#x157;" horiz-adv-x="698" 
d="M748 975l-9 -49q-49 6 -77 6q-137 0 -244 -84q-105 -85 -125 -213l-113 -635h-61l174 983h61l-26 -147q121 151 329 151q51 0 91 -12zM4 -451l90 345h74l-111 -345h-53z" />
    <glyph glyph-name="Rcaron" unicode="&#x158;" horiz-adv-x="1245" 
d="M737 639l375 -639h-76l-372 637h-361l-113 -637h-65l237 1352h408q174 0 273.5 -87.5t99.5 -240.5q0 -164 -111 -269.5t-295 -115.5zM418 1294l-105 -600h381q174 0 276.5 89t102.5 241q0 131 -81 200.5t-234 69.5h-340zM1034 1864h62l-367 -381h-31l-231 381h51
l207 -299z" />
    <glyph glyph-name="rcaron" unicode="&#x159;" horiz-adv-x="698" 
d="M748 975l-9 -49q-49 6 -77 6q-137 0 -244 -84q-105 -85 -125 -213l-113 -635h-61l174 983h61l-26 -147q121 151 329 151q51 0 91 -12zM776 1597h60l-357 -446h-30l-201 446h51l178 -352z" />
    <glyph glyph-name="Sacute" unicode="&#x15a;" horiz-adv-x="1136" 
d="M66 297l59 29q75 -140 185.5 -212.5t246.5 -72.5q148 0 240 81.5t92 211.5q0 87 -50.5 156t-166.5 137l-150 90q-125 75 -183 152t-58 169q0 143 110.5 238.5t276.5 95.5q270 0 405 -231l-53 -33q-67 104 -152 153.5t-200 49.5q-141 0 -229.5 -75t-88.5 -194
q0 -79 48.5 -141.5t166.5 -134.5l142 -86q130 -79 190.5 -161t60.5 -183q0 -154 -115 -255t-290 -101q-158 0 -281.5 80.5t-205.5 236.5zM707 1483l258 381h82l-3 -11l-282 -370h-55z" />
    <glyph glyph-name="sacute" unicode="&#x15b;" horiz-adv-x="931" 
d="M82 207l53 35q112 -205 316 -205q109 0 181.5 57.5t72.5 143.5q0 61 -45.5 107.5t-159.5 107.5l-84 45q-110 61 -157.5 120t-47.5 138q0 106 85 177t214 71q189 0 303 -164l-47 -39q-109 145 -258 145q-102 0 -167 -53t-65 -135q0 -63 39 -109t138 -100l88 -47
q121 -65 175 -125.5t54 -140.5q0 -112 -91.5 -184t-232.5 -72q-116 0 -210 59t-154 168zM504 1151l274 446h82v-10l-297 -436h-59z" />
    <glyph glyph-name="Scircumflex" unicode="&#x15c;" horiz-adv-x="1136" 
d="M66 297l59 29q75 -140 185.5 -212.5t246.5 -72.5q148 0 240 81.5t92 211.5q0 87 -50.5 156t-166.5 137l-150 90q-125 75 -183 152t-58 169q0 143 110.5 238.5t276.5 95.5q270 0 405 -231l-53 -33q-67 104 -152 153.5t-200 49.5q-141 0 -229.5 -75t-88.5 -194
q0 -79 48.5 -141.5t166.5 -134.5l142 -86q130 -79 190.5 -161t60.5 -183q0 -154 -115 -255t-290 -101q-158 0 -281.5 80.5t-205.5 236.5zM1049 1483h-52l-206 299l-310 -299h-61l366 381h31z" />
    <glyph glyph-name="scircumflex" unicode="&#x15d;" horiz-adv-x="931" 
d="M82 207l53 35q112 -205 316 -205q109 0 181.5 57.5t72.5 143.5q0 61 -45.5 107.5t-159.5 107.5l-84 45q-110 61 -157.5 120t-47.5 138q0 106 85 177t214 71q189 0 303 -164l-47 -39q-109 145 -258 145q-102 0 -167 -53t-65 -135q0 -63 39 -109t138 -100l88 -47
q121 -65 175 -125.5t54 -140.5q0 -112 -91.5 -184t-232.5 -72q-116 0 -210 59t-154 168zM848 1151h-51l-179 352l-299 -352h-59l356 446h31z" />
    <glyph glyph-name="Scedilla" unicode="&#x15e;" horiz-adv-x="1136" 
d="M66 297l59 29q75 -140 185.5 -212.5t246.5 -72.5q148 0 240 81.5t92 211.5q0 87 -50.5 156t-166.5 137l-150 90q-125 75 -183 152t-58 169q0 143 110.5 238.5t276.5 95.5q270 0 405 -231l-53 -33q-67 104 -152 153.5t-200 49.5q-141 0 -229.5 -75t-88.5 -194
q0 -79 48.5 -141.5t166.5 -134.5l142 -86q130 -79 190.5 -161t60.5 -183q0 -154 -115 -255t-290 -101q-158 0 -281.5 80.5t-205.5 236.5zM186 -360l11 53q97 -23 135 -23q84 0 135 48t51 126q0 45 -17.5 78.5t-64.5 77.5l29 20q57 -31 87 -79t30 -105q0 -94 -72 -160
q-71 -65 -172 -65q-67 0 -152 29z" />
    <glyph glyph-name="scedilla" unicode="&#x15f;" horiz-adv-x="931" 
d="M82 207l53 35q112 -205 316 -205q109 0 181.5 57.5t72.5 143.5q0 61 -45.5 107.5t-159.5 107.5l-84 45q-110 61 -157.5 120t-47.5 138q0 106 85 177t214 71q189 0 303 -164l-47 -39q-109 145 -258 145q-102 0 -167 -53t-65 -135q0 -63 39 -109t138 -100l88 -47
q121 -65 175 -125.5t54 -140.5q0 -112 -91.5 -184t-232.5 -72q-116 0 -210 59t-154 168zM150 -360l10 53q97 -23 135 -23q84 0 135 48t51 126q0 45 -17.5 78.5t-64.5 77.5l29 20q57 -31 87 -79t30 -105q0 -94 -72 -160q-71 -65 -172 -65q-66 0 -151 29z" />
    <glyph glyph-name="Scaron" unicode="&#x160;" horiz-adv-x="1136" 
d="M66 297l59 29q75 -140 185.5 -212.5t246.5 -72.5q148 0 240 81.5t92 211.5q0 87 -50.5 156t-166.5 137l-150 90q-125 75 -183 152t-58 169q0 143 110.5 238.5t276.5 95.5q270 0 405 -231l-53 -33q-67 104 -152 153.5t-200 49.5q-141 0 -229.5 -75t-88.5 -194
q0 -79 48.5 -141.5t166.5 -134.5l142 -86q130 -79 190.5 -161t60.5 -183q0 -154 -115 -255t-290 -101q-158 0 -281.5 80.5t-205.5 236.5zM1055 1864h61l-366 -381h-31l-232 381h52l206 -299z" />
    <glyph glyph-name="scaron" unicode="&#x161;" horiz-adv-x="931" 
d="M82 207l53 35q112 -205 316 -205q109 0 181.5 57.5t72.5 143.5q0 61 -45.5 107.5t-159.5 107.5l-84 45q-110 61 -157.5 120t-47.5 138q0 106 85 177t214 71q189 0 303 -164l-47 -39q-109 145 -258 145q-102 0 -167 -53t-65 -135q0 -63 39 -109t138 -100l88 -47
q121 -65 175 -125.5t54 -140.5q0 -112 -91.5 -184t-232.5 -72q-116 0 -210 59t-154 168zM870 1597h60l-357 -446h-30l-201 446h51l178 -352z" />
    <glyph glyph-name="uni0162" unicode="&#x162;" horiz-adv-x="1196" 
d="M479 0l228 1294h-510l10 58h1085l-10 -58h-510l-227 -1294h-66zM229 -360l11 53q97 -23 135 -23q84 0 135 48t51 126q0 45 -17.5 78.5t-64.5 77.5l29 20q57 -31 87 -79t30 -105q0 -94 -72 -160q-71 -65 -172 -65q-67 0 -152 29z" />
    <glyph glyph-name="uni0163" unicode="&#x163;" horiz-adv-x="716" 
d="M377 926l-115 -652q-6 -35 -6 -61q0 -176 233 -176q35 0 97 6l-11 -53q-45 -10 -98 -10q-137 0 -209.5 58.5t-72.5 168.5q0 37 6 72l114 647h-176l8 57h179l51 287h61l-51 -287h326l-8 -57h-328zM84 -360l10 53q97 -23 135 -23q85 0 136 48t51 126q0 45 -17.5 78.5
t-64.5 77.5l28 20q57 -31 87 -79t30 -105q0 -95 -71 -160t-172 -65q-67 0 -152 29z" />
    <glyph glyph-name="Tcaron" unicode="&#x164;" horiz-adv-x="1196" 
d="M479 0l228 1294h-510l10 58h1085l-10 -58h-510l-227 -1294h-66zM1092 1864h61l-367 -381h-30l-232 381h51l207 -299z" />
    <glyph glyph-name="tcaron" unicode="&#x165;" horiz-adv-x="716" 
d="M377 926l-115 -652q-6 -35 -6 -61q0 -176 233 -176q35 0 97 6l-11 -53q-45 -10 -98 -10q-137 0 -209.5 58.5t-72.5 168.5q0 37 6 72l114 647h-176l8 57h179l51 287h61l-51 -287h326l-8 -57h-328zM598 1106l117 430h78l-142 -430h-53z" />
    <glyph glyph-name="Tbar" unicode="&#x166;" horiz-adv-x="1196" 
d="M1282 1294h-510l-115 -651h430l-10 -57h-430l-102 -586h-66l103 586h-430l10 57h430l115 651h-510l10 58h1085z" />
    <glyph glyph-name="tbar" unicode="&#x167;" horiz-adv-x="751" 
d="M705 926h-308l-67 -385h319l-8 -58h-322l-36 -209q-7 -40 -7 -61q0 -176 234 -176q34 0 96 6l-10 -53q-45 -10 -98 -10q-135 0 -209 56t-74 171q0 37 6 72l37 204h-182l8 58h184l68 385h-197l8 57h199l51 287h62l-51 -287h305z" />
    <glyph glyph-name="Utilde" unicode="&#x168;" horiz-adv-x="1390" 
d="M190 432q0 46 11 117l139 803h66l-142 -809q-8 -41 -8 -105q0 -175 114 -286t294 -111t305 113q126 111 161 301l154 897h66l-156 -903q-38 -217 -182 -343t-348 -126q-207 0 -340.5 127t-133.5 325zM911 1604l-65 53q-32 25 -49 34t-39 9q-41 0 -62 -31.5t-32 -103.5
h-60q11 94 46.5 143t105.5 49q38 0 63 -12.5t66 -46.5l63 -53q52 -43 90 -43q42 0 63 32t32 103h59q-21 -193 -156 -193q-34 0 -59 13t-66 47z" />
    <glyph glyph-name="utilde" unicode="&#x169;" horiz-adv-x="1107" 
d="M160 309q0 43 6 78l104 596h62l-107 -602q-6 -35 -6 -70q0 -122 80 -198t209 -76q122 0 211 79.5t112 209.5l117 657h62l-117 -661q-27 -155 -137 -248q-107 -94 -254 -94q-151 0 -246 92q-96 93 -96 237zM686 1315l-41 55q-39 51 -82 51q-41 0 -62 -33.5t-32 -109.5h-59
q11 98 46 149.5t105 51.5q73 0 123 -68l41 -55q39 -51 82 -51q41 0 62 33.5t32 109.5h60q-11 -98 -46.5 -149.5t-105.5 -51.5q-73 0 -123 68z" />
    <glyph glyph-name="Umacron" unicode="&#x16a;" horiz-adv-x="1390" 
d="M190 432q0 46 11 117l139 803h66l-142 -809q-8 -41 -8 -105q0 -175 114 -286t294 -111t305 113q126 111 161 301l154 897h66l-156 -903q-38 -217 -182 -343t-348 -126q-207 0 -340.5 127t-133.5 325zM612 1602l11 57h557l-11 -57h-557z" />
    <glyph glyph-name="umacron" unicode="&#x16b;" horiz-adv-x="1107" 
d="M160 309q0 43 6 78l104 596h62l-107 -602q-6 -35 -6 -70q0 -122 80 -198t209 -76q122 0 211 79.5t112 209.5l117 657h62l-117 -661q-27 -155 -137 -248q-107 -94 -254 -94q-151 0 -246 92q-96 93 -96 237zM424 1337l10 58h516l-10 -58h-516z" />
    <glyph glyph-name="Ubreve" unicode="&#x16c;" horiz-adv-x="1390" 
d="M190 432q0 46 11 117l139 803h66l-142 -809q-8 -41 -8 -105q0 -175 114 -286t294 -111t305 113q126 111 161 301l154 897h66l-156 -903q-38 -217 -182 -343t-348 -126q-207 0 -340.5 127t-133.5 325zM647 1747q0 41 15 117h61q-14 -71 -14 -109q0 -90 54 -144.5
t142 -54.5q91 0 153 59t79 163l14 86h61l-14 -86q-23 -130 -102 -204.5t-195 -74.5q-109 0 -181.5 71t-72.5 177z" />
    <glyph glyph-name="ubreve" unicode="&#x16d;" horiz-adv-x="1107" 
d="M160 309q0 43 6 78l104 596h62l-107 -602q-6 -35 -6 -70q0 -122 80 -198t209 -76q122 0 211 79.5t112 209.5l117 657h62l-117 -661q-27 -155 -137 -248q-107 -94 -254 -94q-151 0 -246 92q-96 93 -96 237zM406 1425q0 46 14 117h61q-14 -71 -14 -108q0 -90 54.5 -144.5
t142.5 -54.5q91 0 152.5 58.5t78.5 162.5l14 86h62l-15 -86q-23 -130 -102 -204t-195 -74q-109 0 -181 70.5t-72 176.5z" />
    <glyph glyph-name="Uring" unicode="&#x16e;" horiz-adv-x="1390" 
d="M190 432q0 46 11 117l139 803h66l-142 -809q-8 -41 -8 -105q0 -175 114 -286t294 -111t305 113q126 111 161 301l154 897h66l-156 -903q-38 -217 -182 -343t-348 -126q-207 0 -340.5 127t-133.5 325zM702 1657q0 83 62 145q65 62 151 62q81 0 137 -55.5t56 -133.5
q0 -83 -64 -147q-62 -62 -149 -62q-80 0 -136.5 56t-56.5 135zM1044 1671q0 57 -38 96t-95 39q-60 0 -102.5 -43t-42.5 -104q0 -57 38 -96t93 -39q61 0 104 43.5t43 103.5z" />
    <glyph glyph-name="uring" unicode="&#x16f;" horiz-adv-x="1107" 
d="M160 309q0 43 6 78l104 596h62l-107 -602q-6 -35 -6 -70q0 -122 80 -198t209 -76q122 0 211 79.5t112 209.5l117 657h62l-117 -661q-27 -155 -137 -248q-107 -94 -254 -94q-151 0 -246 92q-96 93 -96 237zM487 1356q0 83 62 145q65 62 151 62q81 0 137 -55.5t56 -133.5
q0 -83 -64 -147q-62 -62 -149 -62q-80 0 -136.5 56t-56.5 135zM829 1370q0 57 -38 96t-95 39q-60 0 -102.5 -43t-42.5 -104q0 -57 38 -96t93 -39q61 0 104 43.5t43 103.5z" />
    <glyph glyph-name="Uhungarumlaut" unicode="&#x170;" horiz-adv-x="1390" 
d="M190 432q0 46 11 117l139 803h66l-142 -809q-8 -41 -8 -105q0 -175 114 -286t294 -111t305 113q126 111 161 301l154 897h66l-156 -903q-38 -217 -182 -343t-348 -126q-207 0 -340.5 127t-133.5 325zM608 1483l264 381h80l-2 -11l-282 -370h-60zM1026 1483l264 381h80
l-2 -11l-283 -370h-59z" />
    <glyph glyph-name="uhungarumlaut" unicode="&#x171;" horiz-adv-x="1107" 
d="M160 309q0 43 6 78l104 596h62l-107 -602q-6 -35 -6 -70q0 -122 80 -198t209 -76q122 0 211 79.5t112 209.5l117 657h62l-117 -661q-27 -155 -137 -248q-107 -94 -254 -94q-151 0 -246 92q-96 93 -96 237zM422 1151l274 446h82l-2 -10l-295 -436h-59zM799 1151l274 446
h82l-2 -10l-295 -436h-59z" />
    <glyph glyph-name="Uogonek" unicode="&#x172;" horiz-adv-x="1390" 
d="M190 432q0 46 11 117l139 803h66l-142 -809q-8 -41 -8 -105q0 -175 114 -286t294 -111t305 113q126 111 161 301l154 897h66l-156 -903q-38 -217 -182 -343t-348 -126q-207 0 -340.5 127t-133.5 325zM643 -244q0 51 25 99q25 44 94 108q79 72 225 193l72 -4l-209 -189
q-141 -126 -141 -203q0 -92 145 -92q42 0 94 6l-8 -53q-62 -10 -102 -10q-87 0 -141 38.5t-54 106.5z" />
    <glyph glyph-name="uogonek" unicode="&#x173;" horiz-adv-x="1107" 
d="M948 983h62l-117 -661q-15 -90 -49 -144q-29 -53 -78 -96q-37 -32 -148 -109q-115 -79 -159 -123q-39 -39 -39 -86q0 -96 145 -96q41 0 94 6l-8 -53q-62 -10 -102 -10q-88 0 -141.5 38t-53.5 109q0 56 41.5 106.5t141.5 117.5q-8 -2 -37 -2q-147 0 -243.5 92.5
t-96.5 236.5q0 43 6 78l104 596h62l-107 -602q-6 -35 -6 -70q0 -122 81.5 -198t205.5 -76t212 77.5t113 211.5z" />
    <glyph glyph-name="Wcircumflex" unicode="&#x174;" horiz-adv-x="2205" 
d="M2154 1352h70l-731 -1372h-31l-248 1255l-688 -1255h-30l-252 1372h63l223 -1246l691 1266h30l246 -1259zM1604 1483h-52l-206 299l-310 -299h-61l366 381h31z" />
    <glyph glyph-name="wcircumflex" unicode="&#x175;" horiz-adv-x="1724" 
d="M1653 983h67l-551 -1003h-30l-224 899l-532 -899h-31l-207 1003h66l176 -885l531 906h30l219 -912zM1253 1151h-51l-178 352l-299 -352h-59l356 446h31z" />
    <glyph glyph-name="Ycircumflex" unicode="&#x176;" horiz-adv-x="1249" 
d="M1268 1352l-606 -768l-103 -584h-65l102 588l-336 764h64l311 -709l557 709h76zM1098 1483h-51l-207 299l-310 -299h-61l367 381h30z" />
    <glyph glyph-name="ycircumflex" unicode="&#x177;" horiz-adv-x="1130" 
d="M950 983h62l-178 -1008q-29 -167 -139.5 -265.5t-268.5 -98.5q-119 0 -219 59.5t-160 167.5l51 35q54 -97 140 -151t190 -54q134 0 226 83t118 229l27 151q-114 -151 -312 -151q-146 0 -236.5 86t-90.5 225q0 26 12 110l102 582h62l-105 -590q-10 -65 -10 -90
q0 -119 73.5 -192.5t197.5 -73.5q130 0 224 81.5t120 221.5zM963 1151h-52l-178 352l-299 -352h-59l356 446h31z" />
    <glyph glyph-name="Ydieresis" unicode="&#x178;" horiz-adv-x="1249" 
d="M1268 1352l-606 -768l-103 -584h-65l102 588l-336 764h64l311 -709l557 709h76zM518 1651q0 29 20.5 49t49.5 20t49 -20t20 -49t-20 -49.5t-49 -20.5t-49.5 20.5t-20.5 49.5zM971 1651q0 29 20 49t49 20t49.5 -20t20.5 -49t-20.5 -49.5t-49.5 -20.5t-49 20.5t-20 49.5z
" />
    <glyph glyph-name="Zacute" unicode="&#x179;" horiz-adv-x="1208" 
d="M1276 1352l-4 -25l-1163 -1270h942l-11 -57h-1040l4 25l1163 1269h-850l11 58h948zM756 1483l258 381h82l-2 -11l-283 -370h-55z" />
    <glyph glyph-name="zacute" unicode="&#x17a;" horiz-adv-x="915" 
d="M915 983l-4 -25l-811 -901h664l-10 -57h-762l4 25l811 901h-606l10 57h704zM518 1151l275 446h81v-10l-296 -436h-60z" />
    <glyph glyph-name="Zdotaccent" unicode="&#x17b;" horiz-adv-x="1208" 
d="M1276 1352l-4 -25l-1163 -1270h942l-11 -57h-1040l4 25l1163 1269h-850l11 58h948zM745 1651q0 29 20.5 49t49.5 20t49.5 -20t20.5 -49t-20.5 -49.5t-49.5 -20.5t-49.5 20.5t-20.5 49.5z" />
    <glyph glyph-name="zdotaccent" unicode="&#x17c;" horiz-adv-x="915" 
d="M915 983l-4 -25l-811 -901h664l-10 -57h-762l4 25l811 901h-606l10 57h704zM539 1364q0 29 20 49.5t49 20.5t49.5 -20.5t20.5 -49.5t-20.5 -49.5t-49.5 -20.5t-49 20.5t-20 49.5z" />
    <glyph glyph-name="Zcaron" unicode="&#x17d;" horiz-adv-x="1208" 
d="M1276 1352l-4 -25l-1163 -1270h942l-11 -57h-1040l4 25l1163 1269h-850l11 58h948zM1104 1864h61l-366 -381h-31l-231 381h51l207 -299z" />
    <glyph glyph-name="zcaron" unicode="&#x17e;" horiz-adv-x="915" 
d="M915 983l-4 -25l-811 -901h664l-10 -57h-762l4 25l811 901h-606l10 57h704zM885 1597h59l-356 -446h-31l-201 446h52l178 -352z" />
    <glyph glyph-name="uni018F" unicode="&#x18f;" horiz-adv-x="1492" 
d="M1411 756q4 -151 -54 -296t-155.5 -251t-229.5 -169.5t-270 -59.5q-254 0 -409.5 154t-155.5 407q0 46 13 139h1187q4 66 4 76q3 152 -70.5 281t-202 203t-280.5 71q-146 0 -277 -59t-218 -162l-45 40q97 113 242 177.5t303 64.5q126 2 241.5 -46t198.5 -131t131.5 -198
t46.5 -241zM1329 623h-1118q-4 -78 -4 -84q0 -225 137.5 -361.5t362.5 -136.5q146 -3 281 75t226.5 213t114.5 294z" />
    <glyph glyph-name="florin" unicode="&#x192;" horiz-adv-x="892" 
d="M1022 1358l-8 -51q-75 10 -115 10q-92 0 -150.5 -48.5t-89.5 -150.5l-96 -319h238l-10 -58h-246l-232 -764q-77 -249 -301 -249q-61 0 -121 14l9 51q75 -10 114 -10q179 0 240 199l231 759h-168l11 58h174l98 323q77 250 301 250q61 0 121 -14z" />
    <glyph glyph-name="uni01D4" unicode="&#x1d4;" horiz-adv-x="1107" 
d="M160 309q0 43 6 78l104 596h62l-107 -602q-6 -35 -6 -70q0 -122 80 -198t209 -76q122 0 211 79.5t112 209.5l117 657h62l-117 -661q-27 -155 -137 -248q-107 -94 -254 -94q-151 0 -246 92q-96 93 -96 237zM965 1597h59l-356 -446h-31l-201 446h51l179 -352z" />
    <glyph glyph-name="AEacute" unicode="&#x1fc;" horiz-adv-x="1632" 
d="M1663 1294h-707l2 -530h449l-10 -57h-439l3 -650h512l-11 -57h-565v360h-618l-250 -360h-74l940 1352h778zM897 418l-2 829l-576 -829h578zM950 1483l258 381h82l-2 -11l-282 -370h-56z" />
    <glyph glyph-name="aeacute" unicode="&#x1fd;" horiz-adv-x="1845" 
d="M1724 469h-845v-16q0 -182 113 -299t290 -117q100 0 191.5 40t158.5 113l39 -38q-74 -82 -176.5 -127t-214.5 -45q-158 0 -278 86t-164 229q-44 -148 -162.5 -231.5t-282.5 -83.5q-148 0 -237.5 70t-89.5 186q0 134 104.5 212t282.5 78h362l12 76q9 50 9 70
q0 127 -74.5 200.5t-202.5 73.5q-85 0 -158 -34.5t-151 -112.5l-37 41q154 164 352 164q135 0 221 -69.5t105 -191.5q70 119 186.5 188.5t251.5 69.5q180 0 296 -113t116 -290q0 -49 -17 -129zM883 526h788l4 74q0 154 -96.5 249t-251.5 95q-172 0 -295.5 -118t-148.5 -300z
M788 362l17 107h-361q-150 0 -230.5 -58t-80.5 -167q0 -96 70.5 -151.5t189.5 -55.5q149 0 262 90q112 93 133 235zM918 1151l274 446h82v-10l-297 -436h-59z" />
    <glyph glyph-name="Oslashacute" unicode="&#x1fe;" horiz-adv-x="1581" 
d="M1552 1329l-186 -178q143 -176 143 -420q4 -146 -57 -285.5t-163 -242.5t-241 -164.5t-284 -58.5q-264 0 -440 176l-187 -176l-41 43l189 178q-146 179 -146 422q-3 146 58 286t163 242.5t240.5 163.5t282.5 57q266 0 442 -176l186 176zM209 623q0 -219 123 -375l946 901
q-75 78 -178 120t-221 42q-132 2 -256.5 -53.5t-216 -149t-146 -222t-51.5 -263.5zM1440 731q0 219 -123 373l-946 -901q74 -78 176.5 -120t220.5 -42q175 -4 332.5 92t250.5 257.5t89 340.5zM938 1483l258 381h82l-2 -11l-283 -370h-55z" />
    <glyph glyph-name="oslashacute" unicode="&#x1ff;" horiz-adv-x="1280" 
d="M1151 952l-117 -118q113 -128 113 -318q2 -104 -42 -203.5t-118 -173t-175 -117.5t-206 -42q-182 0 -311 114l-123 -123l-43 43l123 123q-119 138 -119 330q-3 141 71.5 267t200 199.5t265.5 70.5q192 0 323 -125l115 116zM199 465q0 -160 96 -285l655 656
q-113 110 -282 110q-126 0 -234 -65.5t-171.5 -176.5t-63.5 -239zM1081 516q0 156 -90 275l-653 -654q112 -100 270 -100q124 -3 234.5 63t176 178.5t62.5 237.5zM692 1151l275 446h82v-10l-297 -436h-60z" />
    <glyph glyph-name="uni0218" unicode="&#x218;" horiz-adv-x="1136" 
d="M66 297l59 29q75 -140 185.5 -212.5t246.5 -72.5q148 0 240 81.5t92 211.5q0 87 -50.5 156t-166.5 137l-150 90q-125 75 -183 152t-58 169q0 143 110.5 238.5t276.5 95.5q270 0 405 -231l-53 -33q-67 104 -152 153.5t-200 49.5q-141 0 -229.5 -75t-88.5 -194
q0 -79 48.5 -141.5t166.5 -134.5l142 -86q130 -79 190.5 -161t60.5 -183q0 -154 -115 -255t-290 -101q-158 0 -281.5 80.5t-205.5 236.5zM330 -451l90 345h74l-111 -345h-53z" />
    <glyph glyph-name="uni0219" unicode="&#x219;" horiz-adv-x="931" 
d="M82 207l53 35q112 -205 316 -205q109 0 181.5 57.5t72.5 143.5q0 61 -45.5 107.5t-159.5 107.5l-84 45q-110 61 -157.5 120t-47.5 138q0 106 85 177t214 71q189 0 303 -164l-47 -39q-109 145 -258 145q-102 0 -167 -53t-65 -135q0 -63 39 -109t138 -100l88 -47
q121 -65 175 -125.5t54 -140.5q0 -112 -91.5 -184t-232.5 -72q-116 0 -210 59t-154 168zM293 -451l90 345h74l-111 -345h-53z" />
    <glyph glyph-name="uni021A" unicode="&#x21a;" horiz-adv-x="1196" 
d="M479 0l228 1294h-510l10 58h1085l-10 -58h-510l-227 -1294h-66zM373 -451l90 345h74l-111 -345h-53z" />
    <glyph glyph-name="uni021B" unicode="&#x21b;" horiz-adv-x="716" 
d="M377 926l-115 -652q-6 -35 -6 -61q0 -176 233 -176q35 0 97 6l-11 -53q-45 -10 -98 -10q-137 0 -209.5 58.5t-72.5 168.5q0 37 6 72l114 647h-176l8 57h179l51 287h61l-51 -287h326l-8 -57h-328zM227 -451l90 345h74l-110 -345h-54z" />
    <glyph glyph-name="uni0237" unicode="&#x237;" horiz-adv-x="473" 
d="M-262 -367l10 54q65 -19 125 -19q189 0 223 199l197 1116h61l-196 -1122q-23 -126 -97 -188t-190 -62q-69 0 -133 22z" />
    <glyph glyph-name="uni0259" unicode="&#x259;" horiz-adv-x="1153" 
d="M1034 522q2 -107 -40.5 -208.5t-113.5 -175t-168 -117t-198 -41.5q-180 0 -297 110.5t-117 278.5q0 59 17 118h852v33q0 185 -115.5 305.5t-290.5 120.5q-201 0 -338 -153l-39 38q69 82 169 127.5t210 45.5q200 0 334.5 -138.5t134.5 -343.5zM961 430h-791q-4 -50 -4 -59
q0 -148 97 -241t251 -93q165 0 292 112t155 281z" />
    <glyph glyph-name="circumflex" unicode="&#x2c6;" horiz-adv-x="1024" 
d="M922 1151h-52l-178 352l-299 -352h-59l356 446h31z" />
    <glyph glyph-name="caron" unicode="&#x2c7;" horiz-adv-x="1024" 
d="M940 1597h59l-356 -446h-31l-200 446h51l178 -352z" />
    <glyph glyph-name="breve" unicode="&#x2d8;" horiz-adv-x="1024" 
d="M408 1425q0 46 14 117h61q-14 -71 -14 -108q0 -90 54.5 -144.5t142.5 -54.5q91 0 152.5 58.5t78.5 162.5l14 86h62l-15 -86q-23 -130 -101.5 -204t-194.5 -74q-109 0 -181.5 70.5t-72.5 176.5z" />
    <glyph glyph-name="dotaccent" unicode="&#x2d9;" horiz-adv-x="1024" 
d="M596 1364q0 29 20.5 49.5t49.5 20.5t49 -20.5t20 -49.5t-20 -49.5t-49 -20.5t-49.5 20.5t-20.5 49.5z" />
    <glyph glyph-name="ring" unicode="&#x2da;" horiz-adv-x="1024" 
d="M463 1356q0 84 61 145q65 62 152 62q81 0 136.5 -55t55.5 -134q0 -84 -63 -147q-62 -62 -150 -62q-80 0 -136 56t-56 135zM805 1370q0 57 -38 96t-95 39q-60 0 -103 -43t-43 -104q0 -57 38 -96t93 -39q61 0 104.5 43.5t43.5 103.5z" />
    <glyph glyph-name="ogonek" unicode="&#x2db;" horiz-adv-x="1024" 
d="M223 -244q0 76 76 140q78 63 274 145l13 -41l-150 -82q-80 -44 -113.5 -80.5t-33.5 -77.5q0 -92 145 -92q42 0 94 6l-8 -53q-62 -10 -102 -10q-88 0 -141.5 39.5t-53.5 105.5z" />
    <glyph glyph-name="tilde" unicode="&#x2dc;" horiz-adv-x="1024" 
d="M666 1315l-41 55q-39 51 -82 51q-41 0 -62 -33.5t-32 -109.5h-60q11 98 46.5 149.5t105.5 51.5q73 0 123 -68l41 -55q39 -51 81 -51t63 33.5t32 109.5h59q-11 -98 -46.5 -149.5t-105.5 -51.5q-72 0 -122 68z" />
    <glyph glyph-name="hungarumlaut" unicode="&#x2dd;" horiz-adv-x="1024" 
d="M301 1151l274 446h82l-2 -10l-295 -436h-59zM678 1151l274 446h82l-2 -10l-295 -436h-59z" />
    <glyph glyph-name="gravecomb" unicode="&#x300;" horiz-adv-x="0" 
d="M-346 1151l-70 436l4 10h68l45 -446h-47z" />
    <glyph glyph-name="acutecomb" unicode="&#x301;" horiz-adv-x="0" 
d="M-535 1151l275 446h82v-10l-297 -436h-60z" />
    <glyph glyph-name="uni0302" unicode="&#x302;" horiz-adv-x="0" 
d="M-102 1151h-52l-178 352l-299 -352h-59l356 446h31z" />
    <glyph glyph-name="tildecomb" unicode="&#x303;" horiz-adv-x="0" 
d="M-356 1315l-41 55q-39 51 -82 51q-41 0 -62 -33.5t-32 -109.5h-60q11 98 46.5 149.5t105.5 51.5q73 0 123 -68l41 -55q39 -51 81 -51t63 33.5t32 109.5h59q-11 -98 -46 -149.5t-105 -51.5q-73 0 -123 68z" />
    <glyph glyph-name="uni0304" unicode="&#x304;" horiz-adv-x="0" 
d="M-621 1337l11 58h516l-10 -58h-517z" />
    <glyph glyph-name="uni0306" unicode="&#x306;" horiz-adv-x="0" 
d="M-616 1425q0 46 14 117h61q-14 -71 -14 -108q0 -90 54.5 -144.5t142.5 -54.5q91 0 152.5 58.5t78.5 162.5l14 86h62l-15 -86q-23 -130 -101.5 -204t-194.5 -74q-109 0 -181.5 70.5t-72.5 176.5z" />
    <glyph glyph-name="uni0307" unicode="&#x307;" horiz-adv-x="0" 
d="M-428 1364q0 29 20.5 49.5t49.5 20.5t49 -20.5t20 -49.5t-20 -49.5t-49 -20.5t-49.5 20.5t-20.5 49.5z" />
    <glyph glyph-name="uni0308" unicode="&#x308;" horiz-adv-x="0" 
d="M-633 1364q0 29 20.5 49.5t49.5 20.5t49 -20.5t20 -49.5t-20 -49.5t-49 -20.5t-49.5 20.5t-20.5 49.5zM-221 1364q0 29 20 49.5t49 20.5t49.5 -20.5t20.5 -49.5t-20.5 -49.5t-49.5 -20.5t-49 20.5t-20 49.5z" />
    <glyph glyph-name="uni030A" unicode="&#x30a;" horiz-adv-x="0" 
d="M-561 1356q0 85 63 145q62 62 150 62q81 0 136.5 -55t55.5 -134q0 -83 -61 -147q-65 -62 -152 -62q-80 0 -136 56t-56 135zM-219 1370q0 57 -38 96t-95 39q-60 0 -103 -43t-43 -104q0 -57 38 -96t93 -39q61 0 104.5 43.5t43.5 103.5z" />
    <glyph glyph-name="uni030B" unicode="&#x30b;" horiz-adv-x="0" 
d="M-723 1151l274 446h82l-2 -10l-295 -436h-59zM-346 1151l274 446h82l-2 -10l-295 -436h-59z" />
    <glyph glyph-name="uni030C" unicode="&#x30c;" horiz-adv-x="0" 
d="M-82 1597h59l-356 -446h-31l-200 446h51l178 -352z" />
    <glyph glyph-name="uni0326" unicode="&#x326;" horiz-adv-x="0" 
d="M-729 -451l90 345h74l-111 -345h-53z" />
    <glyph glyph-name="uni0327" unicode="&#x327;" horiz-adv-x="0" 
d="M-844 -360l10 53q97 -23 136 -23q84 0 135 48t51 126q0 45 -17.5 78.5t-64.5 77.5l29 20q116 -63 116 -184q0 -97 -69 -160q-71 -65 -174 -65q-67 0 -152 29z" />
    <glyph glyph-name="uni0328" unicode="&#x328;" horiz-adv-x="0" 
d="M-801 -244q0 74 78 140q80 64 272 145l13 -41l-150 -82q-80 -44 -113.5 -80.5t-33.5 -77.5q0 -92 145 -92q42 0 94 6l-8 -53q-62 -10 -102 -10q-88 0 -141.5 39.5t-53.5 105.5z" />
    <glyph glyph-name="tonos" unicode="&#x384;" horiz-adv-x="1024" 
d="M569 1151l119 446h78l-2 -10l-139 -436h-56z" />
    <glyph glyph-name="dieresistonos" unicode="&#x385;" horiz-adv-x="1024" 
d="M578 1151l118 446h76v-10l-139 -436h-55zM350 1364q0 29 20.5 49.5t49.5 20.5t49 -20.5t20 -49.5t-20 -49.5t-49 -20.5t-49.5 20.5t-20.5 49.5zM844 1364q0 29 20 49.5t49 20.5t49.5 -20.5t20.5 -49.5t-20.5 -49.5t-49.5 -20.5t-49 20.5t-20 49.5z" />
    <glyph glyph-name="Alphatonos" unicode="&#x386;" horiz-adv-x="1363" 
d="M1130 0l-88 360h-741l-211 -360h-74l815 1372h31l332 -1372h-64zM1030 418l-203 833l-493 -833h696zM238 922l116 430h78l-141 -430h-53z" />
    <glyph glyph-name="anoteleia" unicode="&#x387;" horiz-adv-x="575" 
d="M233 631q0 36 23 59t55 23q34 0 58 -22.5t24 -59.5q0 -34 -24.5 -56t-57.5 -22q-32 0 -55 22t-23 56z" />
    <glyph glyph-name="Epsilontonos" unicode="&#x388;" horiz-adv-x="1150" 
d="M125 0l237 1352h832l-10 -58h-766l-94 -530h602l-8 -57h-603l-114 -650h790l-10 -57h-856zM-43 922l117 430h78l-142 -430h-53z" />
    <glyph glyph-name="Etatonos" unicode="&#x389;" horiz-adv-x="1441" 
d="M125 0l237 1352h66l-102 -588h888l103 588h65l-237 -1352h-66l123 707h-889l-123 -707h-65zM-41 922l117 430h78l-142 -430h-53z" />
    <glyph glyph-name="Iotatonos" unicode="&#x38a;" horiz-adv-x="487" 
d="M125 0l237 1352h66l-238 -1352h-65zM-43 922l117 430h78l-142 -430h-53z" />
    <glyph glyph-name="Omicrontonos" unicode="&#x38c;" horiz-adv-x="1605" 
d="M152 623q-4 147 56.5 286.5t161.5 241.5t239.5 163t283.5 58q174 3 319.5 -81.5t228 -233t79.5 -326.5q4 -148 -56.5 -288t-162 -242t-240 -163t-283.5 -58q-172 -3 -317.5 82t-228.5 234t-80 327zM1450 731q3 161 -70.5 295t-203 210t-285.5 73q-132 2 -256.5 -53.5
t-216 -148.5t-146 -221t-51.5 -263q-2 -162 71 -296t202.5 -210.5t285.5 -73.5q131 -3 255.5 53t216 150t146 222t52.5 263zM12 922l117 430h78l-141 -430h-54z" />
    <glyph glyph-name="Upsilontonos" unicode="&#x38e;" horiz-adv-x="1249" 
d="M1268 1352l-606 -768l-103 -584h-65l102 588l-336 764h64l311 -709l557 709h76zM-94 922l117 430h77l-141 -430h-53z" />
    <glyph glyph-name="Omegatonos" unicode="&#x38f;" horiz-adv-x="1626" 
d="M1034 57h396l-11 -57h-528l10 61q277 109 421 281t144 397q0 252 -165 412t-424 160q-133 2 -254.5 -51t-209 -144t-138 -218t-48.5 -267q0 -174 99 -319.5t290 -250.5l-12 -61h-516l10 57h418q-173 103 -265.5 251t-92.5 321q-2 151 54.5 289.5t153.5 238.5t231 158.5
t280 56.5q192 0 342.5 -80t233.5 -224t83 -327q0 -221 -127 -393t-375 -291zM16 922l117 430h78l-141 -430h-54z" />
    <glyph glyph-name="iotadieresistonos" unicode="&#x390;" horiz-adv-x="587" 
d="M143 176q0 20 11 92l129 715h61l-129 -721q-10 -62 -10 -84q0 -67 45 -104t125 -37q56 0 125 14l-11 -55q-59 -16 -118 -16q-109 0 -168.5 51t-59.5 145zM313 1151l119 446h76v-10l-139 -436h-56zM86 1364q0 29 20.5 49.5t49.5 20.5t49 -20.5t20 -49.5t-20 -49.5
t-49 -20.5t-49.5 20.5t-20.5 49.5zM580 1364q0 29 20 49.5t49 20.5t49.5 -20.5t20.5 -49.5t-20.5 -49.5t-49.5 -20.5t-49 20.5t-20 49.5z" />
    <glyph glyph-name="Alpha" unicode="&#x391;" horiz-adv-x="1363" 
d="M1130 0l-88 360h-741l-211 -360h-74l815 1372h31l332 -1372h-64zM1030 418l-203 833l-493 -833h696z" />
    <glyph glyph-name="Beta" unicode="&#x392;" horiz-adv-x="1249" 
d="M1124 399q0 -177 -131 -288t-340 -111h-528l237 1352h412q155 0 242.5 -78t87.5 -215q0 -117 -62.5 -202t-173.5 -120q119 -32 187.5 -121.5t68.5 -216.5zM418 1294l-92 -530h399q139 0 225 81t86 212q0 115 -70.5 176t-201.5 61h-346zM1057 399q0 137 -89 220t-237 83
h-418l-112 -645h452q179 0 291.5 95t112.5 247z" />
    <glyph glyph-name="Gamma" unicode="&#x393;" horiz-adv-x="1009" 
d="M125 0l237 1352h750l-10 -58h-684l-228 -1294h-65z" />
    <glyph glyph-name="uni0394" unicode="&#x394;" horiz-adv-x="1363" 
d="M862 1372l326 -1347l-4 -25h-1157l4 25l800 1347h31zM1118 57l-289 1200l-708 -1200h997z" />
    <glyph glyph-name="Epsilon" unicode="&#x395;" horiz-adv-x="1150" 
d="M125 0l237 1352h832l-10 -58h-766l-94 -530h602l-8 -57h-603l-114 -650h790l-10 -57h-856z" />
    <glyph glyph-name="Zeta" unicode="&#x396;" horiz-adv-x="1208" 
d="M1276 1352l-4 -25l-1163 -1270h942l-11 -57h-1040l4 25l1163 1269h-850l11 58h948z" />
    <glyph glyph-name="Eta" unicode="&#x397;" horiz-adv-x="1441" 
d="M125 0l237 1352h66l-102 -588h888l103 588h65l-237 -1352h-66l123 707h-889l-123 -707h-65z" />
    <glyph glyph-name="Theta" unicode="&#x398;" horiz-adv-x="1605" 
d="M152 623q-3 146 57.5 286t162 242.5t239.5 163.5t282 57q174 3 319.5 -81.5t228 -233t79.5 -326.5q3 -146 -58 -285.5t-162.5 -242.5t-239.5 -164.5t-282 -58.5q-172 -3 -317.5 82t-228.5 234t-80 327zM1450 731q2 162 -71 296t-202.5 210.5t-285.5 73.5
q-132 2 -256.5 -53.5t-216 -149t-146 -222t-51.5 -263.5q0 -164 72.5 -297t201 -209t285.5 -76q131 -3 255.5 53.5t216 151t146 223t52.5 262.5zM418 637l10 59h795l-11 -59h-794z" />
    <glyph glyph-name="Iota" unicode="&#x399;" horiz-adv-x="487" 
d="M125 0l237 1352h66l-238 -1352h-65z" />
    <glyph glyph-name="Kappa" unicode="&#x39a;" horiz-adv-x="1224" 
d="M362 1352h66l-238 -1352h-65zM1249 1352l-805 -621l613 -731h-80l-619 735l793 617h98z" />
    <glyph glyph-name="Lambda" unicode="&#x39b;" horiz-adv-x="1363" 
d="M1194 0h-64l-301 1257l-741 -1257h-72l815 1372h31z" />
    <glyph glyph-name="Mu" unicode="&#x39c;" horiz-adv-x="1601" 
d="M1516 1372h30l-241 -1372h-66l209 1192l-635 -739h-31l-381 753l-211 -1206h-65l242 1372h30l414 -827z" />
    <glyph glyph-name="Nu" unicode="&#x39d;" horiz-adv-x="1441" 
d="M1317 1352h65l-241 -1372h-31l-707 1247l-213 -1227h-65l242 1372h30l705 -1255z" />
    <glyph glyph-name="Xi" unicode="&#x39e;" horiz-adv-x="1232" 
d="M225 1292l11 60h1064l-10 -60h-1065zM279 655l12 60h733l-12 -60h-733zM-2 0l10 59h1065l-10 -59h-1065z" />
    <glyph glyph-name="Omicron" unicode="&#x39f;" horiz-adv-x="1605" 
d="M152 623q-4 147 56.5 286.5t161.5 241.5t239.5 163t283.5 58q174 3 319.5 -81.5t228 -233t79.5 -326.5q4 -148 -56.5 -288t-162 -242t-240 -163t-283.5 -58q-172 -3 -317.5 82t-228.5 234t-80 327zM1450 731q3 161 -70.5 295t-203 210t-285.5 73q-132 2 -256.5 -53.5
t-216 -148.5t-146 -221t-51.5 -263q-2 -162 71 -296t202.5 -210.5t285.5 -73.5q131 -3 255.5 53t216 150t146 222t52.5 263z" />
    <glyph glyph-name="Pi" unicode="&#x3a0;" horiz-adv-x="1380" 
d="M125 0l237 1352h959l-238 -1352h-65l227 1294h-827l-228 -1294h-65z" />
    <glyph glyph-name="Rho" unicode="&#x3a1;" 
d="M125 0l237 1352h408q172 0 272.5 -88t100.5 -240q0 -173 -123.5 -280t-321.5 -107h-395l-113 -637h-65zM313 694h381q174 0 276.5 89t102.5 241q0 131 -81 200.5t-234 69.5h-340z" />
    <glyph glyph-name="Sigma" unicode="&#x3a3;" horiz-adv-x="1114" 
d="M1157 1352l-10 -58h-795l393 -587l-4 -25l-596 -625h809l-10 -57h-917l4 25l645 675l-416 627l4 25h893z" />
    <glyph glyph-name="Tau" unicode="&#x3a4;" horiz-adv-x="1196" 
d="M479 0l228 1294h-510l10 58h1085l-10 -58h-510l-227 -1294h-66z" />
    <glyph glyph-name="Upsilon" unicode="&#x3a5;" horiz-adv-x="1249" 
d="M1268 1352l-606 -768l-103 -584h-65l102 588l-336 764h64l311 -709l557 709h76z" />
    <glyph glyph-name="Phi" unicode="&#x3a6;" horiz-adv-x="1654" 
d="M694 -78l25 139q-250 15 -408.5 171t-158.5 384q0 316 207.5 494t576.5 178l25 139h65l-25 -139q250 -15 409 -171t159 -384q0 -316 -208 -494t-577 -178l-24 -139h-66zM729 123l197 1104q-334 0 -520 -162q-187 -159 -187 -447q0 -204 141 -342t369 -153zM1501 731
q0 204 -141.5 342.5t-368.5 153.5l-196 -1104q331 0 520 160q186 162 186 448z" />
    <glyph glyph-name="Chi" unicode="&#x3a7;" horiz-adv-x="1183" 
d="M1219 1352l-551 -664l348 -688h-70l-323 641l-549 -641h-80l596 698l-324 654h70l299 -609l504 609h80z" />
    <glyph glyph-name="Psi" unicode="&#x3a8;" horiz-adv-x="1460" 
d="M610 0l58 322q-223 0 -357.5 115t-134.5 306q0 43 10 101l88 508h66l-88 -508q-10 -68 -10 -99q0 -165 119 -263.5t317 -98.5l170 969h65l-170 -969q270 0 409.5 108.5t180.5 352.5l88 508h66l-88 -508q-50 -282 -203 -402t-463 -120l-57 -322h-66z" />
    <glyph glyph-name="uni03A9" unicode="&#x3a9;" horiz-adv-x="1626" 
d="M1034 57h396l-11 -57h-528l10 61q277 109 421 281t144 397q0 252 -165 412t-424 160q-133 2 -254.5 -51t-209 -144t-138 -218t-48.5 -267q0 -174 99 -319.5t290 -250.5l-12 -61h-516l10 57h418q-173 103 -265.5 251t-92.5 321q-2 151 54.5 289.5t153.5 238.5t231 158.5
t280 56.5q192 0 342.5 -80t233.5 -224t83 -327q0 -221 -127 -393t-375 -291z" />
    <glyph glyph-name="Iotadieresis" unicode="&#x3aa;" horiz-adv-x="487" 
d="M125 0l237 1352h66l-238 -1352h-65zM152 1651q0 29 20 49t49 20t49.5 -20t20.5 -49t-20.5 -49.5t-49.5 -20.5t-49 20.5t-20 49.5zM604 1651q0 29 20.5 49t49.5 20t49 -20t20 -49t-20 -49.5t-49 -20.5t-49.5 20.5t-20.5 49.5z" />
    <glyph glyph-name="Upsilondieresis" unicode="&#x3ab;" horiz-adv-x="1249" 
d="M1268 1352l-606 -768l-103 -584h-65l102 588l-336 764h64l311 -709l557 709h76zM514 1651q0 29 20.5 49t49.5 20t49 -20t20 -49t-20 -49.5t-49 -20.5t-49.5 20.5t-20.5 49.5zM967 1651q0 29 20 49t49 20t49.5 -20t20.5 -49t-20.5 -49.5t-49.5 -20.5t-49 20.5t-20 49.5z
" />
    <glyph glyph-name="alphatonos" unicode="&#x3ac;" horiz-adv-x="1331" 
d="M1145 39l57 4l-10 -53q-19 -8 -59 -8q-72 0 -115 44t-43 119q0 2 4 52q-62 -100 -171 -158.5t-239 -58.5q-194 0 -322 136t-128 341q-2 111 39.5 213t113 176t170.5 117t207 41q154 0 272 -88t146 -220l66 287h61l-29 -123q-46 -184 -71 -336l-47 -282q-11 -79 -11 -95
q0 -51 29 -79.5t80 -28.5zM1028 549q0 180 -103.5 288.5t-275.5 108.5q-126 0 -233 -65.5t-169.5 -177.5t-62.5 -244q0 -186 111 -304t285 -118q118 -3 223 68t166.5 191t58.5 253zM645 1151l119 446h78l-2 -10l-140 -436h-55z" />
    <glyph glyph-name="epsilontonos" unicode="&#x3ad;" horiz-adv-x="1021" 
d="M303 733q0 -94 57.5 -147.5t157.5 -53.5h215l-10 -57h-203q-155 0 -242.5 -61.5t-87.5 -171.5q0 -100 74.5 -152.5t214.5 -52.5q208 0 342 143l41 -39q-142 -161 -379 -161q-170 0 -264 68.5t-94 193.5q0 108 66 176.5t188 87.5q-141 64 -141 225q0 122 95 197.5
t247 75.5q103 0 204 -37q104 -35 156 -133l-51 -31q-82 143 -309 143q-125 0 -201 -58t-76 -155zM604 1153l119 446h78l-2 -10l-140 -436h-55z" />
    <glyph glyph-name="etatonos" unicode="&#x3ae;" horiz-adv-x="1163" 
d="M1006 692q0 -30 -13 -110l-166 -951h-61l168 959q10 65 10 90q0 120 -73 193t-197 73q-130 0 -224 -81.5t-120 -221.5l-115 -643h-61l131 741q10 65 10 95q0 54 -29 81t-80 27q-11 0 -57 -4l10 53q24 8 60 8q69 0 113 -42t44 -121v-2q55 80 137.5 124t184.5 44
q148 0 238 -87t90 -225zM672 1151l119 446h77l-2 -10l-139 -436h-55z" />
    <glyph glyph-name="iotatonos" unicode="&#x3af;" horiz-adv-x="587" 
d="M143 176q0 20 11 92l129 715h61l-129 -721q-10 -62 -10 -84q0 -67 45 -104t125 -37q56 0 125 14l-11 -55q-59 -16 -118 -16q-109 0 -168.5 51t-59.5 145zM309 1151l119 446h78l-2 -10l-139 -436h-56z" />
    <glyph glyph-name="upsilondieresistonos" unicode="&#x3b0;" horiz-adv-x="1107" 
d="M160 309q0 43 6 78l104 596h62l-107 -602q-6 -35 -6 -70q0 -122 80 -198t209 -76q122 0 211 79.5t112 209.5l117 657h62l-117 -661q-27 -155 -137 -248q-107 -94 -254 -94q-151 0 -246 92q-96 93 -96 237zM643 1151l119 446h76v-10l-140 -436h-55zM416 1364q0 29 20 49.5
t49 20.5t49.5 -20.5t20.5 -49.5t-20.5 -49.5t-49.5 -20.5t-49 20.5t-20 49.5zM909 1364q0 29 20.5 49.5t49.5 20.5t49.5 -20.5t20.5 -49.5t-20.5 -49.5t-49.5 -20.5t-49.5 20.5t-20.5 49.5z" />
    <glyph glyph-name="alpha" unicode="&#x3b1;" horiz-adv-x="1331" 
d="M1145 39l57 4l-10 -53q-19 -8 -59 -8q-72 0 -115 44t-43 119q0 2 4 52q-62 -100 -171 -158.5t-239 -58.5q-194 0 -322 136t-128 341q-2 111 39.5 213t113 176t170.5 117t207 41q154 0 272 -88t146 -220l66 287h61l-29 -123q-46 -184 -71 -336l-47 -282q-11 -79 -11 -95
q0 -51 29 -79.5t80 -28.5zM1028 549q0 180 -103.5 288.5t-275.5 108.5q-126 0 -233 -65.5t-169.5 -177.5t-62.5 -244q0 -186 111 -304t285 -118q118 -3 223 68t166.5 191t58.5 253z" />
    <glyph glyph-name="beta" unicode="&#x3b2;" horiz-adv-x="1216" 
d="M1087 463q0 -212 -124 -347.5t-318 -135.5q-204 0 -319 129t-115 356q0 64 14 141l92 527q37 207 151.5 315t297.5 108q154 0 244 -83.5t90 -225.5q0 -217 -293 -393q131 -54 205.5 -158t74.5 -233zM383 1128l-76 -426q378 123 552.5 255t174.5 294q0 117 -73 182.5
t-203 65.5q-153 0 -248 -94t-127 -277zM1022 459q0 119 -73.5 216t-200.5 144q-178 -93 -453 -178l-6 -37q-15 -82 -15 -139q0 -198 99.5 -313t271.5 -115q165 0 271 118.5t106 303.5z" />
    <glyph glyph-name="gamma" unicode="&#x3b3;" horiz-adv-x="1062" 
d="M1059 983l-600 -973l-66 -379h-61l67 387l-254 965h64l233 -895l545 895h72z" />
    <glyph glyph-name="delta" unicode="&#x3b4;" horiz-adv-x="1247" 
d="M1219 1536l-11 -57h-759l514 -568q87 -95 127 -185t40 -198q2 -109 -41 -211.5t-116 -176.5t-173 -118t-206 -42q-201 0 -338 140t-137 347q-3 139 70 264.5t196.5 200.5t261.5 72q99 0 197 -43l-510 550l4 25h881zM649 946q-126 0 -233 -64.5t-169.5 -175.5t-62.5 -241
q0 -184 117.5 -306t294.5 -122q126 0 234 65t171.5 176.5t63.5 241.5q0 180 -119.5 303t-296.5 123z" />
    <glyph glyph-name="epsilon" unicode="&#x3b5;" horiz-adv-x="1021" 
d="M303 733q0 -94 57.5 -147.5t157.5 -53.5h215l-10 -57h-203q-155 0 -242.5 -61.5t-87.5 -171.5q0 -100 74.5 -152.5t214.5 -52.5q208 0 342 143l41 -39q-142 -161 -379 -161q-170 0 -264 68.5t-94 193.5q0 108 66 176.5t188 87.5q-141 64 -141 225q0 122 95 197.5
t247 75.5q103 0 204 -37q104 -35 156 -133l-51 -31q-82 143 -309 143q-125 0 -201 -58t-76 -155z" />
    <glyph glyph-name="zeta" unicode="&#x3b6;" horiz-adv-x="913" 
d="M989 1511l-414 -512q-223 -282 -291.5 -406t-72.5 -261q0 -98 67 -167.5t185 -94.5l86 -19q219 -47 219 -225q0 -42 -19.5 -96t-50.5 -99h-65q69 100 69 193q0 63 -45.5 106t-132.5 62l-86 18q-137 29 -215 114t-78 206q3 104 35 191.5t109.5 202.5t236.5 312l357 443
h-607l11 57h706z" />
    <glyph glyph-name="eta" unicode="&#x3b7;" horiz-adv-x="1163" 
d="M1006 692q0 -30 -13 -110l-166 -951h-61l168 959q10 65 10 90q0 120 -73 193t-197 73q-130 0 -224 -81.5t-120 -221.5l-115 -643h-61l131 741q10 65 10 95q0 54 -29 81t-80 27q-11 0 -57 -4l10 53q24 8 60 8q69 0 113 -42t44 -121v-2q55 80 137.5 124t184.5 44
q148 0 238 -87t90 -225z" />
    <glyph glyph-name="theta" unicode="&#x3b8;" horiz-adv-x="1224" 
d="M1141 1059q2 -220 -46 -421.5t-130 -346.5t-196.5 -230t-238.5 -81q-183 0 -280.5 116.5t-97.5 333.5q0 156 38 338h64q-37 -203 -37 -336q0 -195 80 -295t235 -100q160 0 293 160q136 169 199 426q-321 63 -476 190t-155 328q0 190 101.5 302.5t273.5 112.5
q189 0 281 -123t92 -374zM1036 680q39 178 39 377q0 223 -75.5 331.5t-233.5 108.5q-143 0 -225 -95t-82 -261q0 -183 139 -294.5t438 -166.5z" />
    <glyph glyph-name="iota" unicode="&#x3b9;" horiz-adv-x="587" 
d="M143 176q0 20 11 92l129 715h61l-129 -721q-10 -62 -10 -84q0 -67 45 -104t125 -37q56 0 125 14l-11 -55q-59 -16 -118 -16q-109 0 -168.5 51t-59.5 145z" />
    <glyph glyph-name="kappa" unicode="&#x3ba;" horiz-adv-x="946" 
d="M293 983h61l-174 -983h-61zM948 983l-551 -461l422 -522h-76l-432 528l545 455h92z" />
    <glyph glyph-name="lambda" unicode="&#x3bb;" horiz-adv-x="1083" 
d="M932 51l57 2l-10 -53q-43 -6 -70 -6q-54 0 -84.5 32.5t-44.5 102.5l-149 782l-586 -911h-68l635 993l-51 291q-20 115 -62 165t-116 50q-41 0 -86 -10l10 55q35 12 80 12q97 0 150.5 -58t78.5 -187l224 -1161q11 -56 30.5 -77.5t61.5 -21.5z" />
    <glyph glyph-name="uni03BC" unicode="&#x3bc;" horiz-adv-x="1183" 
d="M1055 43l-11 -53q-24 -8 -59 -8q-69 0 -113.5 42t-44.5 121q-56 -80 -138.5 -122.5t-182.5 -42.5q-108 0 -187 48.5t-110 133.5l-94 -531h-62l240 1352h61l-104 -590q-10 -65 -10 -90q0 -121 73.5 -193.5t196.5 -72.5q129 0 224 83.5t120 219.5l115 643h61l-131 -741
q-10 -65 -10 -95q0 -54 28.5 -81t79.5 -27q12 0 58 4z" />
    <glyph glyph-name="nu" unicode="&#x3bd;" horiz-adv-x="1064" 
d="M989 983h72l-615 -1003h-30l-271 1003h66l238 -895z" />
    <glyph glyph-name="xi" unicode="&#x3be;" horiz-adv-x="935" 
d="M377 1143q0 -143 80.5 -231.5t210.5 -88.5h190l-8 -57h-264q-177 0 -302.5 -117.5t-125.5 -281.5q0 -128 78 -209.5t217 -94.5l94 -10q112 -12 173.5 -72.5t61.5 -158.5q0 -108 -57 -191h-66q58 94 58 187q0 75 -49 120.5t-142 55.5l-106 12q-149 17 -238.5 115
t-89.5 244q0 168 117 295.5t291 152.5q-189 83 -189 326q0 105 58 197t155 143h-266l10 57h793l-10 -57h-328q-141 0 -243.5 -99t-102.5 -237z" />
    <glyph glyph-name="omicron" unicode="&#x3bf;" horiz-adv-x="1249" 
d="M119 463q-2 108 41 209t116 174t173 116.5t206 41.5q203 0 340.5 -138.5t137.5 -343.5q2 -107 -42 -208.5t-117.5 -175t-174.5 -117t-207 -41.5q-202 0 -337.5 138.5t-135.5 344.5zM1067 520q0 181 -119.5 302.5t-294.5 121.5q-128 0 -236 -65t-170.5 -175.5
t-62.5 -240.5q0 -185 116 -304.5t294 -119.5q96 0 183.5 38.5t151 103t101 153.5t37.5 186z" />
    <glyph glyph-name="pi" unicode="&#x3c0;" horiz-adv-x="1189" 
d="M147 0l164 922h-174l13 61h1064l-12 -61h-174l-164 -922h-61l164 922h-594l-164 -922h-62z" />
    <glyph glyph-name="rho" unicode="&#x3c1;" horiz-adv-x="1273" 
d="M1157 526q1 -109 -40.5 -211t-112.5 -176t-168.5 -117.5t-202.5 -41.5q-147 0 -268 87t-152 212l-115 -648h-61l158 916q34 202 174.5 329.5t328.5 127.5q198 0 328.5 -136t130.5 -342zM1092 526q0 183 -111.5 300.5t-286.5 117.5q-126 0 -229 -69.5t-161 -191
t-58 -269.5q0 -161 112.5 -269t278.5 -108q122 0 227 66t166.5 178.5t61.5 244.5z" />
    <glyph glyph-name="uni03C2" unicode="&#x3c2;" horiz-adv-x="1069" 
d="M727 -176q0 67 -43 109t-137 67l-78 20q-348 92 -348 455q0 223 151 376t373 153q127 0 233 -53.5t175 -151.5l-49 -35q-61 87 -154.5 133.5t-204.5 46.5q-194 0 -326.5 -134.5t-132.5 -332.5q0 -156 78 -259t219 -140l78 -21q121 -31 177.5 -86t56.5 -143
q0 -106 -60 -197h-65q57 86 57 193z" />
    <glyph glyph-name="sigma" unicode="&#x3c3;" horiz-adv-x="1255" 
d="M1321 983l-10 -61h-432q111 -54 174 -159t63 -239q3 -144 -70 -271.5t-199 -202t-269 -70.5q-197 0 -329 135t-132 336q-3 146 70.5 270t201 194.5t277.5 67.5h655zM651 924q-198 0 -333.5 -134.5t-135.5 -330.5q0 -185 113 -303.5t287 -118.5q128 0 236 65t170.5 176.5
t62.5 243.5q0 175 -112 288.5t-288 113.5z" />
    <glyph glyph-name="tau" unicode="&#x3c4;" horiz-adv-x="921" 
d="M549 926l-113 -631q-10 -65 -10 -82q0 -176 225 -176q36 0 97 6l-11 -53q-45 -10 -98 -10q-135 0 -204.5 57.5t-69.5 169.5q0 27 10 92l112 627h-389l11 57h847l-10 -57h-397z" />
    <glyph glyph-name="upsilon" unicode="&#x3c5;" horiz-adv-x="1107" 
d="M160 309q0 43 6 78l104 596h62l-107 -602q-6 -35 -6 -70q0 -122 80 -198t209 -76q122 0 211 79.5t112 209.5l117 657h62l-117 -661q-27 -155 -137 -248q-107 -94 -254 -94q-151 0 -246 92q-96 93 -96 237z" />
    <glyph glyph-name="phi" unicode="&#x3c6;" horiz-adv-x="1439" 
d="M662 -20l-62 -349h-61l61 349q-222 6 -353.5 129t-131.5 325q0 208 125 357q127 154 333 206l17 -55q-192 -51 -301 -184.5t-109 -319.5q0 -183 114.5 -289t315.5 -112l127 708q20 121 89.5 188.5t172.5 67.5q139 0 236.5 -116.5t97.5 -282.5q0 -266 -189.5 -442.5
t-481.5 -179.5zM1268 606q0 140 -78.5 239t-188.5 99q-166 0 -204 -209l-125 -698q266 3 431 160t165 409z" />
    <glyph glyph-name="chi" unicode="&#x3c7;" horiz-adv-x="995" 
d="M813 -319q41 0 55 2l-10 -52q-24 -6 -76 -6q-65 0 -101 32.5t-60 106.5l-160 504l-488 -637h-75l538 701l-149 514q-12 44 -39 64t-74 20t-57 -2l10 55q32 4 59 4q122 0 158 -119l141 -489l457 604h74l-508 -668l168 -522q21 -64 49 -88t88 -24z" />
    <glyph glyph-name="psi" unicode="&#x3c8;" horiz-adv-x="1417" 
d="M524 -369l62 344q-180 0 -299 111.5t-119 278.5q0 26 16 127l86 489h62l-86 -489q-15 -76 -15 -125q0 -143 104 -237.5t261 -94.5l231 1317h62l-232 -1317q202 0 338.5 116.5t171.5 319.5l90 512h62l-90 -512q-40 -232 -197 -365q-155 -131 -385 -131l-61 -344h-62z" />
    <glyph glyph-name="omega" unicode="&#x3c9;" horiz-adv-x="1550" 
d="M1430 535q0 -248 -111 -401.5t-291 -153.5q-117 0 -196 61t-99 166q-41 -110 -119.5 -168.5t-187.5 -58.5q-149 0 -233 107t-84 298q0 207 94 370t264 249l20 -54q-150 -88 -231.5 -234.5t-81.5 -328.5q0 -162 68 -255t186 -93q116 0 191.5 84.5t101.5 243.5l47 268h61
l-47 -268q-6 -34 -6 -68q0 -117 71 -188.5t187 -71.5q141 0 235.5 142t94.5 354q0 286 -201 415l29 54q117 -63 177.5 -182.5t60.5 -286.5z" />
    <glyph glyph-name="iotadieresis" unicode="&#x3ca;" horiz-adv-x="587" 
d="M143 176q0 20 11 92l129 715h61l-129 -721q-10 -62 -10 -84q0 -67 45 -104t125 -37q56 0 125 14l-11 -55q-59 -16 -118 -16q-109 0 -168.5 51t-59.5 145zM147 1364q0 29 20.5 49.5t49.5 20.5t49.5 -20.5t20.5 -49.5t-20.5 -49.5t-49.5 -20.5t-49.5 20.5t-20.5 49.5z
M477 1364q0 29 20.5 49.5t49.5 20.5t49 -20.5t20 -49.5t-20 -49.5t-49 -20.5t-49.5 20.5t-20.5 49.5z" />
    <glyph glyph-name="upsilondieresis" unicode="&#x3cb;" horiz-adv-x="1107" 
d="M160 309q0 43 6 78l104 596h62l-107 -602q-6 -35 -6 -70q0 -122 80 -198t209 -76q122 0 211 79.5t112 209.5l117 657h62l-117 -661q-27 -155 -137 -248q-107 -94 -254 -94q-151 0 -246 92q-96 93 -96 237zM432 1364q0 29 20.5 49.5t49.5 20.5t49 -20.5t20 -49.5
t-20 -49.5t-49 -20.5t-49.5 20.5t-20.5 49.5zM844 1364q0 29 20 49.5t49 20.5t49.5 -20.5t20.5 -49.5t-20.5 -49.5t-49.5 -20.5t-49 20.5t-20 49.5z" />
    <glyph glyph-name="omicrontonos" unicode="&#x3cc;" horiz-adv-x="1249" 
d="M119 463q-2 108 41 209t116 174t173 116.5t206 41.5q203 0 340.5 -138.5t137.5 -343.5q2 -107 -42 -208.5t-117.5 -175t-174.5 -117t-207 -41.5q-202 0 -337.5 138.5t-135.5 344.5zM1067 520q0 181 -119.5 302.5t-294.5 121.5q-128 0 -236 -65t-170.5 -175.5
t-62.5 -240.5q0 -185 116 -304.5t294 -119.5q96 0 183.5 38.5t151 103t101 153.5t37.5 186zM666 1151l118 446h78l-2 -10l-139 -436h-55z" />
    <glyph glyph-name="upsilontonos" unicode="&#x3cd;" horiz-adv-x="1107" 
d="M160 309q0 43 6 78l104 596h62l-107 -602q-6 -35 -6 -70q0 -122 80 -198t209 -76q122 0 211 79.5t112 209.5l117 657h62l-117 -661q-27 -155 -137 -248q-107 -94 -254 -94q-151 0 -246 92q-96 93 -96 237zM639 1151l119 446h78l-2 -10l-140 -436h-55z" />
    <glyph glyph-name="omegatonos" unicode="&#x3ce;" horiz-adv-x="1550" 
d="M1430 535q0 -248 -111 -401.5t-291 -153.5q-117 0 -196 61t-99 166q-41 -110 -119.5 -168.5t-187.5 -58.5q-149 0 -233 107t-84 298q0 207 94 370t264 249l20 -54q-150 -88 -231.5 -234.5t-81.5 -328.5q0 -162 68 -255t186 -93q116 0 191.5 84.5t101.5 243.5l47 268h61
l-47 -268q-6 -34 -6 -68q0 -117 71 -188.5t187 -71.5q141 0 235.5 142t94.5 354q0 286 -201 415l29 54q117 -63 177.5 -182.5t60.5 -286.5zM858 1151l119 446h78l-2 -10l-140 -436h-55z" />
    <glyph glyph-name="uni0400" unicode="&#x400;" horiz-adv-x="1150" 
d="M125 0l237 1352h832l-10 -58h-766l-94 -530h602l-8 -57h-603l-114 -650h790l-10 -57h-856zM770 1483l-152 370v11h74l129 -381h-51z" />
    <glyph glyph-name="uni0401" unicode="&#x401;" horiz-adv-x="1150" 
d="M125 0l237 1352h832l-10 -58h-766l-94 -530h602l-8 -57h-603l-114 -650h790l-10 -57h-856zM524 1651q0 29 20.5 49t49.5 20t49.5 -20t20.5 -49t-20.5 -49.5t-49.5 -20.5t-49.5 20.5t-20.5 49.5zM977 1651q0 29 20.5 49t49.5 20t49 -20t20 -49t-20 -49.5t-49 -20.5
t-49.5 20.5t-20.5 49.5z" />
    <glyph glyph-name="uni0402" unicode="&#x402;" horiz-adv-x="1517" 
d="M879 -20l-7 59q209 29 330 140.5t121 275.5q0 134 -96 221q-95 86 -244 86q-104 0 -184.5 -18.5t-173.5 -63.5l-121 -680h-66l228 1292h-469l10 60h1065l-10 -60h-531l-96 -551q101 45 179.5 63.5t180.5 18.5q167 0 280.5 -105.5t113.5 -260.5q0 -190 -137.5 -319
t-372.5 -158z" />
    <glyph glyph-name="uni0403" unicode="&#x403;" horiz-adv-x="1015" 
d="M125 0l237 1352h756l-10 -58h-690l-228 -1294h-65zM651 1483l258 381h82l-2 -11l-282 -370h-56z" />
    <glyph glyph-name="uni0404" unicode="&#x404;" horiz-adv-x="1452" 
d="M229 723h738l-9 -57h-735q-2 -10 -2 -43q-3 -163 71 -297.5t205 -211t289 -73.5q141 0 271 57.5t227 161.5l45 -41q-105 -115 -248.5 -177t-298.5 -62q-174 -3 -320 81.5t-229.5 233t-80.5 326.5q-3 146 57.5 285.5t162.5 242.5t240.5 164.5t284.5 58.5q168 0 304 -76
t218 -215l-53 -37q-79 128 -200.5 197.5t-272.5 69.5q-162 3 -308.5 -76t-241.5 -215t-114 -297z" />
    <glyph glyph-name="uni0405" unicode="&#x405;" horiz-adv-x="1136" 
d="M66 297l59 29q75 -140 185.5 -212.5t246.5 -72.5q148 0 240 81.5t92 211.5q0 87 -50.5 156t-166.5 137l-150 90q-125 75 -183 152t-58 169q0 143 110.5 238.5t276.5 95.5q270 0 405 -231l-53 -33q-67 104 -152 153.5t-200 49.5q-141 0 -229.5 -75t-88.5 -194
q0 -79 48.5 -141.5t166.5 -134.5l142 -86q130 -79 190.5 -161t60.5 -183q0 -154 -115 -255t-290 -101q-158 0 -281.5 80.5t-205.5 236.5z" />
    <glyph glyph-name="uni0406" unicode="&#x406;" horiz-adv-x="487" 
d="M125 0l237 1352h66l-238 -1352h-65z" />
    <glyph glyph-name="uni0407" unicode="&#x407;" horiz-adv-x="487" 
d="M125 0l237 1352h66l-238 -1352h-65zM152 1651q0 29 20 49t49 20t49.5 -20t20.5 -49t-20.5 -49.5t-49.5 -20.5t-49 20.5t-20 49.5zM604 1651q0 29 20.5 49t49.5 20t49 -20t20 -49t-20 -49.5t-49 -20.5t-49.5 20.5t-20.5 49.5z" />
    <glyph glyph-name="uni0408" unicode="&#x408;" horiz-adv-x="741" 
d="M-23 10l11 58q108 -27 182 -27q110 0 173 55t83 170l190 1086h66l-193 -1090q-49 -282 -317 -282q-93 0 -195 30z" />
    <glyph glyph-name="uni0409" unicode="&#x409;" horiz-adv-x="1980" 
d="M1845 416q0 -185 -132 -300.5t-345 -115.5h-432l227 1292h-585l-68 -327q-77 -368 -149 -573.5t-157.5 -298.5t-205.5 -97q-11 0 -47 4l10 61q11 -4 47 -4q136 0 238 215q105 214 200 693l78 387h715l-104 -588h311q187 0 293 -92t106 -256zM1776 416q0 141 -88 216
t-252 75h-312l-112 -650h356q186 0 297 97.5t111 261.5z" />
    <glyph glyph-name="uni040A" unicode="&#x40a;" horiz-adv-x="2000" 
d="M125 0l237 1352h66l-104 -588h768l102 588h66l-105 -588h311q187 0 293.5 -92t106.5 -256q0 -185 -132 -300.5t-345 -115.5h-433l125 707h-766l-125 -707h-65zM1032 57h357q186 0 296.5 97.5t110.5 261.5q0 141 -88 216t-252 75h-311z" />
    <glyph glyph-name="uni040B" unicode="&#x40b;" horiz-adv-x="1611" 
d="M1384 444q0 -28 -10 -100l-61 -344h-66l62 344q10 62 10 98q0 146 -95.5 233t-256.5 87q-160 0 -342 -78l-121 -684h-66l228 1294h-469l10 58h1065l-10 -58h-531l-96 -549q176 78 338 78q189 0 300 -103t111 -276z" />
    <glyph glyph-name="uni040C" unicode="&#x40c;" horiz-adv-x="1224" 
d="M362 1352h66l-238 -1352h-65zM1249 1352l-805 -621l613 -731h-80l-619 735l793 617h98zM606 1483l258 381h82l-2 -11l-282 -370h-56z" />
    <glyph glyph-name="uni040D" unicode="&#x40d;" horiz-adv-x="1462" 
d="M1376 1372h31l-242 -1372h-65l215 1227l-1163 -1247h-31l241 1372h66l-219 -1243zM881 1483l-152 370v11h74l129 -381h-51z" />
    <glyph glyph-name="uni040E" unicode="&#x40e;" horiz-adv-x="1249" 
d="M1245 1352h72l-701 -1151q-68 -114 -146 -165.5t-179 -51.5q-81 0 -131 20l10 57q59 -16 119 -16q88 0 153 42.5t125 139.5l37 60l-346 1065h68l317 -998zM539 1747q0 46 14 117h63q-14 -71 -14 -109q0 -91 53.5 -146t141.5 -55t150 60t79 164l14 86h64l-14 -86
q-23 -130 -102 -204.5t-195 -74.5q-109 0 -181.5 71t-72.5 177z" />
    <glyph glyph-name="uni040F" unicode="&#x40f;" horiz-adv-x="1421" 
d="M1362 1352l-238 -1352h-467l-51 -289h-65l51 289h-467l237 1352h66l-227 -1293h868l227 1293h66z" />
    <glyph glyph-name="uni0410" unicode="&#x410;" horiz-adv-x="1363" 
d="M1130 0l-88 360h-741l-211 -360h-74l815 1372h31l332 -1372h-64zM1030 418l-203 833l-493 -833h696z" />
    <glyph glyph-name="uni0411" unicode="&#x411;" horiz-adv-x="1173" 
d="M125 0l237 1352h744l-10 -58h-678l-94 -534h340q177 0 281 -98t104 -263q0 -180 -129.5 -289.5t-341.5 -109.5h-453zM201 57h377q183 0 293 93.5t110 248.5q0 139 -88.5 221t-237.5 82h-342z" />
    <glyph glyph-name="uni0412" unicode="&#x412;" horiz-adv-x="1249" 
d="M1124 399q0 -177 -131 -288t-340 -111h-528l237 1352h412q155 0 242.5 -78t87.5 -215q0 -117 -62.5 -202t-173.5 -120q119 -32 187.5 -121.5t68.5 -216.5zM418 1294l-92 -530h399q139 0 225 81t86 212q0 115 -70.5 176t-201.5 61h-346zM1057 399q0 137 -89 220t-237 83
h-418l-112 -645h452q179 0 291.5 95t112.5 247z" />
    <glyph glyph-name="uni0413" unicode="&#x413;" horiz-adv-x="1015" 
d="M125 0l237 1352h756l-10 -58h-690l-228 -1294h-65z" />
    <glyph glyph-name="uni0414" unicode="&#x414;" horiz-adv-x="1351" 
d="M1268 1352l-228 -1293h174l-61 -348h-66l52 289h-1139l-51 -289h-66l62 348h104q127 94 223.5 329t178.5 652l61 312h756zM131 59h844l217 1233h-627l-53 -254q-88 -419 -179.5 -653.5t-201.5 -325.5z" />
    <glyph glyph-name="uni0415" unicode="&#x415;" horiz-adv-x="1150" 
d="M125 0l237 1352h832l-10 -58h-766l-94 -530h602l-8 -57h-603l-114 -650h790l-10 -57h-856z" />
    <glyph glyph-name="uni0416" unicode="&#x416;" horiz-adv-x="1878" 
d="M362 1352l547 -617l-821 -735h-94l825 739l-545 613h88zM1057 1352h65l-237 -1352h-66zM1905 1352l-762 -627l567 -725h-84l-573 735l749 617h103z" />
    <glyph glyph-name="uni0417" unicode="&#x417;" horiz-adv-x="1181" 
d="M1061 416q0 -192 -135.5 -314t-347.5 -122q-352 0 -496 313l65 33q61 -141 170 -213t258 -72q185 0 302.5 104.5t117.5 270.5q0 126 -92 209q-88 82 -233 82h-203l10 57h160q165 0 275 86.5t110 216.5q0 115 -78.5 179.5t-218.5 64.5q-210 0 -354 -156l-43 45
q159 172 399 172q167 0 263.5 -81t96.5 -222q0 -118 -74.5 -207.5t-199.5 -124.5q116 -32 182 -117.5t66 -203.5z" />
    <glyph glyph-name="uni0418" unicode="&#x418;" horiz-adv-x="1462" 
d="M1376 1372h31l-242 -1372h-65l215 1227l-1163 -1247h-31l241 1372h66l-219 -1243z" />
    <glyph glyph-name="uni0419" unicode="&#x419;" horiz-adv-x="1462" 
d="M1376 1372h31l-242 -1372h-65l215 1227l-1163 -1247h-31l241 1372h66l-219 -1243zM657 1747q0 41 15 117h63q-14 -71 -14 -109q0 -91 53 -146t141 -55t150.5 60t79.5 164l14 86h64l-15 -86q-23 -130 -102 -204.5t-195 -74.5q-109 0 -181.5 71t-72.5 177z" />
    <glyph glyph-name="uni041A" unicode="&#x41a;" horiz-adv-x="1224" 
d="M362 1352h66l-238 -1352h-65zM1249 1352l-805 -621l613 -731h-80l-619 735l793 617h98z" />
    <glyph glyph-name="uni041B" unicode="&#x41b;" horiz-adv-x="1343" 
d="M528 1352h756l-237 -1352h-66l227 1292h-626l-64 -309q-109 -522 -229 -754q-119 -235 -285 -235q-34 0 -53 8l10 61q21 -8 47 -8q133 0 241.5 226.5t205.5 705.5z" />
    <glyph glyph-name="uni041C" unicode="&#x41c;" horiz-adv-x="1601" 
d="M1516 1372h30l-241 -1372h-66l209 1192l-635 -739h-31l-381 753l-211 -1206h-65l242 1372h30l414 -827z" />
    <glyph glyph-name="uni041D" unicode="&#x41d;" horiz-adv-x="1441" 
d="M125 0l237 1352h66l-102 -586h888l103 586h65l-237 -1352h-66l125 707h-889l-125 -707h-65z" />
    <glyph glyph-name="uni041E" unicode="&#x41e;" horiz-adv-x="1605" 
d="M152 623q-4 147 56.5 286.5t161.5 241.5t239.5 163t283.5 58q174 3 319.5 -81.5t228 -233t79.5 -326.5q4 -148 -56.5 -288t-162 -242t-240 -163t-283.5 -58q-172 -3 -317.5 82t-228.5 234t-80 327zM1450 731q3 161 -70.5 295t-203 210t-285.5 73q-132 2 -256.5 -53.5
t-216 -148.5t-146 -221t-51.5 -263q-2 -162 71 -296t202.5 -210.5t285.5 -73.5q131 -3 255.5 53t216 150t146 222t52.5 263z" />
    <glyph glyph-name="uni041F" unicode="&#x41f;" horiz-adv-x="1421" 
d="M125 0l237 1352h1000l-238 -1352h-65l227 1292h-868l-228 -1292h-65z" />
    <glyph glyph-name="uni0420" unicode="&#x420;" 
d="M125 0l237 1352h408q172 0 272.5 -88t100.5 -240q0 -173 -123.5 -280t-321.5 -107h-395l-113 -637h-65zM313 694h381q174 0 276.5 89t102.5 241q0 131 -81 200.5t-234 69.5h-340z" />
    <glyph glyph-name="uni0421" unicode="&#x421;" horiz-adv-x="1452" 
d="M152 621q-3 146 57.5 285.5t162.5 242.5t240.5 164.5t284.5 58.5q168 0 304 -76t218 -215l-53 -37q-79 128 -200.5 197.5t-272.5 69.5q-175 4 -332.5 -91t-250.5 -256t-89 -341q-3 -163 71 -297.5t205 -211t289 -73.5q141 0 271 57.5t227 161.5l45 -41
q-105 -115 -248.5 -177t-298.5 -62q-174 -3 -320 81.5t-229.5 233t-80.5 326.5z" />
    <glyph glyph-name="uni0422" unicode="&#x422;" horiz-adv-x="1196" 
d="M479 0l228 1294h-510l10 58h1085l-10 -58h-510l-227 -1294h-66z" />
    <glyph glyph-name="uni0423" unicode="&#x423;" horiz-adv-x="1249" 
d="M1245 1352h72l-701 -1151q-68 -114 -146 -165.5t-179 -51.5q-81 0 -131 20l10 57q59 -16 119 -16q88 0 153 42.5t125 139.5l37 60l-346 1065h68l317 -998z" />
    <glyph glyph-name="uni0424" unicode="&#x424;" horiz-adv-x="1597" 
d="M674 -41l33 182q-155 0 -282 66.5t-199 184t-72 261.5q0 256 194.5 413t509.5 157h37l31 170h65l-30 -170q150 3 277.5 -65t200.5 -187t70 -260q0 -256 -194.5 -413t-509.5 -157h-33l-33 -182h-65zM717 203l168 958h-35q-282 0 -454.5 -139t-172.5 -367
q0 -195 140 -323.5t354 -128.5zM782 203h31q283 0 455 138.5t172 367.5q0 196 -138.5 324t-351.5 128z" />
    <glyph glyph-name="uni0425" unicode="&#x425;" horiz-adv-x="1183" 
d="M1219 1352l-551 -664l348 -688h-70l-323 641l-549 -641h-80l596 698l-324 654h70l299 -609l504 609h80z" />
    <glyph glyph-name="uni0426" unicode="&#x426;" horiz-adv-x="1445" 
d="M1182 -291l51 289h-1108l237 1352h66l-227 -1293h868l227 1293h66l-227 -1293h174l-62 -348h-65z" />
    <glyph glyph-name="uni0427" unicode="&#x427;" horiz-adv-x="1345" 
d="M1221 1352h65l-237 -1352h-66l107 608q-177 -67 -355 -67q-229 0 -349 105.5t-120 307.5q0 54 15 133l47 265h65l-47 -269q-12 -71 -12 -125q0 -174 102.5 -265t298.5 -91q188 0 367 72z" />
    <glyph glyph-name="uni0428" unicode="&#x428;" horiz-adv-x="1986" 
d="M125 0l237 1352h66l-227 -1293h684l227 1293h66l-228 -1293h684l228 1293h65l-237 -1352h-1565z" />
    <glyph glyph-name="uni0429" unicode="&#x429;" horiz-adv-x="2011" 
d="M1747 -289l51 289h-1673l237 1352h66l-227 -1293h684l227 1293h66l-228 -1293h684l228 1293h65l-227 -1293h174l-62 -348h-65z" />
    <glyph glyph-name="uni042A" unicode="&#x42a;" horiz-adv-x="1331" 
d="M287 0l227 1292h-317l10 60h383l-105 -588h312q192 0 295.5 -90.5t103.5 -257.5q0 -191 -129 -303.5t-348 -112.5h-432zM362 57h357q189 0 298 96.5t109 262.5q0 291 -340 291h-311z" />
    <glyph glyph-name="uni042B" unicode="&#x42b;" horiz-adv-x="1619" 
d="M125 0l237 1352h66l-104 -588h311q192 0 295.5 -90.5t103.5 -257.5q0 -191 -129 -303.5t-348 -112.5h-432zM201 57h356q190 0 299 96t109 263q0 291 -340 291h-312zM1257 0l238 1352h66l-238 -1352h-66z" />
    <glyph glyph-name="uni042C" unicode="&#x42c;" horiz-adv-x="1169" 
d="M125 0l237 1352h66l-104 -588h311q192 0 295.5 -90.5t103.5 -257.5q0 -191 -129 -303.5t-348 -112.5h-432zM201 57h356q190 0 299 96t109 263q0 291 -340 291h-312z" />
    <glyph glyph-name="uni042D" unicode="&#x42d;" horiz-adv-x="1452" 
d="M1366 731q3 -146 -57.5 -285.5t-162.5 -242.5t-240.5 -164.5t-284.5 -58.5q-168 0 -305 75.5t-218 214.5l54 37q78 -128 200 -197t273 -69q166 -3 316 81.5t245.5 230t107.5 313.5h-743l8 57h737v6q2 163 -71.5 297.5t-204.5 211t-289 73.5q-141 0 -271 -57.5
t-227 -161.5l-45 41q105 115 248.5 177t298.5 62q174 3 320.5 -81.5t230 -233t80.5 -326.5z" />
    <glyph glyph-name="uni042E" unicode="&#x42e;" horiz-adv-x="2054" 
d="M1968 731q3 -146 -56.5 -285.5t-159.5 -242.5t-236 -164.5t-279 -58.5q-170 -3 -312.5 82t-224 234t-79.5 327q0 14 4 84h-310l-125 -707h-65l237 1352h66l-104 -588h311q29 167 134 307.5t260 222t323 78.5q170 3 313 -81.5t224.5 -233t78.5 -326.5zM1901 731
q2 121 -40.5 229.5t-116.5 186t-177 122t-217 42.5q-174 3 -328.5 -91.5t-246 -255t-87.5 -341.5q0 -163 72 -296.5t198.5 -209.5t280.5 -76q129 -3 252.5 53.5t213.5 151t144 223t52 262.5z" />
    <glyph glyph-name="uni042F" unicode="&#x42f;" horiz-adv-x="1218" 
d="M721 1352h438l-237 -1352h-66l102 590h-313h-33l-503 -590h-84l510 600q-135 25 -211 114.5t-76 225.5q0 184 131 298t342 114zM657 647h312l114 647h-358q-185 0 -296.5 -96.5t-111.5 -257.5q0 -141 88 -217t252 -76z" />
    <glyph glyph-name="uni0430" unicode="&#x430;" horiz-adv-x="1294" 
d="M1114 983h62l-175 -983h-61l35 195q-62 -100 -170.5 -157.5t-237.5 -57.5q-189 0 -319.5 138t-130.5 339q-3 145 69.5 272t196.5 202t266 73q146 0 264 -80q114 -78 156 -201zM649 946q-91 2 -178 -38t-151 -107t-102 -157.5t-36 -184.5q0 -180 113 -301t283 -121
q119 -3 226 68.5t170 192t60 253.5q0 179 -106 285q-104 110 -279 110z" />
    <glyph glyph-name="uni0431" unicode="&#x431;" horiz-adv-x="1286" 
d="M283 795l-7 -29q69 111 182.5 174.5t243.5 63.5q199 0 332 -140.5t133 -351.5q2 -105 -40.5 -204t-115 -171.5t-171 -115.5t-203.5 -41q-199 0 -330 133t-131 336q0 79 57 382q30 161 76.5 269t125.5 184t188.5 118t269.5 64q163 20 242 37q77 16 139 49l-12 -63
q-60 -31 -127 -46.5t-187 -29.5q-30 -6 -57 -8q-106 -15 -186 -38.5t-142 -60.5t-105.5 -82t-77 -111t-56 -140.5t-41.5 -177.5zM242 455q0 -183 112.5 -300.5t286.5 -117.5q126 0 232 63.5t167.5 172.5t61.5 237q0 189 -113.5 312.5t-288.5 123.5q-126 0 -231.5 -65.5
t-166 -178.5t-60.5 -247z" />
    <glyph glyph-name="uni0432" unicode="&#x432;" horiz-adv-x="1044" 
d="M901 283q0 -132 -110.5 -217.5t-280.5 -85.5q-186 0 -295 108.5t-109 294.5q0 57 25 201q37 207 154.5 313.5t308.5 106.5q142 0 230.5 -70.5t88.5 -183.5q0 -189 -208 -238q91 -23 143.5 -84t52.5 -145zM195 584l-7 -41h371q141 0 215 53.5t74 153.5q0 90 -70.5 143
t-189.5 53q-160 0 -261 -92.5t-132 -269.5zM836 279q0 96 -74.5 151t-202.5 55h-381q-8 -52 -8 -100q0 -164 90.5 -256t251.5 -92q143 0 233.5 67t90.5 175z" />
    <glyph glyph-name="uni0433" unicode="&#x433;" horiz-adv-x="931" 
d="M92 225q0 100 73.5 167t227.5 120l115 39q128 43 178.5 91t50.5 126q0 81 -59 129.5t-156 48.5q-156 0 -274 -112l-37 43q139 127 317 127q122 0 198.5 -64.5t76.5 -167.5q0 -98 -60.5 -160t-203.5 -112l-115 -39q-149 -51 -207.5 -102.5t-58.5 -131.5q0 -88 63 -139
t172 -51q104 0 180.5 37t155.5 127l39 -41q-79 -94 -169 -137t-206 -43q-135 0 -218 67.5t-83 177.5z" />
    <glyph glyph-name="uni0434" unicode="&#x434;" horiz-adv-x="1243" 
d="M1116 635q0 -305 -141.5 -480t-390.5 -175q-204 0 -335.5 131t-131.5 335q-3 146 66 271t190 197t264 69q149 0 265 -84.5t163 -226.5q-12 435 -145.5 630t-417.5 195q-94 0 -201 -22l10 59q96 22 193 22q321 0 466.5 -220t145.5 -701zM1036 514q0 173 -116.5 292.5
t-284.5 119.5q-120 2 -226 -63t-168 -176.5t-59 -237.5q0 -179 111.5 -295.5t284.5 -116.5q198 0 328 135t130 342z" />
    <glyph glyph-name="uni0435" unicode="&#x435;" horiz-adv-x="1157" 
d="M1036 485h-852v-22q0 -186 115 -306t295 -120q100 0 191.5 40t158.5 113l39 -38q-74 -82 -176.5 -127t-214.5 -45q-203 0 -338 137t-135 344q-2 107 40.5 208.5t113.5 175.5t168 117.5t198 41.5q180 0 297 -113.5t117 -288.5q0 -64 -17 -117zM190 543h795q2 14 2 57
q0 154 -96.5 250t-251.5 96q-168 0 -296 -116t-153 -287z" />
    <glyph glyph-name="uni0436" unicode="&#x436;" horiz-adv-x="1429" 
d="M281 983l368 -461l-602 -522h-92l610 528l-366 455h82zM772 983h62l-175 -983h-61zM1409 983l-539 -467l433 -516h-80l-435 522l525 461h96z" />
    <glyph glyph-name="uni0437" unicode="&#x437;" horiz-adv-x="970" 
d="M764 279q0 -140 -94 -219.5t-260 -79.5q-255 0 -367 198l47 35q54 -90 134 -132t196 -42q129 0 203.5 64.5t74.5 175.5q0 100 -64.5 154t-182.5 54h-148l10 60h154q127 0 199.5 59t72.5 162q0 88 -55.5 133t-161.5 45q-85 0 -151 -32t-135 -107l-35 37q127 160 327 160
q128 0 202.5 -63.5t74.5 -172.5q0 -92 -58 -160t-161 -94q87 -25 132.5 -85t45.5 -150z" />
    <glyph glyph-name="uni0438" unicode="&#x438;" horiz-adv-x="1126" 
d="M946 983h62l-172 -983h-62l23 135q-117 -155 -314 -155q-148 0 -237.5 86.5t-89.5 224.5q0 26 12 110l102 582h62l-105 -590q-10 -65 -10 -90q0 -119 73.5 -192.5t196.5 -73.5q130 0 224 81.5t120 221.5z" />
    <glyph glyph-name="uni0439" unicode="&#x439;" horiz-adv-x="1126" 
d="M946 983h62l-172 -983h-62l23 135q-117 -155 -314 -155q-148 0 -237.5 86.5t-89.5 224.5q0 26 12 110l102 582h62l-105 -590q-10 -65 -10 -90q0 -119 73.5 -192.5t196.5 -73.5q130 0 224 81.5t120 221.5zM457 1425q0 46 14 117h64q-15 -76 -15 -108q0 -91 53.5 -146
t141.5 -55q91 0 151.5 59t77.5 164l14 86h64l-14 -86q-23 -130 -102 -204t-195 -74q-109 0 -181.5 70.5t-72.5 176.5z" />
    <glyph glyph-name="uni043A" unicode="&#x43a;" horiz-adv-x="946" 
d="M293 983h61l-174 -983h-61zM948 983l-551 -461l422 -522h-76l-432 528l545 455h92z" />
    <glyph glyph-name="uni043B" unicode="&#x43b;" horiz-adv-x="1110" 
d="M-25 -2l11 57q8 -2 37 -2q72 0 121 46t90.5 154.5t87.5 309.5q19 77 32.5 125t31 96t31.5 73.5t37.5 51t45.5 36t59 20.5t74.5 13t95.5 5h264l-174 -983h-61l164 926h-187q-110 0 -172 -19q-60 -20 -104.5 -102t-81.5 -258q-46 -218 -94 -335.5t-111 -167.5t-160 -50
q-17 0 -37 4z" />
    <glyph glyph-name="uni043C" unicode="&#x43c;" horiz-adv-x="1402" 
d="M1260 1004h30l-176 -1004h-61l149 854l-514 -553h-33l-323 571l-154 -872h-61l176 1004h31l356 -623z" />
    <glyph glyph-name="uni043D" unicode="&#x43d;" horiz-adv-x="1126" 
d="M117 0l174 983h61l-73 -418h595l74 418h62l-174 -983h-62l90 506h-596l-90 -506h-61z" />
    <glyph glyph-name="uni043E" unicode="&#x43e;" horiz-adv-x="1249" 
d="M119 463q-2 108 41 209t116 174t173 116.5t206 41.5q203 0 340.5 -138.5t137.5 -343.5q2 -107 -42 -208.5t-117.5 -175t-174.5 -117t-207 -41.5q-202 0 -337.5 138.5t-135.5 344.5zM1067 520q0 181 -119.5 302.5t-294.5 121.5q-128 0 -236 -65t-170.5 -175.5
t-62.5 -240.5q0 -185 116 -304.5t294 -119.5q96 0 183.5 38.5t151 103t101 153.5t37.5 186z" />
    <glyph glyph-name="uni043F" unicode="&#x43f;" horiz-adv-x="1128" 
d="M973 692q0 -26 -12 -110l-105 -582h-61l106 590q10 65 10 94q0 118 -73 190t-197 72q-130 0 -224 -81.5t-120 -221.5l-117 -643h-61l174 983h61l-22 -135q118 156 313 156q148 0 238 -87t90 -225z" />
    <glyph glyph-name="uni0440" unicode="&#x440;" horiz-adv-x="1290" 
d="M1174 537q0 -154 -69.5 -282t-190.5 -201.5t-265 -73.5q-145 0 -266 77q-116 77 -158 201l-110 -627h-62l240 1352h61l-35 -195q62 100 170 158t238 58q193 0 320 -133t127 -334zM717 944q-188 4 -326 -156.5t-135 -377.5q0 -160 111.5 -265.5t281.5 -105.5
q126 0 231.5 66t166.5 180t61 250q0 180 -109 294.5t-282 114.5z" />
    <glyph glyph-name="uni0441" unicode="&#x441;" horiz-adv-x="1136" 
d="M119 463q-2 108 40.5 209t115.5 174t172.5 116.5t205.5 41.5q128 0 231.5 -53.5t166.5 -151.5l-50 -35q-57 87 -147 133.5t-199 46.5q-94 2 -182 -36t-152 -102.5t-101.5 -153.5t-35.5 -185q0 -185 117 -306.5t295 -121.5q100 0 190 39.5t156 111.5l41 -38
q-147 -172 -385 -172q-205 0 -342 138t-137 345z" />
    <glyph glyph-name="uni0442" unicode="&#x442;" horiz-adv-x="1763" 
d="M1608 692q0 -19 -2 -38.5t-4 -31.5t-4.5 -24.5t-2.5 -15.5l-104 -582h-61l106 590q10 65 10 90q0 119 -70 192.5t-188 73.5q-123 0 -217 -84t-119 -219l-116 -643h-62l107 590q10 65 10 90q0 121 -70.5 193.5t-187.5 72.5q-124 0 -217 -81.5t-119 -221.5l-117 -643h-61
l174 983h61l-22 -131q115 152 305 152q116 0 196 -61.5t105 -166.5q50 106 143 167t209 61q145 0 231.5 -87t86.5 -225z" />
    <glyph glyph-name="uni0443" unicode="&#x443;" horiz-adv-x="1130" 
d="M950 983h62l-178 -1008q-29 -167 -139.5 -265.5t-268.5 -98.5q-119 0 -219 59.5t-160 167.5l51 35q54 -97 140 -151t190 -54q134 0 226 83t118 229l27 151q-114 -151 -312 -151q-146 0 -236.5 86t-90.5 225q0 26 12 110l102 582h62l-105 -590q-10 -65 -10 -90
q0 -119 73.5 -192.5t197.5 -73.5q130 0 224 81.5t120 221.5z" />
    <glyph glyph-name="uni0444" unicode="&#x444;" horiz-adv-x="1388" 
d="M1272 541q0 -249 -170 -405t-445 -156h-22l-62 -349h-61l61 349q-203 9 -329.5 136.5t-126.5 327.5q0 247 172 403.5t442 156.5h19l96 532h61l-94 -532q203 -6 331 -136t128 -327zM584 37l155 909h-14q-240 0 -391.5 -139t-151.5 -361q0 -179 109.5 -290.5t292.5 -118.5z
M1206 539q0 178 -110 288q-110 113 -293 119l-158 -909h19q239 0 390.5 140.5t151.5 361.5z" />
    <glyph glyph-name="uni0445" unicode="&#x445;" horiz-adv-x="956" 
d="M956 983l-434 -483l287 -500h-70l-264 457l-418 -457h-82l469 510l-272 473h70l247 -434l385 434h82z" />
    <glyph glyph-name="uni0446" unicode="&#x446;" horiz-adv-x="1157" 
d="M958 49h39l-59 -338h-61l49 283q-57 6 -91 44.5t-32 94.5q-119 -153 -320 -153q-148 0 -237.5 86.5t-89.5 224.5q0 26 12 110l102 582h62l-105 -590q-10 -65 -10 -90q0 -119 73.5 -192.5t196.5 -73.5q130 0 224 81.5t120 221.5l115 643h62l-140 -795q-4 -32 -4 -45
q0 -44 25 -69t69 -25z" />
    <glyph glyph-name="uni0447" unicode="&#x447;" horiz-adv-x="1028" 
d="M868 983h62l-174 -983h-62l82 463q-50 -23 -120.5 -38t-131.5 -15q-155 0 -244.5 81t-89.5 222q0 39 9 86l32 184h62l-35 -184q-8 -39 -8 -84q0 -117 74.5 -182.5t207.5 -65.5q61 0 132.5 15.5t121.5 39.5z" />
    <glyph glyph-name="uni0448" unicode="&#x448;" horiz-adv-x="1759" 
d="M1581 983h61l-172 -983h-61l23 135q-117 -155 -306 -155q-116 0 -197 60t-106 159q-53 -101 -143.5 -160t-206.5 -59q-145 0 -231 86.5t-86 224.5q0 26 12 110l102 582h62l-105 -590q-10 -65 -10 -90q0 -119 70 -192.5t188 -73.5q122 0 217 82t119 221l115 643h61
l-104 -590q-11 -72 -11 -90q0 -119 70 -192.5t188 -73.5q122 0 217 82t119 221z" />
    <glyph glyph-name="uni0449" unicode="&#x449;" horiz-adv-x="1792" 
d="M1593 49h39l-59 -338h-62l50 283q-57 6 -92 46t-31 97q-116 -157 -310 -157q-117 0 -198.5 59t-108.5 160q-51 -101 -140.5 -160t-203.5 -59q-146 0 -233.5 86.5t-87.5 224.5q0 26 12 110l102 582h62l-105 -590q-10 -65 -10 -90q0 -120 71 -193t191 -73t214 82.5
t118 220.5l115 643h61l-104 -590q-11 -72 -11 -90q0 -119 70 -192.5t188 -73.5q125 0 219.5 82.5t118.5 220.5l113 643h61l-139 -795q-4 -32 -4 -45q0 -46 25 -70t69 -24z" />
    <glyph glyph-name="uni044A" unicode="&#x44a;" horiz-adv-x="1177" 
d="M1026 315q0 -152 -105 -243.5t-278 -91.5q-342 0 -342 274q0 49 8 90l103 582h-279l10 57h340l-65 -375h252q167 0 261.5 -78t94.5 -215zM961 311q0 115 -78 177.5t-219 62.5h-256l-37 -209q-9 -46 -9 -82q0 -223 281 -223q143 0 230.5 75.5t87.5 198.5z" />
    <glyph glyph-name="uni044B" unicode="&#x44b;" horiz-adv-x="1376" 
d="M864 315q0 -149 -100.5 -242t-261.5 -93q-158 0 -245 71.5t-87 202.5q0 49 8 90l113 639h61l-65 -375h241q158 0 247 -78t89 -215zM1217 983h61l-174 -983h-62zM799 311q0 115 -73 177.5t-204 62.5h-246l-36 -209q-9 -46 -9 -82q0 -108 70 -165.5t201 -57.5t214 76.5
t83 197.5z" />
    <glyph glyph-name="uni044C" unicode="&#x44c;" horiz-adv-x="1046" 
d="M895 315q0 -152 -105 -243.5t-278 -91.5q-342 0 -342 274q0 49 8 90l113 639h61l-65 -375h252q167 0 261.5 -78t94.5 -215zM829 311q0 115 -78 177.5t-219 62.5h-256l-36 -209q-9 -46 -9 -82q0 -223 281 -223q142 0 229.5 75.5t87.5 198.5z" />
    <glyph glyph-name="uni044D" unicode="&#x44d;" horiz-adv-x="1136" 
d="M1018 518q2 -108 -40.5 -208.5t-114.5 -173t-172 -115.5t-208 -41q-124 0 -230 54.5t-169 151.5l51 35q57 -88 147 -136t199 -48q188 0 323.5 128.5t147.5 317.5h-520l10 58h510q-9 180 -123 292.5t-288 112.5q-100 0 -190.5 -41t-155.5 -112l-41 38q153 173 385 173
q210 0 344.5 -136.5t134.5 -349.5z" />
    <glyph glyph-name="uni044E" unicode="&#x44e;" horiz-adv-x="1628" 
d="M1511 530q2 -109 -41.5 -211.5t-116 -177.5t-172 -119t-204.5 -42q-201 0 -335.5 139.5t-131.5 343.5v26h-244l-86 -489h-61l174 985h61l-78 -438h242q31 193 182 325t344 132q97 0 184 -37t149 -100t98 -151t36 -186zM1042 946q-124 3 -233 -64.5t-173 -182.5t-61 -244
q0 -180 115.5 -299t288.5 -119q127 0 234.5 65.5t170 178.5t62.5 247q0 180 -115.5 299t-288.5 119z" />
    <glyph glyph-name="uni044F" unicode="&#x44f;" horiz-adv-x="1067" 
d="M612 983h338l-174 -983h-61l71 410h-266h-4l-393 -410h-86l403 418q-105 20 -167 88t-62 164q0 146 107.5 229.5t293.5 83.5zM524 467h273l82 459h-273q-156 0 -243 -66.5t-87 -187.5q0 -92 68.5 -148.5t179.5 -56.5z" />
    <glyph glyph-name="uni0450" unicode="&#x450;" horiz-adv-x="1157" 
d="M1036 485h-852v-22q0 -186 115 -306t295 -120q100 0 191.5 40t158.5 113l39 -38q-74 -82 -176.5 -127t-214.5 -45q-203 0 -338 137t-135 344q-2 107 40.5 208.5t113.5 175.5t168 117.5t198 41.5q180 0 297 -113.5t117 -288.5q0 -64 -17 -117zM190 543h795q2 14 2 57
q0 154 -96.5 250t-251.5 96q-168 0 -296 -116t-153 -287zM643 1151l-70 436l5 10h67l45 -446h-47z" />
    <glyph glyph-name="uni0451" unicode="&#x451;" horiz-adv-x="1157" 
d="M1036 485h-852v-22q0 -186 115 -306t295 -120q100 0 191.5 40t158.5 113l39 -38q-74 -82 -176.5 -127t-214.5 -45q-203 0 -338 137t-135 344q-2 107 40.5 208.5t113.5 175.5t168 117.5t198 41.5q180 0 297 -113.5t117 -288.5q0 -64 -17 -117zM190 543h795q2 14 2 57
q0 154 -96.5 250t-251.5 96q-168 0 -296 -116t-153 -287zM420 1364q0 29 20 49.5t49 20.5t49.5 -20.5t20.5 -49.5t-20.5 -49.5t-49.5 -20.5t-49 20.5t-20 49.5zM831 1364q0 29 20.5 49.5t49.5 20.5t49.5 -20.5t20.5 -49.5t-20.5 -49.5t-49.5 -20.5t-49.5 20.5t-20.5 49.5z
" />
    <glyph glyph-name="uni0452" unicode="&#x452;" horiz-adv-x="1126" 
d="M971 692q0 -45 -13 -110l-124 -707q-46 -264 -287 -264q-69 0 -133 22l10 54q65 -19 125 -19q184 0 225 215l125 707q10 65 10 90q0 120 -73.5 193t-196.5 73q-130 0 -224 -81.5t-120 -221.5l-115 -643h-61l215 1237h-176l10 57h176l43 242h62l-41 -242h428l-11 -57h-428
l-67 -389q115 156 313 156q148 0 238 -87t90 -225z" />
    <glyph glyph-name="uni0453" unicode="&#x453;" horiz-adv-x="931" 
d="M92 225q0 100 73.5 167t227.5 120l115 39q128 43 178.5 91t50.5 126q0 81 -59 129.5t-156 48.5q-156 0 -274 -112l-37 43q139 127 317 127q122 0 198.5 -64.5t76.5 -167.5q0 -98 -60.5 -160t-203.5 -112l-115 -39q-149 -51 -207.5 -102.5t-58.5 -131.5q0 -88 63 -139
t172 -51q104 0 180.5 37t155.5 127l39 -41q-79 -94 -169 -137t-206 -43q-135 0 -218 67.5t-83 177.5zM516 1153l275 446h81v-10l-297 -436h-59z" />
    <glyph glyph-name="uni0454" unicode="&#x454;" horiz-adv-x="1118" 
d="M190 541h525l-10 -58h-521v-18q0 -184 117.5 -306t294.5 -122q100 0 190 40t156 113l41 -38q-74 -84 -174 -128t-211 -44q-206 0 -342.5 137t-136.5 344q-3 144 70 270.5t197.5 201t266.5 71.5q125 0 231 -54.5t169 -152.5l-52 -33q-60 88 -149 135t-197 47
q-176 0 -308 -116t-157 -289z" />
    <glyph glyph-name="uni0455" unicode="&#x455;" horiz-adv-x="931" 
d="M82 207l53 35q112 -205 316 -205q109 0 181.5 57.5t72.5 143.5q0 61 -45.5 107.5t-159.5 107.5l-84 45q-110 61 -157.5 120t-47.5 138q0 106 85 177t214 71q189 0 303 -164l-47 -39q-109 145 -258 145q-102 0 -167 -53t-65 -135q0 -63 39 -109t138 -100l88 -47
q121 -65 175 -125.5t54 -140.5q0 -112 -91.5 -184t-232.5 -72q-116 0 -210 59t-154 168z" />
    <glyph glyph-name="uni0456" unicode="&#x456;" horiz-adv-x="471" 
d="M119 0l172 983h61l-172 -983h-61zM322 1364q0 29 20 49.5t49 20.5t49.5 -20.5t20.5 -49.5t-20.5 -49.5t-49.5 -20.5t-49 20.5t-20 49.5z" />
    <glyph glyph-name="uni0457" unicode="&#x457;" horiz-adv-x="473" 
d="M178 1364q0 29 19.5 48.5t46.5 19.5q29 0 48 -19.5t19 -48.5q0 -27 -19 -46.5t-48 -19.5q-26 0 -46 20t-20 46zM426 1364q0 29 19.5 48.5t46.5 19.5q29 0 48 -19.5t19 -48.5q0 -27 -19 -46.5t-48 -19.5q-26 0 -46 20t-20 46zM119 0l174 983h61l-174 -983h-61z" />
    <glyph glyph-name="uni0458" unicode="&#x458;" horiz-adv-x="473" 
d="M-262 -367l10 54q65 -19 125 -19q189 0 223 199l197 1116h61l-196 -1122q-23 -126 -97 -188t-190 -62q-69 0 -133 22zM322 1364q0 29 20 49.5t49 20.5t49.5 -20.5t20.5 -49.5t-20.5 -49.5t-49.5 -20.5t-49 20.5t-20 49.5z" />
    <glyph glyph-name="uni0459" unicode="&#x459;" horiz-adv-x="1667" 
d="M1516 315q0 -152 -105 -243.5t-278 -91.5q-342 0 -342 274q0 49 8 90l102 582h-166q-110 0 -172 -19q-59 -20 -104 -102.5t-82 -257.5q-46 -218 -94 -335.5t-111 -167.5t-160 -50q-17 0 -37 4l11 57q10 -2 37 -2q72 0 121 46t90.5 154.5t87.5 309.5q26 101 43.5 160.5
t43 111t48.5 75.5t65.5 42t87 23t119.5 8h244l-66 -375h252q167 0 262 -78t95 -215zM1450 311q0 115 -78 177.5t-219 62.5h-256l-37 -209q-8 -41 -8 -82q0 -223 281 -223q142 0 229.5 75.5t87.5 198.5z" />
    <glyph glyph-name="uni045A" unicode="&#x45a;" horiz-adv-x="1662" 
d="M1509 305q0 -148 -105 -236.5t-278 -88.5q-342 0 -342 274q0 46 9 90l32 182h-555l-90 -526h-61l172 983h61l-71 -401h553l71 401h62l-70 -401h240q183 0 277.5 -70.5t94.5 -206.5zM1444 303q0 223 -314 223h-243l-33 -184q-8 -41 -8 -82q0 -223 280 -223q142 0 230 73.5
t88 192.5z" />
    <glyph glyph-name="uni045B" unicode="&#x45b;" horiz-adv-x="1124" 
d="M965 674q0 -31 -13 -111l-98 -563h-61l100 571q10 65 10 91q0 120 -73.5 193t-196.5 73q-129 0 -224.5 -82t-119.5 -221l-111 -625h-61l215 1237h-174l10 57h174l43 242h61l-40 -242h430l-11 -57h-430l-71 -408q115 156 313 156q148 0 238 -86.5t90 -224.5z" />
    <glyph glyph-name="uni045C" unicode="&#x45c;" horiz-adv-x="946" 
d="M293 983h61l-174 -983h-61zM948 983l-551 -461l422 -522h-76l-432 528l545 455h92zM539 1151l274 446h82v-10l-297 -436h-59z" />
    <glyph glyph-name="uni045D" unicode="&#x45d;" horiz-adv-x="1126" 
d="M946 983h62l-172 -983h-62l23 135q-117 -155 -314 -155q-148 0 -237.5 86.5t-89.5 224.5q0 26 12 110l102 582h62l-105 -590q-10 -65 -10 -90q0 -119 73.5 -192.5t196.5 -73.5q130 0 224 81.5t120 221.5zM662 1151l-70 436l4 10h68l45 -446h-47z" />
    <glyph glyph-name="uni045E" unicode="&#x45e;" horiz-adv-x="1130" 
d="M950 983h62l-178 -1008q-29 -167 -139.5 -265.5t-268.5 -98.5q-119 0 -219 59.5t-160 167.5l51 35q54 -97 140 -151t190 -54q134 0 226 83t118 229l27 151q-114 -151 -312 -151q-146 0 -236.5 86t-90.5 225q0 26 12 110l102 582h62l-105 -590q-10 -65 -10 -90
q0 -119 73.5 -192.5t197.5 -73.5q130 0 224 81.5t120 221.5zM446 1425q0 41 15 117h63q-14 -71 -14 -108q0 -91 53.5 -146t141.5 -55q91 0 151.5 59t77.5 164l14 86h64l-15 -86q-23 -130 -102 -204t-195 -74q-109 0 -181.5 70.5t-72.5 176.5z" />
    <glyph glyph-name="uni045F" unicode="&#x45f;" horiz-adv-x="1126" 
d="M946 983h62l-172 -983h-62l23 135q-117 -155 -314 -155q-148 0 -237.5 86.5t-89.5 224.5q0 26 12 110l102 582h62l-105 -590q-10 -65 -10 -90q0 -119 73.5 -192.5t196.5 -73.5q130 0 224 81.5t120 221.5zM367 -451l61 345h57l-53 -345h-65z" />
    <glyph glyph-name="uni0462" unicode="&#x462;" horiz-adv-x="1271" 
d="M227 0l185 1053h-258l10 57h258l43 242h65l-43 -242h447l-10 -57h-447l-51 -289h311q187 0 293.5 -92t106.5 -256q0 -191 -129 -303.5t-349 -112.5h-432zM303 57h356q186 0 297 97.5t111 261.5q0 141 -88 216t-252 75h-311z" />
    <glyph glyph-name="uni0463" unicode="&#x463;" horiz-adv-x="1726" 
d="M1575 315q0 -152 -105 -243.5t-278 -91.5q-342 0 -342 274q0 51 8 90l43 246q10 65 10 94q0 118 -73 190t-197 72q-130 0 -224 -81.5t-120 -221.5l-117 -643h-61l174 983h61l-22 -135q118 156 313 156q148 0 238 -87t90 -225q0 -37 -8 -84h254q167 0 261.5 -78t94.5 -215
zM1509 311q0 115 -78 177.5t-219 62.5h-258l-34 -209q-9 -49 -9 -82q0 -223 281 -223q142 0 229.5 75.5t87.5 198.5z" />
    <glyph glyph-name="uni0472" unicode="&#x472;" horiz-adv-x="1605" 
d="M1520 731q4 -148 -57.5 -288t-163.5 -242t-240 -163t-281 -58q-175 -3 -320.5 84t-226.5 235.5t-79 323.5q-3 118 35.5 232.5t109.5 207.5t164 164t205.5 109t226.5 36q131 2 249 -48.5t201 -137t130.5 -205.5t46.5 -250zM225 702q180 70 330 70q70 0 130.5 -12
t156.5 -43q97 -30 155.5 -42.5t126.5 -12.5q140 0 326 67v2q0 162 -70 294t-198.5 209t-290.5 77q-122 2 -239.5 -46t-207 -130.5t-149 -196t-70.5 -236.5zM1448 670q-180 -70 -336 -70q-75 0 -139.5 13t-155.5 44q-97 30 -152.5 42t-119.5 12q-135 0 -324 -70v-18
q-3 -159 68.5 -293.5t201.5 -213t289 -75.5q166 -3 317 82.5t246 232t105 314.5z" />
    <glyph glyph-name="uni0473" unicode="&#x473;" horiz-adv-x="1249" 
d="M1133 522q2 -107 -42 -208.5t-117.5 -175t-174.5 -117t-207 -41.5q-202 0 -337.5 138.5t-135.5 344.5q-2 108 41 209t116 174t173 116.5t206 41.5q203 0 340.5 -138.5t137.5 -343.5zM188 526q116 45 232 45q88 0 213 -41q55 -16 80.5 -23t59.5 -12.5t69 -5.5
q100 0 225 46q-6 177 -123.5 294t-290.5 117q-176 0 -309.5 -121t-155.5 -299zM1065 477q-119 -45 -234 -45q-88 0 -219 43q-9 2 -30 8t-27.5 8t-23 6t-22.5 5.5t-19 4t-20 3.5t-18 2t-21 1.5t-21 0.5q-107 0 -226 -45v-6q0 -185 117 -305.5t293 -120.5q184 0 320 127.5
t151 312.5z" />
    <glyph glyph-name="uni0474" unicode="&#x474;" horiz-adv-x="1425" 
d="M1559 1354l-11 -58q-46 4 -55 4q-60 0 -103 -29t-81 -95l-711 -1196h-31l-331 1372h63l303 -1254l653 1108q50 82 106 119t134 37q37 0 64 -8z" />
    <glyph glyph-name="uni0475" unicode="&#x475;" horiz-adv-x="1077" 
d="M1163 983l-10 -51l-41 2q-84 0 -154 -115l-516 -839h-30l-267 1003h66l233 -897l465 766q81 137 201 137q26 0 53 -6z" />
    <glyph glyph-name="uni0490" unicode="&#x490;" horiz-adv-x="983" 
d="M125 0l237 1352h658l43 247h65l-53 -305h-657l-228 -1294h-65z" />
    <glyph glyph-name="uni0491" unicode="&#x491;" horiz-adv-x="849" 
d="M117 0l174 983h543l43 248h61l-53 -305h-543l-164 -926h-61z" />
    <glyph glyph-name="uni0492" unicode="&#x492;" horiz-adv-x="985" 
d="M1096 1292h-678l-111 -626h383l-10 -58h-383l-107 -608h-65l106 608h-211l11 58h211l120 686h744z" />
    <glyph glyph-name="uni0493" unicode="&#x493;" horiz-adv-x="854" 
d="M920 926h-584l-74 -412h330l-10 -57h-330l-80 -457h-61l79 457h-176l11 57h176l84 469h645z" />
    <glyph glyph-name="uni0496" unicode="&#x496;" horiz-adv-x="1857" 
d="M362 1352l547 -617l-821 -735h-94l825 739l-545 613h88zM1057 1352h65l-237 -1352h-66zM1145 725l514 -668h135l-61 -346h-66l51 289h-96l-569 735l749 617h103z" />
    <glyph glyph-name="uni0497" unicode="&#x497;" horiz-adv-x="1558" 
d="M299 983l371 -461l-602 -522h-93l611 528l-369 455h82zM791 983h61l-172 -983h-62zM891 518l383 -461h127l-62 -346h-61l51 289h-90l-430 522l522 461h96z" />
    <glyph glyph-name="uni0498" unicode="&#x498;" horiz-adv-x="1181" 
d="M1061 416q0 -192 -135.5 -314t-347.5 -122q-352 0 -496 313l65 33q61 -141 170 -213t258 -72q185 0 302.5 104.5t117.5 270.5q0 126 -92 209q-88 82 -233 82h-203l10 57h160q165 0 275 86.5t110 216.5q0 115 -78.5 179.5t-218.5 64.5q-210 0 -354 -156l-43 45
q159 172 399 172q167 0 263.5 -81t96.5 -222q0 -118 -74.5 -207.5t-199.5 -124.5q116 -32 182 -117.5t66 -203.5zM246 -360l10 53q97 -23 135 -23q85 0 136 48t51 126q0 45 -17.5 78.5t-64.5 77.5l28 20q57 -31 87 -79t30 -105q0 -94 -72 -160q-71 -65 -172 -65
q-66 0 -151 29z" />
    <glyph glyph-name="uni0499" unicode="&#x499;" horiz-adv-x="970" 
d="M764 279q0 -140 -94 -219.5t-260 -79.5q-255 0 -367 198l47 35q54 -90 134 -132t196 -42q129 0 203.5 64.5t74.5 175.5q0 100 -64.5 154t-182.5 54h-148l10 60h154q127 0 199.5 59t72.5 162q0 88 -55.5 133t-161.5 45q-85 0 -151 -32t-135 -107l-35 37q127 160 327 160
q128 0 202.5 -63.5t74.5 -172.5q0 -92 -58 -160t-161 -94q87 -25 132.5 -85t45.5 -150zM-8 -360l10 53q97 -23 135 -23q85 0 136 48t51 126q0 45 -17.5 78.5t-64.5 77.5l28 20q57 -31 87 -79t30 -105q0 -94 -72 -160q-71 -65 -172 -65q-66 0 -151 29z" />
    <glyph glyph-name="uni049A" unicode="&#x49a;" horiz-adv-x="1204" 
d="M362 1352h66l-238 -1352h-65zM444 731l564 -674h133l-62 -346h-65l51 289h-92l-615 735l793 617h98z" />
    <glyph glyph-name="uni049B" unicode="&#x49b;" horiz-adv-x="1060" 
d="M293 983h61l-174 -983h-61zM393 518l383 -461h127l-61 -346h-62l51 289h-90l-430 522l523 461h96z" />
    <glyph glyph-name="uni04A0" unicode="&#x4a0;" horiz-adv-x="1589" 
d="M207 1352h586l-238 -1352h-66l228 1294h-520zM1614 1352l-805 -621l612 -731h-80l-618 735l793 617h98z" />
    <glyph glyph-name="uni04A1" unicode="&#x4a1;" horiz-adv-x="1116" 
d="M61 983h443l-174 -983h-62l164 926h-381zM1098 983l-551 -446l422 -537h-78l-428 543l543 440h92z" />
    <glyph glyph-name="uni04A2" unicode="&#x4a2;" horiz-adv-x="1466" 
d="M1202 -289l51 289h-174l125 707h-889l-125 -707h-65l237 1352h66l-104 -588h888l105 588h65l-227 -1295h174l-61 -346h-66z" />
    <glyph glyph-name="uni04A3" unicode="&#x4a3;" horiz-adv-x="1179" 
d="M899 -289l51 289h-153l90 506h-617l-90 -506h-61l174 983h61l-75 -420h616l76 420h61l-164 -926h154l-61 -346h-62z" />
    <glyph glyph-name="uni04AA" unicode="&#x4aa;" horiz-adv-x="1452" 
d="M152 621q-3 146 57.5 285.5t162.5 242.5t240.5 164.5t284.5 58.5q168 0 304 -76t218 -215l-53 -37q-79 128 -200.5 197.5t-272.5 69.5q-175 4 -332.5 -91t-250.5 -256t-89 -341q-3 -163 71 -297.5t205 -211t289 -73.5q141 0 271 57.5t227 161.5l45 -41
q-105 -115 -248.5 -177t-298.5 -62q-174 -3 -320 81.5t-229.5 233t-80.5 326.5zM430 -360l10 53q97 -23 135 -23q85 0 136 48t51 126q0 45 -17.5 78.5t-64.5 77.5l29 20q116 -63 116 -184q0 -95 -71 -160t-172 -65q-67 0 -152 29z" />
    <glyph glyph-name="uni04AB" unicode="&#x4ab;" horiz-adv-x="1136" 
d="M119 463q-2 108 40.5 209t115.5 174t172.5 116.5t205.5 41.5q128 0 231.5 -53.5t166.5 -151.5l-50 -35q-57 87 -147 133.5t-199 46.5q-94 2 -182 -36t-152 -102.5t-101.5 -153.5t-35.5 -185q0 -185 117 -306.5t295 -121.5q100 0 190 39.5t156 111.5l41 -38
q-147 -172 -385 -172q-205 0 -342 138t-137 345zM238 -360l10 53q97 -23 135 -23q84 0 135 48t51 126q0 45 -17.5 78.5t-64.5 77.5l29 20q57 -31 87 -79t30 -105q0 -94 -72 -160q-71 -65 -172 -65q-66 0 -151 29z" />
    <glyph glyph-name="uni04AE" unicode="&#x4ae;" horiz-adv-x="1249" 
d="M1268 1352l-606 -768l-103 -584h-65l102 588l-336 764h64l311 -709l557 709h76z" />
    <glyph glyph-name="uni04AF" unicode="&#x4af;" horiz-adv-x="1103" 
d="M1094 983l-600 -973l-66 -379h-61l67 387l-254 965h64l233 -895l545 895h72z" />
    <glyph glyph-name="uni04B0" unicode="&#x4b0;" horiz-adv-x="1253" 
d="M1282 1352l-606 -766h348l-10 -58h-348l-93 -528h-65l92 528h-348l10 58h348v2l-336 764h66l311 -709l557 709h74z" />
    <glyph glyph-name="uni04B1" unicode="&#x4b1;" horiz-adv-x="1103" 
d="M500 18l-4 -18h284l-10 -57h-285l-53 -312h-61l53 312h-289l10 57h289l2 10l-256 973h64l233 -895l545 895h72z" />
    <glyph glyph-name="uni04B2" unicode="&#x4b2;" horiz-adv-x="1183" 
d="M666 688l313 -631h141l-61 -346h-66l51 289h-106l-317 641l-547 -641h-80l596 698l-324 654h70l299 -607l504 607h80z" />
    <glyph glyph-name="uni04B3" unicode="&#x4b3;" horiz-adv-x="1050" 
d="M520 502l256 -445h117l-62 -346h-61l51 289h-82l-264 455l-418 -455h-82l469 510l-260 473h70l235 -432l381 432h82z" />
    <glyph glyph-name="uni04B6" unicode="&#x4b6;" horiz-adv-x="1370" 
d="M1286 1352l-227 -1295h174l-62 -346h-65l51 289h-174l107 608q-177 -67 -355 -67q-229 0 -349 105.5t-120 307.5q0 54 15 133l47 265h65l-47 -269q-12 -71 -12 -125q0 -174 102.5 -265t298.5 -91q188 0 367 72l119 678h65z" />
    <glyph glyph-name="uni04B7" unicode="&#x4b7;" horiz-adv-x="1079" 
d="M932 983l-164 -926h154l-62 -346h-61l51 289h-154l82 465q-50 -24 -121.5 -39.5t-132.5 -15.5q-155 0 -244.5 81t-89.5 222q0 39 9 86l32 184h62l-33 -184q-8 -41 -8 -84q0 -119 72.5 -183.5t207.5 -64.5q60 0 133.5 15t122.5 40l82 461h62z" />
    <glyph glyph-name="uni04BA" unicode="&#x4ba;" horiz-adv-x="1345" 
d="M1145 397q0 -53 -15 -133l-47 -264h-65l47 268q12 71 12 125q0 174 -102.5 265.5t-298.5 91.5q-188 0 -367 -72l-119 -678h-65l237 1352h66l-106 -609q180 68 354 68q229 0 349 -106t120 -308z" />
    <glyph glyph-name="uni04BB" unicode="&#x4bb;" horiz-adv-x="1128" 
d="M971 692q0 -45 -13 -110l-100 -582h-61l102 590q12 60 12 102q0 113 -75.5 183.5t-196.5 70.5q-127 0 -223.5 -83t-120.5 -220l-113 -643h-61l268 1536h62l-121 -686q119 154 313 154q146 0 237 -86.5t91 -225.5z" />
    <glyph glyph-name="uni04C0" unicode="&#x4c0;" horiz-adv-x="487" 
d="M125 0l237 1352h66l-238 -1352h-65z" />
    <glyph glyph-name="uni04C1" unicode="&#x4c1;" horiz-adv-x="1878" 
d="M362 1352l547 -617l-821 -735h-94l825 739l-545 613h88zM1057 1352h65l-237 -1352h-66zM1905 1352l-762 -627l567 -725h-84l-573 735l749 617h103zM868 1747q0 41 15 117h63q-14 -71 -14 -109q0 -91 53 -146t141 -55t150.5 60t79.5 164l14 86h64l-15 -86
q-23 -130 -102 -204.5t-195 -74.5q-109 0 -181.5 71t-72.5 177z" />
    <glyph glyph-name="uni04C2" unicode="&#x4c2;" horiz-adv-x="1429" 
d="M281 983l368 -461l-602 -522h-92l610 528l-366 455h82zM772 983h62l-175 -983h-61zM1409 983l-539 -467l433 -516h-80l-435 522l525 461h96zM606 1425q0 41 15 117h63q-14 -71 -14 -108q0 -91 53 -146t141 -55q91 0 152 59.5t78 163.5l14 86h63l-14 -86
q-23 -130 -102 -204t-195 -74q-109 0 -181.5 70.5t-72.5 176.5z" />
    <glyph glyph-name="uni04CF" unicode="&#x4cf;" horiz-adv-x="450" 
d="M119 0l270 1536h62l-271 -1536h-61z" />
    <glyph glyph-name="uni04D0" unicode="&#x4d0;" horiz-adv-x="1363" 
d="M1130 0l-88 360h-741l-211 -360h-74l815 1372h31l332 -1372h-64zM1030 418l-203 833l-493 -833h696zM604 1747q0 46 14 117h64q-14 -71 -14 -109q0 -91 53 -146t141 -55t150.5 60t79.5 164l14 86h63l-14 -86q-23 -130 -102 -204.5t-195 -74.5q-109 0 -181.5 71t-72.5 177
z" />
    <glyph glyph-name="uni04D1" unicode="&#x4d1;" horiz-adv-x="1294" 
d="M1114 983h62l-175 -983h-61l35 195q-62 -100 -170.5 -157.5t-237.5 -57.5q-189 0 -319.5 138t-130.5 339q-3 145 69.5 272t196.5 202t266 73q146 0 264 -80q114 -78 156 -201zM649 946q-91 2 -178 -38t-151 -107t-102 -157.5t-36 -184.5q0 -180 113 -301t283 -121
q119 -3 226 68.5t170 192t60 253.5q0 179 -106 285q-104 110 -279 110zM459 1425q0 46 14 117h64q-15 -76 -15 -108q0 -91 53.5 -146t141.5 -55q91 0 151.5 59t77.5 164l15 86h63l-14 -86q-23 -130 -102 -204t-195 -74q-109 0 -181.5 70.5t-72.5 176.5z" />
    <glyph glyph-name="uni04D4" unicode="&#x4d4;" horiz-adv-x="1632" 
d="M1663 1294h-707l2 -530h449l-10 -57h-439l3 -650h512l-11 -57h-565v360h-618l-250 -360h-74l940 1352h778zM897 418l-2 829l-576 -829h578z" />
    <glyph glyph-name="uni04D5" unicode="&#x4d5;" horiz-adv-x="1845" 
d="M1724 469h-845v-16q0 -182 113 -299t290 -117q100 0 191.5 40t158.5 113l39 -38q-74 -82 -176.5 -127t-214.5 -45q-158 0 -278 86t-164 229q-44 -148 -162.5 -231.5t-282.5 -83.5q-148 0 -237.5 70t-89.5 186q0 134 104.5 212t282.5 78h362l12 76q9 50 9 70
q0 127 -74.5 200.5t-202.5 73.5q-85 0 -158 -34.5t-151 -112.5l-37 41q154 164 352 164q135 0 221 -69.5t105 -191.5q70 119 186.5 188.5t251.5 69.5q180 0 296 -113t116 -290q0 -49 -17 -129zM883 526h788l4 74q0 154 -96.5 249t-251.5 95q-172 0 -295.5 -118t-148.5 -300z
M788 362l17 107h-361q-150 0 -230.5 -58t-80.5 -167q0 -96 70.5 -151.5t189.5 -55.5q149 0 262 90q112 93 133 235z" />
    <glyph glyph-name="uni04D6" unicode="&#x4d6;" horiz-adv-x="1150" 
d="M125 0l237 1352h832l-10 -58h-766l-94 -530h602l-8 -57h-603l-114 -650h790l-10 -57h-856zM555 1747q0 46 14 117h64q-15 -76 -15 -109q0 -91 53.5 -146t141.5 -55t150 60t79 164l15 86h63l-14 -86q-23 -130 -102 -204.5t-195 -74.5q-109 0 -181.5 71t-72.5 177z" />
    <glyph glyph-name="uni04D7" unicode="&#x4d7;" horiz-adv-x="1157" 
d="M1036 485h-852v-22q0 -186 115 -306t295 -120q100 0 191.5 40t158.5 113l39 -38q-74 -82 -176.5 -127t-214.5 -45q-203 0 -338 137t-135 344q-2 107 40.5 208.5t113.5 175.5t168 117.5t198 41.5q180 0 297 -113.5t117 -288.5q0 -64 -17 -117zM190 543h795q2 14 2 57
q0 154 -96.5 250t-251.5 96q-168 0 -296 -116t-153 -287zM432 1425q0 46 14 117h64q-14 -71 -14 -108q0 -91 53 -146t141 -55q91 0 152 59.5t78 163.5l14 86h63l-14 -86q-23 -130 -102 -204t-195 -74q-109 0 -181.5 70.5t-72.5 176.5z" />
    <glyph glyph-name="uni04D8" unicode="&#x4d8;" horiz-adv-x="1492" 
d="M1411 756q4 -151 -54 -296t-155.5 -251t-229.5 -169.5t-270 -59.5q-254 0 -409.5 154t-155.5 407q0 46 13 139h1187q4 66 4 76q3 152 -70.5 281t-202 203t-280.5 71q-146 0 -277 -59t-218 -162l-45 40q97 113 242 177.5t303 64.5q126 2 241.5 -46t198.5 -131t131.5 -198
t46.5 -241zM1329 623h-1118q-4 -78 -4 -84q0 -225 137.5 -361.5t362.5 -136.5q146 -3 281 75t226.5 213t114.5 294z" />
    <glyph glyph-name="uni04D9" unicode="&#x4d9;" horiz-adv-x="1153" 
d="M1034 522q2 -107 -40.5 -208.5t-113.5 -175t-168 -117t-198 -41.5q-180 0 -297 110.5t-117 278.5q0 59 17 118h852v33q0 185 -115.5 305.5t-290.5 120.5q-201 0 -338 -153l-39 38q69 82 169 127.5t210 45.5q200 0 334.5 -138.5t134.5 -343.5zM961 430h-791q-4 -50 -4 -59
q0 -148 97 -241t251 -93q165 0 292 112t155 281z" />
    <glyph glyph-name="uni04E2" unicode="&#x4e2;" horiz-adv-x="1462" 
d="M1376 1372h31l-242 -1372h-65l215 1227l-1163 -1247h-31l241 1372h66l-219 -1243zM645 1602l10 57h557l-10 -57h-557z" />
    <glyph glyph-name="uni04E3" unicode="&#x4e3;" horiz-adv-x="1126" 
d="M946 983h62l-172 -983h-62l23 135q-117 -155 -314 -155q-148 0 -237.5 86.5t-89.5 224.5q0 26 12 110l102 582h62l-105 -590q-10 -65 -10 -90q0 -119 73.5 -192.5t196.5 -73.5q130 0 224 81.5t120 221.5zM455 1337l10 58h516l-10 -58h-516z" />
    <glyph glyph-name="uni04E6" unicode="&#x4e6;" horiz-adv-x="1605" 
d="M152 623q-4 147 56.5 286.5t161.5 241.5t239.5 163t283.5 58q174 3 319.5 -81.5t228 -233t79.5 -326.5q4 -148 -56.5 -288t-162 -242t-240 -163t-283.5 -58q-172 -3 -317.5 82t-228.5 234t-80 327zM1450 731q3 161 -70.5 295t-203 210t-285.5 73q-132 2 -256.5 -53.5
t-216 -148.5t-146 -221t-51.5 -263q-2 -162 71 -296t202.5 -210.5t285.5 -73.5q131 -3 255.5 53t216 150t146 222t52.5 263zM690 1651q0 29 20.5 49t49.5 20t49 -20t20 -49t-20 -49.5t-49 -20.5t-49.5 20.5t-20.5 49.5zM1143 1651q0 29 20 49t49 20t49.5 -20t20.5 -49
t-20.5 -49.5t-49.5 -20.5t-49 20.5t-20 49.5z" />
    <glyph glyph-name="uni04E7" unicode="&#x4e7;" horiz-adv-x="1249" 
d="M119 463q-2 108 41 209t116 174t173 116.5t206 41.5q203 0 340.5 -138.5t137.5 -343.5q2 -107 -42 -208.5t-117.5 -175t-174.5 -117t-207 -41.5q-202 0 -337.5 138.5t-135.5 344.5zM1067 520q0 181 -119.5 302.5t-294.5 121.5q-128 0 -236 -65t-170.5 -175.5
t-62.5 -240.5q0 -185 116 -304.5t294 -119.5q96 0 183.5 38.5t151 103t101 153.5t37.5 186zM463 1364q0 29 20 49.5t49 20.5t49.5 -20.5t20.5 -49.5t-20.5 -49.5t-49.5 -20.5t-49 20.5t-20 49.5zM874 1364q0 29 20.5 49.5t49.5 20.5t49.5 -20.5t20.5 -49.5t-20.5 -49.5
t-49.5 -20.5t-49.5 20.5t-20.5 49.5z" />
    <glyph glyph-name="uni04E8" unicode="&#x4e8;" horiz-adv-x="1605" 
d="M1520 731q3 -146 -58 -285.5t-162.5 -242.5t-239.5 -164.5t-282 -58.5q-172 -3 -317.5 82t-228.5 234t-80 327q-3 146 57.5 286t162 242.5t239.5 163.5t282 57q174 3 319.5 -81.5t228 -233t79.5 -326.5zM227 713h1223v18q2 162 -71 296t-202.5 210.5t-285.5 73.5
q-162 3 -309 -77.5t-242.5 -219t-112.5 -301.5zM1446 655h-1225v-32q0 -164 72.5 -297t201 -209t285.5 -76q123 -2 240.5 46.5t206.5 131.5t148.5 197t70.5 239z" />
    <glyph glyph-name="uni04E9" unicode="&#x4e9;" horiz-adv-x="1249" 
d="M1133 522q3 -143 -72 -270t-201.5 -201t-267.5 -71q-200 0 -336.5 138.5t-136.5 344.5q-2 108 41 209t116 174t173 116.5t206 41.5q130 3 241.5 -61t175.5 -176.5t61 -244.5zM188 530h879q-3 178 -122.5 297t-291.5 119q-176 0 -308 -119t-157 -297zM1065 473h-881v-10
q0 -185 117 -305.5t293 -120.5q183 0 319.5 126t151.5 310z" />
    <glyph glyph-name="uni04EE" unicode="&#x4ee;" horiz-adv-x="1249" 
d="M1245 1352h72l-701 -1151q-68 -114 -146 -165.5t-179 -51.5q-81 0 -131 20l10 57q59 -16 119 -16q88 0 153 42.5t125 139.5l37 60l-346 1065h68l317 -998zM526 1602l11 57h557l-11 -57h-557z" />
    <glyph glyph-name="uni04EF" unicode="&#x4ef;" horiz-adv-x="1130" 
d="M950 983h62l-178 -1008q-29 -167 -139.5 -265.5t-268.5 -98.5q-119 0 -219 59.5t-160 167.5l51 35q54 -97 140 -151t190 -54q134 0 226 83t118 229l27 151q-114 -151 -312 -151q-146 0 -236.5 86t-90.5 225q0 26 12 110l102 582h62l-105 -590q-10 -65 -10 -90
q0 -119 73.5 -192.5t197.5 -73.5q130 0 224 81.5t120 221.5zM473 1337l10 58h516l-10 -58h-516z" />
    <glyph glyph-name="uni04F2" unicode="&#x4f2;" horiz-adv-x="1249" 
d="M1245 1352h72l-701 -1151q-68 -114 -146 -165.5t-179 -51.5q-81 0 -131 20l10 57q59 -16 119 -16q88 0 153 42.5t125 139.5l37 60l-346 1065h68l317 -998zM522 1483l264 381h80l-2 -11l-282 -370h-60zM940 1483l264 381h80l-2 -11l-283 -370h-59z" />
    <glyph glyph-name="uni04F3" unicode="&#x4f3;" horiz-adv-x="1130" 
d="M950 983h62l-178 -1008q-29 -167 -139.5 -265.5t-268.5 -98.5q-119 0 -219 59.5t-160 167.5l51 35q54 -97 140 -151t190 -54q134 0 226 83t118 229l27 151q-114 -151 -312 -151q-146 0 -236.5 86t-90.5 225q0 26 12 110l102 582h62l-105 -590q-10 -65 -10 -90
q0 -119 73.5 -192.5t197.5 -73.5q130 0 224 81.5t120 221.5zM471 1151l274 446h82l-2 -10l-295 -436h-59zM848 1151l274 446h82l-2 -10l-295 -436h-59z" />
    <glyph glyph-name="Wgrave" unicode="&#x1e80;" horiz-adv-x="2205" 
d="M2154 1352h70l-731 -1372h-31l-248 1255l-688 -1255h-30l-252 1372h63l223 -1246l691 1266h30l246 -1259zM1270 1483l-152 370v11h74l129 -381h-51z" />
    <glyph glyph-name="wgrave" unicode="&#x1e81;" horiz-adv-x="1724" 
d="M1653 983h67l-551 -1003h-30l-224 899l-532 -899h-31l-207 1003h66l176 -885l531 906h30l219 -912zM942 1151l-70 436l5 10h67l45 -446h-47z" />
    <glyph glyph-name="Wacute" unicode="&#x1e82;" horiz-adv-x="2205" 
d="M2154 1352h70l-731 -1372h-31l-248 1255l-688 -1255h-30l-252 1372h63l223 -1246l691 1266h30l246 -1259zM1262 1483l258 381h82l-3 -11l-282 -370h-55z" />
    <glyph glyph-name="wacute" unicode="&#x1e83;" horiz-adv-x="1724" 
d="M1653 983h67l-551 -1003h-30l-224 899l-532 -899h-31l-207 1003h66l176 -885l531 906h30l219 -912zM909 1151l275 446h82v-10l-297 -436h-60z" />
    <glyph glyph-name="Wdieresis" unicode="&#x1e84;" horiz-adv-x="2205" 
d="M2154 1352h70l-731 -1372h-31l-248 1255l-688 -1255h-30l-252 1372h63l223 -1246l691 1266h30l246 -1259zM1024 1651q0 29 20.5 49t49.5 20t49 -20t20 -49t-20 -49.5t-49 -20.5t-49.5 20.5t-20.5 49.5zM1477 1651q0 29 20 49t49 20t49.5 -20t20.5 -49t-20.5 -49.5
t-49.5 -20.5t-49 20.5t-20 49.5z" />
    <glyph glyph-name="wdieresis" unicode="&#x1e85;" horiz-adv-x="1724" 
d="M1653 983h67l-551 -1003h-30l-224 899l-532 -899h-31l-207 1003h66l176 -885l531 906h30l219 -912zM719 1364q0 29 20 49.5t49 20.5t49.5 -20.5t20.5 -49.5t-20.5 -49.5t-49.5 -20.5t-49 20.5t-20 49.5zM1130 1364q0 29 20.5 49.5t49.5 20.5t49.5 -20.5t20.5 -49.5
t-20.5 -49.5t-49.5 -20.5t-49.5 20.5t-20.5 49.5z" />
    <glyph glyph-name="uni1E9E" unicode="&#x1e9e;" horiz-adv-x="1421" 
d="M1343 1352l-4 -25l-432 -510q159 -12 265 -127t106 -276q0 -182 -129.5 -308t-314.5 -126q-107 0 -204 50.5t-165 143.5l45 39q60 -82 145.5 -126t182.5 -44q153 0 262.5 109t109.5 260t-104 251.5t-262 100.5h-41l4 24l430 506h-819l-228 -1294h-65l237 1352h981z" />
    <glyph glyph-name="Ygrave" unicode="&#x1ef2;" horiz-adv-x="1249" 
d="M1268 1352l-606 -768l-103 -584h-65l102 588l-336 764h64l311 -709l557 709h76zM764 1483l-152 370v11h74l129 -381h-51z" />
    <glyph glyph-name="ygrave" unicode="&#x1ef3;" horiz-adv-x="1130" 
d="M950 983h62l-178 -1008q-29 -167 -139.5 -265.5t-268.5 -98.5q-119 0 -219 59.5t-160 167.5l51 35q54 -97 140 -151t190 -54q134 0 226 83t118 229l27 151q-114 -151 -312 -151q-146 0 -236.5 86t-90.5 225q0 26 12 110l102 582h62l-105 -590q-10 -65 -10 -90
q0 -119 73.5 -192.5t197.5 -73.5q130 0 224 81.5t120 221.5zM651 1151l-69 436l4 10h67l45 -446h-47z" />
    <glyph glyph-name="uni2009" unicode="&#x2009;" horiz-adv-x="286" 
 />
    <glyph glyph-name="endash" unicode="&#x2013;" horiz-adv-x="1024" 
d="M123 604l10 58h819l-10 -58h-819z" />
    <glyph glyph-name="emdash" unicode="&#x2014;" horiz-adv-x="2048" 
d="M123 604l10 58h1843l-10 -58h-1843z" />
    <glyph glyph-name="uni2015" unicode="&#x2015;" horiz-adv-x="2048" 
d="M123 604l10 58h1843l-10 -58h-1843z" />
    <glyph glyph-name="quoteleft" unicode="&#x2018;" horiz-adv-x="542" 
d="M274 860l152 492h55l-125 -492h-82z" />
    <glyph glyph-name="quoteright" unicode="&#x2019;" horiz-adv-x="542" 
d="M279 860l124 492h82l-151 -492h-55z" />
    <glyph glyph-name="quotesinglbase" unicode="&#x201a;" horiz-adv-x="542" 
d="M61 -362l127 491h82l-153 -491h-56z" />
    <glyph glyph-name="quotedblleft" unicode="&#x201c;" horiz-adv-x="829" 
d="M274 860l152 492h55l-125 -492h-82zM561 860l152 492h55l-125 -492h-82z" />
    <glyph glyph-name="quotedblright" unicode="&#x201d;" horiz-adv-x="829" 
d="M279 860l124 492h82l-151 -492h-55zM565 860l125 492h82l-151 -492h-56z" />
    <glyph glyph-name="quotedblbase" unicode="&#x201e;" horiz-adv-x="829" 
d="M61 -362l127 491h82l-153 -491h-56zM348 -362l127 491h82l-154 -491h-55z" />
    <glyph glyph-name="dagger" unicode="&#x2020;" horiz-adv-x="872" 
d="M459 791l76 430h-252l10 57h252l45 258h61l-45 -258h252l-10 -57h-252l-76 -430h-61z" />
    <glyph glyph-name="daggerdbl" unicode="&#x2021;" horiz-adv-x="872" 
d="M446 729l35 197h-252l11 57h252l53 299h-252l10 57h252l35 197h61l-35 -197h252l-10 -57h-252l-53 -299h252l-10 -57h-252l-35 -197h-62z" />
    <glyph glyph-name="bullet" unicode="&#x2022;" horiz-adv-x="690" 
d="M135 541q0 94 65 155.5t154 61.5t153 -61.5t64 -155.5t-64 -155.5t-153 -61.5t-154 61.5t-65 155.5z" />
    <glyph glyph-name="ellipsis" unicode="&#x2026;" horiz-adv-x="1556" 
d="M623 57q0 36 22.5 59t54.5 23q34 0 58 -22.5t24 -59.5q0 -34 -24 -55.5t-58 -21.5q-32 0 -54.5 21.5t-22.5 55.5zM131 57q0 36 23 59t55 23q34 0 58 -22.5t24 -59.5q0 -34 -24 -55.5t-58 -21.5q-32 0 -55 21.5t-23 55.5zM1114 57q0 36 23 59t55 23q34 0 58 -22.5
t24 -59.5q0 -34 -24 -55.5t-58 -21.5q-32 0 -55 21.5t-23 55.5z" />
    <glyph glyph-name="perthousand" unicode="&#x2030;" horiz-adv-x="2430" 
d="M221 1038q0 139 97 236.5t235 97.5q131 0 219 -90t88 -223q0 -139 -97 -236.5t-237 -97.5q-129 0 -217 90t-88 223zM289 0l1054 1352h68l-1055 -1352h-67zM795 1059q0 113 -67 184.5t-173 71.5q-116 0 -193 -80q-75 -75 -75 -197q0 -110 69.5 -183t175.5 -73
q113 0 188 79.5t75 197.5zM1638 297q0 139 97 236.5t235 97.5q131 0 219 -90.5t88 -223.5q0 -139 -96.5 -236t-236.5 -97q-129 0 -217.5 90t-88.5 223zM834 293q0 139 96.5 236.5t234.5 97.5q131 0 219.5 -90.5t88.5 -223.5q0 -139 -97 -236t-237 -97q-129 0 -217 90
t-88 223zM2212 317q0 113 -67 184.5t-173 71.5q-116 0 -192 -79q-76 -76 -76 -197q0 -110 70 -183t176 -73q112 0 187 78.5t75 197.5zM1407 313q0 113 -67 184.5t-173 71.5q-115 0 -192 -80q-76 -76 -76 -196q0 -110 70 -183t176 -73q112 0 187 78.5t75 197.5z" />
    <glyph glyph-name="minute" unicode="&#x2032;" horiz-adv-x="434" 
d="M201 815l184 537h86l-213 -537h-57z" />
    <glyph glyph-name="second" unicode="&#x2033;" horiz-adv-x="720" 
d="M201 815l184 537h86l-213 -537h-57zM487 815l185 537h86l-213 -537h-58z" />
    <glyph glyph-name="guilsinglleft" unicode="&#x2039;" horiz-adv-x="567" 
d="M375 186l-273 353l4 24l392 352l41 -45l-357 -325l242 -324z" />
    <glyph glyph-name="guilsinglright" unicode="&#x203a;" horiz-adv-x="569" 
d="M92 186l-41 45l357 326l-242 324l49 34l272 -352l-4 -24z" />
    <glyph glyph-name="fraction" unicode="&#x2044;" horiz-adv-x="503" 
d="M-256 0l1014 1352h67l-1013 -1352h-68z" />
    <glyph glyph-name="uni2070" unicode="&#x2070;" horiz-adv-x="821" 
d="M219 1053q-1 68 11 141.5t40.5 149.5t70 135.5t106 96t141.5 34.5q122 0 187 -84.5t65 -235.5q0 -69 -12 -142t-40 -149t-69 -135t-105 -96t-141 -35q-122 0 -188 84.5t-66 235.5zM774 1294q0 130 -52.5 194t-139.5 64q-63 2 -115.5 -32.5t-85 -88.5t-55 -123t-32 -134
t-9.5 -125q0 -132 53 -195t141 -63q62 -2 114 31.5t84.5 88t55.5 124t32.5 135t8.5 124.5z" />
    <glyph glyph-name="uni2074" unicode="&#x2074;" horiz-adv-x="708" 
d="M750 971l-11 -58h-133l-28 -168h-64l29 168h-428l4 21l397 663h70l-379 -626h346l55 309h64l-56 -309h134z" />
    <glyph glyph-name="uni2075" unicode="&#x2075;" horiz-adv-x="749" 
d="M803 1540h-391l-47 -274q82 4 96 4q134 0 209 -64.5t75 -179.5q0 -128 -86 -211q-85 -82 -217 -82q-100 0 -172 48.5t-110 140.5l51 28q74 -159 229 -159q106 0 173 64t67 167q0 91 -58.5 141.5t-164.5 50.5h-166l67 383h455z" />
    <glyph glyph-name="uni2076" unicode="&#x2076;" horiz-adv-x="739" 
d="M739 1022q0 -119 -86 -204t-207 -85q-112 0 -188 75.5t-76 188.5q0 57 21 107q19 44 45 82q21 30 84 106l248 305h79l-280 -340q48 25 104 25q110 0 183 -76q73 -73 73 -184zM674 1020q0 91 -55.5 148t-143.5 57q-96 0 -161.5 -66.5t-65.5 -163.5q0 -90 57.5 -147
t145.5 -57q96 0 159.5 65t63.5 164z" />
    <glyph glyph-name="uni2077" unicode="&#x2077;" horiz-adv-x="645" 
d="M244 1597h555l-4 -20l-596 -832h-72l571 795h-465z" />
    <glyph glyph-name="uni2078" unicode="&#x2078;" horiz-adv-x="770" 
d="M754 971q0 -102 -82 -169t-207 -67q-129 0 -208 60.5t-79 158.5q0 90 70.5 155t195.5 91q-147 76 -147 193q0 94 71.5 155.5t180.5 61.5t176.5 -54.5t67.5 -142.5q0 -79 -56 -136.5t-162 -88.5q179 -83 179 -217zM512 1223q113 29 166 73.5t53 110.5t-51 107.5t-131 41.5
q-84 0 -137.5 -45.5t-53.5 -115.5q0 -50 35 -89t119 -83zM690 973q0 57 -38.5 97t-147.5 97q-262 -65 -262 -209q0 -78 59.5 -124t161.5 -46q100 0 163.5 51.5t63.5 133.5z" />
    <glyph glyph-name="uni2079" unicode="&#x2079;" horiz-adv-x="737" 
d="M795 1346q0 -58 -21 -107t-45 -84q-12 -17 -84 -104l-248 -306h-80l281 340q-46 -24 -104 -24q-109 0 -183 74q-73 76 -73 186q0 119 85.5 204t206.5 85q116 0 190.5 -74.5t74.5 -189.5zM729 1348q0 90 -57.5 147t-145.5 57q-96 0 -159.5 -65t-63.5 -164q0 -91 55.5 -148
t143.5 -57q96 0 161.5 66.5t65.5 163.5z" />
    <glyph glyph-name="uni207A" unicode="&#x207a;" horiz-adv-x="874" 
d="M467 831l55 314h-305l10 55h305l56 313h61l-55 -313h305l-10 -55h-305l-56 -314h-61z" />
    <glyph glyph-name="uni207B" unicode="&#x207b;" horiz-adv-x="874" 
d="M217 1145l10 55h670l-10 -55h-670z" />
    <glyph glyph-name="uni207C" unicode="&#x207c;" horiz-adv-x="874" 
d="M260 1303l10 55h639l-10 -55h-639zM205 987l8 55h639l-8 -55h-639z" />
    <glyph glyph-name="uni207D" unicode="&#x207d;" horiz-adv-x="499" 
d="M236 981q-3 284 122 532t312 330l20 -47q-113 -58 -204 -184t-142 -291t-49 -334q0 -301 174 -444l-33 -41q-200 150 -200 479z" />
    <glyph glyph-name="uni207E" unicode="&#x207e;" horiz-adv-x="497" 
d="M70 502l-21 47q113 58 204 184t142 291t49 334q0 301 -174 444l33 41q201 -151 201 -479q3 -284 -122 -532t-312 -330z" />
    <glyph glyph-name="uni2080" unicode="&#x2080;" horiz-adv-x="821" 
d="M45 61q-1 68 11 141.5t40.5 149.5t70 135.5t106 96t141.5 34.5q122 0 187 -84t65 -235q0 -69 -12 -142t-40 -149t-69 -135t-105 -96t-141 -35q-122 0 -188 84t-66 235zM600 303q0 130 -52.5 194t-139.5 64q-63 2 -115.5 -32.5t-85 -88.5t-55 -123.5t-32 -134.5t-9.5 -125
q0 -132 53 -195t141 -63q62 -2 114 32t84.5 88.5t55.5 123.5t32.5 135t8.5 125z" />
    <glyph glyph-name="uni2081" unicode="&#x2081;" horiz-adv-x="698" 
d="M-23 -246l11 58h227l129 737h-229l10 57h291l-140 -794h207l-10 -58h-496z" />
    <glyph glyph-name="uni2082" unicode="&#x2082;" horiz-adv-x="735" 
d="M354 31l-268 -219h446l-10 -58h-575l4 19l366 301q106 87 155.5 160.5t49.5 148.5q0 82 -49 130t-131 48q-92 0 -150.5 -65t-58.5 -168q0 -31 2 -39h-63q-2 6 -2 41q0 125 78 206.5t196 81.5q109 0 176.5 -63.5t67.5 -167.5q0 -87 -54.5 -170t-179.5 -186z" />
    <glyph glyph-name="uni2083" unicode="&#x2083;" horiz-adv-x="718" 
d="M614 606l-4 -20l-295 -307q98 -12 161 -80.5t63 -165.5q0 -124 -88.5 -207.5t-217.5 -83.5q-194 0 -278 188l51 29q70 -162 227 -162q105 0 172.5 66t67.5 168q0 91 -61.5 143.5t-167.5 52.5h-41l4 21l289 301h-383l10 57h491z" />
    <glyph glyph-name="uni2084" unicode="&#x2084;" horiz-adv-x="708" 
d="M575 -20l-10 -58h-133l-29 -168h-63l29 168h-428l4 21l397 663h70l-379 -626h346l55 309h64l-56 -309h133z" />
    <glyph glyph-name="uni2085" unicode="&#x2085;" horiz-adv-x="749" 
d="M629 549h-391l-48 -275q15 1 36.5 2t36 2t24.5 1q134 0 209 -64.5t75 -179.5q0 -126 -86 -209q-87 -84 -217 -84q-204 0 -282 188l51 29q38 -82 94 -121t135 -39q106 0 173 64.5t67 167.5q0 91 -58.5 141.5t-164.5 50.5h-166l67 383h455z" />
    <glyph glyph-name="uni2086" unicode="&#x2086;" horiz-adv-x="739" 
d="M565 31q0 -119 -86 -204t-207 -85q-112 0 -188 76t-76 188q0 57 21 107q19 44 45 82q21 30 84 106l248 305h79l-280 -340q48 25 104 25q110 0 183 -76q73 -73 73 -184zM500 29q0 91 -55.5 147.5t-143.5 56.5q-97 0 -162 -66t-65 -163q0 -90 57 -147.5t145 -57.5
q97 0 160.5 65.5t63.5 164.5z" />
    <glyph glyph-name="uni2087" unicode="&#x2087;" horiz-adv-x="645" 
d="M70 606h555l-4 -20l-596 -832h-72l571 795h-465z" />
    <glyph glyph-name="uni2088" unicode="&#x2088;" horiz-adv-x="770" 
d="M580 -20q0 -102 -82 -169t-207 -67q-129 0 -208 60.5t-79 158.5q0 90 70.5 155t195.5 91q-147 77 -147 192q0 94 71.5 155.5t180.5 61.5t176 -54t67 -142q0 -79 -55.5 -136.5t-161.5 -88.5q179 -83 179 -217zM338 231q113 29 166 74t53 111t-51 107.5t-131 41.5
q-84 0 -137.5 -46t-53.5 -116q0 -50 35 -89t119 -83zM516 -18q0 57 -38.5 97t-147.5 97q-262 -65 -262 -209q0 -78 59.5 -124t161.5 -46q100 0 163.5 51.5t63.5 133.5z" />
    <glyph glyph-name="uni2089" unicode="&#x2089;" horiz-adv-x="737" 
d="M621 354q0 -56 -21 -106t-45 -84q-16 -23 -84 -105l-248 -305h-80l281 340q-46 -24 -105 -24q-109 0 -182 73q-74 77 -74 187q0 119 86 203.5t207 84.5q116 0 190.5 -74.5t74.5 -189.5zM555 356q0 90 -57.5 147.5t-145.5 57.5q-96 0 -159.5 -65t-63.5 -164
q0 -91 55.5 -148t143.5 -57q97 0 162 66t65 163z" />
    <glyph glyph-name="uni208A" unicode="&#x208a;" horiz-adv-x="876" 
d="M293 -162l55 314h-305l10 55h305l56 313h61l-55 -313h305l-10 -55h-305l-56 -314h-61z" />
    <glyph glyph-name="uni208B" unicode="&#x208b;" horiz-adv-x="876" 
d="M43 152l10 55h670l-10 -55h-670z" />
    <glyph glyph-name="uni208C" unicode="&#x208c;" horiz-adv-x="876" 
d="M86 309l10 56h639l-10 -56h-639zM31 -6l8 55h639l-8 -55h-639z" />
    <glyph glyph-name="uni208D" unicode="&#x208d;" horiz-adv-x="497" 
d="M59 -12q-2 187 54.5 366t157 310.5t223.5 185.5l20 -47q-113 -58 -204 -184t-142 -291t-49 -334q0 -302 174 -445l-33 -41q-201 151 -201 480z" />
    <glyph glyph-name="uni208E" unicode="&#x208e;" horiz-adv-x="497" 
d="M-106 -492l-21 48q113 58 204 184t142 291t49 334q0 301 -174 444l33 41q201 -151 201 -479q3 -284 -122 -532.5t-312 -330.5z" />
    <glyph glyph-name="lira" unicode="&#x20a4;" horiz-adv-x="1011" 
d="M1032 1034l-67 -14q-19 139 -93.5 215t-193.5 76q-132 0 -219 -90q-84 -90 -84 -230q0 -50 11.5 -100.5t39.5 -138.5h399l-10 -58h-373q33 -112 33 -207q0 -33 -2 -43h297l-10 -57h-295q-19 -104 -78.5 -189.5t-153.5 -140.5h607l-11 -57h-776l4 25q292 129 342 362h-264
l10 57h263q2 8 2 35q0 91 -39 215h-181l11 58h153q-28 93 -38.5 140.5t-10.5 98.5q0 164 105.5 272.5t265.5 108.5q146 0 241 -90t115 -248z" />
    <glyph glyph-name="peseta" unicode="&#x20a7;" horiz-adv-x="1153" 
d="M1245 1018l-10 -57h-178q-23 -148 -142.5 -236t-298.5 -88h-286l-111 -637h-65l168 961h-177l11 57h176l59 334h297q174 0 273.5 -87.5t99.5 -240.5v-6h184zM676 1294h-230l-49 -276h594v6q0 131 -81 200.5t-234 69.5zM985 961h-598l-47 -267h272q155 0 254 71t119 196z
" />
    <glyph glyph-name="Euro" unicode="&#x20ac;" horiz-adv-x="1400" 
d="M1384 1155l-51 -37q-132 193 -391 193q-195 0 -352 -127q-153 -126 -221 -332h704l-26 -57h-693q-24 -99 -24 -207q0 -31 2 -41h600l-27 -58h-569q29 -205 164.5 -326.5t337.5 -121.5q221 0 360 154l43 -41q-157 -174 -410 -174q-225 0 -381 141.5t-184 367.5h-250l11 58
h233v37q0 105 25 211h-209l10 57h213q68 230 245 375t394 145q292 0 446 -217z" />
    <glyph glyph-name="uni20AE" unicode="&#x20ae;" horiz-adv-x="1196" 
d="M1282 1294h-510l-92 -520l426 150l-10 -64l-426 -149l-43 -248l426 149l-13 -63l-426 -148l-69 -401h-66l66 379l-424 -150l12 64l424 147l43 248l-424 -147l12 63l422 148l97 542h-510l10 58h1085z" />
    <glyph glyph-name="uni20B4" unicode="&#x20b4;" horiz-adv-x="1116" 
d="M668 705l-125 -66q-112 -59 -160 -92h676l-10 -58h-744q-46 -40 -65 -82.5t-19 -99.5q0 -119 85 -192.5t224 -73.5q242 0 431 233l43 -38q-100 -124 -223 -190t-257 -66q-164 0 -268 91.5t-104 233.5q0 108 65 184h-149l10 58h203q84 65 241 147l127 68l60 33h-584l10 57
h668q81 55 114 105t33 118q0 103 -82 169.5t-211 66.5q-187 0 -333 -158l-41 39q78 88 177 134t208 46q155 0 253.5 -83t98.5 -214q0 -68 -26 -120.5t-87 -102.5h203l-10 -57h-275q-52 -36 -157 -90z" />
    <glyph glyph-name="uni20B8" unicode="&#x20b8;" horiz-adv-x="1196" 
d="M197 1294l10 58h1085l-10 -58h-1085zM479 0l174 989h-510l11 58h1085l-10 -58h-510l-174 -989h-66z" />
    <glyph glyph-name="uni20B9" unicode="&#x20b9;" horiz-adv-x="1011" 
d="M1006 1352l-11 -58h-364q145 -71 157 -247h164l-10 -58h-156q-12 -160 -132 -256t-310 -96h-137l561 -637h-86l-561 637l10 57h209q162 0 263.5 79.5t113.5 215.5h-535l11 58h526q-7 121 -87.5 184t-228.5 63h-165l10 58h758z" />
    <glyph glyph-name="uni20BA" unicode="&#x20ba;" horiz-adv-x="1028" 
d="M924 424q0 -206 -138 -326q-136 -118 -368 -118q-98 0 -209 20l94 539l-235 -101l10 66l237 100l43 246l-237 -100l10 65l240 103l75 434h68l-72 -408l445 189l-10 -66l-447 -190l-43 -246l447 190l-11 -65l-448 -191l-92 -516q47 -8 120 -8q228 0 344.5 114.5
t112.5 333.5h60q4 -54 4 -65z" />
    <glyph glyph-name="uni20BD" unicode="&#x20bd;" horiz-adv-x="1148" 
d="M154 0l57 332h-176l10 57h176l45 248h-176l8 57h176l117 658h359q174 0 273 -87t99 -241q0 -173 -123 -280t-321 -107h-346l-45 -248h553l-11 -57h-553l-57 -332h-65zM340 694h334q174 0 276.5 89t102.5 241q0 131 -81.5 200.5t-234.5 69.5h-291z" />
    <glyph glyph-name="uni20BF" unicode="&#x20bf;" horiz-adv-x="1183" 
d="M1042 426q0 -149 -103 -248t-275 -112l-46 -252h-63l45 249h-227l-45 -249h-64l45 249h-174l217 1227h162l45 248h64l-45 -248h188q31 0 39 -2l45 250h63l-47 -260q97 -23 148 -88.5t51 -165.5q0 -110 -60.5 -190t-166.5 -109q97 -35 150.5 -114t53.5 -185zM408 1231
l-84 -473h397q125 0 200.5 71.5t75.5 192.5q0 103 -61.5 156t-179.5 53h-348zM975 426q0 124 -79 198t-210 74h-373l-102 -575h403q164 0 262.5 83t98.5 220z" />
    <glyph glyph-name="uni2113" unicode="&#x2113;" horiz-adv-x="743" 
d="M463 35q49 0 127 10l-10 -53q-64 -12 -123 -12q-140 0 -214.5 65t-74.5 188q0 50 14 121l17 95q-33 -29 -113 -93l-35 -28l-33 45q124 94 195 162l121 682q32 177 100 258t184 81q195 0 195 -221q0 -354 -545 -839l-26 -148q-13 -80 -13 -110q0 -103 58 -153t176 -50z
M395 1217l-112 -633q467 431 467 753q0 82 -32.5 121t-99.5 39q-88 0 -142.5 -67.5t-80.5 -212.5z" />
    <glyph glyph-name="uni2116" unicode="&#x2116;" horiz-adv-x="2306" 
d="M1102 117l215 1235h65l-241 -1372h-31l-707 1247l-213 -1227h-65l242 1372h30zM2247 829q0 -139 -102.5 -240.5t-243.5 -101.5q-129 0 -215.5 88.5t-86.5 217.5q0 139 103 240.5t242 101.5q128 0 215.5 -88.5t87.5 -217.5zM2183 827q0 110 -69 179q-71 71 -172 71
q-116 0 -196.5 -83t-80.5 -201q0 -106 68 -177t170 -71q115 0 197.5 83t82.5 199zM1522 246l10 57h604l-10 -57h-604z" />
    <glyph glyph-name="uni2117" unicode="&#x2117;" horiz-adv-x="1624" 
d="M156 647q-3 140 57 275t159 234t233 159t272 57q105 2 205.5 -32t182 -97t143 -145.5t95 -184.5t31.5 -208q3 -140 -57 -275t-159 -234t-233 -159t-272 -57q-131 -2 -254 51.5t-211.5 144t-141 215t-50.5 256.5zM1470 705q2 121 -45.5 235t-128.5 196.5t-192 131.5
t-230 47q-128 2 -250 -52.5t-211.5 -145.5t-143 -215t-50.5 -255q-3 -162 77.5 -304t219.5 -225.5t299 -80.5q128 -2 250 52.5t211.5 145.5t143 215t50.5 255zM565 315l127 727h248q111 0 172.5 -53t61.5 -149q0 -109 -77 -176.5t-200 -67.5h-219l-49 -281h-64zM688 651h211
q98 0 154.5 49.5t56.5 135.5q0 74 -45 112.5t-131 38.5h-186z" />
    <glyph glyph-name="trademark" unicode="&#x2122;" horiz-adv-x="1923" 
d="M1903 1366h26l-164 -934h-65l131 758l-404 -465h-26l-252 481l-135 -774h-64l164 934h25l286 -555zM180 1294l10 58h744l-10 -58h-340l-152 -862h-63l151 862h-340z" />
    <glyph glyph-name="uni2126" unicode="&#x2126;" horiz-adv-x="1626" 
d="M1034 57h396l-11 -57h-528l10 61q277 109 421 281t144 397q0 252 -165 412t-424 160q-133 2 -254.5 -51t-209 -144t-138 -218t-48.5 -267q0 -174 99 -319.5t290 -250.5l-12 -61h-516l10 57h418q-173 103 -265.5 251t-92.5 321q-2 151 54.5 289.5t153.5 238.5t231 158.5
t280 56.5q192 0 342.5 -80t233.5 -224t83 -327q0 -221 -127 -393t-375 -291z" />
    <glyph glyph-name="estimated" unicode="&#x212e;" horiz-adv-x="1628" 
d="M1559 670h-1115v-420q153 -213 451 -213q155 0 293 64.5t235 181.5l45 -39q-102 -127 -252 -195.5t-321 -68.5q-145 -2 -278 52t-229 146.5t-151.5 221t-52.5 268.5q-2 111 33.5 218.5t102 195t153.5 154.5t195 102.5t219 33.5q177 3 336.5 -79.5t253.5 -221t90 -291.5
q0 -58 -8 -110zM444 1100v-373h863v406q-75 88 -181 134t-231 46q-140 0 -258 -55.5t-193 -157.5z" />
    <glyph glyph-name="uni2150" unicode="&#x2150;" horiz-adv-x="1847" 
d="M109 500l10 57h227l129 737h-229l10 58h291l-139 -795h206l-10 -57h-495zM442 0l1014 1352h68l-1014 -1352h-68zM1315 852h555l-4 -21l-596 -831h-72l571 795h-464z" />
    </font>
</defs>
</svg>
