<?xml version="1.0" standalone="no"?>
<!DOCTYPE svg PUBLIC "-//W3C//DTD SVG 1.1//EN" "http://www.w3.org/Graphics/SVG/1.1/DTD/svg11.dtd" >
<svg xmlns="http://www.w3.org/2000/svg" xmlns:xlink="http://www.w3.org/1999/xlink" version="1.1">
<metadata>
Created by FontForge 20170731 at Mon Dec 21 18:11:35 2020
 By Aleksey,,,
Copyright (c) 2015, 2018 by Jakob Runge, under exclusive license to TypeMates. All rights reserved.
</metadata>
<defs>
<font id="CeraPro-Thin" horiz-adv-x="1146" >
  <font-face 
    font-family="Cera Pro"
    font-weight="250"
    font-stretch="normal"
    units-per-em="2048"
    panose-1="0 0 3 0 0 0 0 0 0 0"
    ascent="1655"
    descent="-393"
    x-height="983"
    cap-height="1352"
    bbox="-858 -526 2570 2048"
    underline-thickness="61"
    underline-position="-265"
    unicode-range="U+0020-FB02"
  />
<missing-glyph horiz-adv-x="1437" 
d="M211 1352h1016v-1352h-1016v1352zM1165 57v1237h-897z" />
    <glyph glyph-name="fi" unicode="fi" horiz-adv-x="1050" 
d="M272 1280v-297h269v-57h-269v-926h-61v926h-143v57h143v297q0 139 73 207.5t205 68.5q53 0 103 -12v-55q-65 10 -98 10q-222 0 -222 -219zM786 0v983h62v-983h-62zM748 1364q0 29 20 49.5t49 20.5t49.5 -20.5t20.5 -49.5t-20.5 -49.5t-49.5 -20.5t-49 20.5t-20 49.5z" />
    <glyph glyph-name="fl" unicode="fl" horiz-adv-x="1050" 
d="M272 1280v-297h269v-57h-269v-926h-61v926h-143v57h143v297q0 139 73 207.5t205 68.5q53 0 103 -12v-55q-65 10 -98 10q-222 0 -222 -219zM786 0v1536h62v-1536h-62z" />
    <glyph glyph-name=".notdef" horiz-adv-x="1437" 
d="M211 1352h1016v-1352h-1016v1352zM1165 57v1237h-897z" />
    <glyph glyph-name=".null" horiz-adv-x="0" 
 />
    <glyph glyph-name="nonmarkingreturn" horiz-adv-x="682" 
 />
    <glyph glyph-name="space" unicode=" " horiz-adv-x="573" 
 />
    <glyph glyph-name="exclam" unicode="!" horiz-adv-x="552" 
d="M248 373l-10 979h77l-10 -979h-57zM197 57q0 36 22.5 59t54.5 23q34 0 58 -22.5t24 -59.5q0 -34 -24 -55.5t-58 -21.5q-32 0 -54.5 21.5t-22.5 55.5z" />
    <glyph glyph-name="quotedbl" unicode="&#x22;" horiz-adv-x="829" 
d="M213 860l41 492h80l-68 -492h-53zM500 860l41 492h80l-68 -492h-53z" />
    <glyph glyph-name="numbersign" unicode="#" horiz-adv-x="1165" 
d="M1102 915h-195l-65 -479h215v-57h-223l-52 -379h-59l51 379h-465l-51 -379h-59l51 379h-187v57h195l64 479h-213v58h221l51 379h61l-51 -379h463l51 379h62l-52 -379h187v-58zM317 436h465l64 479h-463z" />
    <glyph glyph-name="dollar" unicode="$" horiz-adv-x="1093" 
d="M578 45v-231h-64v233q-131 7 -236.5 80.5t-181.5 200.5l54 34q137 -232 364 -253v571l-43 20q-141 66 -206.5 133t-65.5 175q0 121 88 198.5t227 89.5v242h64v-240q207 -9 340 -204l-50 -37q-60 88 -129 131t-161 47v-514l71 -35q147 -71 217 -145t70 -183
q0 -136 -102 -221q-103 -83 -256 -92zM502 756l12 -6v483q-111 -11 -178.5 -67t-67.5 -154q2 -42 13.5 -74.5t27.5 -55.5t49 -46t62 -38.5t82 -41.5zM866 356q0 92 -58.5 153.5t-189.5 121.5l-40 18v-543q129 6 208.5 73.5t79.5 176.5z" />
    <glyph glyph-name="percent" unicode="%" horiz-adv-x="1695" 
d="M154 1049q0 135 93.5 229t227.5 94q133 0 228.5 -94.5t95.5 -228.5t-95.5 -229t-228.5 -95q-134 0 -227.5 94.5t-93.5 229.5zM428 0l780 1352h64l-780 -1352h-64zM733 1049q0 113 -74 188.5t-184 75.5t-183 -75.5t-73 -188.5t73 -189t183 -76t184 76t74 189zM897 305
q0 135 94 229.5t228 94.5q133 0 228 -95t95 -229t-95 -228.5t-228 -94.5q-134 0 -228 94t-94 229zM1477 305q0 113 -74 188.5t-184 75.5t-183 -75.5t-73 -188.5t73 -188.5t183 -75.5t184 75.5t74 188.5z" />
    <glyph glyph-name="ampersand" unicode="&#x26;" horiz-adv-x="1204" 
d="M944 258l219 -258h-82l-176 209q-95 -116 -192 -172.5t-215 -56.5q-164 0 -276.5 96t-112.5 237q0 113 77.5 213t262.5 224q-96 115 -135.5 191.5t-39.5 158.5q0 121 74 196.5t193 75.5q117 0 192.5 -72.5t75.5 -185.5q0 -96 -67 -187t-205 -190l366 -430q58 77 172 262
l37 58l53 -33q-146 -233 -221 -336zM340 1100q0 -74 33 -139q32 -63 127 -181q125 91 184 172.5t59 163.5q0 88 -54.5 140.5t-145.5 52.5q-94 0 -148.5 -56t-54.5 -153zM864 256l-381 451q-132 -102 -193.5 -162t-87 -110t-28.5 -118q0 -118 90 -196q93 -78 232 -78
q105 0 192.5 52.5t175.5 160.5z" />
    <glyph glyph-name="quotesingle" unicode="'" horiz-adv-x="542" 
d="M213 860l41 492h80l-68 -492h-53z" />
    <glyph glyph-name="parenleft" unicode="(" horiz-adv-x="645" 
d="M178 612q0 388 111 594q112 208 270 287l25 -49q-140 -76 -242 -275q-100 -196 -100 -557t100 -557q101 -197 242 -274l-25 -49q-158 79 -270 286q-111 206 -111 594z" />
    <glyph glyph-name="parenright" unicode=")" horiz-adv-x="645" 
d="M86 -268l-25 49q141 77 242 274q100 196 100 557t-100 557q-102 199 -242 275l25 49q158 -79 270 -287q111 -206 111 -594t-111 -594q-112 -207 -270 -286z" />
    <glyph glyph-name="asterisk" unicode="*" horiz-adv-x="745" 
d="M639 1368l-203 -125l203 -125l-25 -43l-211 113l-6 -238h-49l-6 238l-211 -113l-25 43l203 125l-203 125l25 43l211 -113l6 238h49l6 -238l211 113z" />
    <glyph glyph-name="plus" unicode="+" 
d="M543 186v418h-408v58h408v417h61v-417h406v-58h-406v-418h-61z" />
    <glyph glyph-name="comma" unicode="," horiz-adv-x="573" 
d="M219 -369l41 498h82l-66 -498h-57z" />
    <glyph glyph-name="hyphen" unicode="-" horiz-adv-x="696" 
d="M123 604v58h450v-58h-450z" />
    <glyph glyph-name="period" unicode="." horiz-adv-x="573" 
d="M207 57q0 36 23 59t55 23q34 0 58 -22.5t24 -59.5q0 -34 -24 -55.5t-58 -21.5q-32 0 -55 21.5t-23 55.5z" />
    <glyph glyph-name="slash" unicode="/" horiz-adv-x="1177" 
d="M20 -248l1072 1845h65l-1071 -1845h-66z" />
    <glyph glyph-name="zero" unicode="0" horiz-adv-x="1228" 
d="M154 688q0 317 112 498q113 186 348 186q234 0 347 -186q114 -184 114 -498q0 -316 -112 -512q-111 -196 -349 -196q-236 0 -350 196q-110 198 -110 512zM1006 688q0 281 -95 451q-92 170 -297 170q-204 0 -299 -170q-92 -170 -92 -451q0 -289 94 -467t297 -178t297 178
q95 179 95 467z" />
    <glyph glyph-name="one" unicode="1" horiz-adv-x="741" 
d="M459 1352h30v-1352h-65v1280l-326 -106l-16 55z" />
    <glyph glyph-name="two" unicode="2" horiz-adv-x="1107" 
d="M217 59h778v-59h-895v25l494 503q136 142 197 236q65 103 65 217q0 137 -87 232.5t-234 95.5q-99 0 -177 -49t-117.5 -124t-39.5 -159q0 -61 16 -123h-70q-16 62 -16 125q0 101 47.5 190t140.5 146t211 57q171 0 283.5 -112t112.5 -275q0 -95 -37 -176q-40 -87 -94 -150
q-75 -87 -158 -172z" />
    <glyph glyph-name="three" unicode="3" horiz-adv-x="1081" 
d="M958 414q0 -99 -37 -182t-100 -137.5t-145 -84.5t-172 -30q-265 0 -432 256l49 36q146 -229 387 -229q167 0 274 104.5t107 268.5q0 161 -106 254.5t-291 93.5h-103v24l420 504h-655v60h764v-25l-424 -508q6 2 34 2q81 0 156.5 -25.5t137.5 -74.5t99 -128.5t37 -178.5z
" />
    <glyph glyph-name="four" unicode="4" horiz-adv-x="1073" 
d="M1016 334v-60h-215v-274h-66v274h-682v25l461 1053h68l-447 -1018h600v516h66v-516h215z" />
    <glyph glyph-name="five" unicode="5" horiz-adv-x="1120" 
d="M997 414q0 -99 -37.5 -182t-100 -137.5t-142 -84.5t-164.5 -30q-279 0 -444 253l47 37q146 -229 397 -229q162 0 268.5 105t106.5 268q0 165 -105.5 257.5t-294.5 92.5h-297v588h693v-60h-627v-473q120 6 233 6q203 0 334 -104q133 -106 133 -307z" />
    <glyph glyph-name="six" unicode="6" horiz-adv-x="1110" 
d="M987 410q0 -181 -124 -305.5t-308 -124.5t-308 125t-124 307q0 97 34.5 177t123.5 212l30 45l336 506h78l-391 -578q97 66 219 66q182 0 308 -125.5t126 -304.5zM922 408q0 157 -106 264.5t-261 107.5t-261 -107.5t-106 -264.5t106 -263t261 -106t261 106t106 263z" />
    <glyph glyph-name="seven" unicode="7" horiz-adv-x="987" 
d="M66 1352h866v-25l-739 -1327h-70l719 1292h-776v60z" />
    <glyph glyph-name="eight" unicode="8" horiz-adv-x="1163" 
d="M1030 332q0 -156 -122 -254t-326 -98q-205 0 -327 98.5t-122 255.5q0 258 371 381q-151 57 -228 139.5t-77 200.5q0 149 108 231q112 86 275 86t272 -86q111 -83 111 -233q0 -230 -306 -336q179 -65 275 -156t96 -229zM582 745q164 60 240.5 130t76.5 178
q0 117 -89.5 188.5t-227.5 71.5q-139 0 -228.5 -71.5t-89.5 -188.5q0 -108 77 -178t241 -130zM965 334q-3 58 -22 104t-48 79t-80.5 63.5t-102 52t-130.5 49.5q-80 -28 -130.5 -49.5t-102 -52t-80.5 -63.5t-48 -79t-22 -104q0 -132 103.5 -213.5t279.5 -81.5
q178 0 280.5 81.5t102.5 213.5z" />
    <glyph glyph-name="nine" unicode="9" horiz-adv-x="1110" 
d="M987 940q0 -97 -34.5 -177t-123.5 -212l-30 -45l-336 -506h-78l391 578q-97 -66 -219 -66q-182 0 -308 125.5t-126 304.5q0 181 124 305.5t308 124.5t308 -125t124 -307zM922 944q0 157 -106 263t-261 106t-261 -106t-106 -263t106 -265t261 -108t261 108t106 265z" />
    <glyph glyph-name="colon" unicode=":" horiz-adv-x="573" 
d="M207 905q0 36 23 59t55 23q34 0 58 -22.5t24 -59.5q0 -34 -24.5 -56t-57.5 -22q-32 0 -55 22t-23 56zM207 57q0 36 23 59t55 23q34 0 58 -22.5t24 -59.5q0 -34 -24 -55.5t-58 -21.5q-32 0 -55 21.5t-23 55.5z" />
    <glyph glyph-name="semicolon" unicode=";" horiz-adv-x="573" 
d="M207 905q0 36 23 59t55 23q34 0 58 -22.5t24 -59.5q0 -34 -24.5 -56t-57.5 -22q-32 0 -55 22t-23 56zM219 -369l41 498h82l-66 -498h-57z" />
    <glyph glyph-name="less" unicode="&#x3c;" 
d="M983 1004v-64l-737 -305l737 -305v-64l-854 357v24z" />
    <glyph glyph-name="equal" unicode="=" 
d="M156 809v57h833v-57h-833zM156 397v58h833v-58h-833z" />
    <glyph glyph-name="greater" unicode="&#x3e;" 
d="M164 1004l854 -357v-24l-854 -357v64l737 305l-737 305v64z" />
    <glyph glyph-name="question" unicode="?" horiz-adv-x="901" 
d="M362 459q0 66 36.5 121.5t131.5 146.5q53 52 75 75t51 57t39 57.5t19 55.5t11 72q0 116 -75.5 192.5t-188.5 76.5q-98 0 -171.5 -59.5t-105.5 -168.5l-57 21q36 121 124.5 193.5t207.5 72.5q139 0 235.5 -94t96.5 -231q0 -71 -29 -134q-27 -56 -66 -101t-125 -126
q-83 -78 -113 -123t-30 -104q0 -37 14 -86h-61q-19 43 -19 86zM346 59q0 35 24 57.5t56 22.5t56 -23t24 -57q0 -35 -24 -57t-56 -22q-33 0 -56.5 21.5t-23.5 57.5z" />
    <glyph glyph-name="at" unicode="@" horiz-adv-x="1851" 
d="M1262 86h-13v186q-41 -93 -137 -149.5t-209 -56.5q-173 0 -290 123.5t-117 302.5q0 178 117 300.5t290 122.5q113 0 209 -56.5t137 -149.5v190h60v-754q163 12 261.5 133t98.5 314q3 181 -91.5 338t-262.5 249.5t-367 88.5q-155 3 -298 -55.5t-246.5 -159t-164 -240.5
t-57.5 -293q-3 -153 58 -293.5t164.5 -241.5t247.5 -160t300 -56q164 0 295 55l19 -53q-148 -62 -320 -62q-134 -2 -261.5 39t-230 117t-180 177t-118.5 225.5t-39 254.5q-3 162 63 312.5t178 259t266 172.5t320 61q160 3 308 -56t254.5 -158.5t169 -235.5t59.5 -281
q0 -227 -132.5 -368.5t-340.5 -141.5zM1247 492q0 90 -28 161t-75.5 114.5t-108 66t-128.5 22.5q-151 0 -248.5 -104.5t-97.5 -259.5q0 -157 97.5 -262t248.5 -105q91 0 166.5 38.5t124.5 123.5t49 205z" />
    <glyph glyph-name="A" unicode="A" horiz-adv-x="1361" 
d="M1202 0l-149 358h-746l-147 -358h-68l574 1372h30l574 -1372h-68zM680 1257l-348 -839h696z" />
    <glyph glyph-name="B" unicode="B" horiz-adv-x="1249" 
d="M1147 383q0 -171 -111.5 -277t-304.5 -106h-520v1352h455q163 0 255.5 -88t92.5 -232q0 -97 -47.5 -170.5t-135.5 -111.5q150 -24 233 -123t83 -244zM659 1294l-383 -2v-526h383q138 0 212.5 72t74.5 192q0 121 -73 193t-214 71zM1079 381q0 144 -94 235t-258 91h-451
v-648h451q164 0 258 89.5t94 232.5z" />
    <glyph glyph-name="C" unicode="C" horiz-adv-x="1452" 
d="M117 676q-3 190 89.5 352t251.5 255t343 89q162 0 301.5 -70t232.5 -194l-49 -39q-86 115 -209.5 177.5t-273.5 62.5q-170 3 -313 -81.5t-224.5 -231t-79.5 -318.5q-3 -172 78.5 -319.5t225 -233t313.5 -82.5q150 0 273.5 62.5t209.5 177.5l49 -39q-93 -124 -232.5 -194
t-301.5 -70q-138 -3 -265.5 52t-220 149t-146.5 224t-52 271z" />
    <glyph glyph-name="D" unicode="D" horiz-adv-x="1429" 
d="M211 0v1352h367q173 0 313 -51t232 -141t141 -213.5t49 -268.5t-49 -268.5t-141 -215t-232 -143t-313 -51.5h-367zM276 59h302q156 0 283 48t210 132.5t127.5 196.5t44.5 242q0 131 -44.5 243t-127.5 194.5t-210 129.5t-283 47h-302v-1233z" />
    <glyph glyph-name="E" unicode="E" horiz-adv-x="1148" 
d="M211 0v1352h831v-60h-766v-526h603v-59h-603v-648h791v-59h-856z" />
    <glyph glyph-name="F" unicode="F" horiz-adv-x="1052" 
d="M211 0v1352h811v-60h-746v-565h623v-59h-623v-668h-65z" />
    <glyph glyph-name="G" unicode="G" horiz-adv-x="1523" 
d="M117 676q-3 190 89.5 352t251.5 255t343 89q162 0 301.5 -70t232.5 -194l-49 -39q-86 115 -209.5 177.5t-273.5 62.5q-170 3 -313 -81.5t-224.5 -231t-79.5 -318.5q-4 -172 78 -319.5t226 -233t315 -82.5q167 0 305.5 75.5t218.5 209.5v258h-528v61h594v-330
q-90 -159 -248.5 -248t-345.5 -89q-186 -4 -345 90t-250.5 256t-88.5 350z" />
    <glyph glyph-name="H" unicode="H" horiz-adv-x="1441" 
d="M211 0v1352h65v-586h889v586h66v-1352h-66v707h-889v-707h-65z" />
    <glyph glyph-name="I" unicode="I" horiz-adv-x="487" 
d="M211 0v1352h65v-1352h-65z" />
    <glyph glyph-name="J" unicode="J" horiz-adv-x="739" 
d="M61 0v59q94 -16 158 -16q119 0 181.5 54t62.5 179v1076h65v-1076q0 -149 -81 -222.5t-226 -73.5q-79 0 -160 20z" />
    <glyph glyph-name="K" unicode="K" horiz-adv-x="1224" 
d="M211 0v1352h65v-1352h-65zM406 735l737 -735h-88l-740 735l691 617h92z" />
    <glyph glyph-name="L" unicode="L" horiz-adv-x="1009" 
d="M211 0v1352h65v-1293h685v-59h-750z" />
    <glyph glyph-name="M" unicode="M" horiz-adv-x="1601" 
d="M1360 1372h31v-1372h-66v1198l-508 -745h-31l-510 745v-1198h-65v1372h31l559 -823z" />
    <glyph glyph-name="N" unicode="N" horiz-adv-x="1441" 
d="M1165 1352h66v-1372h-31l-924 1230v-1210h-65v1372h31l923 -1241v1221z" />
    <glyph glyph-name="O" unicode="O" horiz-adv-x="1605" 
d="M117 676q-3 190 89.5 352t251.5 255t343 89q137 2 265 -52.5t221.5 -148t148.5 -224t53 -271.5q2 -141 -53 -271t-148.5 -224t-221.5 -149t-265 -52q-138 -3 -265.5 52t-220 149t-146.5 224t-52 271zM1419 678q2 127 -46 245t-131 203t-198 135t-241 48
q-168 3 -311.5 -81.5t-226 -231t-79.5 -318.5q-2 -173 79.5 -320t224.5 -232.5t313 -82.5q126 -2 241 48t198 135.5t131 204t46 247.5z" />
    <glyph glyph-name="P" unicode="P" horiz-adv-x="1140" 
d="M211 0v1352h448q180 0 285 -99.5t105 -257.5q0 -161 -105 -259.5t-285 -98.5h-383v-637h-65zM276 696h379q155 0 240.5 81.5t85.5 215.5t-86 216.5t-240 82.5h-379v-596z" />
    <glyph glyph-name="Q" unicode="Q" horiz-adv-x="1605" 
d="M2103 -315v-56q-105 -18 -200 -18q-490 0 -807 434q-139 -65 -295 -65q-138 -3 -265.5 52t-220 149t-146.5 224t-52 271q-3 190 89.5 352t251.5 255t343 89q137 2 265 -52.5t221.5 -148t148.5 -224t53 -271.5q0 -190 -91.5 -350t-248.5 -252q300 -404 752 -404
q88 0 202 15zM803 43q127 -2 242.5 48t197.5 135.5t129.5 204t46.5 247.5q1 128 -46.5 245t-129.5 202.5t-197.5 135.5t-242.5 48q-170 3 -313 -81.5t-224.5 -231t-79.5 -318.5q-3 -172 78.5 -319.5t225 -233t313.5 -82.5z" />
    <glyph glyph-name="R" unicode="R" horiz-adv-x="1245" 
d="M1198 0h-80l-479 637h-363v-637h-65v1352h448q180 0 285 -99.5t105 -257.5q0 -144 -88.5 -241.5t-241.5 -114.5zM276 1292v-596h379q155 0 240.5 81.5t85.5 215.5t-86 216.5t-240 82.5h-379z" />
    <glyph glyph-name="S" unicode="S" horiz-adv-x="1136" 
d="M102 264l50 37q77 -122 187 -190t243 -68q148 0 240.5 77t92.5 206q0 60 -13 101.5t-49 77.5t-80.5 63t-125.5 67l-155 74q-104 51 -152 82q-141 91 -141 262q0 151 108 233q112 86 273 86q251 0 391 -205l-49 -39q-132 181 -338 181q-127 0 -222 -62q-94 -61 -94 -190
q3 -59 17.5 -100t50.5 -75t74 -57t112 -59l156 -74q110 -52 173.5 -99t98.5 -113t35 -154q0 -153 -115.5 -249.5t-289.5 -96.5q-151 0 -273 74t-205 210z" />
    <glyph glyph-name="T" unicode="T" horiz-adv-x="1196" 
d="M565 0v1292h-510v60h1086v-60h-510v-1292h-66z" />
    <glyph glyph-name="U" unicode="U" horiz-adv-x="1388" 
d="M188 516v836h66v-836q0 -221 119.5 -347t322.5 -126q200 0 319.5 126t119.5 347v836h65v-836q0 -248 -136.5 -392t-367.5 -144q-235 0 -371.5 144t-136.5 392z" />
    <glyph glyph-name="V" unicode="V" horiz-adv-x="1361" 
d="M1202 1352h68l-574 -1372h-30l-574 1372h68l522 -1252z" />
    <glyph glyph-name="W" unicode="W" horiz-adv-x="2205" 
d="M2025 1352h68l-491 -1372h-31l-467 1267l-469 -1267h-31l-491 1372h67l441 -1250l466 1270h31l467 -1270z" />
    <glyph glyph-name="X" unicode="X" horiz-adv-x="1185" 
d="M1104 0h-76l-434 641l-436 -641h-76l475 696l-440 656h76l403 -604l397 604h76l-436 -658z" />
    <glyph glyph-name="Y" unicode="Y" horiz-adv-x="1249" 
d="M1128 1352l-471 -766v-586h-65v586l-471 766h69l435 -711l434 711h69z" />
    <glyph glyph-name="Z" unicode="Z" horiz-adv-x="1208" 
d="M186 59h940v-59h-1040v25l938 1267h-848v60h948v-25z" />
    <glyph glyph-name="bracketleft" unicode="[" horiz-adv-x="690" 
d="M229 -268v1761h338v-57h-276v-1647h276v-57h-338z" />
    <glyph glyph-name="backslash" unicode="\" horiz-adv-x="1177" 
d="M1092 -248l-1072 1845h66l1071 -1845h-65z" />
    <glyph glyph-name="bracketright" unicode="]" horiz-adv-x="690" 
d="M123 -268v57h276v1647h-276v57h338v-1761h-338z" />
    <glyph glyph-name="asciicircum" unicode="^" horiz-adv-x="1009" 
d="M868 598h-67l-295 659l-297 -659h-68l348 774h31z" />
    <glyph glyph-name="underscore" unicode="_" horiz-adv-x="1024" 
d="M102 -229v57h820v-57h-820z" />
    <glyph glyph-name="grave" unicode="`" horiz-adv-x="1228" 
d="M696 1151l-219 436v10h76l197 -446h-54z" />
    <glyph glyph-name="a" unicode="a" horiz-adv-x="1056" 
d="M870 625v-625h-61v174q-54 -92 -151 -143t-216 -51q-139 0 -237 67q-99 68 -99 193q0 117 91.5 185.5t244.5 68.5h367v133q0 153 -79.5 235t-217.5 82q-96 0 -170.5 -43.5t-138.5 -128.5l-45 37q145 195 358 195q162 0 258 -99.5t96 -279.5zM809 358v78h-365
q-130 0 -201 -50.5t-71 -141.5q0 -96 78 -150.5t194 -54.5q149 0 257 92.5t108 226.5z" />
    <glyph glyph-name="b" unicode="b" horiz-adv-x="1300" 
d="M1178 492q0 -139 -65 -256.5t-178.5 -186.5t-248.5 -69q-138 0 -254.5 70t-167.5 186v-236h-61v1536h61v-788q51 116 167.5 186t254.5 70q136 0 249 -68.5t178 -186t65 -257.5zM1112 492q0 193 -120.5 322.5t-305.5 129.5q-85 0 -159.5 -28.5t-134 -82.5t-94 -142
t-34.5 -199t34.5 -199t94 -142.5t134.5 -83t159 -28.5q182 0 304 131.5t122 321.5z" />
    <glyph glyph-name="c" unicode="c" horiz-adv-x="1132" 
d="M123 492q0 139 67 257t183 186.5t254 68.5q241 0 393 -195l-45 -37q-64 82 -153.5 127t-194.5 45q-185 0 -312 -131t-127 -321t126.5 -321.5t310.5 -131.5q105 0 196 45t154 127l45 -37q-73 -93 -174 -143.5t-221 -50.5q-133 -3 -250.5 67t-186 190t-65.5 255z" />
    <glyph glyph-name="d" unicode="d" horiz-adv-x="1300" 
d="M1036 1536h62v-1536h-62v236q-51 -116 -167.5 -186t-254.5 -70q-135 0 -248.5 69t-178 186.5t-64.5 256.5q0 140 64.5 257.5t177.5 186t249 68.5q138 0 254.5 -70t167.5 -186v788zM1036 492q0 111 -34.5 199t-94 142t-134 82.5t-159.5 28.5q-185 0 -305.5 -129.5
t-120.5 -322.5q0 -190 122 -321.5t304 -131.5q84 0 159 28.5t134.5 83t94 142.5t34.5 199z" />
    <glyph glyph-name="e" unicode="e" horiz-adv-x="1173" 
d="M1044 485h-856q0 -188 127.5 -317t309.5 -129q105 0 196 45t154 127l45 -37q-69 -91 -173 -142.5t-222 -51.5q-136 0 -251.5 68.5t-183 186.5t-67.5 257q0 138 65.5 256t178.5 187t247 69q119 0 218 -52.5t159 -153t60 -229.5q0 -26 -7 -84zM190 543h795q6 89 -22 165
t-80 127t-123 80t-150 29q-164 0 -284.5 -115.5t-135.5 -285.5z" />
    <glyph glyph-name="f" unicode="f" horiz-adv-x="552" 
d="M272 1280v-297h269v-57h-269v-926h-61v926h-143v57h143v297q0 139 73 207.5t205 68.5q53 0 103 -12v-55q-65 10 -98 10q-222 0 -222 -219z" />
    <glyph glyph-name="g" unicode="g" horiz-adv-x="1314" 
d="M1051 983h61v-901q0 -216 -130.5 -343.5t-334.5 -127.5q-131 0 -249.5 52t-194.5 140l43 41q70 -80 177 -127t224 -47q182 0 293 110t111 302v168q-51 -110 -169.5 -180t-254.5 -70q-131 -3 -246 66.5t-181 186.5t-63 249q-3 132 63 249t181 186.5t246 66.5
q137 0 255 -69t169 -181v229zM1051 502q0 108 -35 194t-94 139t-133.5 81t-157.5 28q-185 0 -306.5 -128t-121.5 -314t121.5 -314.5t306.5 -128.5q84 0 158.5 28.5t133.5 82t93.5 139.5t34.5 193z" />
    <glyph glyph-name="h" unicode="h" horiz-adv-x="1128" 
d="M942 625v-625h-61v625q0 143 -80.5 231t-216.5 88q-140 0 -230 -90t-90 -229v-625h-61v1536h61v-711q48 85 131 132t191 47q164 0 260 -105t96 -274z" />
    <glyph glyph-name="i" unicode="i" horiz-adv-x="466" 
d="M203 0v983h61v-983h-61zM164 1364q0 29 20 49.5t49 20.5t49.5 -20.5t20.5 -49.5t-20.5 -49.5t-49.5 -20.5t-49 20.5t-20 49.5z" />
    <glyph glyph-name="j" unicode="j" horiz-adv-x="466" 
d="M-117 -377v55q65 -10 99 -10q221 0 221 219v1096h61v-1096q0 -139 -73 -207.5t-205 -68.5q-54 0 -103 12zM164 1364q0 29 20 49.5t49 20.5t49.5 -20.5t20.5 -49.5t-20.5 -49.5t-49.5 -20.5t-49 20.5t-20 49.5z" />
    <glyph glyph-name="k" unicode="k" horiz-adv-x="948" 
d="M203 0v1536h61v-1536h-61zM387 551l520 -551h-82l-522 553l469 430h88z" />
    <glyph glyph-name="l" unicode="l" horiz-adv-x="466" 
d="M203 0v1536h61v-1536h-61z" />
    <glyph glyph-name="m" unicode="m" horiz-adv-x="1761" 
d="M1575 625v-625h-62v625q0 143 -75.5 231t-206.5 88q-133 0 -222 -88.5t-89 -212.5v-643h-62v625q0 144 -76.5 231.5t-208.5 87.5q-133 0 -223 -90q-86 -89 -86 -229v-625h-61v983h61v-154q45 82 126.5 128.5t184.5 46.5q117 0 198 -55.5t118 -155.5q44 97 132 154t208 57
q162 0 253 -103t91 -276z" />
    <glyph glyph-name="n" unicode="n" horiz-adv-x="1128" 
d="M942 625v-625h-61v625q0 143 -80.5 231t-216.5 88q-140 0 -230 -90t-90 -229v-625h-61v983h61v-158q48 85 131 132t191 47q164 0 260 -105t96 -274z" />
    <glyph glyph-name="o" unicode="o" horiz-adv-x="1255" 
d="M123 492q-2 103 38 199t108 165t162.5 109.5t195.5 38.5q135 3 253 -66t186.5 -188.5t66.5 -257.5q0 -139 -68 -257t-185 -186.5t-255 -68.5q-134 -3 -251 66t-185.5 188.5t-65.5 257.5zM1067 492q0 191 -127.5 321.5t-312.5 130.5q-186 0 -312.5 -130t-126.5 -322
t126 -322.5t311 -130.5q186 0 314 132t128 321z" />
    <glyph glyph-name="p" unicode="p" horiz-adv-x="1300" 
d="M1178 492q0 -140 -65 -257.5t-178 -186t-249 -68.5q-138 0 -254.5 70t-167.5 186v-605h-61v1352h61v-235q51 116 167.5 186t254.5 70q135 0 248.5 -69t178.5 -186.5t65 -256.5zM1112 492q0 190 -122 321t-304 131q-85 0 -159.5 -28.5t-134 -82.5t-94 -142t-34.5 -199
t34.5 -199t94 -142.5t134.5 -83t159 -28.5q185 0 305.5 130t120.5 323z" />
    <glyph glyph-name="q" unicode="q" horiz-adv-x="1300" 
d="M1036 983h62v-1352h-62v605q-51 -116 -167.5 -186t-254.5 -70q-136 0 -249 68.5t-177.5 186t-64.5 257.5q0 139 64.5 256.5t178 186.5t248.5 69q138 0 254.5 -70t167.5 -186v235zM1036 492q0 111 -34.5 199t-94 142t-134 82.5t-159.5 28.5q-182 0 -304 -131t-122 -321
q0 -193 120.5 -323t305.5 -130q84 0 159 28.5t134.5 83t94 142.5t34.5 199z" />
    <glyph glyph-name="r" unicode="r" horiz-adv-x="698" 
d="M662 983v-51h-48q-135 0 -242.5 -95t-107.5 -243v-594h-61v983h61v-188q50 93 140 142.5t200 49.5q12 0 58 -4z" />
    <glyph glyph-name="s" unicode="s" horiz-adv-x="931" 
d="M106 195l50 36q68 -97 145.5 -144.5t177.5 -47.5q108 0 177 52.5t69 146.5q-4 47 -17 79.5t-44.5 59t-64.5 44t-97 46.5l-86 39q-125 55 -182.5 111t-57.5 143q0 112 88 176q89 68 211 68q181 0 309 -158l-45 -41q-117 139 -268 139q-99 0 -164 -47.5t-65 -134.5
q5 -75 41 -108t143 -84q15 -7 23 -11l92 -41q128 -56 189 -117t61 -159q0 -121 -93 -193q-90 -69 -223 -69q-229 0 -369 215z" />
    <glyph glyph-name="t" unicode="t" horiz-adv-x="716" 
d="M662 55v-55q-73 -20 -146 -20q-128 0 -202 69t-74 207v670h-177v57h177v287h61v-287h328v-57h-328v-670q0 -219 219 -219q57 0 142 18z" />
    <glyph glyph-name="u" unicode="u" horiz-adv-x="1112" 
d="M186 358v625h62v-625q0 -147 86.5 -233t222.5 -86q133 0 220 87t87 232v625h62v-625q0 -168 -106 -273t-263 -105q-159 0 -265 104t-106 274z" />
    <glyph glyph-name="v" unicode="v" horiz-adv-x="1060" 
d="M920 983h67l-440 -1003h-31l-442 1003h67l389 -895z" />
    <glyph glyph-name="w" unicode="w" horiz-adv-x="1722" 
d="M1581 983h68l-381 -1003h-31l-377 899l-375 -899h-30l-381 1003h67l328 -885l377 906h31l376 -906z" />
    <glyph glyph-name="x" unicode="x" horiz-adv-x="956" 
d="M895 0h-76l-342 467l-340 -467h-76l377 516l-344 467h76l307 -418l309 418h76l-346 -467z" />
    <glyph glyph-name="y" unicode="y" horiz-adv-x="1060" 
d="M920 983h67l-498 -1163q-47 -109 -116.5 -159t-167.5 -50q-67 0 -131 18v56q87 -17 127 -17q81 0 138 41.5t97 136.5l70 166l-432 971h67l398 -891z" />
    <glyph glyph-name="z" unicode="z" horiz-adv-x="915" 
d="M170 57h670v-57h-762v25l659 901h-612v57h704v-25z" />
    <glyph glyph-name="braceleft" unicode="{" horiz-adv-x="804" 
d="M381 1229q0 -82 33 -238q28 -156 28 -209q0 -75 -32 -113.5t-97 -56.5q67 -17 98 -57t31 -113q0 -50 -28 -206q-33 -156 -33 -238q0 -109 51.5 -159t155.5 -50h94v-57h-94q-269 0 -269 262q0 63 35 256q27 138 27 190q0 144 -143 144h-115v57h115q143 0 143 141
q0 52 -27 193q-35 197 -35 260q0 135 68.5 196.5t200.5 61.5h94v-57h-94q-104 0 -155.5 -50t-51.5 -157z" />
    <glyph glyph-name="bar" unicode="|" horiz-adv-x="679" 
d="M309 -248v1845h62v-1845h-62z" />
    <glyph glyph-name="braceright" unicode="}" horiz-adv-x="804" 
d="M567 641h115v-57h-115q-143 0 -143 -144q0 -52 27 -190q34 -187 34 -256q0 -262 -268 -262h-94v57h94q104 0 155.5 50t51.5 159q0 82 -33 238q-29 161 -29 206q0 72 31.5 112t98.5 58q-65 18 -97.5 57t-32.5 113q0 48 29 209q33 156 33 238q0 107 -51.5 157t-155.5 50
h-94v57h94q132 0 200 -61.5t68 -196.5q0 -69 -34 -260q-27 -141 -27 -193q0 -141 143 -141z" />
    <glyph glyph-name="asciitilde" unicode="~" 
d="M655 547l-202 123q-82 49 -134 49q-42 0 -68 -29t-26 -74v-63h-59q0 21 -1 41t-1 22q0 66 41 113t110 47q70 0 174 -63l203 -123q82 -49 133 -49q42 0 68.5 28.5t26.5 73.5v64h59q0 -21 1 -41.5t1 -22.5q0 -66 -41.5 -113t-110.5 -47q-68 0 -174 64z" />
    <glyph glyph-name="uni00A0" unicode="&#xa0;" horiz-adv-x="573" 
 />
    <glyph glyph-name="exclamdown" unicode="&#xa1;" horiz-adv-x="552" 
d="M197 926q0 34 22.5 56t54.5 22q33 0 57.5 -22t24.5 -56q0 -36 -24.5 -59t-57.5 -23q-32 0 -54.5 23t-22.5 59zM238 -369l10 979h57l10 -979h-77z" />
    <glyph glyph-name="cent" unicode="&#xa2;" horiz-adv-x="1134" 
d="M930 395l45 -37q-68 -88 -165.5 -139t-209.5 -55v-350h-63v352q-189 11 -326 163t-133 347q-4 195 133 347t326 163v352h63v-350q112 -4 209.5 -55.5t165.5 -139.5l-45 -37q-125 163 -330 172v-905q205 9 330 172zM537 225v901q-169 -15 -281.5 -144t-112.5 -306
t113.5 -306.5t280.5 -144.5z" />
    <glyph glyph-name="sterling" unicode="&#xa3;" horiz-adv-x="1011" 
d="M289 57h631v-57h-781v25q128 69 201.5 170.5t73.5 226.5q0 46 -15 108h-239v58h221q-12 32 -68 141q-56 110 -78 174t-22 137q0 148 96.5 240t251.5 92q139 0 234.5 -79t140.5 -226l-64 -20q-82 264 -313 264q-127 0 -201.5 -77.5t-74.5 -197.5q0 -62 20.5 -119.5
t71.5 -158.5q57 -110 76 -170h333v-58h-317q12 -49 12 -106q0 -113 -51 -208.5t-139 -158.5z" />
    <glyph glyph-name="currency" unicode="&#xa4;" horiz-adv-x="1366" 
d="M1014 375l280 -281l-39 -41l-280 281q-128 -119 -303 -119q-166 0 -295 113l-264 -275l-41 39l266 277q-113 129 -113 307q0 181 111 307l-264 274l39 41l266 -274q126 113 297 113t301 -117l278 278l41 -41l-280 -280q108 -130 108 -301t-108 -301zM1057 676
q0 170 -111 286.5t-272 116.5q-162 0 -272.5 -117t-110.5 -286t110 -285.5t271 -116.5q163 0 274 117t111 285z" />
    <glyph glyph-name="yen" unicode="&#xa5;" horiz-adv-x="1056" 
d="M561 694h424v-57h-424v-248h424v-57h-424v-332h-65v332h-422v57h422v248h-422v57h422l-471 658h69l434 -604l435 604h69z" />
    <glyph glyph-name="brokenbar" unicode="&#xa6;" horiz-adv-x="679" 
d="M309 983v614h62v-614h-62zM309 -248v615h62v-615h-62z" />
    <glyph glyph-name="section" unicode="&#xa7;" horiz-adv-x="1122" 
d="M770 106q10 -42 10 -71q0 -111 -74 -183.5t-190 -72.5q-87 0 -161 43.5t-126 116.5l47 34q44 -62 106.5 -98.5t133.5 -36.5q88 0 143.5 55.5t55.5 141.5q0 70 -41 127.5t-137 128.5l-185 139q-148 112 -211 191q-59 77 -59 167q0 107 73.5 180.5t196.5 80.5
q-10 42 -10 71q0 111 74 183.5t190 72.5q87 0 161 -43t126 -116l-47 -35q-44 62 -106.5 98.5t-133.5 36.5q-88 0 -143 -55.5t-55 -141.5q0 -70 41 -127.5t137 -128.5l184 -139q141 -106 207 -184q63 -75 63 -174q0 -107 -73.5 -180.5t-196.5 -80.5zM975 360q0 70 -48 137
t-149 144l-198 152q-159 122 -203 198q-99 0 -164.5 -54.5t-65.5 -141.5q0 -70 47 -135t150 -146l184 -141q161 -124 215 -209q100 0 166 55t66 141z" />
    <glyph glyph-name="dieresis" unicode="&#xa8;" horiz-adv-x="1228" 
d="M348 1364q0 29 20.5 49.5t49.5 20.5t49 -20.5t20 -49.5t-20 -49.5t-49 -20.5t-49.5 20.5t-20.5 49.5zM739 1364q0 29 20.5 49.5t49.5 20.5t49.5 -20.5t20.5 -49.5t-20.5 -49.5t-49.5 -20.5t-49.5 20.5t-20.5 49.5z" />
    <glyph glyph-name="copyright" unicode="&#xa9;" horiz-adv-x="1605" 
d="M117 676q-3 190 89.5 352t251.5 255t343 89q137 2 265 -52.5t221.5 -148t148.5 -224t53 -271.5q2 -141 -53 -271t-148.5 -224t-221.5 -149t-265 -52q-138 -3 -265.5 52t-220 149t-146.5 224t-52 271zM1425 678q2 127 -46.5 245.5t-132 204.5t-200 136.5t-243.5 48.5
q-127 2 -243.5 -48t-200.5 -135.5t-132.5 -204t-46.5 -247.5q-3 -172 80 -320.5t228 -235t315 -83.5q170 -3 314.5 83.5t227.5 235t80 320.5zM412 676q0 170 119 290.5t286 120.5q95 0 176.5 -41t139.5 -116l-43 -37q-109 135 -273 135q-146 0 -243 -101t-97 -251
q0 -145 98 -247.5t240 -102.5q167 0 275 133l43 -35q-58 -75 -140.5 -116.5t-177.5 -41.5q-165 0 -284 121t-119 289z" />
    <glyph glyph-name="ordfeminine" unicode="&#xaa;" horiz-adv-x="716" 
d="M578 891v-391h-60v100q-74 -113 -225 -113q-93 0 -153 45t-60 123q0 75 59.5 119.5t157.5 44.5h219v74q0 89 -47 135.5t-129 46.5q-59 0 -102.5 -25t-87.5 -77l-39 39q95 123 233 123q106 0 170 -64.5t64 -179.5zM516 727v39h-215q-75 0 -115.5 -28.5t-40.5 -82.5
q0 -55 43.5 -83.5t112.5 -28.5q91 0 153 52.5t62 131.5z" />
    <glyph glyph-name="guillemotleft" unicode="&#xab;" horiz-adv-x="874" 
d="M428 186l-334 353v24l334 352l45 -41l-301 -323l301 -328zM733 186l-334 353v24l334 352l45 -41l-301 -323l301 -328z" />
    <glyph glyph-name="logicalnot" unicode="&#xac;" 
d="M887 182v422h-752v58h813v-480h-61z" />
    <glyph glyph-name="uni00AD" unicode="&#xad;" horiz-adv-x="696" 
d="M123 604v58h450v-58h-450z" />
    <glyph glyph-name="registered" unicode="&#xae;" horiz-adv-x="1165" 
d="M1059 891q0 -127 -64.5 -236.5t-174.5 -174t-238 -64.5q-126 0 -236 65t-175 174.5t-65 235.5q0 96 38.5 184t102.5 152t152 102.5t183 38.5q128 0 238 -64.5t174.5 -174.5t64.5 -238zM999 891q0 173 -122 295.5t-295 122.5t-294.5 -122.5t-121.5 -295.5
q0 -171 121.5 -293.5t294.5 -122.5t295 122.5t122 293.5zM664 858l174 -223h-78l-166 213h-125v-213h-61l-2 514h192q75 0 122.5 -42t47.5 -108q0 -52 -27.5 -90t-76.5 -51zM467 903h129q50 0 79.5 26t29.5 68q0 43 -29.5 70t-79.5 27h-129v-191z" />
    <glyph glyph-name="overscore" unicode="&#xaf;" horiz-adv-x="1228" 
d="M356 1337v58h516v-58h-516z" />
    <glyph glyph-name="degree" unicode="&#xb0;" horiz-adv-x="737" 
d="M78 1083q0 121 85 205t206 84q120 0 205 -85t85 -204q0 -121 -84.5 -204.5t-205.5 -83.5t-206 83.5t-85 204.5zM594 1083q0 96 -66 162q-65 68 -159 68q-95 0 -160 -68q-66 -66 -66 -162q0 -94 66 -163q66 -66 160 -66q93 0 159 66q66 69 66 163z" />
    <glyph glyph-name="plusminus" unicode="&#xb1;" 
d="M543 248v387h-387v57h387v387h61v-387h385v-57h-385v-387h-61zM156 0v57h833v-57h-833z" />
    <glyph glyph-name="uni00B2" unicode="&#xb2;" horiz-adv-x="735" 
d="M190 803h461v-58h-575v19l311 319q83 85 120.5 147t37.5 128q0 81 -53 136.5t-138 55.5q-88 0 -142 -58t-54 -142q0 -32 6 -70h-62q-8 27 -8 74q0 104 72.5 180t187.5 76q112 0 184 -70.5t72 -177.5q0 -82 -41 -149.5t-141 -168.5z" />
    <glyph glyph-name="uni00B3" unicode="&#xb3;" horiz-adv-x="716" 
d="M625 1010q0 -125 -85.5 -201t-207.5 -76q-90 0 -162 45t-117 121l47 33q89 -139 234 -139q99 0 162 60.5t63 156.5q0 94 -64 148t-176 54h-71v21l250 307h-392v57h494v-20l-254 -309q110 0 194.5 -68t84.5 -190z" />
    <glyph glyph-name="acute" unicode="&#xb4;" horiz-adv-x="1228" 
d="M477 1151l197 446h76v-10l-220 -436h-53z" />
    <glyph glyph-name="uni00B5" unicode="&#xb5;" horiz-adv-x="1183" 
d="M1130 55v-55q-36 -8 -71 -8q-75 0 -120.5 43t-55.5 125q-44 -86 -126 -133t-186 -47q-102 0 -180.5 45.5t-126.5 130.5v-525h-61v1352h61v-606q0 -147 87 -242.5t220 -95.5q137 0 222 94q88 94 88 244v606h61v-766q0 -168 125 -168q23 0 63 6z" />
    <glyph glyph-name="paragraph" unicode="&#xb6;" horiz-adv-x="1075" 
d="M92 936q0 187 133 301.5t338 114.5h125v-840h-125q-203 0 -337 118.5t-134 305.5zM438 -369v58q93 -19 137 -19q110 0 169 56.5t59 185.5v1440h61v-1440q0 -154 -74 -227.5t-208 -73.5q-71 0 -144 20z" />
    <glyph glyph-name="middot" unicode="&#xb7;" horiz-adv-x="573" 
d="M207 631q0 36 23 59t55 23q34 0 58 -22.5t24 -59.5q0 -34 -24.5 -56t-57.5 -22q-32 0 -55 22t-23 56z" />
    <glyph glyph-name="cedilla" unicode="&#xb8;" horiz-adv-x="1228" 
d="M432 -369v56q87 -19 127 -19q75 0 122.5 41.5t47.5 116.5q0 54 -25.5 93.5t-78.5 80.5l18 27q69 -30 110.5 -84t41.5 -121q0 -90 -64 -150.5t-166 -60.5q-66 0 -133 20z" />
    <glyph glyph-name="uni00B9" unicode="&#xb9;" horiz-adv-x="698" 
d="M104 745v58h230v737h-230v57h293v-794h205v-58h-498z" />
    <glyph glyph-name="ordmasculine" unicode="&#xba;" horiz-adv-x="829" 
d="M92 811q0 135 94 229.5t228 94.5q133 0 228 -95t95 -229t-95 -229t-228 -95q-134 0 -228 94.5t-94 229.5zM672 811q0 113 -74 188.5t-184 75.5t-183 -75.5t-73 -188.5t73 -188.5t183 -75.5t184 75.5t74 188.5z" />
    <glyph glyph-name="guillemotright" unicode="&#xbb;" horiz-adv-x="874" 
d="M141 186l-45 37l301 328l-301 323l45 41l334 -352v-24zM446 186l-45 37l301 328l-301 323l45 41l334 -352v-24z" />
    <glyph glyph-name="onequarter" unicode="&#xbc;" horiz-adv-x="1742" 
d="M104 500v57h230v737h-230v58h293v-795h205v-57h-498zM508 0l780 1352h64l-781 -1352h-63zM1700 225v-57h-131v-168h-64v168h-428v20l287 664h66l-271 -627h346v310h64v-310h131z" />
    <glyph glyph-name="onehalf" unicode="&#xbd;" horiz-adv-x="1824" 
d="M104 500v57h230v737h-230v58h293v-795h205v-57h-498zM508 0l780 1352h64l-781 -1352h-63zM1280 57h461v-57h-576v18l312 320q83 84 120 146t37 128q0 81 -53 137t-137 56q-88 0 -142.5 -58.5t-54.5 -142.5q0 -32 6 -69h-61q-8 27 -8 73q0 104 72.5 180t187.5 76
q112 0 184 -70.5t72 -177.5q0 -81 -41 -148t-141 -169z" />
    <glyph glyph-name="threequarters" unicode="&#xbe;" horiz-adv-x="1689" 
d="M625 764q0 -125 -85.5 -201t-207.5 -76q-90 0 -162 45t-117 121l47 33q89 -139 234 -139q99 0 162 60.5t63 156.5q0 94 -64 148.5t-176 54.5h-71v20l250 307h-392v58h494v-21l-254 -309q110 0 194.5 -68t84.5 -190zM455 0l780 1352h63l-780 -1352h-63zM1647 225v-57h-131
v-168h-64v168h-428v20l287 664h65l-270 -627h346v310h64v-310h131z" />
    <glyph glyph-name="questiondown" unicode="&#xbf;" horiz-adv-x="901" 
d="M393 926q0 34 24 56t56 22t56 -21.5t24 -56.5q0 -36 -24 -59t-56 -23t-56 23t-24 59zM111 -63q0 72 28 133q27 56 66 101t125 126q83 78 113 123t30 104q0 40 -14 86h61q19 -43 19 -86q0 -66 -36.5 -121.5t-131.5 -146.5q-53 -52 -75 -75t-51 -57t-39 -57.5t-19 -55.5
t-11 -72q0 -116 75.5 -192.5t188.5 -76.5q98 0 171.5 59.5t105.5 168.5l57 -21q-36 -121 -124.5 -193.5t-207.5 -72.5q-138 0 -234.5 94t-96.5 232z" />
    <glyph glyph-name="Agrave" unicode="&#xc0;" horiz-adv-x="1361" 
d="M1202 0l-149 358h-746l-147 -358h-68l574 1372h30l574 -1372h-68zM680 1257l-348 -839h696zM655 1483l-219 370v11h76l197 -381h-54z" />
    <glyph glyph-name="Aacute" unicode="&#xc1;" horiz-adv-x="1361" 
d="M1202 0l-149 358h-746l-147 -358h-68l574 1372h30l574 -1372h-68zM680 1257l-348 -839h696zM653 1483l197 381h76v-11l-219 -370h-54z" />
    <glyph glyph-name="Acircumflex" unicode="&#xc2;" horiz-adv-x="1361" 
d="M1202 0l-149 358h-746l-147 -358h-68l574 1372h30l574 -1372h-68zM680 1257l-348 -839h696zM995 1483h-55l-258 299l-260 -299h-55l299 381h30z" />
    <glyph glyph-name="Atilde" unicode="&#xc3;" horiz-adv-x="1361" 
d="M1202 0l-149 358h-746l-147 -358h-68l574 1372h30l574 -1372h-68zM680 1257l-348 -839h696zM705 1604l-80 53q-64 43 -103 43q-35 0 -54 -24.5t-19 -67.5v-43h-60q-2 8 -2 39q0 68 36 110.5t93 42.5q36 0 62 -11.5t81 -47.5l80 -53q64 -43 103 -43q35 0 54 24.5t19 67.5
v43h60q2 -8 2 -39q0 -68 -36 -111t-93 -43q-35 0 -61 11.5t-82 48.5z" />
    <glyph glyph-name="Adieresis" unicode="&#xc4;" horiz-adv-x="1361" 
d="M1202 0l-149 358h-746l-147 -358h-68l574 1372h30l574 -1372h-68zM680 1257l-348 -839h696zM385 1651q0 29 20.5 49t49.5 20t49 -20t20 -49t-20 -49.5t-49 -20.5t-49.5 20.5t-20.5 49.5zM838 1651q0 29 20 49t49 20t49.5 -20t20.5 -49t-20.5 -49.5t-49.5 -20.5t-49 20.5
t-20 49.5z" />
    <glyph glyph-name="Aring" unicode="&#xc5;" horiz-adv-x="1361" 
d="M1202 0l-149 358h-746l-147 -358h-68l574 1372h30l574 -1372h-68zM680 1257l-348 -839h696zM481 1665q0 82 58.5 140.5t142.5 58.5t142.5 -58.5t58.5 -140.5t-58.5 -140.5t-142.5 -58.5t-142.5 58.5t-58.5 140.5zM821 1665q0 60 -39.5 100.5t-99.5 40.5t-99.5 -40.5
t-39.5 -100.5t39.5 -100.5t99.5 -40.5t99.5 40.5t39.5 100.5z" />
    <glyph glyph-name="AE" unicode="&#xc6;" horiz-adv-x="1630" 
d="M1042 59h506v-59h-565l-63 360h-623l-186 -360h-70l704 1352h779v-60h-703l94 -526h445v-59h-434zM760 1260l-432 -840h581z" />
    <glyph glyph-name="Ccedilla" unicode="&#xc7;" horiz-adv-x="1452" 
d="M117 676q-3 190 89.5 352t251.5 255t343 89q162 0 301.5 -70t232.5 -194l-49 -39q-86 115 -209.5 177.5t-273.5 62.5q-170 3 -313 -81.5t-224.5 -231t-79.5 -318.5q-3 -172 78.5 -319.5t225 -233t313.5 -82.5q150 0 273.5 62.5t209.5 177.5l49 -39q-93 -124 -232.5 -194
t-301.5 -70q-138 -3 -265.5 52t-220 149t-146.5 224t-52 271zM580 -369v56q87 -19 127 -19q75 0 122.5 41.5t47.5 116.5q0 54 -25.5 93t-79.5 81l19 27q69 -30 110 -84t41 -121q0 -90 -63.5 -150.5t-165.5 -60.5q-66 0 -133 20z" />
    <glyph glyph-name="Egrave" unicode="&#xc8;" horiz-adv-x="1148" 
d="M211 0v1352h831v-60h-766v-526h603v-59h-603v-648h791v-59h-856zM590 1483l-219 370v11h75l197 -381h-53z" />
    <glyph glyph-name="Eacute" unicode="&#xc9;" horiz-adv-x="1148" 
d="M211 0v1352h831v-60h-766v-526h603v-59h-603v-648h791v-59h-856zM588 1483l196 381h76v-11l-219 -370h-53z" />
    <glyph glyph-name="Ecircumflex" unicode="&#xca;" horiz-adv-x="1148" 
d="M211 0v1352h831v-60h-766v-526h603v-59h-603v-648h791v-59h-856zM930 1483h-56l-258 299l-260 -299h-55l299 381h31z" />
    <glyph glyph-name="Edieresis" unicode="&#xcb;" horiz-adv-x="1148" 
d="M211 0v1352h831v-60h-766v-526h603v-59h-603v-648h791v-59h-856zM319 1651q0 29 20.5 49t49.5 20t49.5 -20t20.5 -49t-20.5 -49.5t-49.5 -20.5t-49.5 20.5t-20.5 49.5zM772 1651q0 29 20.5 49t49.5 20t49 -20t20 -49t-20 -49.5t-49 -20.5t-49.5 20.5t-20.5 49.5z" />
    <glyph glyph-name="Igrave" unicode="&#xcc;" horiz-adv-x="487" 
d="M211 0v1352h65v-1352h-65zM217 1483l-219 370v11h76l196 -381h-53z" />
    <glyph glyph-name="Iacute" unicode="&#xcd;" horiz-adv-x="487" 
d="M211 0v1352h65v-1352h-65zM215 1483l197 381h75v-11l-219 -370h-53z" />
    <glyph glyph-name="Icircumflex" unicode="&#xce;" horiz-adv-x="487" 
d="M211 0v1352h65v-1352h-65zM557 1483h-55l-258 299l-260 -299h-56l299 381h31z" />
    <glyph glyph-name="Idieresis" unicode="&#xcf;" horiz-adv-x="487" 
d="M211 0v1352h65v-1352h-65zM-53 1651q0 29 20 49t49 20t49.5 -20t20.5 -49t-20.5 -49.5t-49.5 -20.5t-49 20.5t-20 49.5zM399 1651q0 29 20.5 49t49.5 20t49.5 -20t20.5 -49t-20.5 -49.5t-49.5 -20.5t-49.5 20.5t-20.5 49.5z" />
    <glyph glyph-name="Eth" unicode="&#xd0;" horiz-adv-x="1429" 
d="M1313 678q0 -145 -49 -268.5t-141 -215t-232 -143t-313 -51.5h-367v588h-211v57h211v707h367q173 0 313 -51t232 -141t141 -213.5t49 -268.5zM1243 678q0 131 -44.5 243t-127.5 194.5t-210 129.5t-283 47h-302v-647h310v-57h-310v-529h302q156 0 283 48t210 132.5
t127.5 196.5t44.5 242z" />
    <glyph glyph-name="Ntilde" unicode="&#xd1;" horiz-adv-x="1441" 
d="M1165 1352h66v-1372h-31l-924 1230v-1210h-65v1372h31l923 -1241v1221zM743 1604l-79 53q-64 43 -103 43q-35 0 -54.5 -24.5t-19.5 -67.5v-43h-59q-2 8 -2 39q0 68 36 110.5t93 42.5q36 0 62 -11.5t81 -47.5l80 -53q64 -43 103 -43q35 0 54 24.5t19 67.5v43h60
q2 -8 2 -39q0 -68 -36 -111t-93 -43q-36 0 -62 12t-82 48z" />
    <glyph glyph-name="Ograve" unicode="&#xd2;" horiz-adv-x="1605" 
d="M117 676q-3 190 89.5 352t251.5 255t343 89q137 2 265 -52.5t221.5 -148t148.5 -224t53 -271.5q2 -141 -53 -271t-148.5 -224t-221.5 -149t-265 -52q-138 -3 -265.5 52t-220 149t-146.5 224t-52 271zM1419 678q2 127 -46 245t-131 203t-198 135t-241 48
q-168 3 -311.5 -81.5t-226 -231t-79.5 -318.5q-2 -173 79.5 -320t224.5 -232.5t313 -82.5q126 -2 241 48t198 135.5t131 204t46 247.5zM776 1483l-219 370v11h76l196 -381h-53z" />
    <glyph glyph-name="Oacute" unicode="&#xd3;" horiz-adv-x="1605" 
d="M117 676q-3 190 89.5 352t251.5 255t343 89q137 2 265 -52.5t221.5 -148t148.5 -224t53 -271.5q2 -141 -53 -271t-148.5 -224t-221.5 -149t-265 -52q-138 -3 -265.5 52t-220 149t-146.5 224t-52 271zM1419 678q2 127 -46 245t-131 203t-198 135t-241 48
q-168 3 -311.5 -81.5t-226 -231t-79.5 -318.5q-2 -173 79.5 -320t224.5 -232.5t313 -82.5q126 -2 241 48t198 135.5t131 204t46 247.5zM774 1483l197 381h76v-11l-220 -370h-53z" />
    <glyph glyph-name="Ocircumflex" unicode="&#xd4;" horiz-adv-x="1605" 
d="M117 676q-3 190 89.5 352t251.5 255t343 89q137 2 265 -52.5t221.5 -148t148.5 -224t53 -271.5q2 -141 -53 -271t-148.5 -224t-221.5 -149t-265 -52q-138 -3 -265.5 52t-220 149t-146.5 224t-52 271zM1419 678q2 127 -46 245t-131 203t-198 135t-241 48
q-168 3 -311.5 -81.5t-226 -231t-79.5 -318.5q-2 -173 79.5 -320t224.5 -232.5t313 -82.5q126 -2 241 48t198 135.5t131 204t46 247.5zM1116 1483h-55l-258 299l-260 -299h-56l299 381h31z" />
    <glyph glyph-name="Otilde" unicode="&#xd5;" horiz-adv-x="1605" 
d="M117 676q-3 190 89.5 352t251.5 255t343 89q137 2 265 -52.5t221.5 -148t148.5 -224t53 -271.5q2 -141 -53 -271t-148.5 -224t-221.5 -149t-265 -52q-138 -3 -265.5 52t-220 149t-146.5 224t-52 271zM1419 678q2 127 -46 245t-131 203t-198 135t-241 48
q-168 3 -311.5 -81.5t-226 -231t-79.5 -318.5q-2 -173 79.5 -320t224.5 -232.5t313 -82.5q126 -2 241 48t198 135.5t131 204t46 247.5zM825 1604l-80 53q-64 43 -102 43q-35 0 -54.5 -24.5t-19.5 -67.5v-43h-59q-2 8 -2 39q0 68 36 110.5t93 42.5q36 0 62 -11.5t81 -47.5
l80 -53q64 -43 103 -43q35 0 54 24.5t19 67.5v43h60q2 -8 2 -39q0 -68 -36 -111t-93 -43q-36 0 -62 12t-82 48z" />
    <glyph glyph-name="Odieresis" unicode="&#xd6;" horiz-adv-x="1605" 
d="M117 676q-3 190 89.5 352t251.5 255t343 89q137 2 265 -52.5t221.5 -148t148.5 -224t53 -271.5q2 -141 -53 -271t-148.5 -224t-221.5 -149t-265 -52q-138 -3 -265.5 52t-220 149t-146.5 224t-52 271zM1419 678q2 127 -46 245t-131 203t-198 135t-241 48
q-168 3 -311.5 -81.5t-226 -231t-79.5 -318.5q-2 -173 79.5 -320t224.5 -232.5t313 -82.5q126 -2 241 48t198 135.5t131 204t46 247.5zM506 1651q0 29 20 49t49 20t49.5 -20t20.5 -49t-20.5 -49.5t-49.5 -20.5t-49 20.5t-20 49.5zM958 1651q0 29 20.5 49t49.5 20t49.5 -20
t20.5 -49t-20.5 -49.5t-49.5 -20.5t-49.5 20.5t-20.5 49.5z" />
    <glyph glyph-name="multiply" unicode="&#xd7;" 
d="M240 256l-41 39l336 338l-336 336l39 41l335 -336l336 336l41 -41l-336 -336l336 -336l-39 -41l-336 336z" />
    <glyph glyph-name="Oslash" unicode="&#xd8;" horiz-adv-x="1605" 
d="M1499 1329l-184 -184q174 -200 174 -469q2 -141 -53 -271t-148.5 -224t-221.5 -149t-265 -52q-134 0 -254 47.5t-213 136.5l-184 -184l-44 43l185 184q-174 200 -174 469q-3 190 89.5 352t251.5 255t343 89q134 0 255.5 -48t215.5 -136l184 184zM186 678q0 -249 152 -424
l889 889q-180 166 -424 166q-170 3 -313 -81.5t-224.5 -231t-79.5 -318.5zM1419 678q0 246 -151 420l-889 -889q180 -166 424 -166q127 -2 242.5 48t197.5 135.5t129.5 204t46.5 247.5z" />
    <glyph glyph-name="Ugrave" unicode="&#xd9;" horiz-adv-x="1388" 
d="M188 516v836h66v-836q0 -221 119.5 -347t322.5 -126q200 0 319.5 126t119.5 347v836h65v-836q0 -248 -136.5 -392t-367.5 -144q-235 0 -371.5 144t-136.5 392zM668 1483l-219 370v11h75l197 -381h-53z" />
    <glyph glyph-name="Uacute" unicode="&#xda;" horiz-adv-x="1388" 
d="M188 516v836h66v-836q0 -221 119.5 -347t322.5 -126q200 0 319.5 126t119.5 347v836h65v-836q0 -248 -136.5 -392t-367.5 -144q-235 0 -371.5 144t-136.5 392zM666 1483l196 381h76v-11l-219 -370h-53z" />
    <glyph glyph-name="Ucircumflex" unicode="&#xdb;" horiz-adv-x="1388" 
d="M188 516v836h66v-836q0 -221 119.5 -347t322.5 -126q200 0 319.5 126t119.5 347v836h65v-836q0 -248 -136.5 -392t-367.5 -144q-235 0 -371.5 144t-136.5 392zM1008 1483h-56l-258 299l-260 -299h-55l299 381h31z" />
    <glyph glyph-name="Udieresis" unicode="&#xdc;" horiz-adv-x="1388" 
d="M188 516v836h66v-836q0 -221 119.5 -347t322.5 -126q200 0 319.5 126t119.5 347v836h65v-836q0 -248 -136.5 -392t-367.5 -144q-235 0 -371.5 144t-136.5 392zM397 1651q0 29 20.5 49t49.5 20t49.5 -20t20.5 -49t-20.5 -49.5t-49.5 -20.5t-49.5 20.5t-20.5 49.5z
M850 1651q0 29 20.5 49t49.5 20t49 -20t20 -49t-20 -49.5t-49 -20.5t-49.5 20.5t-20.5 49.5z" />
    <glyph glyph-name="Yacute" unicode="&#xdd;" horiz-adv-x="1249" 
d="M1128 1352l-471 -766v-586h-65v586l-471 766h69l435 -711l434 711h69zM596 1483l197 381h75v-11l-219 -370h-53z" />
    <glyph glyph-name="Thorn" unicode="&#xde;" horiz-adv-x="1140" 
d="M211 0v1352h65v-273h383q180 0 285 -101t105 -265q0 -166 -104.5 -267.5t-285.5 -101.5h-383v-344h-65zM276 403h379q156 0 241 83t85 225t-85 225.5t-241 83.5h-379v-617z" />
    <glyph glyph-name="germandbls" unicode="&#xdf;" horiz-adv-x="1185" 
d="M485 131l39 39q110 -131 289 -131q112 0 178 47.5t66 138.5q0 69 -43 109q-41 41 -160 108q-31 17 -123 72q-90 62 -90 154q0 47 37 168l96 307q25 80 25 147q0 97 -60 152t-164 55q-139 0 -225 -96.5t-86 -265.5v-1135h-61v1135q0 193 107 307t270 114q127 0 205.5 -71
t78.5 -193q0 -70 -28 -162l-99 -311q-32 -95 -32 -151q0 -50 34 -84q38 -33 140 -90q79 -45 135 -84q108 -71 108 -187t-94 -180q-92 -63 -223 -63q-190 0 -320 151z" />
    <glyph glyph-name="agrave" unicode="&#xe0;" horiz-adv-x="1056" 
d="M870 625v-625h-61v174q-54 -92 -151 -143t-216 -51q-139 0 -237 67q-99 68 -99 193q0 117 91.5 185.5t244.5 68.5h367v133q0 153 -79.5 235t-217.5 82q-96 0 -170.5 -43.5t-138.5 -128.5l-45 37q145 195 358 195q162 0 258 -99.5t96 -279.5zM809 358v78h-365
q-130 0 -201 -50.5t-71 -141.5q0 -96 78 -150.5t194 -54.5q149 0 257 92.5t108 226.5zM494 1151l-220 436v10h76l197 -446h-53z" />
    <glyph glyph-name="aacute" unicode="&#xe1;" horiz-adv-x="1056" 
d="M870 625v-625h-61v174q-54 -92 -151 -143t-216 -51q-139 0 -237 67q-99 68 -99 193q0 117 91.5 185.5t244.5 68.5h367v133q0 153 -79.5 235t-217.5 82q-96 0 -170.5 -43.5t-138.5 -128.5l-45 37q145 195 358 195q162 0 258 -99.5t96 -279.5zM809 358v78h-365
q-130 0 -201 -50.5t-71 -141.5q0 -96 78 -150.5t194 -54.5q149 0 257 92.5t108 226.5zM487 1151l197 446h76v-10l-219 -436h-54z" />
    <glyph glyph-name="acircumflex" unicode="&#xe2;" horiz-adv-x="1056" 
d="M870 625v-625h-61v174q-54 -92 -151 -143t-216 -51q-139 0 -237 67q-99 68 -99 193q0 117 91.5 185.5t244.5 68.5h367v133q0 153 -79.5 235t-217.5 82q-96 0 -170.5 -43.5t-138.5 -128.5l-45 37q145 195 358 195q162 0 258 -99.5t96 -279.5zM809 358v78h-365
q-130 0 -201 -50.5t-71 -141.5q0 -96 78 -150.5t194 -54.5q149 0 257 92.5t108 226.5zM807 1151h-55l-238 352l-240 -352h-55l279 446h30z" />
    <glyph glyph-name="atilde" unicode="&#xe3;" horiz-adv-x="1056" 
d="M870 625v-625h-61v174q-54 -92 -151 -143t-216 -51q-139 0 -237 67q-99 68 -99 193q0 117 91.5 185.5t244.5 68.5h367v133q0 153 -79.5 235t-217.5 82q-96 0 -170.5 -43.5t-138.5 -128.5l-45 37q145 195 358 195q162 0 258 -99.5t96 -279.5zM809 358v78h-365
q-130 0 -201 -50.5t-71 -141.5q0 -96 78 -150.5t194 -54.5q149 0 257 92.5t108 226.5zM522 1315l-51 55q-26 29 -45 40t-43 11q-35 0 -52.5 -27.5t-17.5 -72.5v-43h-59q-2 8 -2 39q0 70 33.5 116t93.5 46q65 0 127 -68l51 -55q26 -29 45 -40t43 -11q35 0 52.5 27.5
t17.5 72.5v43h59q2 -8 2 -39q0 -70 -32.5 -116t-92.5 -46q-67 0 -129 68z" />
    <glyph glyph-name="adieresis" unicode="&#xe4;" horiz-adv-x="1056" 
d="M870 625v-625h-61v174q-54 -92 -151 -143t-216 -51q-139 0 -237 67q-99 68 -99 193q0 117 91.5 185.5t244.5 68.5h367v133q0 153 -79.5 235t-217.5 82q-96 0 -170.5 -43.5t-138.5 -128.5l-45 37q145 195 358 195q162 0 258 -99.5t96 -279.5zM809 358v78h-365
q-130 0 -201 -50.5t-71 -141.5q0 -96 78 -150.5t194 -54.5q149 0 257 92.5t108 226.5zM248 1364q0 29 20 49.5t49 20.5t49.5 -20.5t20.5 -49.5t-20.5 -49.5t-49.5 -20.5t-49 20.5t-20 49.5zM639 1364q0 29 20.5 49.5t49.5 20.5t49 -20.5t20 -49.5t-20 -49.5t-49 -20.5
t-49.5 20.5t-20.5 49.5z" />
    <glyph glyph-name="aring" unicode="&#xe5;" horiz-adv-x="1056" 
d="M870 625v-625h-61v174q-54 -92 -151 -143t-216 -51q-139 0 -237 67q-99 68 -99 193q0 117 91.5 185.5t244.5 68.5h367v133q0 153 -79.5 235t-217.5 82q-96 0 -170.5 -43.5t-138.5 -128.5l-45 37q145 195 358 195q162 0 258 -99.5t96 -279.5zM809 358v78h-365
q-130 0 -201 -50.5t-71 -141.5q0 -96 78 -150.5t194 -54.5q149 0 257 92.5t108 226.5zM313 1364q0 82 58.5 140.5t142.5 58.5t142.5 -58.5t58.5 -140.5t-58.5 -140.5t-142.5 -58.5t-142.5 58.5t-58.5 140.5zM653 1364q0 60 -39.5 100.5t-99.5 40.5t-99.5 -40.5t-39.5 -100.5
t39.5 -100.5t99.5 -40.5t99.5 40.5t39.5 100.5z" />
    <glyph glyph-name="ae" unicode="&#xe6;" horiz-adv-x="1859" 
d="M1731 469h-857q6 -183 132 -306.5t305 -123.5q105 0 196 45t154 127l45 -37q-69 -91 -173 -142.5t-222 -51.5q-149 0 -271 79t-184 213q-35 -133 -149 -213q-113 -79 -263 -79q-139 0 -239 71q-99 74 -99 207q0 124 91 196t245 72h367v101q0 153 -79.5 235t-217.5 82
q-96 0 -170.5 -43.5t-138.5 -128.5l-45 37q145 195 358 195q137 0 229.5 -73t116.5 -206q62 128 179 203.5t259 75.5q119 0 217.5 -52t159 -153t60.5 -232q0 -31 -6 -98zM877 526h794q12 179 -100.5 298.5t-278.5 119.5q-165 0 -285.5 -121.5t-129.5 -296.5zM809 358v111
h-365q-133 0 -202.5 -53t-69.5 -152q0 -106 79.5 -165.5t197.5 -59.5q145 0 252.5 93t107.5 226z" />
    <glyph glyph-name="ccedilla" unicode="&#xe7;" horiz-adv-x="1132" 
d="M123 492q0 139 67 257t183 186.5t254 68.5q241 0 393 -195l-45 -37q-64 82 -153.5 127t-194.5 45q-185 0 -312 -131t-127 -321t126.5 -321.5t310.5 -131.5q105 0 196 45t154 127l45 -37q-73 -93 -174 -143.5t-221 -50.5q-133 -3 -250.5 67t-186 190t-65.5 255zM401 -369
v56q87 -19 127 -19q75 0 122.5 41.5t47.5 116.5q0 54 -25.5 93.5t-78.5 80.5l18 27q69 -30 110.5 -84t41.5 -121q0 -90 -63.5 -150.5t-165.5 -60.5q-67 0 -134 20z" />
    <glyph glyph-name="egrave" unicode="&#xe8;" horiz-adv-x="1173" 
d="M1044 485h-856q0 -188 127.5 -317t309.5 -129q105 0 196 45t154 127l45 -37q-69 -91 -173 -142.5t-222 -51.5q-136 0 -251.5 68.5t-183 186.5t-67.5 257q0 138 65.5 256t178.5 187t247 69q119 0 218 -52.5t159 -153t60 -229.5q0 -26 -7 -84zM190 543h795q6 89 -22 165
t-80 127t-123 80t-150 29q-164 0 -284.5 -115.5t-135.5 -285.5zM575 1151l-219 436v10h76l197 -446h-54z" />
    <glyph glyph-name="eacute" unicode="&#xe9;" horiz-adv-x="1173" 
d="M1044 485h-856q0 -188 127.5 -317t309.5 -129q105 0 196 45t154 127l45 -37q-69 -91 -173 -142.5t-222 -51.5q-136 0 -251.5 68.5t-183 186.5t-67.5 257q0 138 65.5 256t178.5 187t247 69q119 0 218 -52.5t159 -153t60 -229.5q0 -26 -7 -84zM190 543h795q6 89 -22 165
t-80 127t-123 80t-150 29q-164 0 -284.5 -115.5t-135.5 -285.5zM569 1151l197 446h76v-10l-219 -436h-54z" />
    <glyph glyph-name="ecircumflex" unicode="&#xea;" horiz-adv-x="1173" 
d="M1044 485h-856q0 -188 127.5 -317t309.5 -129q105 0 196 45t154 127l45 -37q-69 -91 -173 -142.5t-222 -51.5q-136 0 -251.5 68.5t-183 186.5t-67.5 257q0 138 65.5 256t178.5 187t247 69q119 0 218 -52.5t159 -153t60 -229.5q0 -26 -7 -84zM190 543h795q6 89 -22 165
t-80 127t-123 80t-150 29q-164 0 -284.5 -115.5t-135.5 -285.5zM889 1151h-55l-238 352l-240 -352h-55l279 446h30z" />
    <glyph glyph-name="edieresis" unicode="&#xeb;" horiz-adv-x="1173" 
d="M1044 485h-856q0 -188 127.5 -317t309.5 -129q105 0 196 45t154 127l45 -37q-69 -91 -173 -142.5t-222 -51.5q-136 0 -251.5 68.5t-183 186.5t-67.5 257q0 138 65.5 256t178.5 187t247 69q119 0 218 -52.5t159 -153t60 -229.5q0 -26 -7 -84zM190 543h795q6 89 -22 165
t-80 127t-123 80t-150 29q-164 0 -284.5 -115.5t-135.5 -285.5zM330 1364q0 29 20 49.5t49 20.5t49.5 -20.5t20.5 -49.5t-20.5 -49.5t-49.5 -20.5t-49 20.5t-20 49.5zM721 1364q0 29 20.5 49.5t49.5 20.5t49 -20.5t20 -49.5t-20 -49.5t-49 -20.5t-49.5 20.5t-20.5 49.5z" />
    <glyph glyph-name="igrave" unicode="&#xec;" horiz-adv-x="466" 
d="M203 0v983h61v-983h-61zM213 1151l-158 436v10h76l135 -446h-53z" />
    <glyph glyph-name="iacute" unicode="&#xed;" horiz-adv-x="466" 
d="M203 0v983h61v-983h-61zM205 1151l135 446h76v-10l-158 -436h-53z" />
    <glyph glyph-name="icircumflex" unicode="&#xee;" horiz-adv-x="466" 
d="M203 0v983h61v-983h-61zM526 1151h-55l-238 352l-239 -352h-55l278 446h31z" />
    <glyph glyph-name="idieresis" unicode="&#xef;" horiz-adv-x="466" 
d="M203 0v983h61v-983h-61zM-2 1364q0 29 20.5 49.5t49.5 20.5t49 -20.5t20 -49.5t-20 -49.5t-49 -20.5t-49.5 20.5t-20.5 49.5zM328 1364q0 29 20 49.5t49 20.5t49.5 -20.5t20.5 -49.5t-20.5 -49.5t-49.5 -20.5t-49 20.5t-20 49.5z" />
    <glyph glyph-name="eth" unicode="&#xf0;" horiz-adv-x="1157" 
d="M1034 449q0 -198 -130 -333.5t-326 -135.5t-325.5 132.5t-129.5 323.5q0 126 60 233t162.5 169.5t221.5 62.5q135 0 236 -70l-301 418l-326 -151l-24 51l317 147l-162 224l49 36l168 -233l316 145l24 -51l-305 -141l268 -373q77 -106 119 -172q88 -138 88 -282zM967 440
q0 170 -113 286t-279 116q-163 0 -275 -116t-112 -286q0 -169 112.5 -285t277.5 -116q164 0 276.5 116t112.5 285z" />
    <glyph glyph-name="ntilde" unicode="&#xf1;" horiz-adv-x="1128" 
d="M942 625v-625h-61v625q0 143 -80.5 231t-216.5 88q-140 0 -230 -90t-90 -229v-625h-61v983h61v-158q48 85 131 132t191 47q164 0 260 -105t96 -274zM590 1315l-51 55q-26 29 -45 40t-43 11q-35 0 -52.5 -27.5t-17.5 -72.5v-43h-59q-3 12 -3 39q0 70 33.5 116t93.5 46
q65 0 127 -68l52 -55q26 -29 45 -40t43 -11q69 0 69 100v43h60q2 -8 2 -39q0 -70 -32.5 -116t-92.5 -46q-67 0 -129 68z" />
    <glyph glyph-name="ograve" unicode="&#xf2;" horiz-adv-x="1255" 
d="M123 492q-2 103 38 199t108 165t162.5 109.5t195.5 38.5q135 3 253 -66t186.5 -188.5t66.5 -257.5q0 -139 -68 -257t-185 -186.5t-255 -68.5q-134 -3 -251 66t-185.5 188.5t-65.5 257.5zM1067 492q0 191 -127.5 321.5t-312.5 130.5q-186 0 -312.5 -130t-126.5 -322
t126 -322.5t311 -130.5q186 0 314 132t128 321zM608 1151l-219 436v10h76l197 -446h-54z" />
    <glyph glyph-name="oacute" unicode="&#xf3;" horiz-adv-x="1255" 
d="M123 492q-2 103 38 199t108 165t162.5 109.5t195.5 38.5q135 3 253 -66t186.5 -188.5t66.5 -257.5q0 -139 -68 -257t-185 -186.5t-255 -68.5q-134 -3 -251 66t-185.5 188.5t-65.5 257.5zM1067 492q0 191 -127.5 321.5t-312.5 130.5q-186 0 -312.5 -130t-126.5 -322
t126 -322.5t311 -130.5q186 0 314 132t128 321zM602 1151l197 446h75v-10l-219 -436h-53z" />
    <glyph glyph-name="ocircumflex" unicode="&#xf4;" horiz-adv-x="1255" 
d="M123 492q-2 103 38 199t108 165t162.5 109.5t195.5 38.5q135 3 253 -66t186.5 -188.5t66.5 -257.5q0 -139 -68 -257t-185 -186.5t-255 -68.5q-134 -3 -251 66t-185.5 188.5t-65.5 257.5zM1067 492q0 191 -127.5 321.5t-312.5 130.5q-186 0 -312.5 -130t-126.5 -322
t126 -322.5t311 -130.5q186 0 314 132t128 321zM922 1151h-56l-237 352l-240 -352h-55l278 446h31z" />
    <glyph glyph-name="otilde" unicode="&#xf5;" horiz-adv-x="1255" 
d="M123 492q-2 103 38 199t108 165t162.5 109.5t195.5 38.5q135 3 253 -66t186.5 -188.5t66.5 -257.5q0 -139 -68 -257t-185 -186.5t-255 -68.5q-134 -3 -251 66t-185.5 188.5t-65.5 257.5zM1067 492q0 191 -127.5 321.5t-312.5 130.5q-186 0 -312.5 -130t-126.5 -322
t126 -322.5t311 -130.5q186 0 314 132t128 321zM637 1315l-51 55q-26 29 -45 40t-43 11q-35 0 -52.5 -27.5t-17.5 -72.5v-43h-59q-2 8 -2 39q0 70 33.5 116t93.5 46q65 0 127 -68l51 -55q26 -29 45 -40t43 -11q69 0 69 100v43h60q2 -8 2 -39q0 -70 -32.5 -116t-92.5 -46
q-67 0 -129 68z" />
    <glyph glyph-name="odieresis" unicode="&#xf6;" horiz-adv-x="1255" 
d="M123 492q-2 103 38 199t108 165t162.5 109.5t195.5 38.5q135 3 253 -66t186.5 -188.5t66.5 -257.5q0 -139 -68 -257t-185 -186.5t-255 -68.5q-134 -3 -251 66t-185.5 188.5t-65.5 257.5zM1067 492q0 191 -127.5 321.5t-312.5 130.5q-186 0 -312.5 -130t-126.5 -322
t126 -322.5t311 -130.5q186 0 314 132t128 321zM362 1364q0 29 20.5 49.5t49.5 20.5t49.5 -20.5t20.5 -49.5t-20.5 -49.5t-49.5 -20.5t-49.5 20.5t-20.5 49.5zM754 1364q0 29 20 49.5t49 20.5t49.5 -20.5t20.5 -49.5t-20.5 -49.5t-49.5 -20.5t-49 20.5t-20 49.5z" />
    <glyph glyph-name="divide" unicode="&#xf7;" 
d="M496 981q0 31 20 51.5t51 20.5t51.5 -20.5t20.5 -51.5t-20.5 -51.5t-51.5 -20.5t-51 20.5t-20 51.5zM135 604v58h875v-58h-875zM496 283q0 31 20 51t51 20t51.5 -20t20.5 -51t-20.5 -51.5t-51.5 -20.5t-51 20.5t-20 51.5z" />
    <glyph glyph-name="oslash" unicode="&#xf8;" horiz-adv-x="1284" 
d="M1153 961l-131 -134q125 -141 125 -335q3 -135 -67 -255t-189 -190t-252 -67q-194 0 -334 131l-131 -131l-43 43l131 131q-125 144 -125 338q-3 135 66 255t187 190t251 67q195 0 340 -132l129 132zM203 492q0 -166 102 -295l633 632q-127 115 -297 115
q-185 0 -311.5 -131t-126.5 -321zM1081 492q0 168 -102 292l-633 -632q125 -113 293 -113q186 0 314 132t128 321z" />
    <glyph glyph-name="ugrave" unicode="&#xf9;" horiz-adv-x="1112" 
d="M186 358v625h62v-625q0 -147 86.5 -233t222.5 -86q133 0 220 87t87 232v625h62v-625q0 -168 -106 -273t-263 -105q-159 0 -265 104t-106 274zM537 1151l-220 436v10h76l197 -446h-53z" />
    <glyph glyph-name="uacute" unicode="&#xfa;" horiz-adv-x="1112" 
d="M186 358v625h62v-625q0 -147 86.5 -233t222.5 -86q133 0 220 87t87 232v625h62v-625q0 -168 -106 -273t-263 -105q-159 0 -265 104t-106 274zM530 1151l197 446h76v-10l-219 -436h-54z" />
    <glyph glyph-name="ucircumflex" unicode="&#xfb;" horiz-adv-x="1112" 
d="M186 358v625h62v-625q0 -147 86.5 -233t222.5 -86q133 0 220 87t87 232v625h62v-625q0 -168 -106 -273t-263 -105q-159 0 -265 104t-106 274zM850 1151h-55l-238 352l-240 -352h-55l279 446h30z" />
    <glyph glyph-name="udieresis" unicode="&#xfc;" horiz-adv-x="1112" 
d="M186 358v625h62v-625q0 -147 86.5 -233t222.5 -86q133 0 220 87t87 232v625h62v-625q0 -168 -106 -273t-263 -105q-159 0 -265 104t-106 274zM291 1364q0 29 20 49.5t49 20.5t49.5 -20.5t20.5 -49.5t-20.5 -49.5t-49.5 -20.5t-49 20.5t-20 49.5zM682 1364q0 29 20.5 49.5
t49.5 20.5t49 -20.5t20 -49.5t-20 -49.5t-49 -20.5t-49.5 20.5t-20.5 49.5z" />
    <glyph glyph-name="yacute" unicode="&#xfd;" horiz-adv-x="1060" 
d="M920 983h67l-498 -1163q-47 -109 -116.5 -159t-167.5 -50q-67 0 -131 18v56q87 -17 127 -17q81 0 138 41.5t97 136.5l70 166l-432 971h67l398 -891zM504 1151l196 446h76v-10l-219 -436h-53z" />
    <glyph glyph-name="thorn" unicode="&#xfe;" horiz-adv-x="1300" 
d="M1178 492q0 -140 -65 -257.5t-178 -186t-249 -68.5q-138 0 -254.5 70t-167.5 186v-605h-61v1905h61v-788q51 116 167.5 186t254.5 70q135 0 248.5 -69t178.5 -186.5t65 -256.5zM1112 492q0 190 -122 321t-304 131q-85 0 -159.5 -28.5t-134 -82.5t-94 -142t-34.5 -199
t34.5 -199t94 -142.5t134.5 -83t159 -28.5q185 0 305.5 130t120.5 323z" />
    <glyph glyph-name="ydieresis" unicode="&#xff;" horiz-adv-x="1060" 
d="M920 983h67l-498 -1163q-47 -109 -116.5 -159t-167.5 -50q-67 0 -131 18v56q87 -17 127 -17q81 0 138 41.5t97 136.5l70 166l-432 971h67l398 -891zM264 1364q0 29 20.5 49.5t49.5 20.5t49 -20.5t20 -49.5t-20 -49.5t-49 -20.5t-49.5 20.5t-20.5 49.5zM655 1364
q0 29 20.5 49.5t49.5 20.5t49.5 -20.5t20.5 -49.5t-20.5 -49.5t-49.5 -20.5t-49.5 20.5t-20.5 49.5z" />
    <glyph glyph-name="Amacron" unicode="&#x100;" horiz-adv-x="1361" 
d="M1202 0l-149 358h-746l-147 -358h-68l574 1372h30l574 -1372h-68zM680 1257l-348 -839h696zM403 1602v57h558v-57h-558z" />
    <glyph glyph-name="amacron" unicode="&#x101;" horiz-adv-x="1056" 
d="M870 625v-625h-61v174q-54 -92 -151 -143t-216 -51q-139 0 -237 67q-99 68 -99 193q0 117 91.5 185.5t244.5 68.5h367v133q0 153 -79.5 235t-217.5 82q-96 0 -170.5 -43.5t-138.5 -128.5l-45 37q145 195 358 195q162 0 258 -99.5t96 -279.5zM809 358v78h-365
q-130 0 -201 -50.5t-71 -141.5q0 -96 78 -150.5t194 -54.5q149 0 257 92.5t108 226.5zM256 1337v58h516v-58h-516z" />
    <glyph glyph-name="Abreve" unicode="&#x102;" horiz-adv-x="1361" 
d="M1202 0l-149 358h-746l-147 -358h-68l574 1372h30l574 -1372h-68zM680 1257l-348 -839h696zM406 1794v70h61v-66q0 -115 57.5 -178.5t157.5 -63.5t157.5 63.5t57.5 178.5v66h61v-70q0 -135 -74.5 -215t-201.5 -80t-201.5 80t-74.5 215z" />
    <glyph glyph-name="abreve" unicode="&#x103;" horiz-adv-x="1056" 
d="M870 625v-625h-61v174q-54 -92 -151 -143t-216 -51q-139 0 -237 67q-99 68 -99 193q0 117 91.5 185.5t244.5 68.5h367v133q0 153 -79.5 235t-217.5 82q-96 0 -170.5 -43.5t-138.5 -128.5l-45 37q145 195 358 195q162 0 258 -99.5t96 -279.5zM809 358v78h-365
q-130 0 -201 -50.5t-71 -141.5q0 -96 78 -150.5t194 -54.5q149 0 257 92.5t108 226.5zM238 1473v69h61v-65q0 -115 57.5 -178.5t157.5 -63.5t157.5 63.5t57.5 178.5v65h62v-69q0 -135 -75 -215t-202 -80t-201.5 80t-74.5 215z" />
    <glyph glyph-name="Aogonek" unicode="&#x104;" horiz-adv-x="1361" 
d="M1202 0l-149 358h-746l-147 -358h-68l574 1372h30l574 -1372h-68zM680 1257l-348 -839h696zM950 -236q0 67 66 127t233 150l21 -41l-119 -76q-78 -50 -107.5 -81t-29.5 -72q0 -47 35.5 -75t95.5 -28q47 0 125 19v-56q-67 -20 -125 -20q-84 0 -139.5 41.5t-55.5 111.5z
" />
    <glyph glyph-name="aogonek" unicode="&#x105;" horiz-adv-x="1056" 
d="M870 625v-625h-61v174q-54 -92 -151 -143t-216 -51q-139 0 -237 67q-99 68 -99 193q0 117 91.5 185.5t244.5 68.5h367v133q0 153 -79.5 235t-217.5 82q-96 0 -170.5 -43.5t-138.5 -128.5l-45 37q145 195 358 195q162 0 258 -99.5t96 -279.5zM809 358v78h-365
q-130 0 -201 -50.5t-71 -141.5q0 -96 78 -150.5t194 -54.5q149 0 257 92.5t108 226.5zM551 -236q0 68 65 127q64 59 234 150l20 -41l-118 -76q-79 -51 -108.5 -81.5t-29.5 -71.5q0 -47 35.5 -75t95.5 -28q47 0 125 19v-56q-67 -20 -125 -20q-84 0 -139 41.5t-55 111.5z" />
    <glyph glyph-name="Cacute" unicode="&#x106;" horiz-adv-x="1452" 
d="M117 676q-3 190 89.5 352t251.5 255t343 89q162 0 301.5 -70t232.5 -194l-49 -39q-86 115 -209.5 177.5t-273.5 62.5q-170 3 -313 -81.5t-224.5 -231t-79.5 -318.5q-3 -172 78.5 -319.5t225 -233t313.5 -82.5q150 0 273.5 62.5t209.5 177.5l49 -39q-93 -124 -232.5 -194
t-301.5 -70q-138 -3 -265.5 52t-220 149t-146.5 224t-52 271zM776 1483l197 381h76v-11l-220 -370h-53z" />
    <glyph glyph-name="cacute" unicode="&#x107;" horiz-adv-x="1132" 
d="M123 492q0 139 67 257t183 186.5t254 68.5q241 0 393 -195l-45 -37q-64 82 -153.5 127t-194.5 45q-185 0 -312 -131t-127 -321t126.5 -321.5t310.5 -131.5q105 0 196 45t154 127l45 -37q-73 -93 -174 -143.5t-221 -50.5q-133 -3 -250.5 67t-186 190t-65.5 255zM600 1151
l197 446h75v-10l-219 -436h-53z" />
    <glyph glyph-name="Ccircumflex" unicode="&#x108;" horiz-adv-x="1452" 
d="M117 676q-3 190 89.5 352t251.5 255t343 89q162 0 301.5 -70t232.5 -194l-49 -39q-86 115 -209.5 177.5t-273.5 62.5q-170 3 -313 -81.5t-224.5 -231t-79.5 -318.5q-3 -172 78.5 -319.5t225 -233t313.5 -82.5q150 0 273.5 62.5t209.5 177.5l49 -39q-93 -124 -232.5 -194
t-301.5 -70q-138 -3 -265.5 52t-220 149t-146.5 224t-52 271zM1118 1483h-55l-258 299l-260 -299h-56l299 381h31z" />
    <glyph glyph-name="ccircumflex" unicode="&#x109;" horiz-adv-x="1132" 
d="M123 492q0 139 67 257t183 186.5t254 68.5q241 0 393 -195l-45 -37q-64 82 -153.5 127t-194.5 45q-185 0 -312 -131t-127 -321t126.5 -321.5t310.5 -131.5q105 0 196 45t154 127l45 -37q-73 -93 -174 -143.5t-221 -50.5q-133 -3 -250.5 67t-186 190t-65.5 255zM920 1151
h-56l-237 352l-240 -352h-55l278 446h31z" />
    <glyph glyph-name="Cdotaccent" unicode="&#x10a;" horiz-adv-x="1452" 
d="M117 676q-3 190 89.5 352t251.5 255t343 89q162 0 301.5 -70t232.5 -194l-49 -39q-86 115 -209.5 177.5t-273.5 62.5q-170 3 -313 -81.5t-224.5 -231t-79.5 -318.5q-3 -172 78.5 -319.5t225 -233t313.5 -82.5q150 0 273.5 62.5t209.5 177.5l49 -39q-93 -124 -232.5 -194
t-301.5 -70q-138 -3 -265.5 52t-220 149t-146.5 224t-52 271zM735 1651q0 29 20.5 49t49.5 20t49 -20t20 -49t-20 -49.5t-49 -20.5t-49.5 20.5t-20.5 49.5z" />
    <glyph glyph-name="cdotaccent" unicode="&#x10b;" horiz-adv-x="1132" 
d="M123 492q0 139 67 257t183 186.5t254 68.5q241 0 393 -195l-45 -37q-64 82 -153.5 127t-194.5 45q-185 0 -312 -131t-127 -321t126.5 -321.5t310.5 -131.5q105 0 196 45t154 127l45 -37q-73 -93 -174 -143.5t-221 -50.5q-133 -3 -250.5 67t-186 190t-65.5 255zM557 1364
q0 29 20.5 49.5t49.5 20.5t49 -20.5t20 -49.5t-20 -49.5t-49 -20.5t-49.5 20.5t-20.5 49.5z" />
    <glyph glyph-name="Ccaron" unicode="&#x10c;" horiz-adv-x="1452" 
d="M117 676q-3 190 89.5 352t251.5 255t343 89q162 0 301.5 -70t232.5 -194l-49 -39q-86 115 -209.5 177.5t-273.5 62.5q-170 3 -313 -81.5t-224.5 -231t-79.5 -318.5q-3 -172 78.5 -319.5t225 -233t313.5 -82.5q150 0 273.5 62.5t209.5 177.5l49 -39q-93 -124 -232.5 -194
t-301.5 -70q-138 -3 -265.5 52t-220 149t-146.5 224t-52 271zM1063 1864h55l-299 -381h-31l-299 381h56l260 -299z" />
    <glyph glyph-name="ccaron" unicode="&#x10d;" horiz-adv-x="1132" 
d="M123 492q0 139 67 257t183 186.5t254 68.5q241 0 393 -195l-45 -37q-64 82 -153.5 127t-194.5 45q-185 0 -312 -131t-127 -321t126.5 -321.5t310.5 -131.5q105 0 196 45t154 127l45 -37q-73 -93 -174 -143.5t-221 -50.5q-133 -3 -250.5 67t-186 190t-65.5 255zM864 1597
h56l-279 -446h-31l-278 446h55l240 -352z" />
    <glyph glyph-name="Dcaron" unicode="&#x10e;" horiz-adv-x="1429" 
d="M211 0v1352h367q173 0 313 -51t232 -141t141 -213.5t49 -268.5t-49 -268.5t-141 -215t-232 -143t-313 -51.5h-367zM276 59h302q156 0 283 48t210 132.5t127.5 196.5t44.5 242q0 131 -44.5 243t-127.5 194.5t-210 129.5t-283 47h-302v-1233zM836 1864h55l-299 -381h-31
l-299 381h55l261 -299z" />
    <glyph glyph-name="dcaron" unicode="&#x10f;" horiz-adv-x="1445" 
d="M1036 1536h62v-1536h-62v236q-51 -116 -167.5 -186t-254.5 -70q-135 0 -248.5 69t-178 186.5t-64.5 256.5q0 140 64.5 257.5t177.5 186t249 68.5q138 0 254.5 -70t167.5 -186v788zM1036 492q0 111 -34.5 199t-94 142t-134 82.5t-159.5 28.5q-185 0 -305.5 -129.5
t-120.5 -322.5q0 -190 122 -321.5t304 -131.5q84 0 159 28.5t134.5 83t94 142.5t34.5 199zM1327 1106l41 430h78l-66 -430h-53z" />
    <glyph glyph-name="Dcroat" unicode="&#x110;" horiz-adv-x="1429" 
d="M1313 678q0 -145 -49 -268.5t-141 -215t-232 -143t-313 -51.5h-367v588h-211v57h211v707h367q173 0 313 -51t232 -141t141 -213.5t49 -268.5zM1243 678q0 131 -44.5 243t-127.5 194.5t-210 129.5t-283 47h-302v-647h310v-57h-310v-529h302q156 0 283 48t210 132.5
t127.5 196.5t44.5 242z" />
    <glyph glyph-name="dslash" unicode="&#x111;" horiz-adv-x="1296" 
d="M1270 1294v-57h-176v-1237h-62v236q-51 -116 -167.5 -186t-254.5 -70q-135 0 -248.5 69t-178 186.5t-64.5 256.5q0 140 64.5 257.5t177.5 186t249 68.5q138 0 254.5 -70t167.5 -186v489h-471v57h471v242h62v-242h176zM1032 492q0 111 -34.5 199t-94 142t-134 82.5
t-159.5 28.5q-185 0 -305.5 -129.5t-120.5 -322.5q0 -190 122 -321.5t304 -131.5q84 0 159 28.5t134.5 83t94 142.5t34.5 199z" />
    <glyph glyph-name="Emacron" unicode="&#x112;" horiz-adv-x="1148" 
d="M211 0v1352h831v-60h-766v-526h603v-59h-603v-648h791v-59h-856zM338 1602v57h557v-57h-557z" />
    <glyph glyph-name="emacron" unicode="&#x113;" horiz-adv-x="1173" 
d="M1044 485h-856q0 -188 127.5 -317t309.5 -129q105 0 196 45t154 127l45 -37q-69 -91 -173 -142.5t-222 -51.5q-136 0 -251.5 68.5t-183 186.5t-67.5 257q0 138 65.5 256t178.5 187t247 69q119 0 218 -52.5t159 -153t60 -229.5q0 -26 -7 -84zM190 543h795q6 89 -22 165
t-80 127t-123 80t-150 29q-164 0 -284.5 -115.5t-135.5 -285.5zM338 1337v58h516v-58h-516z" />
    <glyph glyph-name="Ebreve" unicode="&#x114;" horiz-adv-x="1148" 
d="M211 0v1352h831v-60h-766v-526h603v-59h-603v-648h791v-59h-856zM340 1794v70h61v-66q0 -115 57.5 -178.5t157.5 -63.5t157.5 63.5t57.5 178.5v66h62v-70q0 -135 -75 -215t-202 -80t-201.5 80t-74.5 215z" />
    <glyph glyph-name="ebreve" unicode="&#x115;" horiz-adv-x="1173" 
d="M1044 485h-856q0 -188 127.5 -317t309.5 -129q105 0 196 45t154 127l45 -37q-69 -91 -173 -142.5t-222 -51.5q-136 0 -251.5 68.5t-183 186.5t-67.5 257q0 138 65.5 256t178.5 187t247 69q119 0 218 -52.5t159 -153t60 -229.5q0 -26 -7 -84zM190 543h795q6 89 -22 165
t-80 127t-123 80t-150 29q-164 0 -284.5 -115.5t-135.5 -285.5zM319 1473v69h62v-65q0 -115 57.5 -178.5t157.5 -63.5t157.5 63.5t57.5 178.5v65h61v-69q0 -135 -74.5 -215t-201.5 -80t-202 80t-75 215z" />
    <glyph glyph-name="Edotaccent" unicode="&#x116;" horiz-adv-x="1148" 
d="M211 0v1352h831v-60h-766v-526h603v-59h-603v-648h791v-59h-856zM547 1651q0 29 20 49t49 20t49.5 -20t20.5 -49t-20.5 -49.5t-49.5 -20.5t-49 20.5t-20 49.5z" />
    <glyph glyph-name="edotaccent" unicode="&#x117;" horiz-adv-x="1173" 
d="M1044 485h-856q0 -188 127.5 -317t309.5 -129q105 0 196 45t154 127l45 -37q-69 -91 -173 -142.5t-222 -51.5q-136 0 -251.5 68.5t-183 186.5t-67.5 257q0 138 65.5 256t178.5 187t247 69q119 0 218 -52.5t159 -153t60 -229.5q0 -26 -7 -84zM190 543h795q6 89 -22 165
t-80 127t-123 80t-150 29q-164 0 -284.5 -115.5t-135.5 -285.5zM526 1364q0 29 20.5 49.5t49.5 20.5t49.5 -20.5t20.5 -49.5t-20.5 -49.5t-49.5 -20.5t-49.5 20.5t-20.5 49.5z" />
    <glyph glyph-name="Eogonek" unicode="&#x118;" horiz-adv-x="1148" 
d="M211 0v1352h831v-60h-766v-526h603v-59h-603v-648h791v-59h-856zM748 -236q0 68 65 127t234 150l20 -41l-119 -76q-78 -50 -107.5 -81t-29.5 -72q0 -47 35.5 -75t95.5 -28q47 0 125 19v-56q-67 -20 -125 -20q-84 0 -139 41.5t-55 111.5z" />
    <glyph glyph-name="eogonek" unicode="&#x119;" horiz-adv-x="1173" 
d="M1044 485h-856q0 -188 127.5 -317t309.5 -129q105 0 196 45t154 127l45 -37q-69 -91 -173 -142.5t-222 -51.5q-136 0 -251.5 68.5t-183 186.5t-67.5 257q0 138 65.5 256t178.5 187t247 69q119 0 218 -52.5t159 -153t60 -229.5q0 -26 -7 -84zM190 543h795q6 89 -22 165
t-80 127t-123 80t-150 29q-164 0 -284.5 -115.5t-135.5 -285.5zM649 -236q0 46 19 89q18 40 75 106q58 67 203 215h74l-199 -221q-63 -69 -85.5 -106.5t-22.5 -75.5q0 -47 35.5 -75t95.5 -28q54 0 125 19v-56q-59 -20 -125 -20q-86 0 -140.5 42.5t-54.5 110.5z" />
    <glyph glyph-name="Ecaron" unicode="&#x11a;" horiz-adv-x="1148" 
d="M211 0v1352h831v-60h-766v-526h603v-59h-603v-648h791v-59h-856zM874 1864h56l-299 -381h-31l-299 381h55l260 -299z" />
    <glyph glyph-name="ecaron" unicode="&#x11b;" horiz-adv-x="1173" 
d="M1044 485h-856q0 -188 127.5 -317t309.5 -129q105 0 196 45t154 127l45 -37q-69 -91 -173 -142.5t-222 -51.5q-136 0 -251.5 68.5t-183 186.5t-67.5 257q0 138 65.5 256t178.5 187t247 69q119 0 218 -52.5t159 -153t60 -229.5q0 -26 -7 -84zM190 543h795q6 89 -22 165
t-80 127t-123 80t-150 29q-164 0 -284.5 -115.5t-135.5 -285.5zM834 1597h55l-279 -446h-30l-279 446h55l240 -352z" />
    <glyph glyph-name="Gcircumflex" unicode="&#x11c;" horiz-adv-x="1523" 
d="M117 676q-3 190 89.5 352t251.5 255t343 89q162 0 301.5 -70t232.5 -194l-49 -39q-86 115 -209.5 177.5t-273.5 62.5q-170 3 -313 -81.5t-224.5 -231t-79.5 -318.5q-4 -172 78 -319.5t226 -233t315 -82.5q167 0 305.5 75.5t218.5 209.5v258h-528v61h594v-330
q-90 -159 -248.5 -248t-345.5 -89q-186 -4 -345 90t-250.5 256t-88.5 350zM1114 1483h-55l-258 299l-260 -299h-56l299 381h31z" />
    <glyph glyph-name="gcircumflex" unicode="&#x11d;" horiz-adv-x="1314" 
d="M1051 983h61v-901q0 -216 -130.5 -343.5t-334.5 -127.5q-131 0 -249.5 52t-194.5 140l43 41q70 -80 177 -127t224 -47q182 0 293 110t111 302v168q-51 -110 -169.5 -180t-254.5 -70q-131 -3 -246 66.5t-181 186.5t-63 249q-3 132 63 249t181 186.5t246 66.5
q137 0 255 -69t169 -181v229zM1051 502q0 108 -35 194t-94 139t-133.5 81t-157.5 28q-185 0 -306.5 -128t-121.5 -314t121.5 -314.5t306.5 -128.5q84 0 158.5 28.5t133.5 82t93.5 139.5t34.5 193zM930 1151h-56l-237 352l-240 -352h-55l279 446h30z" />
    <glyph glyph-name="Gbreve" unicode="&#x11e;" horiz-adv-x="1523" 
d="M117 676q-3 190 89.5 352t251.5 255t343 89q162 0 301.5 -70t232.5 -194l-49 -39q-86 115 -209.5 177.5t-273.5 62.5q-170 3 -313 -81.5t-224.5 -231t-79.5 -318.5q-4 -172 78 -319.5t226 -233t315 -82.5q167 0 305.5 75.5t218.5 209.5v258h-528v61h594v-330
q-90 -159 -248.5 -248t-345.5 -89q-186 -4 -345 90t-250.5 256t-88.5 350zM524 1794v70h62v-66q0 -115 57.5 -178.5t157.5 -63.5t157.5 63.5t57.5 178.5v66h61v-70q0 -135 -74.5 -215t-201.5 -80t-202 80t-75 215z" />
    <glyph glyph-name="gbreve" unicode="&#x11f;" horiz-adv-x="1314" 
d="M1051 983h61v-901q0 -216 -130.5 -343.5t-334.5 -127.5q-131 0 -249.5 52t-194.5 140l43 41q70 -80 177 -127t224 -47q182 0 293 110t111 302v168q-51 -110 -169.5 -180t-254.5 -70q-131 -3 -246 66.5t-181 186.5t-63 249q-3 132 63 249t181 186.5t246 66.5
q137 0 255 -69t169 -181v229zM1051 502q0 108 -35 194t-94 139t-133.5 81t-157.5 28q-185 0 -306.5 -128t-121.5 -314t121.5 -314.5t306.5 -128.5q84 0 158.5 28.5t133.5 82t93.5 139.5t34.5 193zM360 1473v69h62v-65q0 -115 57.5 -178.5t157.5 -63.5t157.5 63.5t57.5 178.5
v65h61v-69q0 -135 -74.5 -215t-201.5 -80t-202 80t-75 215z" />
    <glyph glyph-name="Gdotaccent" unicode="&#x120;" horiz-adv-x="1523" 
d="M117 676q-3 190 89.5 352t251.5 255t343 89q162 0 301.5 -70t232.5 -194l-49 -39q-86 115 -209.5 177.5t-273.5 62.5q-170 3 -313 -81.5t-224.5 -231t-79.5 -318.5q-4 -172 78 -319.5t226 -233t315 -82.5q167 0 305.5 75.5t218.5 209.5v258h-528v61h594v-330
q-90 -159 -248.5 -248t-345.5 -89q-186 -4 -345 90t-250.5 256t-88.5 350zM731 1651q0 29 20.5 49t49.5 20t49 -20t20 -49t-20 -49.5t-49 -20.5t-49.5 20.5t-20.5 49.5z" />
    <glyph glyph-name="gdotaccent" unicode="&#x121;" horiz-adv-x="1314" 
d="M1051 983h61v-901q0 -216 -130.5 -343.5t-334.5 -127.5q-131 0 -249.5 52t-194.5 140l43 41q70 -80 177 -127t224 -47q182 0 293 110t111 302v168q-51 -110 -169.5 -180t-254.5 -70q-131 -3 -246 66.5t-181 186.5t-63 249q-3 132 63 249t181 186.5t246 66.5
q137 0 255 -69t169 -181v229zM1051 502q0 108 -35 194t-94 139t-133.5 81t-157.5 28q-185 0 -306.5 -128t-121.5 -314t121.5 -314.5t306.5 -128.5q84 0 158.5 28.5t133.5 82t93.5 139.5t34.5 193zM567 1364q0 29 20.5 49.5t49.5 20.5t49.5 -20.5t20.5 -49.5t-20.5 -49.5
t-49.5 -20.5t-49.5 20.5t-20.5 49.5z" />
    <glyph glyph-name="uni0122" unicode="&#x122;" horiz-adv-x="1523" 
d="M117 676q-3 190 89.5 352t251.5 255t343 89q162 0 301.5 -70t232.5 -194l-49 -39q-86 115 -209.5 177.5t-273.5 62.5q-170 3 -313 -81.5t-224.5 -231t-79.5 -318.5q-4 -172 78 -319.5t226 -233t315 -82.5q167 0 305.5 75.5t218.5 209.5v258h-528v61h594v-330
q-90 -159 -248.5 -248t-345.5 -89q-186 -4 -345 90t-250.5 256t-88.5 350zM735 -451l29 345h74l-50 -345h-53z" />
    <glyph glyph-name="uni0123" unicode="&#x123;" horiz-adv-x="1314" 
d="M1051 983h61v-901q0 -216 -130.5 -343.5t-334.5 -127.5q-131 0 -249.5 52t-194.5 140l43 41q70 -80 177 -127t224 -47q182 0 293 110t111 302v168q-51 -110 -169.5 -180t-254.5 -70q-131 -3 -246 66.5t-181 186.5t-63 249q-3 132 63 249t181 186.5t246 66.5
q137 0 255 -69t169 -181v229zM1051 502q0 108 -35 194t-94 139t-133.5 81t-157.5 28q-185 0 -306.5 -128t-121.5 -314t121.5 -314.5t306.5 -128.5q84 0 158.5 28.5t133.5 82t93.5 139.5t34.5 193zM596 1151l61 446h54l-41 -446h-74z" />
    <glyph glyph-name="Hcircumflex" unicode="&#x124;" horiz-adv-x="1441" 
d="M211 0v1352h65v-586h889v586h66v-1352h-66v707h-889v-707h-65zM1034 1483h-55l-258 299l-260 -299h-55l299 381h30z" />
    <glyph glyph-name="hcircumflex" unicode="&#x125;" horiz-adv-x="1128" 
d="M942 625v-625h-61v625q0 143 -80.5 231t-216.5 88q-140 0 -230 -90t-90 -229v-625h-61v1536h61v-711q48 85 131 132t191 47q164 0 260 -105t96 -274zM598 1667h-55l-258 299l-260 -299h-56l299 381h31z" />
    <glyph glyph-name="Hbar" unicode="&#x126;" horiz-adv-x="1454" 
d="M217 0v983h-217v57h217v312h66v-312h888v312h66v-312h217v-57h-217v-983h-66v586h-888v-586h-66zM283 645h888v338h-888v-338z" />
    <glyph glyph-name="hbar" unicode="&#x127;" horiz-adv-x="1128" 
d="M942 625v-625h-61v625q0 143 -80.5 231t-216.5 88q-140 0 -230 -90t-90 -229v-625h-61v1237h-176v57h176v242h61v-242h430v-57h-430v-412q48 85 131 132t191 47q164 0 260 -105t96 -274z" />
    <glyph glyph-name="Itilde" unicode="&#x128;" horiz-adv-x="487" 
d="M211 0v1352h65v-1352h-65zM266 1604l-80 53q-64 43 -102 43q-35 0 -54.5 -24.5t-19.5 -67.5v-43h-59q-2 8 -2 39q0 68 36 110.5t93 42.5q36 0 62 -11.5t81 -47.5l80 -53q64 -43 102 -43q35 0 54.5 24.5t19.5 67.5v43h60q2 -8 2 -39q0 -68 -36 -111t-93 -43q-36 0 -62 12
t-82 48z" />
    <glyph glyph-name="itilde" unicode="&#x129;" horiz-adv-x="466" 
d="M203 0v983h61v-983h-61zM238 1317l-43 51q-26 30 -42 41.5t-38 11.5q-68 0 -68 -100v-43h-59l-2 37q0 68 32.5 116t90.5 48q63 0 120 -70l43 -51q25 -29 42 -41t36 -12q68 0 68 100v43h59l2 -37q0 -68 -32.5 -116t-90.5 -48q-35 0 -61 16.5t-57 53.5z" />
    <glyph glyph-name="Imacron" unicode="&#x12a;" horiz-adv-x="487" 
d="M211 0v1352h65v-1352h-65zM-35 1602v57h557v-57h-557z" />
    <glyph glyph-name="imacron" unicode="&#x12b;" horiz-adv-x="466" 
d="M203 0v983h61v-983h-61zM37 1335v58h393v-58h-393z" />
    <glyph glyph-name="Ibreve" unicode="&#x12c;" horiz-adv-x="487" 
d="M211 0v1352h65v-1352h-65zM-33 1794v70h62v-66q0 -115 57.5 -178.5t157.5 -63.5t157.5 63.5t57.5 178.5v66h61v-70q0 -135 -74.5 -215t-201.5 -80t-202 80t-75 215z" />
    <glyph glyph-name="ibreve" unicode="&#x12d;" horiz-adv-x="466" 
d="M203 0v983h61v-983h-61zM-43 1473v69h61v-65q0 -115 57.5 -178.5t157.5 -63.5q101 0 158.5 63.5t57.5 178.5v65h61v-69q0 -135 -75 -215t-202 -80t-201.5 80t-74.5 215z" />
    <glyph glyph-name="Iogonek" unicode="&#x12e;" horiz-adv-x="487" 
d="M211 0v1352h65v-1352h-65zM-43 -236q0 67 66 127t233 150l20 -41l-118 -76q-79 -51 -108.5 -81.5t-29.5 -71.5q0 -47 36 -75t96 -28q46 0 124 19v-56q-67 -20 -124 -20q-84 0 -139.5 41.5t-55.5 111.5z" />
    <glyph glyph-name="iogonek" unicode="&#x12f;" horiz-adv-x="466" 
d="M203 0v983h61v-983h-61zM164 1364q0 29 20 49.5t49 20.5t49.5 -20.5t20.5 -49.5t-20.5 -49.5t-49.5 -20.5t-49 20.5t-20 49.5zM-55 -236q0 68 65 127q64 59 234 150l20 -41l-119 -76q-78 -50 -107.5 -81t-29.5 -72q0 -47 35.5 -75t95.5 -28q47 0 125 19v-56
q-67 -20 -125 -20q-84 0 -139 41.5t-55 111.5z" />
    <glyph glyph-name="Idot" unicode="&#x130;" horiz-adv-x="487" 
d="M211 0v1352h65v-1352h-65zM174 1651q0 29 20.5 49t49.5 20t49 -20t20 -49t-20 -49.5t-49 -20.5t-49.5 20.5t-20.5 49.5z" />
    <glyph glyph-name="dotlessi" unicode="&#x131;" horiz-adv-x="466" 
d="M203 0v983h61v-983h-61z" />
    <glyph glyph-name="IJ" unicode="&#x132;" horiz-adv-x="1226" 
d="M211 0v1352h65v-1352h-65zM549 0v59q94 -16 158 -16q119 0 181 54t62 179v1076h66v-1076q0 -149 -81 -222.5t-226 -73.5q-79 0 -160 20z" />
    <glyph glyph-name="ij" unicode="&#x133;" horiz-adv-x="933" 
d="M203 0v983h61v-983h-61zM164 1364q0 29 20 49.5t49 20.5t49.5 -20.5t20.5 -49.5t-20.5 -49.5t-49.5 -20.5t-49 20.5t-20 49.5zM350 -377v55q65 -10 99 -10q221 0 221 219v1096h61v-1096q0 -139 -73 -207.5t-205 -68.5q-54 0 -103 12zM631 1364q0 29 20 49.5t49 20.5
t49.5 -20.5t20.5 -49.5t-20.5 -49.5t-49.5 -20.5t-49 20.5t-20 49.5z" />
    <glyph glyph-name="Jcircumflex" unicode="&#x134;" horiz-adv-x="739" 
d="M61 0v59q94 -16 158 -16q119 0 181.5 54t62.5 179v1076h65v-1076q0 -149 -81 -222.5t-226 -73.5q-79 0 -160 20zM803 1483h-55l-259 299l-260 -299h-55l299 381h31z" />
    <glyph glyph-name="jcircumflex" unicode="&#x135;" horiz-adv-x="466" 
d="M-117 -377v55q65 -10 99 -10q221 0 221 219v1096h61v-1096q0 -139 -73 -207.5t-205 -68.5q-54 0 -103 12zM526 1151h-55l-238 352l-239 -352h-55l278 446h31z" />
    <glyph glyph-name="uni0136" unicode="&#x136;" horiz-adv-x="1224" 
d="M211 0v1352h65v-1352h-65zM406 735l737 -735h-88l-740 735l691 617h92zM510 -451l29 345h73l-49 -345h-53z" />
    <glyph glyph-name="uni0137" unicode="&#x137;" horiz-adv-x="948" 
d="M203 0v1536h61v-1536h-61zM387 551l520 -551h-82l-522 553l469 430h88zM408 -451l28 345h74l-49 -345h-53z" />
    <glyph glyph-name="Lacute" unicode="&#x139;" horiz-adv-x="1009" 
d="M211 0v1352h65v-1293h685v-59h-750zM215 1483l197 381h75v-11l-219 -370h-53z" />
    <glyph glyph-name="lacute" unicode="&#x13a;" horiz-adv-x="466" 
d="M203 0v1536h61v-1536h-61zM205 1667l196 381h76v-10l-219 -371h-53z" />
    <glyph glyph-name="uni013B" unicode="&#x13b;" horiz-adv-x="1009" 
d="M211 0v1352h65v-1293h685v-59h-750zM512 -451l29 345h73l-49 -345h-53z" />
    <glyph glyph-name="uni013C" unicode="&#x13c;" horiz-adv-x="466" 
d="M203 0v1536h61v-1536h-61zM168 -451l29 345h73l-49 -345h-53z" />
    <glyph glyph-name="Lcaron" unicode="&#x13d;" horiz-adv-x="1009" 
d="M211 0v1352h65v-1293h685v-59h-750zM754 1044l41 431h77l-65 -431h-53z" />
    <glyph glyph-name="lcaron" unicode="&#x13e;" horiz-adv-x="612" 
d="M203 0v1536h61v-1536h-61zM494 1106l41 430h77l-65 -430h-53z" />
    <glyph glyph-name="Ldot" unicode="&#x13f;" horiz-adv-x="1009" 
d="M211 0v1352h65v-1293h685v-59h-750zM680 737q0 36 23 59t55 23q34 0 58 -22.5t24 -59.5q0 -34 -24.5 -56t-57.5 -22q-32 0 -55 22t-23 56z" />
    <glyph glyph-name="ldot" unicode="&#x140;" horiz-adv-x="473" 
d="M203 0v1536h61v-1536h-61zM393 631q0 36 23 59t55 23q34 0 58 -22.5t24 -59.5q0 -34 -24.5 -56t-57.5 -22q-32 0 -55 22t-23 56z" />
    <glyph glyph-name="Lslash" unicode="&#x141;" horiz-adv-x="1009" 
d="M276 59h685v-59h-750v600l-170 -78v64l170 78v688h65v-666l494 225v-63l-494 -225v-564z" />
    <glyph glyph-name="lslash" unicode="&#x142;" horiz-adv-x="466" 
d="M440 915v-63l-176 -82v-770h-61v748l-176 -82v63l176 82v725h61v-702z" />
    <glyph glyph-name="Nacute" unicode="&#x143;" horiz-adv-x="1441" 
d="M1165 1352h66v-1372h-31l-924 1230v-1210h-65v1372h31l923 -1241v1221zM692 1483l197 381h76v-11l-220 -370h-53z" />
    <glyph glyph-name="nacute" unicode="&#x144;" horiz-adv-x="1128" 
d="M942 625v-625h-61v625q0 143 -80.5 231t-216.5 88q-140 0 -230 -90t-90 -229v-625h-61v983h61v-158q48 85 131 132t191 47q164 0 260 -105t96 -274zM555 1151l197 446h75v-10l-219 -436h-53z" />
    <glyph glyph-name="uni0145" unicode="&#x145;" horiz-adv-x="1441" 
d="M1165 1352h66v-1372h-31l-924 1230v-1210h-65v1372h31l923 -1241v1221zM655 -451l29 345h74l-49 -345h-54z" />
    <glyph glyph-name="uni0146" unicode="&#x146;" horiz-adv-x="1128" 
d="M942 625v-625h-61v625q0 143 -80.5 231t-216.5 88q-140 0 -230 -90t-90 -229v-625h-61v983h61v-158q48 85 131 132t191 47q164 0 260 -105t96 -274zM516 -451l29 345h73l-49 -345h-53z" />
    <glyph glyph-name="Ncaron" unicode="&#x147;" horiz-adv-x="1441" 
d="M1165 1352h66v-1372h-31l-924 1230v-1210h-65v1372h31l923 -1241v1221zM979 1864h55l-299 -381h-30l-299 381h55l260 -299z" />
    <glyph glyph-name="ncaron" unicode="&#x148;" horiz-adv-x="1128" 
d="M942 625v-625h-61v625q0 143 -80.5 231t-216.5 88q-140 0 -230 -90t-90 -229v-625h-61v983h61v-158q48 85 131 132t191 47q164 0 260 -105t96 -274zM819 1597h55l-278 -446h-31l-278 446h55l240 -352z" />
    <glyph glyph-name="Eng" unicode="&#x14a;" horiz-adv-x="1441" 
d="M1165 1352h66v-1465q0 -139 -73.5 -207.5t-205.5 -68.5q-52 0 -102 12v55q65 -10 98 -10q105 0 161 51.5t56 167.5v101l-889 1218v-1206h-65v1372h31l923 -1266v1246z" />
    <glyph glyph-name="eng" unicode="&#x14b;" horiz-adv-x="1128" 
d="M942 625v-738q0 -139 -73 -207.5t-205 -68.5q-54 0 -103 12v55q65 -10 98 -10q222 0 222 219v738q0 143 -80.5 231t-216.5 88q-140 0 -230 -90t-90 -229v-625h-61v983h61v-158q48 85 131 132t191 47q164 0 260 -105t96 -274z" />
    <glyph glyph-name="Omacron" unicode="&#x14c;" horiz-adv-x="1605" 
d="M117 676q-3 190 89.5 352t251.5 255t343 89q137 2 265 -52.5t221.5 -148t148.5 -224t53 -271.5q2 -141 -53 -271t-148.5 -224t-221.5 -149t-265 -52q-138 -3 -265.5 52t-220 149t-146.5 224t-52 271zM1419 678q2 127 -46 245t-131 203t-198 135t-241 48
q-168 3 -311.5 -81.5t-226 -231t-79.5 -318.5q-2 -173 79.5 -320t224.5 -232.5t313 -82.5q126 -2 241 48t198 135.5t131 204t46 247.5zM524 1602v57h557v-57h-557z" />
    <glyph glyph-name="omacron" unicode="&#x14d;" horiz-adv-x="1255" 
d="M123 492q-2 103 38 199t108 165t162.5 109.5t195.5 38.5q135 3 253 -66t186.5 -188.5t66.5 -257.5q0 -139 -68 -257t-185 -186.5t-255 -68.5q-134 -3 -251 66t-185.5 188.5t-65.5 257.5zM1067 492q0 191 -127.5 321.5t-312.5 130.5q-186 0 -312.5 -130t-126.5 -322
t126 -322.5t311 -130.5q186 0 314 132t128 321zM371 1337v58h516v-58h-516z" />
    <glyph glyph-name="Obreve" unicode="&#x14e;" horiz-adv-x="1605" 
d="M117 676q-3 190 89.5 352t251.5 255t343 89q137 2 265 -52.5t221.5 -148t148.5 -224t53 -271.5q2 -141 -53 -271t-148.5 -224t-221.5 -149t-265 -52q-138 -3 -265.5 52t-220 149t-146.5 224t-52 271zM1419 678q2 127 -46 245t-131 203t-198 135t-241 48
q-168 3 -311.5 -81.5t-226 -231t-79.5 -318.5q-2 -173 79.5 -320t224.5 -232.5t313 -82.5q126 -2 241 48t198 135.5t131 204t46 247.5zM526 1794v70h62v-66q0 -115 57.5 -178.5t157.5 -63.5t157.5 63.5t57.5 178.5v66h61v-70q0 -135 -74.5 -215t-201.5 -80t-202 80t-75 215z
" />
    <glyph glyph-name="obreve" unicode="&#x14f;" horiz-adv-x="1255" 
d="M123 492q-2 103 38 199t108 165t162.5 109.5t195.5 38.5q135 3 253 -66t186.5 -188.5t66.5 -257.5q0 -139 -68 -257t-185 -186.5t-255 -68.5q-134 -3 -251 66t-185.5 188.5t-65.5 257.5zM1067 492q0 191 -127.5 321.5t-312.5 130.5q-186 0 -312.5 -130t-126.5 -322
t126 -322.5t311 -130.5q186 0 314 132t128 321zM352 1473v69h62v-65q0 -115 57.5 -178.5t157.5 -63.5t157.5 63.5t57.5 178.5v65h61v-69q0 -135 -74.5 -215t-201.5 -80t-202 80t-75 215z" />
    <glyph glyph-name="Ohungarumlaut" unicode="&#x150;" horiz-adv-x="1605" 
d="M117 676q-3 190 89.5 352t251.5 255t343 89q137 2 265 -52.5t221.5 -148t148.5 -224t53 -271.5q2 -141 -53 -271t-148.5 -224t-221.5 -149t-265 -52q-138 -3 -265.5 52t-220 149t-146.5 224t-52 271zM1419 678q2 127 -46 245t-131 203t-198 135t-241 48
q-168 3 -311.5 -81.5t-226 -231t-79.5 -318.5q-2 -173 79.5 -320t224.5 -232.5t313 -82.5q126 -2 241 48t198 135.5t131 204t46 247.5zM543 1483l196 381h76v-11l-219 -370h-53zM961 1483l196 381h76v-11l-219 -370h-53z" />
    <glyph glyph-name="ohungarumlaut" unicode="&#x151;" horiz-adv-x="1255" 
d="M123 492q-2 103 38 199t108 165t162.5 109.5t195.5 38.5q135 3 253 -66t186.5 -188.5t66.5 -257.5q0 -139 -68 -257t-185 -186.5t-255 -68.5q-134 -3 -251 66t-185.5 188.5t-65.5 257.5zM1067 492q0 191 -127.5 321.5t-312.5 130.5q-186 0 -312.5 -130t-126.5 -322
t126 -322.5t311 -130.5q186 0 314 132t128 321zM403 1151l197 446h76v-10l-219 -436h-54zM780 1151l197 446h76v-10l-219 -436h-54z" />
    <glyph glyph-name="OE" unicode="&#x152;" horiz-adv-x="2357" 
d="M1485 59h790v-59h-856v387q-71 -182 -239 -295q-167 -112 -379 -112q-138 -3 -265.5 52t-220 149t-146.5 224t-52 271q-3 190 89.5 352t251.5 255t343 89q212 0 379 -112q168 -113 239 -295v387h832v-60h-766v-526h602v-59h-602v-648zM1419 678q1 128 -46.5 245
t-129.5 202.5t-197.5 135.5t-242.5 48q-170 3 -313 -81.5t-224.5 -231t-79.5 -318.5q-3 -172 78.5 -319.5t225 -233t313.5 -82.5q127 -2 242.5 48t197.5 135.5t129.5 204t46.5 247.5z" />
    <glyph glyph-name="oe" unicode="&#x153;" horiz-adv-x="2076" 
d="M1948 485h-836q0 -191 117.5 -318.5t298.5 -127.5q105 0 196 45t154 127l45 -37q-69 -91 -173 -142.5t-222 -51.5q-157 0 -277.5 87t-171.5 234q-55 -145 -176.5 -233t-277.5 -88q-133 -3 -250 67t-185.5 189.5t-66.5 255.5q-3 135 66 255t187 190t251 67
q156 0 276.5 -87.5t175.5 -232.5q52 145 169.5 232.5t269.5 87.5q183 0 309.5 -120.5t126.5 -314.5q0 -35 -6 -84zM1047 492q0 194 -118.5 323t-301.5 129q-185 0 -312 -131t-127 -321t126.5 -321.5t310.5 -131.5q121 0 218.5 60.5t150.5 164t53 228.5zM1114 543h774
q6 89 -22 165t-80 127t-123 80t-150 29q-162 0 -273 -113.5t-126 -287.5z" />
    <glyph glyph-name="Racute" unicode="&#x154;" horiz-adv-x="1245" 
d="M1198 0h-80l-479 637h-363v-637h-65v1352h448q180 0 285 -99.5t105 -257.5q0 -144 -88.5 -241.5t-241.5 -114.5zM276 1292v-596h379q155 0 240.5 81.5t85.5 215.5t-86 216.5t-240 82.5h-379zM512 1483l197 381h75v-11l-219 -370h-53z" />
    <glyph glyph-name="racute" unicode="&#x155;" horiz-adv-x="698" 
d="M662 983v-51h-48q-135 0 -242.5 -95t-107.5 -243v-594h-61v983h61v-188q50 93 140 142.5t200 49.5q12 0 58 -4zM274 1151l197 446h76v-10l-219 -436h-54z" />
    <glyph glyph-name="uni0156" unicode="&#x156;" horiz-adv-x="1245" 
d="M1198 0h-80l-479 637h-363v-637h-65v1352h448q180 0 285 -99.5t105 -257.5q0 -144 -88.5 -241.5t-241.5 -114.5zM276 1292v-596h379q155 0 240.5 81.5t85.5 215.5t-86 216.5t-240 82.5h-379zM557 -451l29 345h73l-49 -345h-53z" />
    <glyph glyph-name="uni0157" unicode="&#x157;" horiz-adv-x="698" 
d="M662 983v-51h-48q-135 0 -242.5 -95t-107.5 -243v-594h-61v983h61v-188q50 93 140 142.5t200 49.5q12 0 58 -4zM168 -451l29 345h73l-49 -345h-53z" />
    <glyph glyph-name="Rcaron" unicode="&#x158;" horiz-adv-x="1245" 
d="M1198 0h-80l-479 637h-363v-637h-65v1352h448q180 0 285 -99.5t105 -257.5q0 -144 -88.5 -241.5t-241.5 -114.5zM276 1292v-596h379q155 0 240.5 81.5t85.5 215.5t-86 216.5t-240 82.5h-379zM799 1864h55l-299 -381h-31l-299 381h56l260 -299z" />
    <glyph glyph-name="rcaron" unicode="&#x159;" horiz-adv-x="698" 
d="M662 983v-51h-48q-135 0 -242.5 -95t-107.5 -243v-594h-61v983h61v-188q50 93 140 142.5t200 49.5q12 0 58 -4zM539 1597h55l-279 -446h-30l-279 446h55l240 -352z" />
    <glyph glyph-name="Sacute" unicode="&#x15a;" horiz-adv-x="1136" 
d="M102 264l50 37q77 -122 187 -190t243 -68q148 0 240.5 77t92.5 206q0 60 -13 101.5t-49 77.5t-80.5 63t-125.5 67l-155 74q-104 51 -152 82q-141 91 -141 262q0 151 108 233q112 86 273 86q251 0 391 -205l-49 -39q-132 181 -338 181q-127 0 -222 -62q-94 -61 -94 -190
q3 -59 17.5 -100t50.5 -75t74 -57t112 -59l156 -74q110 -52 173.5 -99t98.5 -113t35 -154q0 -153 -115.5 -249.5t-289.5 -96.5q-151 0 -273 74t-205 210zM551 1483l197 381h75v-11l-219 -370h-53z" />
    <glyph glyph-name="sacute" unicode="&#x15b;" horiz-adv-x="931" 
d="M106 195l50 36q68 -97 145.5 -144.5t177.5 -47.5q108 0 177 52.5t69 146.5q-4 47 -17 79.5t-44.5 59t-64.5 44t-97 46.5l-86 39q-125 55 -182.5 111t-57.5 143q0 112 88 176q89 68 211 68q181 0 309 -158l-45 -41q-117 139 -268 139q-99 0 -164 -47.5t-65 -134.5
q5 -75 41 -108t143 -84q15 -7 23 -11l92 -41q128 -56 189 -117t61 -159q0 -121 -93 -193q-90 -69 -223 -69q-229 0 -369 215zM449 1151l196 446h76v-10l-219 -436h-53z" />
    <glyph glyph-name="Scircumflex" unicode="&#x15c;" horiz-adv-x="1136" 
d="M102 264l50 37q77 -122 187 -190t243 -68q148 0 240.5 77t92.5 206q0 60 -13 101.5t-49 77.5t-80.5 63t-125.5 67l-155 74q-104 51 -152 82q-141 91 -141 262q0 151 108 233q112 86 273 86q251 0 391 -205l-49 -39q-132 181 -338 181q-127 0 -222 -62q-94 -61 -94 -190
q3 -59 17.5 -100t50.5 -75t74 -57t112 -59l156 -74q110 -52 173.5 -99t98.5 -113t35 -154q0 -153 -115.5 -249.5t-289.5 -96.5q-151 0 -273 74t-205 210zM893 1483h-55l-258 299l-261 -299h-55l299 381h31z" />
    <glyph glyph-name="scircumflex" unicode="&#x15d;" horiz-adv-x="931" 
d="M106 195l50 36q68 -97 145.5 -144.5t177.5 -47.5q108 0 177 52.5t69 146.5q-4 47 -17 79.5t-44.5 59t-64.5 44t-97 46.5l-86 39q-125 55 -182.5 111t-57.5 143q0 112 88 176q89 68 211 68q181 0 309 -158l-45 -41q-117 139 -268 139q-99 0 -164 -47.5t-65 -134.5
q5 -75 41 -108t143 -84q15 -7 23 -11l92 -41q128 -56 189 -117t61 -159q0 -121 -93 -193q-90 -69 -223 -69q-229 0 -369 215zM768 1151h-55l-238 352l-239 -352h-56l279 446h30z" />
    <glyph glyph-name="Scedilla" unicode="&#x15e;" horiz-adv-x="1136" 
d="M102 264l50 37q77 -122 187 -190t243 -68q148 0 240.5 77t92.5 206q0 60 -13 101.5t-49 77.5t-80.5 63t-125.5 67l-155 74q-104 51 -152 82q-141 91 -141 262q0 151 108 233q112 86 273 86q251 0 391 -205l-49 -39q-132 181 -338 181q-127 0 -222 -62q-94 -61 -94 -190
q3 -59 17.5 -100t50.5 -75t74 -57t112 -59l156 -74q110 -52 173.5 -99t98.5 -113t35 -154q0 -153 -115.5 -249.5t-289.5 -96.5q-151 0 -273 74t-205 210zM354 -369v56q87 -19 127 -19q75 0 122.5 41.5t47.5 116.5q0 54 -25.5 93.5t-78.5 80.5l18 27q69 -30 110.5 -84
t41.5 -121q0 -90 -64 -150.5t-166 -60.5q-66 0 -133 20z" />
    <glyph glyph-name="scedilla" unicode="&#x15f;" horiz-adv-x="931" 
d="M106 195l50 36q68 -97 145.5 -144.5t177.5 -47.5q108 0 177 52.5t69 146.5q-4 47 -17 79.5t-44.5 59t-64.5 44t-97 46.5l-86 39q-125 55 -182.5 111t-57.5 143q0 112 88 176q89 68 211 68q181 0 309 -158l-45 -41q-117 139 -268 139q-99 0 -164 -47.5t-65 -134.5
q5 -75 41 -108t143 -84q15 -7 23 -11l92 -41q128 -56 189 -117t61 -159q0 -121 -93 -193q-90 -69 -223 -69q-229 0 -369 215zM262 -369v56q87 -19 127 -19q75 0 122.5 41.5t47.5 116.5q0 54 -25.5 93.5t-78.5 80.5l18 27q69 -30 110.5 -84t41.5 -121q0 -90 -64 -150.5
t-166 -60.5q-66 0 -133 20z" />
    <glyph glyph-name="Scaron" unicode="&#x160;" horiz-adv-x="1136" 
d="M102 264l50 37q77 -122 187 -190t243 -68q148 0 240.5 77t92.5 206q0 60 -13 101.5t-49 77.5t-80.5 63t-125.5 67l-155 74q-104 51 -152 82q-141 91 -141 262q0 151 108 233q112 86 273 86q251 0 391 -205l-49 -39q-132 181 -338 181q-127 0 -222 -62q-94 -61 -94 -190
q3 -59 17.5 -100t50.5 -75t74 -57t112 -59l156 -74q110 -52 173.5 -99t98.5 -113t35 -154q0 -153 -115.5 -249.5t-289.5 -96.5q-151 0 -273 74t-205 210zM838 1864h55l-299 -381h-31l-299 381h55l261 -299z" />
    <glyph glyph-name="scaron" unicode="&#x161;" horiz-adv-x="931" 
d="M106 195l50 36q68 -97 145.5 -144.5t177.5 -47.5q108 0 177 52.5t69 146.5q-4 47 -17 79.5t-44.5 59t-64.5 44t-97 46.5l-86 39q-125 55 -182.5 111t-57.5 143q0 112 88 176q89 68 211 68q181 0 309 -158l-45 -41q-117 139 -268 139q-99 0 -164 -47.5t-65 -134.5
q5 -75 41 -108t143 -84q15 -7 23 -11l92 -41q128 -56 189 -117t61 -159q0 -121 -93 -193q-90 -69 -223 -69q-229 0 -369 215zM713 1597h55l-279 -446h-30l-279 446h56l239 -352z" />
    <glyph glyph-name="uni0162" unicode="&#x162;" horiz-adv-x="1196" 
d="M565 0v1292h-510v60h1086v-60h-510v-1292h-66zM373 -369v56q87 -19 127 -19q75 0 122.5 41.5t47.5 116.5q0 54 -25.5 93t-79.5 81l19 27q69 -30 110 -84t41 -121q0 -90 -63.5 -150.5t-165.5 -60.5q-66 0 -133 20z" />
    <glyph glyph-name="uni0163" unicode="&#x163;" horiz-adv-x="716" 
d="M662 55v-55q-73 -20 -146 -20q-128 0 -202 69t-74 207v670h-177v57h177v287h61v-287h328v-57h-328v-670q0 -219 219 -219q57 0 142 18zM201 -369v56q87 -19 127 -19q75 0 122.5 41.5t47.5 116.5q0 54 -25.5 93t-79.5 81l19 27q69 -30 110 -84t41 -121q0 -90 -63.5 -150.5
t-165.5 -60.5q-66 0 -133 20z" />
    <glyph glyph-name="Tcaron" unicode="&#x164;" horiz-adv-x="1196" 
d="M565 0v1292h-510v60h1086v-60h-510v-1292h-66zM856 1864h55l-299 -381h-30l-299 381h55l260 -299z" />
    <glyph glyph-name="tcaron" unicode="&#x165;" horiz-adv-x="716" 
d="M662 55v-55q-73 -20 -146 -20q-128 0 -202 69t-74 207v670h-177v57h177v287h61v-287h328v-57h-328v-670q0 -219 219 -219q57 0 142 18zM489 1106l41 430h78l-65 -430h-54z" />
    <glyph glyph-name="Tbar" unicode="&#x166;" horiz-adv-x="1196" 
d="M565 0v586h-430v57h430v649h-510v60h1086v-60h-510v-649h430v-57h-430v-586h-66z" />
    <glyph glyph-name="tbar" unicode="&#x167;" horiz-adv-x="745" 
d="M680 55v-55q-73 -20 -145 -20q-128 0 -202.5 69t-74.5 207v227h-176v58h176v385h-176v57h176v287h61v-287h328v-57h-328v-385h328v-58h-328v-227q0 -219 220 -219q56 0 141 18z" />
    <glyph glyph-name="Utilde" unicode="&#x168;" horiz-adv-x="1388" 
d="M188 516v836h66v-836q0 -221 119.5 -347t322.5 -126q200 0 319.5 126t119.5 347v836h65v-836q0 -248 -136.5 -392t-367.5 -144q-235 0 -371.5 144t-136.5 392zM717 1604l-80 53q-64 43 -102 43q-35 0 -54.5 -24.5t-19.5 -67.5v-43h-60q-2 8 -2 39q0 68 36 110.5t93 42.5
q36 0 63 -12t81 -47l80 -53q64 -43 102 -43q35 0 54.5 24.5t19.5 67.5v43h59q2 -8 2 -39q0 -68 -36 -111t-93 -43q-35 0 -61 11.5t-82 48.5z" />
    <glyph glyph-name="utilde" unicode="&#x169;" horiz-adv-x="1112" 
d="M186 358v625h62v-625q0 -147 86.5 -233t222.5 -86q133 0 220 87t87 232v625h62v-625q0 -168 -106 -273t-263 -105q-159 0 -265 104t-106 274zM565 1315l-51 55q-26 29 -45 40t-43 11q-35 0 -52.5 -27.5t-17.5 -72.5v-43h-59q-2 8 -2 39q0 70 33.5 116t93.5 46
q65 0 127 -68l51 -55q26 -29 45 -40t43 -11q35 0 52.5 27.5t17.5 72.5v43h59q2 -8 2 -39q0 -70 -32.5 -116t-92.5 -46q-67 0 -129 68z" />
    <glyph glyph-name="Umacron" unicode="&#x16a;" horiz-adv-x="1388" 
d="M188 516v836h66v-836q0 -221 119.5 -347t322.5 -126q200 0 319.5 126t119.5 347v836h65v-836q0 -248 -136.5 -392t-367.5 -144q-235 0 -371.5 144t-136.5 392zM416 1602v57h557v-57h-557z" />
    <glyph glyph-name="umacron" unicode="&#x16b;" horiz-adv-x="1112" 
d="M186 358v625h62v-625q0 -147 86.5 -233t222.5 -86q133 0 220 87t87 232v625h62v-625q0 -168 -106 -273t-263 -105q-159 0 -265 104t-106 274zM299 1337v58h516v-58h-516z" />
    <glyph glyph-name="Ubreve" unicode="&#x16c;" horiz-adv-x="1388" 
d="M188 516v836h66v-836q0 -221 119.5 -347t322.5 -126q200 0 319.5 126t119.5 347v836h65v-836q0 -248 -136.5 -392t-367.5 -144q-235 0 -371.5 144t-136.5 392zM418 1794v70h61v-66q0 -115 57.5 -178.5t157.5 -63.5t157.5 63.5t57.5 178.5v66h62v-70q0 -135 -75 -215
t-202 -80t-201.5 80t-74.5 215z" />
    <glyph glyph-name="ubreve" unicode="&#x16d;" horiz-adv-x="1112" 
d="M186 358v625h62v-625q0 -147 86.5 -233t222.5 -86q133 0 220 87t87 232v625h62v-625q0 -168 -106 -273t-263 -105q-159 0 -265 104t-106 274zM281 1473v69h61v-65q0 -115 57.5 -178.5t157.5 -63.5t157.5 63.5t57.5 178.5v65h62v-69q0 -135 -75 -215t-202 -80t-201.5 80
t-74.5 215z" />
    <glyph glyph-name="Uring" unicode="&#x16e;" horiz-adv-x="1388" 
d="M188 516v836h66v-836q0 -221 119.5 -347t322.5 -126q200 0 319.5 126t119.5 347v836h65v-836q0 -248 -136.5 -392t-367.5 -144q-235 0 -371.5 144t-136.5 392zM494 1665q0 82 58 140.5t142 58.5t142.5 -58.5t58.5 -140.5t-58.5 -140.5t-142.5 -58.5t-142 58.5t-58 140.5z
M834 1665q0 60 -40 100.5t-100 40.5t-99.5 -40.5t-39.5 -100.5t39.5 -100.5t99.5 -40.5t100 40.5t40 100.5z" />
    <glyph glyph-name="uring" unicode="&#x16f;" horiz-adv-x="1112" 
d="M186 358v625h62v-625q0 -147 86.5 -233t222.5 -86q133 0 220 87t87 232v625h62v-625q0 -168 -106 -273t-263 -105q-159 0 -265 104t-106 274zM356 1364q0 82 58.5 140.5t142.5 58.5t142.5 -58.5t58.5 -140.5t-58.5 -140.5t-142.5 -58.5t-142.5 58.5t-58.5 140.5z
M696 1364q0 60 -39.5 100.5t-99.5 40.5t-99.5 -40.5t-39.5 -100.5t39.5 -100.5t99.5 -40.5t99.5 40.5t39.5 100.5z" />
    <glyph glyph-name="Uhungarumlaut" unicode="&#x170;" horiz-adv-x="1388" 
d="M188 516v836h66v-836q0 -221 119.5 -347t322.5 -126q200 0 319.5 126t119.5 347v836h65v-836q0 -248 -136.5 -392t-367.5 -144q-235 0 -371.5 144t-136.5 392zM434 1483l197 381h76v-11l-220 -370h-53zM852 1483l197 381h75v-11l-219 -370h-53z" />
    <glyph glyph-name="uhungarumlaut" unicode="&#x171;" horiz-adv-x="1112" 
d="M186 358v625h62v-625q0 -147 86.5 -233t222.5 -86q133 0 220 87t87 232v625h62v-625q0 -168 -106 -273t-263 -105q-159 0 -265 104t-106 274zM332 1151l196 446h76v-10l-219 -436h-53zM709 1151l196 446h76v-10l-219 -436h-53z" />
    <glyph glyph-name="Uogonek" unicode="&#x172;" horiz-adv-x="1388" 
d="M188 516v836h66v-836q0 -221 119.5 -347t322.5 -126q200 0 319.5 126t119.5 347v836h65v-836q0 -248 -136.5 -392t-367.5 -144q-235 0 -371.5 144t-136.5 392zM733 -236q0 46 19 89q18 40 75 106q58 67 203 215h74l-199 -221q-63 -69 -85.5 -106.5t-22.5 -75.5
q0 -47 35.5 -75t95.5 -28q54 0 125 19v-56q-59 -20 -125 -20q-86 0 -140.5 42.5t-54.5 110.5z" />
    <glyph glyph-name="uogonek" unicode="&#x173;" horiz-adv-x="1112" 
d="M551 -231q0 -101 127 -101q51 0 129 19v-56q-67 -20 -129 -20q-85 0 -138 40t-53 113q0 60 37 113.5t117 110.5q-47 -8 -84 -8q-159 0 -265 104t-106 274v625h62v-625q0 -147 86.5 -233t222.5 -86q133 0 220 87t87 232v625h62v-625q0 -85 -25 -149q-24 -58 -61 -101
t-121 -116l-43 -37q-71 -63 -98 -102t-27 -84z" />
    <glyph glyph-name="Wcircumflex" unicode="&#x174;" horiz-adv-x="2205" 
d="M2025 1352h68l-491 -1372h-31l-467 1267l-469 -1267h-31l-491 1372h67l441 -1250l466 1270h31l467 -1270zM1417 1483h-55l-258 299l-260 -299h-56l299 381h31z" />
    <glyph glyph-name="wcircumflex" unicode="&#x175;" horiz-adv-x="1722" 
d="M1581 983h68l-381 -1003h-31l-377 899l-375 -899h-30l-381 1003h67l328 -885l377 906h31l376 -906zM1155 1151h-55l-238 352l-239 -352h-56l279 446h31z" />
    <glyph glyph-name="Ycircumflex" unicode="&#x176;" horiz-adv-x="1249" 
d="M1128 1352l-471 -766v-586h-65v586l-471 766h69l435 -711l434 711h69zM938 1483h-55l-258 299l-260 -299h-56l299 381h31z" />
    <glyph glyph-name="ycircumflex" unicode="&#x177;" horiz-adv-x="1060" 
d="M920 983h67l-498 -1163q-47 -109 -116.5 -159t-167.5 -50q-67 0 -131 18v56q87 -17 127 -17q81 0 138 41.5t97 136.5l70 166l-432 971h67l398 -891zM823 1151h-55l-238 352l-239 -352h-55l278 446h31z" />
    <glyph glyph-name="Ydieresis" unicode="&#x178;" horiz-adv-x="1249" 
d="M1128 1352l-471 -766v-586h-65v586l-471 766h69l435 -711l434 711h69zM328 1651q0 29 20 49t49 20t49.5 -20t20.5 -49t-20.5 -49.5t-49.5 -20.5t-49 20.5t-20 49.5zM780 1651q0 29 20.5 49t49.5 20t49.5 -20t20.5 -49t-20.5 -49.5t-49.5 -20.5t-49.5 20.5t-20.5 49.5z
" />
    <glyph glyph-name="Zacute" unicode="&#x179;" horiz-adv-x="1208" 
d="M186 59h940v-59h-1040v25l938 1267h-848v60h948v-25zM582 1483l196 381h76v-11l-219 -370h-53z" />
    <glyph glyph-name="zacute" unicode="&#x17a;" horiz-adv-x="915" 
d="M170 57h670v-57h-762v25l659 901h-612v57h704v-25zM453 1151l196 446h76v-10l-219 -436h-53z" />
    <glyph glyph-name="Zdotaccent" unicode="&#x17b;" horiz-adv-x="1208" 
d="M186 59h940v-59h-1040v25l938 1267h-848v60h948v-25zM541 1651q0 29 20 49t49 20t49.5 -20t20.5 -49t-20.5 -49.5t-49.5 -20.5t-49 20.5t-20 49.5z" />
    <glyph glyph-name="zdotaccent" unicode="&#x17c;" horiz-adv-x="915" 
d="M170 57h670v-57h-762v25l659 901h-612v57h704v-25zM410 1364q0 29 20 49.5t49 20.5t49.5 -20.5t20.5 -49.5t-20.5 -49.5t-49.5 -20.5t-49 20.5t-20 49.5z" />
    <glyph glyph-name="Zcaron" unicode="&#x17d;" horiz-adv-x="1208" 
d="M186 59h940v-59h-1040v25l938 1267h-848v60h948v-25zM868 1864h56l-299 -381h-31l-299 381h55l260 -299z" />
    <glyph glyph-name="zcaron" unicode="&#x17e;" horiz-adv-x="915" 
d="M170 57h670v-57h-762v25l659 901h-612v57h704v-25zM717 1597h55l-278 -446h-31l-279 446h56l239 -352z" />
    <glyph glyph-name="uni018F" unicode="&#x18f;" horiz-adv-x="1495" 
d="M1378 680q2 -141 -49.5 -271.5t-138.5 -225.5t-208 -150.5t-251 -52.5q-122 -2 -233.5 40t-197 117.5t-135.5 190.5t-48 250q0 34 6 102h1186v4q2 127 -43 244t-122.5 201t-184.5 133t-224 47q-155 0 -289 -63.5t-219 -176.5l-49 39q92 123 242 193.5t317 70.5
q131 2 251.5 -53t206 -149t135.5 -222.5t48 -267.5zM1307 621h-1121q-2 -10 -2 -50q0 -157 75.5 -278.5t200.5 -185.5t275 -64q109 -2 211 43t178 123t125.5 185.5t57.5 226.5z" />
    <glyph glyph-name="florin" unicode="&#x192;" horiz-adv-x="892" 
d="M868 1362v-53q-55 6 -88 6q-108 0 -165 -50t-70 -169l-37 -297h237v-58h-243l-92 -737q-34 -276 -291 -276q-36 0 -94 10v53q56 -6 88 -6q114 0 167.5 51t67.5 168l92 737h-209v58h215l37 297q35 276 291 276q36 0 94 -10z" />
    <glyph glyph-name="uni01D4" unicode="&#x1d4;" horiz-adv-x="1112" 
d="M186 358v625h62v-625q0 -147 86.5 -233t222.5 -86q133 0 220 87t87 232v625h62v-625q0 -168 -106 -273t-263 -105q-159 0 -265 104t-106 274zM795 1597h55l-279 -446h-30l-279 446h55l240 -352z" />
    <glyph glyph-name="AEacute" unicode="&#x1fc;" horiz-adv-x="1630" 
d="M1042 59h506v-59h-565l-63 360h-623l-186 -360h-70l704 1352h779v-60h-703l94 -526h445v-59h-434zM760 1260l-432 -840h581zM776 1483l197 381h76v-11l-220 -370h-53z" />
    <glyph glyph-name="aeacute" unicode="&#x1fd;" horiz-adv-x="1859" 
d="M1731 469h-857q6 -183 132 -306.5t305 -123.5q105 0 196 45t154 127l45 -37q-69 -91 -173 -142.5t-222 -51.5q-149 0 -271 79t-184 213q-35 -133 -149 -213q-113 -79 -263 -79q-139 0 -239 71q-99 74 -99 207q0 124 91 196t245 72h367v101q0 153 -79.5 235t-217.5 82
q-96 0 -170.5 -43.5t-138.5 -128.5l-45 37q145 195 358 195q137 0 229.5 -73t116.5 -206q62 128 179 203.5t259 75.5q119 0 217.5 -52t159 -153t60.5 -232q0 -31 -6 -98zM877 526h794q12 179 -100.5 298.5t-278.5 119.5q-165 0 -285.5 -121.5t-129.5 -296.5zM809 358v111
h-365q-133 0 -202.5 -53t-69.5 -152q0 -106 79.5 -165.5t197.5 -59.5q145 0 252.5 93t107.5 226zM856 1151l197 446h75v-10l-219 -436h-53z" />
    <glyph glyph-name="Oslashacute" unicode="&#x1fe;" horiz-adv-x="1605" 
d="M1499 1329l-184 -184q174 -200 174 -469q2 -141 -53 -271t-148.5 -224t-221.5 -149t-265 -52q-134 0 -254 47.5t-213 136.5l-184 -184l-44 43l185 184q-174 200 -174 469q-3 190 89.5 352t251.5 255t343 89q134 0 255.5 -48t215.5 -136l184 184zM186 678q0 -249 152 -424
l889 889q-180 166 -424 166q-170 3 -313 -81.5t-224.5 -231t-79.5 -318.5zM1419 678q0 246 -151 420l-889 -889q180 -166 424 -166q127 -2 242.5 48t197.5 135.5t129.5 204t46.5 247.5zM774 1483l197 381h76v-11l-220 -370h-53z" />
    <glyph glyph-name="oslashacute" unicode="&#x1ff;" horiz-adv-x="1284" 
d="M1153 961l-131 -134q125 -141 125 -335q3 -135 -67 -255t-189 -190t-252 -67q-194 0 -334 131l-131 -131l-43 43l131 131q-125 144 -125 338q-3 135 66 255t187 190t251 67q195 0 340 -132l129 132zM203 492q0 -166 102 -295l633 632q-127 115 -297 115
q-185 0 -311.5 -131t-126.5 -321zM1081 492q0 168 -102 292l-633 -632q125 -113 293 -113q186 0 314 132t128 321zM616 1151l197 446h76v-10l-219 -436h-54z" />
    <glyph glyph-name="uni0218" unicode="&#x218;" horiz-adv-x="1136" 
d="M102 264l50 37q77 -122 187 -190t243 -68q148 0 240.5 77t92.5 206q0 60 -13 101.5t-49 77.5t-80.5 63t-125.5 67l-155 74q-104 51 -152 82q-141 91 -141 262q0 151 108 233q112 86 273 86q251 0 391 -205l-49 -39q-132 181 -338 181q-127 0 -222 -62q-94 -61 -94 -190
q3 -59 17.5 -100t50.5 -75t74 -57t112 -59l156 -74q110 -52 173.5 -99t98.5 -113t35 -154q0 -153 -115.5 -249.5t-289.5 -96.5q-151 0 -273 74t-205 210zM514 -451l29 345h73l-49 -345h-53z" />
    <glyph glyph-name="uni0219" unicode="&#x219;" horiz-adv-x="931" 
d="M106 195l50 36q68 -97 145.5 -144.5t177.5 -47.5q108 0 177 52.5t69 146.5q-4 47 -17 79.5t-44.5 59t-64.5 44t-97 46.5l-86 39q-125 55 -182.5 111t-57.5 143q0 112 88 176q89 68 211 68q181 0 309 -158l-45 -41q-117 139 -268 139q-99 0 -164 -47.5t-65 -134.5
q5 -75 41 -108t143 -84q15 -7 23 -11l92 -41q128 -56 189 -117t61 -159q0 -121 -93 -193q-90 -69 -223 -69q-229 0 -369 215zM422 -451l29 345h73l-49 -345h-53z" />
    <glyph glyph-name="uni021A" unicode="&#x21a;" horiz-adv-x="1196" 
d="M565 0v1292h-510v60h1086v-60h-510v-1292h-66zM532 -451l29 345h74l-49 -345h-54z" />
    <glyph glyph-name="uni021B" unicode="&#x21b;" horiz-adv-x="716" 
d="M662 55v-55q-73 -20 -146 -20q-128 0 -202 69t-74 207v670h-177v57h177v287h61v-287h328v-57h-328v-670q0 -219 219 -219q57 0 142 18zM360 -451l29 345h74l-49 -345h-54z" />
    <glyph glyph-name="uni0237" unicode="&#x237;" horiz-adv-x="466" 
d="M-117 -377v55q65 -10 99 -10q221 0 221 219v1096h61v-1096q0 -139 -73 -207.5t-205 -68.5q-54 0 -103 12z" />
    <glyph glyph-name="uni0259" unicode="&#x259;" horiz-adv-x="1173" 
d="M1051 492q0 -214 -138.5 -363t-343.5 -149q-90 0 -171 31t-142 86t-97 137.5t-36 179.5q0 34 6 84h856q0 191 -121 318.5t-305 127.5q-110 0 -204 -45t-156 -127l-45 37q69 92 175.5 143.5t229.5 51.5q135 3 249.5 -66t179.5 -188t63 -258zM983 440h-795q-8 -118 44 -211
t142 -141.5t199 -48.5q165 0 280 114.5t130 286.5z" />
    <glyph glyph-name="circumflex" unicode="&#x2c6;" horiz-adv-x="1228" 
d="M907 1151h-55l-238 352l-239 -352h-56l279 446h31z" />
    <glyph glyph-name="caron" unicode="&#x2c7;" horiz-adv-x="1228" 
d="M852 1597h55l-278 -446h-31l-279 446h56l239 -352z" />
    <glyph glyph-name="breve" unicode="&#x2d8;" horiz-adv-x="1228" 
d="M338 1473v69h61v-65q0 -115 57.5 -178.5t157.5 -63.5t157.5 63.5t57.5 178.5v65h62v-69q0 -135 -75 -215t-202 -80t-201.5 80t-74.5 215z" />
    <glyph glyph-name="dotaccent" unicode="&#x2d9;" horiz-adv-x="1228" 
d="M545 1364q0 29 20 49.5t49 20.5t49.5 -20.5t20.5 -49.5t-20.5 -49.5t-49.5 -20.5t-49 20.5t-20 49.5z" />
    <glyph glyph-name="ring" unicode="&#x2da;" horiz-adv-x="1228" 
d="M414 1364q0 82 58 140.5t142 58.5t142.5 -58.5t58.5 -140.5t-58.5 -140.5t-142.5 -58.5t-142 58.5t-58 140.5zM754 1364q0 60 -40 100.5t-100 40.5t-99.5 -40.5t-39.5 -100.5t39.5 -100.5t99.5 -40.5t100 40.5t40 100.5z" />
    <glyph glyph-name="ogonek" unicode="&#x2db;" horiz-adv-x="1228" 
d="M455 -236q0 68 65 127q64 59 234 150l20 -41l-119 -76q-78 -50 -107.5 -81t-29.5 -72q0 -47 35.5 -75t95.5 -28q47 0 125 19v-56q-67 -20 -125 -20q-84 0 -139 41.5t-55 111.5z" />
    <glyph glyph-name="tilde" unicode="&#x2dc;" horiz-adv-x="1228" 
d="M623 1315l-52 55q-26 29 -45 40t-43 11q-69 0 -69 -100v-43h-60q-2 8 -2 39q0 70 33.5 116t93.5 46q65 0 127 -68l51 -55q26 -29 45 -40t43 -11q35 0 52.5 27.5t17.5 72.5v43h59q3 -12 3 -39q0 -70 -32.5 -116t-92.5 -46q-67 0 -129 68z" />
    <glyph glyph-name="hungarumlaut" unicode="&#x2dd;" horiz-adv-x="1228" 
d="M289 1151l196 446h76v-10l-219 -436h-53zM666 1151l196 446h76v-10l-219 -436h-53z" />
    <glyph glyph-name="gravecomb" unicode="&#x300;" horiz-adv-x="0" 
d="M-430 1151l-219 436v10h76l196 -446h-53z" />
    <glyph glyph-name="acutecomb" unicode="&#x301;" horiz-adv-x="0" 
d="M-649 1151l196 446h76v-10l-219 -436h-53z" />
    <glyph glyph-name="uni0302" unicode="&#x302;" horiz-adv-x="0" 
d="M-219 1151h-55l-238 352l-240 -352h-55l279 446h30z" />
    <glyph glyph-name="tildecomb" unicode="&#x303;" horiz-adv-x="0" 
d="M-504 1315l-51 55q-26 29 -45 40t-43 11q-35 0 -52.5 -27.5t-17.5 -72.5v-43h-59q-2 8 -2 39q0 70 33.5 116t93.5 46q65 0 127 -68l51 -55q26 -29 45 -40t43 -11q35 0 52.5 27.5t17.5 72.5v43h59q2 -8 2 -39q0 -70 -32.5 -116t-92.5 -46q-67 0 -129 68z" />
    <glyph glyph-name="uni0304" unicode="&#x304;" horiz-adv-x="0" 
d="M-770 1337v58h516v-58h-516z" />
    <glyph glyph-name="uni0306" unicode="&#x306;" horiz-adv-x="0" 
d="M-788 1473v69h61v-65q0 -115 57.5 -178.5t157.5 -63.5t157.5 63.5t57.5 178.5v65h61v-69q0 -135 -74.5 -215t-201.5 -80t-201.5 80t-74.5 215z" />
    <glyph glyph-name="uni0307" unicode="&#x307;" horiz-adv-x="0" 
d="M-582 1364q0 29 20.5 49.5t49.5 20.5t49.5 -20.5t20.5 -49.5t-20.5 -49.5t-49.5 -20.5t-49.5 20.5t-20.5 49.5z" />
    <glyph glyph-name="uni0308" unicode="&#x308;" horiz-adv-x="0" 
d="M-778 1364q0 29 20 49.5t49 20.5t49.5 -20.5t20.5 -49.5t-20.5 -49.5t-49.5 -20.5t-49 20.5t-20 49.5zM-387 1364q0 29 20.5 49.5t49.5 20.5t49 -20.5t20 -49.5t-20 -49.5t-49 -20.5t-49.5 20.5t-20.5 49.5z" />
    <glyph glyph-name="uni030A" unicode="&#x30a;" horiz-adv-x="0" 
d="M-713 1364q0 82 58.5 140.5t142.5 58.5t142.5 -58.5t58.5 -140.5t-58.5 -140.5t-142.5 -58.5t-142.5 58.5t-58.5 140.5zM-373 1364q0 60 -39.5 100.5t-99.5 40.5t-99.5 -40.5t-39.5 -100.5t39.5 -100.5t99.5 -40.5t99.5 40.5t39.5 100.5z" />
    <glyph glyph-name="uni030B" unicode="&#x30b;" horiz-adv-x="0" 
d="M-838 1151l197 446h76v-10l-219 -436h-54zM-461 1151l197 446h76v-10l-220 -436h-53z" />
    <glyph glyph-name="uni030C" unicode="&#x30c;" horiz-adv-x="0" 
d="M-274 1597h55l-279 -446h-30l-279 446h55l240 -352z" />
    <glyph glyph-name="uni0326" unicode="&#x326;" horiz-adv-x="0" 
d="M-563 -451l28 345h74l-49 -345h-53z" />
    <glyph glyph-name="uni0327" unicode="&#x327;" horiz-adv-x="0" 
d="M-694 -369v56q87 -19 127 -19q75 0 122.5 41.5t47.5 116.5q0 54 -25.5 93t-79.5 81l19 27q69 -30 110 -84t41 -121q0 -90 -63.5 -150.5t-165.5 -60.5q-66 0 -133 20z" />
    <glyph glyph-name="uni0328" unicode="&#x328;" horiz-adv-x="0" 
d="M-672 -236q0 67 66 127t233 150l21 -41l-119 -76q-78 -50 -107.5 -81t-29.5 -72q0 -47 35.5 -75t95.5 -28q47 0 125 19v-56q-67 -20 -125 -20q-84 0 -139.5 41.5t-55.5 111.5z" />
    <glyph glyph-name="tonos" unicode="&#x384;" horiz-adv-x="1024" 
d="M432 1151l80 446h78v-10l-103 -436h-55z" />
    <glyph glyph-name="dieresistonos" unicode="&#x385;" horiz-adv-x="1024" 
d="M469 1151l41 446h78v-10l-64 -436h-55zM195 1364q0 29 20 49.5t49 20.5t49.5 -20.5t20.5 -49.5t-20.5 -49.5t-49.5 -20.5t-49 20.5t-20 49.5zM688 1364q0 29 20.5 49.5t49.5 20.5t49 -20.5t20 -49.5t-20 -49.5t-49 -20.5t-49.5 20.5t-20.5 49.5z" />
    <glyph glyph-name="Alphatonos" unicode="&#x386;" horiz-adv-x="1361" 
d="M1202 0l-149 358h-746l-147 -358h-68l574 1372h30l574 -1372h-68zM680 1257l-348 -839h696zM164 922l41 430h78l-66 -430h-53z" />
    <glyph glyph-name="anoteleia" unicode="&#x387;" horiz-adv-x="573" 
d="M207 631q0 36 23 59t55 23q34 0 58 -22.5t24 -59.5q0 -34 -24.5 -56t-57.5 -22q-32 0 -55 22t-23 56z" />
    <glyph glyph-name="Epsilontonos" unicode="&#x388;" horiz-adv-x="1148" 
d="M211 0v1352h831v-60h-766v-526h603v-59h-603v-648h791v-59h-856zM-119 922l41 430h78l-66 -430h-53z" />
    <glyph glyph-name="Etatonos" unicode="&#x389;" horiz-adv-x="1441" 
d="M211 0v1352h65v-586h889v586h66v-1352h-66v707h-889v-707h-65zM-119 922l41 430h78l-66 -430h-53z" />
    <glyph glyph-name="Iotatonos" unicode="&#x38a;" horiz-adv-x="487" 
d="M211 0v1352h65v-1352h-65zM-119 922l41 430h78l-66 -430h-53z" />
    <glyph glyph-name="Omicrontonos" unicode="&#x38c;" horiz-adv-x="1605" 
d="M117 676q-3 190 89.5 352t251.5 255t343 89q137 2 265 -52.5t221.5 -148t148.5 -224t53 -271.5q2 -141 -53 -271t-148.5 -224t-221.5 -149t-265 -52q-138 -3 -265.5 52t-220 149t-146.5 224t-52 271zM1419 678q2 127 -46 245t-131 203t-198 135t-241 48
q-168 3 -311.5 -81.5t-226 -231t-79.5 -318.5q-2 -173 79.5 -320t224.5 -232.5t313 -82.5q126 -2 241 48t198 135.5t131 204t46 247.5zM-59 922l41 430h77l-65 -430h-53z" />
    <glyph glyph-name="Upsilontonos" unicode="&#x38e;" horiz-adv-x="1249" 
d="M1128 1352l-471 -766v-586h-65v586l-471 766h69l435 -711l434 711h69zM-162 922l41 430h78l-66 -430h-53z" />
    <glyph glyph-name="Omegatonos" unicode="&#x38f;" horiz-adv-x="1626" 
d="M1090 59h389v-59h-523v57q474 226 474 639q0 173 -80 313t-221.5 220t-315.5 80q-175 0 -316 -79.5t-220.5 -219t-79.5 -312.5q0 -416 473 -641v-57h-523v59h388q-408 246 -408 637q-2 140 51 266t144.5 216.5t219.5 143t269 50.5q141 2 269.5 -50.5t221 -143t146 -217
t51.5 -265.5q0 -195 -101 -351.5t-308 -285.5zM-59 922l41 430h77l-65 -430h-53z" />
    <glyph glyph-name="iotadieresistonos" unicode="&#x390;" horiz-adv-x="585" 
d="M195 256v727h61v-727q0 -219 178 -219q56 0 141 18v-55q-73 -20 -145 -20q-115 0 -175 71t-60 205zM184 1151l41 446h78v-10l-63 -436h-56zM-90 1364q0 29 20.5 49.5t49.5 20.5t49 -20.5t20 -49.5t-20 -49.5t-49 -20.5t-49.5 20.5t-20.5 49.5zM403 1364q0 29 20.5 49.5
t49.5 20.5t49.5 -20.5t20.5 -49.5t-20.5 -49.5t-49.5 -20.5t-49.5 20.5t-20.5 49.5z" />
    <glyph glyph-name="Alpha" unicode="&#x391;" horiz-adv-x="1361" 
d="M1202 0l-149 358h-746l-147 -358h-68l574 1372h30l574 -1372h-68zM680 1257l-348 -839h696z" />
    <glyph glyph-name="Beta" unicode="&#x392;" horiz-adv-x="1249" 
d="M1147 383q0 -171 -111.5 -277t-304.5 -106h-520v1352h455q163 0 255.5 -88t92.5 -232q0 -97 -47.5 -170.5t-135.5 -111.5q150 -24 233 -123t83 -244zM659 1294l-383 -2v-526h383q138 0 212.5 72t74.5 192q0 121 -73 193t-214 71zM1079 381q0 144 -94 235t-258 91h-451
v-648h451q164 0 258 89.5t94 232.5z" />
    <glyph glyph-name="Gamma" unicode="&#x393;" horiz-adv-x="1009" 
d="M211 0v1352h750v-60h-685v-1292h-65z" />
    <glyph glyph-name="uni0394" unicode="&#x394;" horiz-adv-x="1361" 
d="M696 1372l564 -1347v-25h-1158v25l564 1347h30zM680 1257l-498 -1198h998z" />
    <glyph glyph-name="Epsilon" unicode="&#x395;" horiz-adv-x="1148" 
d="M211 0v1352h831v-60h-766v-526h603v-59h-603v-648h791v-59h-856z" />
    <glyph glyph-name="Zeta" unicode="&#x396;" horiz-adv-x="1208" 
d="M186 59h940v-59h-1040v25l938 1267h-848v60h948v-25z" />
    <glyph glyph-name="Eta" unicode="&#x397;" horiz-adv-x="1441" 
d="M211 0v1352h65v-586h889v586h66v-1352h-66v707h-889v-707h-65z" />
    <glyph glyph-name="Theta" unicode="&#x398;" horiz-adv-x="1605" 
d="M117 676q-3 190 89.5 352t251.5 255t343 89q137 2 265 -52.5t221.5 -148t148.5 -224t53 -271.5q2 -141 -53 -271t-148.5 -224t-221.5 -149t-265 -52q-138 -3 -265.5 52t-220 149t-146.5 224t-52 271zM1419 678q1 128 -46.5 245t-129.5 202.5t-197.5 135.5t-242.5 48
q-170 3 -313 -81.5t-224.5 -231t-79.5 -318.5q-3 -172 78.5 -319.5t225 -233t313.5 -82.5q127 -2 242.5 48t197.5 135.5t129.5 204t46.5 247.5zM391 637v59h803v-59h-803z" />
    <glyph glyph-name="Iota" unicode="&#x399;" horiz-adv-x="487" 
d="M211 0v1352h65v-1352h-65z" />
    <glyph glyph-name="Kappa" unicode="&#x39a;" horiz-adv-x="1224" 
d="M211 0v1352h65v-1352h-65zM406 735l737 -735h-88l-740 735l691 617h92z" />
    <glyph glyph-name="Lambda" unicode="&#x39b;" horiz-adv-x="1361" 
d="M1270 0h-68l-522 1257l-520 -1257h-68l574 1372h30z" />
    <glyph glyph-name="Mu" unicode="&#x39c;" horiz-adv-x="1601" 
d="M1360 1372h31v-1372h-66v1198l-508 -745h-31l-510 745v-1198h-65v1372h31l559 -823z" />
    <glyph glyph-name="Nu" unicode="&#x39d;" horiz-adv-x="1441" 
d="M1165 1352h66v-1372h-31l-924 1230v-1210h-65v1372h31l923 -1241v1221z" />
    <glyph glyph-name="Xi" unicode="&#x39e;" horiz-adv-x="1228" 
d="M82 1292v60h1065v-60h-1065zM248 655v60h733v-60h-733zM82 0v59h1065v-59h-1065z" />
    <glyph glyph-name="Omicron" unicode="&#x39f;" horiz-adv-x="1605" 
d="M117 676q-3 190 89.5 352t251.5 255t343 89q137 2 265 -52.5t221.5 -148t148.5 -224t53 -271.5q2 -141 -53 -271t-148.5 -224t-221.5 -149t-265 -52q-138 -3 -265.5 52t-220 149t-146.5 224t-52 271zM1419 678q2 127 -46 245t-131 203t-198 135t-241 48
q-168 3 -311.5 -81.5t-226 -231t-79.5 -318.5q-2 -173 79.5 -320t224.5 -232.5t313 -82.5q126 -2 241 48t198 135.5t131 204t46 247.5z" />
    <glyph glyph-name="Pi" unicode="&#x3a0;" horiz-adv-x="1380" 
d="M211 0v1352h958v-1352h-65v1292h-828v-1292h-65z" />
    <glyph glyph-name="Rho" unicode="&#x3a1;" horiz-adv-x="1140" 
d="M211 0v1352h448q180 0 285 -99.5t105 -257.5q0 -161 -105 -259.5t-285 -98.5h-383v-637h-65zM276 696h379q155 0 240.5 81.5t85.5 215.5t-86 216.5t-240 82.5h-379v-596z" />
    <glyph glyph-name="Sigma" unicode="&#x3a3;" horiz-adv-x="1112" 
d="M213 59h817v-59h-917v25l526 667l-526 635v25h893v-60h-789l488 -585v-25z" />
    <glyph glyph-name="Tau" unicode="&#x3a4;" horiz-adv-x="1196" 
d="M565 0v1292h-510v60h1086v-60h-510v-1292h-66z" />
    <glyph glyph-name="Upsilon" unicode="&#x3a5;" horiz-adv-x="1249" 
d="M1128 1352l-471 -766v-586h-65v586l-471 766h69l435 -711l434 711h69z" />
    <glyph glyph-name="Phi" unicode="&#x3a6;" horiz-adv-x="1638" 
d="M1522 666q0 -267 -185 -436t-485 -169v-139h-66v139q-300 0 -484.5 169t-184.5 436q0 279 182.5 450.5t486.5 171.5v139h66v-139q304 0 487 -171.5t183 -450.5zM786 125v1100q-279 0 -439.5 -151.5t-160.5 -407.5q0 -243 162.5 -392t437.5 -149zM1452 666
q0 256 -160.5 407.5t-439.5 151.5v-1100q275 0 437.5 149t162.5 392z" />
    <glyph glyph-name="Chi" unicode="&#x3a7;" horiz-adv-x="1185" 
d="M1104 0h-76l-434 641l-436 -641h-76l475 696l-440 656h76l403 -604l397 604h76l-436 -658z" />
    <glyph glyph-name="Psi" unicode="&#x3a8;" horiz-adv-x="1458" 
d="M696 0v322q-259 0 -415 141q-158 146 -158 416v473h65v-473q0 -241 136.5 -368.5t371.5 -127.5v969h66v-969q235 0 371.5 127.5t136.5 368.5v473h65v-473q0 -271 -157 -416q-156 -141 -416 -141v-322h-66z" />
    <glyph glyph-name="uni03A9" unicode="&#x3a9;" horiz-adv-x="1626" 
d="M1090 59h389v-59h-523v57q474 226 474 639q0 173 -80 313t-221.5 220t-315.5 80q-175 0 -316 -79.5t-220.5 -219t-79.5 -312.5q0 -416 473 -641v-57h-523v59h388q-408 246 -408 637q-2 140 51 266t144.5 216.5t219.5 143t269 50.5q141 2 269.5 -50.5t221 -143t146 -217
t51.5 -265.5q0 -195 -101 -351.5t-308 -285.5z" />
    <glyph glyph-name="Iotadieresis" unicode="&#x3aa;" horiz-adv-x="487" 
d="M211 0v1352h65v-1352h-65zM-53 1651q0 29 20 49t49 20t49.5 -20t20.5 -49t-20.5 -49.5t-49.5 -20.5t-49 20.5t-20 49.5zM399 1651q0 29 20.5 49t49.5 20t49.5 -20t20.5 -49t-20.5 -49.5t-49.5 -20.5t-49.5 20.5t-20.5 49.5z" />
    <glyph glyph-name="Upsilondieresis" unicode="&#x3ab;" horiz-adv-x="1249" 
d="M1128 1352l-471 -766v-586h-65v586l-471 766h69l435 -711l434 711h69zM328 1651q0 29 20 49t49 20t49.5 -20t20.5 -49t-20.5 -49.5t-49.5 -20.5t-49 20.5t-20 49.5zM780 1651q0 29 20.5 49t49.5 20t49.5 -20t20.5 -49t-20.5 -49.5t-49.5 -20.5t-49.5 20.5t-20.5 49.5z
" />
    <glyph glyph-name="alphatonos" unicode="&#x3ac;" horiz-adv-x="1323" 
d="M1270 55v-55q-36 -8 -72 -8q-84 0 -131 52t-47 163v24q-49 -115 -162.5 -183t-251.5 -68q-134 0 -245 68.5t-174.5 186.5t-63.5 259q0 139 62.5 256t174 185.5t246.5 68.5q143 0 260.5 -75.5t161.5 -197.5q3 98 12 252h62l-8 -160q-13 -239 -13 -317v-299
q0 -158 125 -158q24 0 64 6zM1020 492q0 107 -33.5 194.5t-90.5 143t-131 85t-157 29.5q-182 0 -301 -130t-119 -320q0 -193 119 -324t301 -131q82 0 156 30t131.5 85.5t91 143t33.5 194.5zM580 1151l79 446h78v-10l-102 -436h-55z" />
    <glyph glyph-name="epsilontonos" unicode="&#x3ad;" horiz-adv-x="1017" 
d="M858 209l47 -33q-66 -100 -160.5 -148t-230.5 -48q-186 0 -289.5 73.5t-103.5 206.5q0 93 54.5 157.5t152.5 84.5q-82 23 -126 80.5t-44 142.5q0 125 101.5 202t268.5 77q117 0 209 -42.5t142 -117.5l-45 -37q-43 66 -122.5 101.5t-183.5 35.5q-140 0 -223.5 -60.5
t-83.5 -162.5q0 -88 72 -139.5t196 -51.5h220v-57h-205q-318 0 -318 -213q0 -106 85.5 -163.5t240.5 -57.5q125 0 205.5 39.5t140.5 130.5zM516 1151l80 446h78v-10l-103 -436h-55z" />
    <glyph glyph-name="etatonos" unicode="&#x3ae;" horiz-adv-x="1167" 
d="M981 625v-994h-61v994q0 146 -81 232.5t-216 86.5q-140 0 -230 -90t-90 -229v-625h-61v776q0 158 -127 158l-62 -2v51q36 8 76 8q71 0 116.5 -43t55.5 -127q48 87 131.5 135t192.5 48q164 0 260 -102.5t96 -276.5zM594 1151l80 446h78v-10l-103 -436h-55z" />
    <glyph glyph-name="iotatonos" unicode="&#x3af;" horiz-adv-x="585" 
d="M195 256v727h61v-727q0 -219 178 -219q56 0 141 18v-55q-73 -20 -145 -20q-115 0 -175 71t-60 205zM197 1151l79 446h78v-10l-102 -436h-55z" />
    <glyph glyph-name="upsilondieresistonos" unicode="&#x3b0;" horiz-adv-x="1134" 
d="M186 379v604h62v-604q0 -153 88 -246.5t231 -93.5t231.5 93.5t88.5 246.5v604h61v-604q0 -186 -102 -292.5t-279 -106.5t-279 106.5t-102 292.5zM526 1151l41 446h78v-10l-63 -436h-56zM252 1364q0 29 20.5 49.5t49.5 20.5t49 -20.5t20 -49.5t-20 -49.5t-49 -20.5
t-49.5 20.5t-20.5 49.5zM745 1364q0 29 20.5 49.5t49.5 20.5t49.5 -20.5t20.5 -49.5t-20.5 -49.5t-49.5 -20.5t-49.5 20.5t-20.5 49.5z" />
    <glyph glyph-name="alpha" unicode="&#x3b1;" horiz-adv-x="1323" 
d="M1270 55v-55q-36 -8 -72 -8q-84 0 -131 52t-47 163v24q-49 -115 -162.5 -183t-251.5 -68q-134 0 -245 68.5t-174.5 186.5t-63.5 259q0 139 62.5 256t174 185.5t246.5 68.5q143 0 260.5 -75.5t161.5 -197.5q3 98 12 252h62l-8 -160q-13 -239 -13 -317v-299
q0 -158 125 -158q24 0 64 6zM1020 492q0 107 -33.5 194.5t-90.5 143t-131 85t-157 29.5q-182 0 -301 -130t-119 -320q0 -193 119 -324t301 -131q82 0 156 30t131.5 85.5t91 143t33.5 194.5z" />
    <glyph glyph-name="beta" unicode="&#x3b2;" horiz-adv-x="1212" 
d="M1090 426q0 -194 -129 -320t-330 -126q-104 0 -201 36t-166 99v-484h-61v1524q0 173 110.5 286t280.5 113q161 0 267 -103t106 -259q0 -121 -60.5 -209t-167.5 -127q162 -35 256.5 -150.5t94.5 -279.5zM1024 424q0 175 -115.5 284t-300.5 109h-178v57h148
q146 0 234.5 86.5t88.5 227.5q0 137 -84.5 222t-220.5 85q-148 0 -240 -94t-92 -246v-962q63 -72 160.5 -113t206.5 -41q178 0 284 106q109 109 109 279z" />
    <glyph glyph-name="gamma" unicode="&#x3b3;" horiz-adv-x="1019" 
d="M946 983l-405 -1010v-342h-62v349l-405 1003h67l369 -934l369 934h67z" />
    <glyph glyph-name="delta" unicode="&#x3b4;" horiz-adv-x="1230" 
d="M1108 489q0 -226 -136.5 -367.5t-355.5 -141.5q-218 0 -355.5 139.5t-137.5 359.5t137 360t354 140q78 0 160 -29l-602 561v25h885v-57h-760l567 -529q129 -120 187 -221q57 -96 57 -240zM1042 479q0 189 -122 315t-306 126q-183 0 -304.5 -126t-121.5 -315t121.5 -314.5
t304.5 -125.5q184 0 306 125.5t122 314.5z" />
    <glyph glyph-name="epsilon" unicode="&#x3b5;" horiz-adv-x="1017" 
d="M858 209l47 -33q-66 -100 -160.5 -148t-230.5 -48q-186 0 -289.5 73.5t-103.5 206.5q0 93 54.5 157.5t152.5 84.5q-82 23 -126 80.5t-44 142.5q0 125 101.5 202t268.5 77q117 0 209 -42.5t142 -117.5l-45 -37q-43 66 -122.5 101.5t-183.5 35.5q-140 0 -223.5 -60.5
t-83.5 -162.5q0 -88 72 -139.5t196 -51.5h220v-57h-205q-318 0 -318 -213q0 -106 85.5 -163.5t240.5 -57.5q125 0 205.5 39.5t140.5 130.5z" />
    <glyph glyph-name="zeta" unicode="&#x3b6;" horiz-adv-x="862" 
d="M862 1511l-356 -512q-176 -249 -246 -387q-72 -138 -72 -241q0 -121 71.5 -194.5t223.5 -108.5l72 -17q133 -31 194.5 -94.5t61.5 -169.5q0 -85 -41 -156h-65q40 76 40 156q0 84 -47.5 131.5t-158.5 73.5l-72 16q-176 38 -260 127t-84 236q0 81 31 166q36 86 98 190
q40 66 205 309l303 443h-686v57h788v-25z" />
    <glyph glyph-name="eta" unicode="&#x3b7;" horiz-adv-x="1167" 
d="M981 625v-994h-61v994q0 146 -81 232.5t-216 86.5q-140 0 -230 -90t-90 -229v-625h-61v776q0 158 -127 158l-62 -2v51q36 8 76 8q71 0 116.5 -43t55.5 -127q48 87 131.5 135t192.5 48q164 0 260 -102.5t96 -276.5z" />
    <glyph glyph-name="theta" unicode="&#x3b8;" horiz-adv-x="1224" 
d="M1096 768q0 -379 -133 -583.5t-351 -204.5t-350.5 204.5t-132.5 583.5t132.5 583.5t350.5 204.5t351 -204.5t133 -583.5zM195 801h835q-6 327 -123 511.5t-295 184.5t-294.5 -184.5t-122.5 -511.5zM1030 743h-835q3 -330 121 -517t296 -187q179 0 297 187t121 517z" />
    <glyph glyph-name="iota" unicode="&#x3b9;" horiz-adv-x="585" 
d="M195 256v727h61v-727q0 -219 178 -219q56 0 141 18v-55q-73 -20 -145 -20q-115 0 -175 71t-60 205z" />
    <glyph glyph-name="kappa" unicode="&#x3ba;" horiz-adv-x="937" 
d="M203 0v983h61v-983h-61zM389 528l508 -528h-82l-512 530l485 453h89z" />
    <glyph glyph-name="lambda" unicode="&#x3bb;" horiz-adv-x="1081" 
d="M1071 51v-51q-30 -6 -63 -6q-118 0 -170 143l-287 783l-420 -920h-68l459 997l-121 326q-34 93 -77 134.5t-119 41.5q-26 0 -78 -10v55q40 12 82 12q90 0 148.5 -48.5t99.5 -157.5l436 -1190q23 -61 51 -86t72 -25q41 0 55 2z" />
    <glyph glyph-name="uni03BC" unicode="&#x3bc;" horiz-adv-x="1183" 
d="M1130 55v-55q-36 -8 -71 -8q-75 0 -120.5 43t-55.5 125q-44 -86 -126 -133t-186 -47q-102 0 -180.5 45.5t-126.5 130.5v-525h-61v1352h61v-606q0 -147 87 -242.5t220 -95.5q137 0 222 94q88 94 88 244v606h61v-766q0 -168 125 -168q23 0 63 6z" />
    <glyph glyph-name="nu" unicode="&#x3bd;" horiz-adv-x="1060" 
d="M920 983h67l-440 -1003h-31l-442 1003h67l389 -895z" />
    <glyph glyph-name="xi" unicode="&#x3be;" horiz-adv-x="952" 
d="M291 1153q0 -133 91.5 -231.5t227.5 -98.5h213v-57h-245q-170 0 -268.5 -97.5t-98.5 -265.5q0 -137 86.5 -223t251.5 -112l96 -17q256 -44 256 -264q0 -85 -41 -156h-65q41 77 41 156q0 87 -49 136.5t-158 68.5l-105 16q-181 29 -280 136t-99 264q0 158 81.5 261
t234.5 138q-113 43 -174.5 135.5t-61.5 210.5q0 100 48 188t133 138h-261v57h766v-57h-303q-100 0 -173.5 -46t-108.5 -119t-35 -161z" />
    <glyph glyph-name="omicron" unicode="&#x3bf;" horiz-adv-x="1255" 
d="M123 492q-2 103 38 199t108 165t162.5 109.5t195.5 38.5q135 3 253 -66t186.5 -188.5t66.5 -257.5q0 -139 -68 -257t-185 -186.5t-255 -68.5q-134 -3 -251 66t-185.5 188.5t-65.5 257.5zM1067 492q0 191 -127.5 321.5t-312.5 130.5q-186 0 -312.5 -130t-126.5 -322
t126 -322.5t311 -130.5q186 0 314 132t128 321z" />
    <glyph glyph-name="pi" unicode="&#x3c0;" horiz-adv-x="1187" 
d="M236 0v922h-175v61h1065v-61h-174v-922h-61v922h-594v-922h-61z" />
    <glyph glyph-name="rho" unicode="&#x3c1;" horiz-adv-x="1277" 
d="M1155 494q0 -214 -141.5 -364t-343.5 -150q-142 0 -257 71t-165 187v-607h-62v861q0 224 132 368t339 144q213 0 355.5 -146.5t142.5 -363.5zM1090 492q0 195 -122.5 323.5t-308.5 128.5t-298.5 -122.5t-112.5 -325.5t116 -330t300 -127q183 0 304.5 129t121.5 324z" />
    <glyph glyph-name="uni03C2" unicode="&#x3c2;" horiz-adv-x="1069" 
d="M817 -213q0 85 -44.5 132t-149.5 73l-117 28q-184 44 -283.5 167t-99.5 307q0 220 135 365t342 145q256 0 404 -195l-46 -37q-135 172 -354 172q-180 0 -298 -128t-118 -322q0 -163 88.5 -268.5t255.5 -147.5l117 -29q122 -29 178 -91.5t56 -170.5q0 -85 -41 -156h-66
q41 77 41 156z" />
    <glyph glyph-name="sigma" unicode="&#x3c3;" horiz-adv-x="1280" 
d="M1260 983v-61h-406q123 -57 193.5 -172t70.5 -256q0 -217 -143.5 -365.5t-353.5 -148.5q-101 -1 -194 38.5t-160.5 107.5t-106.5 163t-37 198q0 207 145 351.5t355 144.5h637zM623 924q-187 0 -311 -124t-124 -313q0 -192 124 -320t309 -128q184 0 308 130.5t124 322.5
q0 187 -122 309.5t-308 122.5z" />
    <glyph glyph-name="tau" unicode="&#x3c4;" horiz-adv-x="944" 
d="M889 922h-422v-666q0 -219 219 -219q56 0 141 18v-55q-73 -20 -145 -20q-130 0 -203 73t-73 203v666h-365v61h848v-61z" />
    <glyph glyph-name="upsilon" unicode="&#x3c5;" horiz-adv-x="1134" 
d="M186 379v604h62v-604q0 -153 88 -246.5t231 -93.5t231.5 93.5t88.5 246.5v604h61v-604q0 -186 -102 -292.5t-279 -106.5t-279 106.5t-102 292.5z" />
    <glyph glyph-name="phi" unicode="&#x3c6;" horiz-adv-x="1443" 
d="M1321 489q0 -229 -156.5 -369t-412.5 -140v-349h-62v349q-254 0 -410.5 140.5t-156.5 368.5q0 229 157 372t410 143v348h62v-348q253 0 411 -143t158 -372zM690 37v909q-228 0 -365 -125.5t-137 -331.5q0 -203 137 -327.5t365 -124.5zM1255 489q0 203 -138.5 330
t-364.5 127v-909q227 0 365 124.5t138 327.5z" />
    <glyph glyph-name="chi" unicode="&#x3c7;" horiz-adv-x="974" 
d="M1001 -317v-52q-47 -6 -65 -6q-65 0 -107.5 33t-76.5 102l-258 519l-338 -648h-68l375 707l-227 491q-26 56 -55.5 80.5t-78.5 24.5l-57 -2v51q46 6 64 6q68 0 108.5 -31.5t73.5 -105.5l211 -461l313 592h66l-349 -655l273 -543q29 -57 60.5 -80.5t80.5 -23.5q43 0 55 2z
" />
    <glyph glyph-name="psi" unicode="&#x3c8;" horiz-adv-x="1421" 
d="M680 -369v349q-218 0 -356 133.5t-138 345.5v524h62v-524q0 -185 120.5 -302.5t311.5 -117.5v1313h61v-1313q192 0 312.5 117.5t120.5 302.5v524h61v-524q0 -212 -138 -345.5t-356 -133.5v-349h-61z" />
    <glyph glyph-name="omega" unicode="&#x3c9;" horiz-adv-x="1572" 
d="M1450 463q0 -221 -98.5 -352t-264.5 -131q-116 0 -192.5 58.5t-108.5 170.5q-32 -112 -108.5 -170.5t-192.5 -58.5q-166 0 -264 131t-98 352q0 192 77 328.5t224 203.5l27 -55q-263 -133 -263 -477q0 -192 80.5 -308t214.5 -116q124 0 198.5 89.5t74.5 238.5v268h61v-268
q0 -149 74.5 -238.5t198.5 -89.5q133 0 213.5 116t80.5 308q0 344 -262 477l27 55q147 -67 224 -203.5t77 -328.5z" />
    <glyph glyph-name="iotadieresis" unicode="&#x3ca;" horiz-adv-x="585" 
d="M195 256v727h61v-727q0 -219 178 -219q56 0 141 18v-55q-73 -20 -145 -20q-115 0 -175 71t-60 205zM-10 1364q0 29 20 49.5t49 20.5t49.5 -20.5t20.5 -49.5t-20.5 -49.5t-49.5 -20.5t-49 20.5t-20 49.5zM319 1364q0 29 20.5 49.5t49.5 20.5t49.5 -20.5t20.5 -49.5
t-20.5 -49.5t-49.5 -20.5t-49.5 20.5t-20.5 49.5z" />
    <glyph glyph-name="upsilondieresis" unicode="&#x3cb;" horiz-adv-x="1134" 
d="M186 379v604h62v-604q0 -153 88 -246.5t231 -93.5t231.5 93.5t88.5 246.5v604h61v-604q0 -186 -102 -292.5t-279 -106.5t-279 106.5t-102 292.5zM301 1364q0 29 20.5 49.5t49.5 20.5t49 -20.5t20 -49.5t-20 -49.5t-49 -20.5t-49.5 20.5t-20.5 49.5zM692 1364
q0 29 20.5 49.5t49.5 20.5t49 -20.5t20 -49.5t-20 -49.5t-49 -20.5t-49.5 20.5t-20.5 49.5z" />
    <glyph glyph-name="omicrontonos" unicode="&#x3cc;" horiz-adv-x="1255" 
d="M123 492q-2 103 38 199t108 165t162.5 109.5t195.5 38.5q135 3 253 -66t186.5 -188.5t66.5 -257.5q0 -139 -68 -257t-185 -186.5t-255 -68.5q-134 -3 -251 66t-185.5 188.5t-65.5 257.5zM1067 492q0 191 -127.5 321.5t-312.5 130.5q-186 0 -312.5 -130t-126.5 -322
t126 -322.5t311 -130.5q186 0 314 132t128 321zM600 1151l80 446h78v-10l-103 -436h-55z" />
    <glyph glyph-name="upsilontonos" unicode="&#x3cd;" horiz-adv-x="1134" 
d="M186 379v604h62v-604q0 -153 88 -246.5t231 -93.5t231.5 93.5t88.5 246.5v604h61v-604q0 -186 -102 -292.5t-279 -106.5t-279 106.5t-102 292.5zM539 1151l79 446h78v-10l-102 -436h-55z" />
    <glyph glyph-name="omegatonos" unicode="&#x3ce;" horiz-adv-x="1572" 
d="M1450 463q0 -221 -98.5 -352t-264.5 -131q-116 0 -192.5 58.5t-108.5 170.5q-32 -112 -108.5 -170.5t-192.5 -58.5q-166 0 -264 131t-98 352q0 192 77 328.5t224 203.5l27 -55q-263 -133 -263 -477q0 -192 80.5 -308t214.5 -116q124 0 198.5 89.5t74.5 238.5v268h61v-268
q0 -149 74.5 -238.5t198.5 -89.5q133 0 213.5 116t80.5 308q0 344 -262 477l27 55q147 -67 224 -203.5t77 -328.5zM758 1151l80 446h77v-10l-102 -436h-55z" />
    <glyph glyph-name="uni0400" unicode="&#x400;" horiz-adv-x="1148" 
d="M211 0v1352h831v-60h-766v-526h603v-59h-603v-648h791v-59h-856zM590 1483l-219 370v11h75l197 -381h-53z" />
    <glyph glyph-name="uni0401" unicode="&#x401;" horiz-adv-x="1148" 
d="M211 0v1352h831v-60h-766v-526h603v-59h-603v-648h791v-59h-856zM319 1651q0 29 20.5 49t49.5 20t49.5 -20t20.5 -49t-20.5 -49.5t-49.5 -20.5t-49.5 20.5t-20.5 49.5zM772 1651q0 29 20.5 49t49.5 20t49 -20t20 -49t-20 -49.5t-49 -20.5t-49.5 20.5t-20.5 49.5z" />
    <glyph glyph-name="uni0402" unicode="&#x402;" horiz-adv-x="1492" 
d="M963 -20l-11 53q186 28 284.5 117t98.5 256q0 171 -107.5 263.5t-293.5 92.5q-193 0 -344 -82v-680h-66v1292h-469v60h1065v-60h-530v-551q145 82 346 82q217 0 341 -109.5t124 -310.5q0 -183 -119 -291t-319 -132z" />
    <glyph glyph-name="uni0403" unicode="&#x403;" horiz-adv-x="1009" 
d="M211 0v1352h750v-60h-685v-1292h-65zM477 1483l197 381h76v-11l-220 -370h-53z" />
    <glyph glyph-name="uni0404" unicode="&#x404;" horiz-adv-x="1452" 
d="M1286 283l49 -39q-93 -124 -232.5 -194t-301.5 -70q-138 -3 -265.5 52t-220 149t-146.5 224t-52 271q-3 190 89.5 352t251.5 255t343 89q162 0 301.5 -70t232.5 -194l-49 -39q-86 115 -209.5 177.5t-273.5 62.5q-165 0 -302 -76t-220 -209.5t-93 -298.5h734v-59h-736
q2 -172 84 -315.5t223 -225.5t310 -82q150 0 273.5 62.5t209.5 177.5z" />
    <glyph glyph-name="uni0405" unicode="&#x405;" horiz-adv-x="1136" 
d="M102 264l50 37q77 -122 187 -190t243 -68q148 0 240.5 77t92.5 206q0 60 -13 101.5t-49 77.5t-80.5 63t-125.5 67l-155 74q-104 51 -152 82q-141 91 -141 262q0 151 108 233q112 86 273 86q251 0 391 -205l-49 -39q-132 181 -338 181q-127 0 -222 -62q-94 -61 -94 -190
q3 -59 17.5 -100t50.5 -75t74 -57t112 -59l156 -74q110 -52 173.5 -99t98.5 -113t35 -154q0 -153 -115.5 -249.5t-289.5 -96.5q-151 0 -273 74t-205 210z" />
    <glyph glyph-name="uni0406" unicode="&#x406;" horiz-adv-x="487" 
d="M211 0v1352h65v-1352h-65z" />
    <glyph glyph-name="uni0407" unicode="&#x407;" horiz-adv-x="487" 
d="M211 0v1352h65v-1352h-65zM-53 1651q0 29 20 49t49 20t49.5 -20t20.5 -49t-20.5 -49.5t-49.5 -20.5t-49 20.5t-20 49.5zM399 1651q0 29 20.5 49t49.5 20t49.5 -20t20.5 -49t-20.5 -49.5t-49.5 -20.5t-49.5 20.5t-20.5 49.5z" />
    <glyph glyph-name="uni0408" unicode="&#x408;" horiz-adv-x="739" 
d="M61 0v59q94 -16 158 -16q119 0 181.5 54t62.5 179v1076h65v-1076q0 -149 -81 -222.5t-226 -73.5q-79 0 -160 20z" />
    <glyph glyph-name="uni0409" unicode="&#x409;" horiz-adv-x="1976" 
d="M1884 377q0 -167 -109.5 -272t-299.5 -105h-449v1292h-586l-8 -266q-10 -375 -54.5 -604.5t-118 -327.5t-185.5 -98q-17 0 -33 4v61q20 -4 33 -4q140 0 211.5 238t83.5 731l8 326h715v-596h383q189 0 299 -106t110 -273zM1817 379q0 144 -91.5 230.5t-255.5 86.5h-378
v-637h378q164 0 255.5 88t91.5 232z" />
    <glyph glyph-name="uni040A" unicode="&#x40a;" horiz-adv-x="1992" 
d="M211 0v1352h65v-586h766v586h66v-586h356q205 0 321 -107.5t116 -275.5t-116 -275.5t-321 -107.5h-422v707h-766v-707h-65zM1108 59h352q175 0 274 89.5t99 232.5q0 145 -99.5 235.5t-273.5 90.5h-352v-648z" />
    <glyph glyph-name="uni040B" unicode="&#x40b;" horiz-adv-x="1611" 
d="M1401 344v-344h-66v344q0 203 -106.5 310.5t-294.5 107.5q-177 0 -344 -82v-680h-66v1292h-469v60h1065v-60h-530v-551q161 82 346 82q216 0 340.5 -126t124.5 -353z" />
    <glyph glyph-name="uni040C" unicode="&#x40c;" horiz-adv-x="1224" 
d="M211 0v1352h65v-1352h-65zM406 735l737 -735h-88l-740 735l691 617h92zM584 1483l196 381h76v-11l-219 -370h-53z" />
    <glyph glyph-name="uni040D" unicode="&#x40d;" horiz-adv-x="1462" 
d="M1221 1372h30v-1372h-65v1235l-944 -1255h-31v1372h65v-1235zM705 1483l-220 370v11h76l197 -381h-53z" />
    <glyph glyph-name="uni040E" unicode="&#x40e;" horiz-adv-x="1273" 
d="M1112 1352h70l-488 -1129q-55 -128 -128.5 -182.5t-186.5 -54.5q-68 0 -117 14v61q43 -14 115 -14q98 0 157.5 44t102.5 145l20 47l-536 1069h69l498 -998zM344 1794v70h62v-66q0 -115 57.5 -179.5t157.5 -64.5t157.5 64.5t57.5 179.5v66h61v-70q0 -135 -74.5 -215
t-201.5 -80t-202 80t-75 215z" />
    <glyph glyph-name="uni040F" unicode="&#x40f;" horiz-adv-x="1421" 
d="M1210 1352v-1352h-467v-289h-65v289h-467v1352h65v-1293h869v1293h65z" />
    <glyph glyph-name="uni0410" unicode="&#x410;" horiz-adv-x="1361" 
d="M1202 0l-149 358h-746l-147 -358h-68l574 1372h30l574 -1372h-68zM680 1257l-348 -839h696z" />
    <glyph glyph-name="uni0411" unicode="&#x411;" horiz-adv-x="1161" 
d="M211 0v1352h739v-60h-674v-536h373q189 0 299.5 -106t110.5 -273q0 -166 -110 -271.5t-300 -105.5h-438zM276 59h369q164 0 255 88t91 232t-91 230.5t-255 86.5h-369v-637z" />
    <glyph glyph-name="uni0412" unicode="&#x412;" horiz-adv-x="1249" 
d="M1147 383q0 -171 -111.5 -277t-304.5 -106h-520v1352h455q163 0 255.5 -88t92.5 -232q0 -97 -47.5 -170.5t-135.5 -111.5q150 -24 233 -123t83 -244zM659 1294l-383 -2v-526h383q138 0 212.5 72t74.5 192q0 121 -73 193t-214 71zM1079 381q0 144 -94 235t-258 91h-451
v-648h451q164 0 258 89.5t94 232.5z" />
    <glyph glyph-name="uni0413" unicode="&#x413;" horiz-adv-x="1009" 
d="M211 0v1352h750v-60h-685v-1292h-65z" />
    <glyph glyph-name="uni0414" unicode="&#x414;" horiz-adv-x="1351" 
d="M1116 59h174v-348h-65v289h-1139v-289h-66v348h125q70 88 110.5 197t64 295t32.5 489l8 312h756v-1293zM227 59h824v1233h-627l-8 -254q-12 -402 -56 -630q-40 -225 -133 -349z" />
    <glyph glyph-name="uni0415" unicode="&#x415;" horiz-adv-x="1148" 
d="M211 0v1352h831v-60h-766v-526h603v-59h-603v-648h791v-59h-856z" />
    <glyph glyph-name="uni0416" unicode="&#x416;" horiz-adv-x="1878" 
d="M123 1352h94l649 -617l-698 -735h-86l700 733zM905 0v1352h66v-1352h-66zM1094 735l702 -735h-88l-698 735l649 617h92z" />
    <glyph glyph-name="uni0417" unicode="&#x417;" horiz-adv-x="1181" 
d="M1069 381q0 -174 -124 -287.5t-324 -113.5q-351 0 -504 282l49 39q141 -258 452 -258q172 0 277.5 94t105.5 242q0 134 -96 231t-256 97h-225v59h209q136 0 211.5 74.5t75.5 195.5q0 125 -83 199t-233 74q-235 0 -362 -183l-49 39q148 207 413 207q175 0 278 -95.5
t103 -238.5q0 -103 -53.5 -180.5t-151.5 -114.5q134 -35 210.5 -133.5t76.5 -228.5z" />
    <glyph glyph-name="uni0418" unicode="&#x418;" horiz-adv-x="1462" 
d="M1221 1372h30v-1372h-65v1235l-944 -1255h-31v1372h65v-1235z" />
    <glyph glyph-name="uni0419" unicode="&#x419;" horiz-adv-x="1462" 
d="M1221 1372h30v-1372h-65v1235l-944 -1255h-31v1372h65v-1235zM455 1794v70h61v-66q0 -115 57.5 -179.5t157.5 -64.5t157.5 64.5t57.5 179.5v66h62v-70q0 -135 -75 -215t-202 -80t-201.5 80t-74.5 215z" />
    <glyph glyph-name="uni041A" unicode="&#x41a;" horiz-adv-x="1224" 
d="M211 0v1352h65v-1352h-65zM406 735l737 -735h-88l-740 735l691 617h92z" />
    <glyph glyph-name="uni041B" unicode="&#x41b;" horiz-adv-x="1343" 
d="M377 1352h756v-1352h-66v1292h-627l-8 -266q-10 -375 -54.5 -604.5t-118 -327.5t-185.5 -98q-17 0 -33 4v61q20 -4 33 -4q140 0 211.5 238t83.5 731z" />
    <glyph glyph-name="uni041C" unicode="&#x41c;" horiz-adv-x="1601" 
d="M1360 1372h31v-1372h-66v1198l-508 -745h-31l-510 745v-1198h-65v1372h31l559 -823z" />
    <glyph glyph-name="uni041D" unicode="&#x41d;" horiz-adv-x="1441" 
d="M211 0v1352h65v-586h889v586h66v-1352h-66v707h-889v-707h-65z" />
    <glyph glyph-name="uni041E" unicode="&#x41e;" horiz-adv-x="1605" 
d="M117 676q-3 190 89.5 352t251.5 255t343 89q137 2 265 -52.5t221.5 -148t148.5 -224t53 -271.5q2 -141 -53 -271t-148.5 -224t-221.5 -149t-265 -52q-138 -3 -265.5 52t-220 149t-146.5 224t-52 271zM1419 678q2 127 -46 245t-131 203t-198 135t-241 48
q-168 3 -311.5 -81.5t-226 -231t-79.5 -318.5q-2 -173 79.5 -320t224.5 -232.5t313 -82.5q126 -2 241 48t198 135.5t131 204t46 247.5z" />
    <glyph glyph-name="uni041F" unicode="&#x41f;" horiz-adv-x="1421" 
d="M211 0v1352h999v-1352h-65v1292h-869v-1292h-65z" />
    <glyph glyph-name="uni0420" unicode="&#x420;" horiz-adv-x="1140" 
d="M211 0v1352h448q180 0 285 -99.5t105 -257.5q0 -161 -105 -259.5t-285 -98.5h-383v-637h-65zM276 696h379q155 0 240.5 81.5t85.5 215.5t-86 216.5t-240 82.5h-379v-596z" />
    <glyph glyph-name="uni0421" unicode="&#x421;" horiz-adv-x="1452" 
d="M117 676q-3 190 89.5 352t251.5 255t343 89q162 0 301.5 -70t232.5 -194l-49 -39q-86 115 -209.5 177.5t-273.5 62.5q-170 3 -313 -81.5t-224.5 -231t-79.5 -318.5q-3 -172 78.5 -319.5t225 -233t313.5 -82.5q150 0 273.5 62.5t209.5 177.5l49 -39q-93 -124 -232.5 -194
t-301.5 -70q-138 -3 -265.5 52t-220 149t-146.5 224t-52 271z" />
    <glyph glyph-name="uni0422" unicode="&#x422;" horiz-adv-x="1196" 
d="M565 0v1292h-510v60h1086v-60h-510v-1292h-66z" />
    <glyph glyph-name="uni0423" unicode="&#x423;" horiz-adv-x="1273" 
d="M1112 1352h70l-488 -1129q-55 -128 -128.5 -182.5t-186.5 -54.5q-68 0 -117 14v61q43 -14 115 -14q98 0 157.5 44t102.5 145l20 47l-536 1069h69l498 -998z" />
    <glyph glyph-name="uni0424" unicode="&#x424;" horiz-adv-x="1525" 
d="M1430 684q0 -164 -82 -288t-225.5 -189.5t-327.5 -65.5v-182h-66v182q-280 0 -456.5 148t-176.5 395q0 162 81 285t224.5 188.5t327.5 65.5v170h66v-170q184 0 328 -65.5t225.5 -188.5t81.5 -285zM729 203v958q-256 0 -409.5 -127t-153.5 -350t154 -352t409 -129z
M1360 684q0 223 -154 350t-411 127v-958q256 0 410.5 129t154.5 352z" />
    <glyph glyph-name="uni0425" unicode="&#x425;" horiz-adv-x="1185" 
d="M1104 0h-76l-434 641l-436 -641h-76l475 696l-440 656h76l403 -604l397 604h76l-436 -658z" />
    <glyph glyph-name="uni0426" unicode="&#x426;" horiz-adv-x="1445" 
d="M1319 -289v289h-1108v1352h65v-1293h869v1293h65v-1293h174v-348h-65z" />
    <glyph glyph-name="uni0427" unicode="&#x427;" horiz-adv-x="1343" 
d="M1067 1352h66v-1352h-66v610q-177 -71 -414 -71q-230 0 -354.5 123t-124.5 366v324h66v-324q0 -217 107.5 -322.5t307.5 -105.5q230 0 412 72v680z" />
    <glyph glyph-name="uni0428" unicode="&#x428;" horiz-adv-x="1986" 
d="M211 0v1352h65v-1293h685v1293h65v-1293h684v1293h66v-1352h-1565z" />
    <glyph glyph-name="uni0429" unicode="&#x429;" horiz-adv-x="2011" 
d="M1884 -289v289h-1673v1352h65v-1293h685v1293h65v-1293h684v1293h66v-1293h174v-348h-66z" />
    <glyph glyph-name="uni042A" unicode="&#x42a;" horiz-adv-x="1323" 
d="M373 0v1292h-318v60h383v-596h383q189 0 299.5 -106t110.5 -273q0 -166 -110 -271.5t-300 -105.5h-448zM438 59h379q164 0 255 88t91 232t-91 230.5t-255 86.5h-379v-637z" />
    <glyph glyph-name="uni042B" unicode="&#x42b;" horiz-adv-x="1628" 
d="M211 0v1352h65v-596h383q189 0 299.5 -106t110.5 -273q0 -166 -110 -271.5t-300 -105.5h-448zM276 59h379q164 0 255 88t91 232t-91 230.5t-255 86.5h-379v-637zM1352 0v1352h65v-1352h-65z" />
    <glyph glyph-name="uni042C" unicode="&#x42c;" horiz-adv-x="1161" 
d="M211 0v1352h65v-596h383q189 0 299.5 -106t110.5 -273q0 -166 -110 -271.5t-300 -105.5h-448zM276 59h379q164 0 255 88t91 232t-91 230.5t-255 86.5h-379v-637z" />
    <glyph glyph-name="uni042D" unicode="&#x42d;" horiz-adv-x="1452" 
d="M1335 676q2 -141 -52 -271t-146.5 -224t-220 -149t-265.5 -52q-162 0 -301.5 70t-232.5 194l49 39q86 -115 209.5 -177.5t273.5 -62.5q169 0 310 82t223 225.5t84 315.5h-736v59h734q-10 165 -93 298.5t-220 209.5t-302 76q-150 0 -273.5 -62.5t-209.5 -177.5l-49 39
q93 124 232.5 194t301.5 70q184 4 343 -89t251.5 -255t89.5 -352z" />
    <glyph glyph-name="uni042E" unicode="&#x42e;" horiz-adv-x="2035" 
d="M1919 676q2 -141 -51.5 -271t-144.5 -224t-215.5 -149t-256.5 -52q-133 -3 -257 52t-214 149t-142.5 224t-49.5 271v31h-312v-707h-65v1352h65v-586h318q20 171 112 309.5t235.5 217.5t309.5 79q133 2 257.5 -52.5t215.5 -148t144.5 -224t50.5 -271.5zM1849 678
q2 127 -44.5 245t-127 203t-192 135t-232.5 48q-162 3 -300.5 -81.5t-218.5 -231t-77 -318.5q-3 -172 76 -319.5t217.5 -233t302.5 -82.5q162 -3 300.5 82.5t218.5 233t77 319.5z" />
    <glyph glyph-name="uni042F" unicode="&#x42f;" horiz-adv-x="1212" 
d="M573 1352h428v-1352h-65v596h-346l-408 -596h-80l410 600q-160 19 -254 120t-94 255q0 171 110 272q114 105 299 105zM936 655v637h-358q-160 0 -253.5 -85.5t-93.5 -233.5q0 -147 93.5 -232.5t253.5 -85.5h358z" />
    <glyph glyph-name="uni0430" unicode="&#x430;" horiz-adv-x="1056" 
d="M870 625v-625h-61v174q-54 -92 -151 -143t-216 -51q-139 0 -237 67q-99 68 -99 193q0 117 91.5 185.5t244.5 68.5h367v133q0 153 -79.5 235t-217.5 82q-96 0 -170.5 -43.5t-138.5 -128.5l-45 37q145 195 358 195q162 0 258 -99.5t96 -279.5zM809 358v78h-365
q-130 0 -201 -50.5t-71 -141.5q0 -96 78 -150.5t194 -54.5q149 0 257 92.5t108 226.5z" />
    <glyph glyph-name="uni0431" unicode="&#x431;" horiz-adv-x="1265" 
d="M1143 492q0 -139 -68 -257t-185 -186.5t-255 -68.5q-140 0 -254 66t-181 187.5t-67 274.5v240q0 325 127 489.5t428 216.5q160 28 234 46.5t129 51.5v-63q-102 -55 -355 -96q-152 -29 -248.5 -75t-154.5 -124.5t-80.5 -181t-24.5 -258.5v-64q60 146 180 230t269 84
q135 3 253 -66t186.5 -188.5t66.5 -257.5zM1077 492q0 189 -128 320.5t-312 131.5q-186 0 -312 -130t-126 -322t125.5 -322.5t310.5 -130.5q186 0 314 132t128 321z" />
    <glyph glyph-name="uni0432" unicode="&#x432;" horiz-adv-x="1079" 
d="M936 279q0 -124 -89.5 -201.5t-244.5 -77.5h-399v983h385q133 0 207.5 -64t74.5 -171q0 -79 -39 -139t-110 -89q104 -25 159.5 -87t55.5 -154zM264 926v-383h318q108 0 165.5 54.5t57.5 147.5q0 88 -56 134.5t-167 46.5h-318zM870 276q0 94 -72 151.5t-200 57.5h-334
v-428h334q126 0 199 61.5t73 157.5z" />
    <glyph glyph-name="uni0433" unicode="&#x433;" horiz-adv-x="847" 
d="M203 0v983h604v-57h-543v-926h-61z" />
    <glyph glyph-name="uni0434" unicode="&#x434;" horiz-adv-x="1116" 
d="M881 57h153v-346h-61v289h-891v-289h-62v346h93q73 79 108 234q36 145 51 467l11 225h598v-926zM190 57h629v869h-479l-8 -170q-26 -546 -142 -699z" />
    <glyph glyph-name="uni0435" unicode="&#x435;" horiz-adv-x="1173" 
d="M1044 485h-856q0 -188 127.5 -317t309.5 -129q105 0 196 45t154 127l45 -37q-69 -91 -173 -142.5t-222 -51.5q-136 0 -251.5 68.5t-183 186.5t-67.5 257q0 138 65.5 256t178.5 187t247 69q119 0 218 -52.5t159 -153t60 -229.5q0 -26 -7 -84zM190 543h795q6 89 -22 165
t-80 127t-123 80t-150 29q-164 0 -284.5 -115.5t-135.5 -285.5z" />
    <glyph glyph-name="uni0436" unicode="&#x436;" horiz-adv-x="1470" 
d="M109 983h88l469 -451l-523 -532h-82l521 532zM705 0v983h61v-983h-61zM889 532l520 -532h-82l-522 532l469 451h88z" />
    <glyph glyph-name="uni0437" unicode="&#x437;" horiz-adv-x="946" 
d="M825 272q0 -130 -95 -211t-255 -81q-236 0 -362 196l49 37q55 -85 129 -129.5t184 -44.5q134 0 209.5 64t75.5 169q0 102 -74.5 161t-212.5 59h-147v59h153q113 0 172.5 55t59.5 146q0 92 -62 142t-172 50q-93 0 -156.5 -34t-117.5 -103l-43 37q115 160 317 160
q138 0 218.5 -68t80.5 -182q0 -80 -43.5 -140.5t-126.5 -89.5q101 -24 160 -93.5t59 -158.5z" />
    <glyph glyph-name="uni0438" unicode="&#x438;" horiz-adv-x="1144" 
d="M911 1004h31v-1004h-61v874l-648 -894h-30v1003h61v-874z" />
    <glyph glyph-name="uni0439" unicode="&#x439;" horiz-adv-x="1144" 
d="M911 1004h31v-1004h-61v874l-648 -894h-30v1003h61v-874zM297 1473v69h61v-65q0 -115 57.5 -179.5t157.5 -64.5t157.5 64.5t57.5 179.5v65h62v-69q0 -135 -75 -215t-202 -80t-201.5 80t-74.5 215z" />
    <glyph glyph-name="uni043A" unicode="&#x43a;" horiz-adv-x="968" 
d="M203 0v983h61v-983h-61zM389 532l518 -532h-82l-522 532l469 451h88z" />
    <glyph glyph-name="uni043B" unicode="&#x43b;" horiz-adv-x="1089" 
d="M309 983h578v-983h-62v926h-458l-9 -170q-14 -279 -45 -463q-29 -160 -84 -228.5t-155 -68.5q-17 0 -33 4v57q10 -2 33 -2q62 5 101.5 43t64.5 129t37.5 210.5t21.5 320.5z" />
    <glyph glyph-name="uni043C" unicode="&#x43c;" horiz-adv-x="1402" 
d="M203 0v1004h30l469 -607l467 607h31v-1004h-61v860l-420 -541h-33l-422 543v-862h-61z" />
    <glyph glyph-name="uni043D" unicode="&#x43d;" horiz-adv-x="1124" 
d="M203 0v983h61v-418h596v418h62v-983h-62v506h-596v-506h-61z" />
    <glyph glyph-name="uni043E" unicode="&#x43e;" horiz-adv-x="1255" 
d="M123 492q-2 103 38 199t108 165t162.5 109.5t195.5 38.5q135 3 253 -66t186.5 -188.5t66.5 -257.5q0 -139 -68 -257t-185 -186.5t-255 -68.5q-134 -3 -251 66t-185.5 188.5t-65.5 257.5zM1067 492q0 191 -127.5 321.5t-312.5 130.5q-186 0 -312.5 -130t-126.5 -322
t126 -322.5t311 -130.5q186 0 314 132t128 321z" />
    <glyph glyph-name="uni043F" unicode="&#x43f;" horiz-adv-x="1103" 
d="M203 0v983h698v-983h-61v926h-576v-926h-61z" />
    <glyph glyph-name="uni0440" unicode="&#x440;" horiz-adv-x="1300" 
d="M1178 492q0 -140 -65 -257.5t-178 -186t-249 -68.5q-138 0 -254.5 70t-167.5 186v-605h-61v1352h61v-235q51 116 167.5 186t254.5 70q135 0 248.5 -69t178.5 -186.5t65 -256.5zM1112 492q0 190 -122 321t-304 131q-85 0 -159.5 -28.5t-134 -82.5t-94 -142t-34.5 -199
t34.5 -199t94 -142.5t134.5 -83t159 -28.5q185 0 305.5 130t120.5 323z" />
    <glyph glyph-name="uni0441" unicode="&#x441;" horiz-adv-x="1132" 
d="M123 492q0 139 67 257t183 186.5t254 68.5q241 0 393 -195l-45 -37q-64 82 -153.5 127t-194.5 45q-185 0 -312 -131t-127 -321t126.5 -321.5t310.5 -131.5q105 0 196 45t154 127l45 -37q-73 -93 -174 -143.5t-221 -50.5q-133 -3 -250.5 67t-186 190t-65.5 255z" />
    <glyph glyph-name="uni0442" unicode="&#x442;" horiz-adv-x="940" 
d="M440 0v926h-383v57h826v-57h-381v-926h-62z" />
    <glyph glyph-name="uni0443" unicode="&#x443;" horiz-adv-x="1060" 
d="M920 983h67l-498 -1163q-47 -109 -116.5 -159t-167.5 -50q-67 0 -131 18v56q87 -17 127 -17q81 0 138 41.5t97 136.5l70 166l-432 971h67l398 -891z" />
    <glyph glyph-name="uni0444" unicode="&#x444;" horiz-adv-x="1402" 
d="M1280 492q0 -227 -153 -369.5t-396 -142.5v-349h-61v349q-244 0 -395.5 142t-151.5 370q0 222 153 367t394 145v532h61v-532q240 0 394.5 -145.5t154.5 -366.5zM670 37v909q-215 0 -348.5 -127.5t-133.5 -326.5q0 -203 132.5 -329t349.5 -126zM1214 492q0 199 -134 326.5
t-349 127.5v-909q219 0 351 125.5t132 329.5z" />
    <glyph glyph-name="uni0445" unicode="&#x445;" horiz-adv-x="956" 
d="M895 0h-76l-342 467l-340 -467h-76l377 516l-344 467h76l307 -418l309 418h76l-346 -467z" />
    <glyph glyph-name="uni0446" unicode="&#x446;" horiz-adv-x="1136" 
d="M993 -289v289h-790v983h61v-926h576v926h61v-926h154v-346h-62z" />
    <glyph glyph-name="uni0447" unicode="&#x447;" horiz-adv-x="1024" 
d="M760 983h61v-983h-61v463q-106 -53 -268 -53q-174 0 -271.5 93.5t-97.5 274.5v205h61v-205q0 -157 79.5 -234t225.5 -77q165 0 271 53v463z" />
    <glyph glyph-name="uni0448" unicode="&#x448;" horiz-adv-x="1662" 
d="M203 0v983h61v-926h537v926h61v-926h537v926h61v-983h-1257z" />
    <glyph glyph-name="uni0449" unicode="&#x449;" horiz-adv-x="1695" 
d="M1552 -289v289h-1349v983h61v-926h537v926h61v-926h537v926h61v-926h154v-346h-62z" />
    <glyph glyph-name="uni044A" unicode="&#x44a;" horiz-adv-x="1140" 
d="M334 0v926h-277v57h338v-389h277q162 0 254 -80t92 -215q0 -137 -92 -218t-254 -81h-338zM395 57h273q134 0 209 66t75 174t-75 174t-209 66h-273v-480z" />
    <glyph glyph-name="uni044B" unicode="&#x44b;" horiz-adv-x="1390" 
d="M203 0v983h61v-389h277q162 0 254 -80t92 -215q0 -137 -92 -218t-254 -81h-338zM1126 0v983h62v-983h-62zM264 57h273q134 0 209 66t75 174t-75 174t-209 66h-273v-480z" />
    <glyph glyph-name="uni044C" unicode="&#x44c;" horiz-adv-x="1009" 
d="M203 0v983h61v-389h277q162 0 254 -80t92 -215q0 -137 -92 -218t-254 -81h-338zM264 57h273q134 0 209 66t75 174t-75 174t-209 66h-273v-480z" />
    <glyph glyph-name="uni044D" unicode="&#x44d;" horiz-adv-x="1132" 
d="M1010 492q2 -136 -66.5 -255.5t-185.5 -189.5t-250 -67q-118 0 -222 51.5t-173 142.5l45 37q63 -82 154 -127t196 -45q182 0 307.5 129t128.5 315h-524v58h522q-15 171 -140 287t-296 116q-105 0 -194.5 -45t-153.5 -127l-45 37q73 93 174.5 144t218.5 51q133 3 251 -67
t187 -190t66 -255z" />
    <glyph glyph-name="uni044E" unicode="&#x44e;" horiz-adv-x="1634" 
d="M1511 492q3 -135 -65 -255t-184.5 -190t-247.5 -67q-133 0 -247 69t-180.5 187t-66.5 256v14h-256v-506h-61v983h61v-418h260q25 187 166 313t326 126q131 3 247 -67t183.5 -190t64.5 -255zM1446 492q0 190 -124 321t-306 131t-306 -131t-124 -321q0 -189 124 -321
t304 -132q121 0 220.5 60.5t155.5 164t56 228.5z" />
    <glyph glyph-name="uni044F" unicode="&#x44f;" horiz-adv-x="1054" 
d="M514 983h338v-983h-61v410h-271l-321 -410h-76l326 414q-130 14 -205.5 88.5t-75.5 191.5q0 133 93 211t253 78zM791 467v459h-273q-131 0 -208 -62t-77 -168t77 -167.5t208 -61.5h273z" />
    <glyph glyph-name="uni0450" unicode="&#x450;" horiz-adv-x="1173" 
d="M1044 485h-856q0 -188 127.5 -317t309.5 -129q105 0 196 45t154 127l45 -37q-69 -91 -173 -142.5t-222 -51.5q-136 0 -251.5 68.5t-183 186.5t-67.5 257q0 138 65.5 256t178.5 187t247 69q119 0 218 -52.5t159 -153t60 -229.5q0 -26 -7 -84zM190 543h795q6 89 -22 165
t-80 127t-123 80t-150 29q-164 0 -284.5 -115.5t-135.5 -285.5zM575 1151l-219 436v10h76l197 -446h-54z" />
    <glyph glyph-name="uni0451" unicode="&#x451;" horiz-adv-x="1173" 
d="M1044 485h-856q0 -188 127.5 -317t309.5 -129q105 0 196 45t154 127l45 -37q-69 -91 -173 -142.5t-222 -51.5q-136 0 -251.5 68.5t-183 186.5t-67.5 257q0 138 65.5 256t178.5 187t247 69q119 0 218 -52.5t159 -153t60 -229.5q0 -26 -7 -84zM190 543h795q6 89 -22 165
t-80 127t-123 80t-150 29q-164 0 -284.5 -115.5t-135.5 -285.5zM330 1364q0 29 20 49.5t49 20.5t49.5 -20.5t20.5 -49.5t-20.5 -49.5t-49.5 -20.5t-49 20.5t-20 49.5zM721 1364q0 29 20.5 49.5t49.5 20.5t49 -20.5t20 -49.5t-20 -49.5t-49 -20.5t-49.5 20.5t-20.5 49.5z" />
    <glyph glyph-name="uni0452" unicode="&#x452;" horiz-adv-x="1128" 
d="M942 625v-738q0 -139 -73 -207.5t-205 -68.5q-54 0 -103 12v55q65 -10 98 -10q222 0 222 219v738q0 143 -80.5 231t-216.5 88q-140 0 -230 -90t-90 -229v-625h-61v1237h-176v57h176v242h61v-242h430v-57h-430v-412q48 85 131 132t191 47q164 0 260 -105t96 -274z" />
    <glyph glyph-name="uni0453" unicode="&#x453;" horiz-adv-x="847" 
d="M203 0v983h604v-57h-543v-926h-61zM449 1151l196 446h76v-10l-219 -436h-53z" />
    <glyph glyph-name="uni0454" unicode="&#x454;" horiz-adv-x="1132" 
d="M975 211l45 -37q-69 -91 -173 -142.5t-222 -51.5q-133 -3 -250 67t-185.5 189.5t-66.5 255.5q-3 135 66 255t187 190t251 67q117 0 218.5 -51t174.5 -144l-45 -37q-64 82 -153.5 127t-194.5 45q-171 0 -296.5 -116t-140.5 -287h523v-58h-525q3 -186 129 -315t308 -129
q105 0 196 45t154 127z" />
    <glyph glyph-name="uni0455" unicode="&#x455;" horiz-adv-x="931" 
d="M106 195l50 36q68 -97 145.5 -144.5t177.5 -47.5q108 0 177 52.5t69 146.5q-4 47 -17 79.5t-44.5 59t-64.5 44t-97 46.5l-86 39q-125 55 -182.5 111t-57.5 143q0 112 88 176q89 68 211 68q181 0 309 -158l-45 -41q-117 139 -268 139q-99 0 -164 -47.5t-65 -134.5
q5 -75 41 -108t143 -84q15 -7 23 -11l92 -41q128 -56 189 -117t61 -159q0 -121 -93 -193q-90 -69 -223 -69q-229 0 -369 215z" />
    <glyph glyph-name="uni0456" unicode="&#x456;" horiz-adv-x="532" 
d="M197 1364q0 29 20 49.5t49 20.5t49.5 -20.5t20.5 -49.5t-20.5 -49.5t-49.5 -20.5t-49 20.5t-20 49.5zM236 0v983h61v-983h-61z" />
    <glyph glyph-name="uni0457" unicode="&#x457;" horiz-adv-x="491" 
d="M55 1364q0 29 19.5 48.5t46.5 19.5q29 0 48 -19.5t19 -48.5q0 -27 -19 -46.5t-48 -19.5q-26 0 -46 20t-20 46zM303 1364q0 29 19.5 48.5t46.5 19.5q29 0 48 -19.5t19 -48.5q0 -27 -19 -46.5t-48 -19.5q-26 0 -46 20t-20 46zM215 0v983h61v-983h-61z" />
    <glyph glyph-name="uni0458" unicode="&#x458;" horiz-adv-x="466" 
d="M-117 -377v55q65 -10 99 -10q221 0 221 219v1096h61v-1096q0 -139 -73 -207.5t-205 -68.5q-54 0 -103 12zM164 1364q0 29 20 49.5t49 20.5t49.5 -20.5t20.5 -49.5t-20.5 -49.5t-49.5 -20.5t-49 20.5t-20 49.5z" />
    <glyph glyph-name="uni0459" unicode="&#x459;" horiz-adv-x="1581" 
d="M1458 299q0 -137 -92 -218t-254 -81h-317v926h-428l-9 -170q-14 -279 -45 -463q-29 -160 -84 -228.5t-155 -68.5q-17 0 -33 4v57q10 -2 33 -2q62 5 101.5 43t64.5 129t37.5 210.5t21.5 320.5l10 225h547v-389h256q162 0 254 -80t92 -215zM1393 297q0 108 -75.5 174
t-209.5 66h-252v-480h252q134 0 209.5 66t75.5 174z" />
    <glyph glyph-name="uni045A" unicode="&#x45a;" horiz-adv-x="1636" 
d="M1513 297q0 -136 -91.5 -216.5t-254.5 -80.5h-348v526h-555v-526h-61v983h61v-399h555v399h62v-399h286q164 0 255 -77.5t91 -209.5zM1448 295q0 107 -75 169t-210 62h-282v-469h282q134 0 209.5 65t75.5 173z" />
    <glyph glyph-name="uni045B" unicode="&#x45b;" horiz-adv-x="1128" 
d="M942 625v-625h-61v625q0 143 -80.5 231t-216.5 88q-140 0 -230 -90t-90 -229v-625h-61v1237h-176v57h176v242h61v-242h430v-57h-430v-412q48 85 131 132t191 47q164 0 260 -105t96 -274z" />
    <glyph glyph-name="uni045C" unicode="&#x45c;" horiz-adv-x="968" 
d="M203 0v983h61v-983h-61zM389 532l518 -532h-82l-522 532l469 451h88zM467 1151l197 446h75v-10l-219 -436h-53z" />
    <glyph glyph-name="uni045D" unicode="&#x45d;" horiz-adv-x="1144" 
d="M911 1004h31v-1004h-61v874l-648 -894h-30v1003h61v-874zM553 1151l-219 436v10h76l196 -446h-53z" />
    <glyph glyph-name="uni045E" unicode="&#x45e;" horiz-adv-x="1060" 
d="M920 983h67l-498 -1163q-47 -109 -116.5 -159t-167.5 -50q-67 0 -131 18v56q87 -17 127 -17q81 0 138 41.5t97 136.5l70 166l-432 971h67l398 -891zM254 1473v69h61v-65q0 -115 57.5 -179.5t157.5 -64.5t157.5 64.5t57.5 179.5v65h62v-69q0 -135 -75 -215t-202 -80
t-201.5 80t-74.5 215z" />
    <glyph glyph-name="uni045F" unicode="&#x45f;" horiz-adv-x="1105" 
d="M903 983v-983h-319v-289h-62v289h-319v983h61v-924h578v924h61z" />
    <glyph glyph-name="uni0462" unicode="&#x462;" horiz-adv-x="1243" 
d="M313 0v1053h-258v57h258v242h66v-242h446v-57h-446v-297h362q189 0 299.5 -106t110.5 -273q0 -166 -110 -271.5t-300 -105.5h-428zM379 59h358q164 0 255 88t91 232t-91 230.5t-255 86.5h-358v-637z" />
    <glyph glyph-name="uni0463" unicode="&#x463;" horiz-adv-x="1071" 
d="M264 0v926h-237v57h237v553h62v-553h348v-57h-348v-332h276q162 0 254 -80t92 -215q0 -137 -92 -218t-254 -81h-338zM326 57h272q134 0 209.5 66t75.5 174t-75.5 174t-209.5 66h-272v-480z" />
    <glyph glyph-name="uni0472" unicode="&#x472;" horiz-adv-x="1605" 
d="M1489 676q2 -141 -53 -271t-148.5 -224t-221.5 -149t-265 -52q-138 -3 -265.5 52t-220 149t-146.5 224t-52 271q-3 190 89.5 352t251.5 255t343 89q137 2 265 -52.5t221.5 -148t148.5 -224t53 -271.5zM186 702q162 70 328 70q71 0 134 -11t163 -38q174 -49 291 -49
q157 0 315 61q-11 121 -62 227t-131.5 182.5t-189.5 120.5t-231 44q-123 2 -236 -45.5t-196 -129t-133 -194.5t-52 -238zM1419 674q-155 -64 -317 -64q-121 0 -305 52q-119 28 -158 34q-63 13 -125 13q-158 0 -326 -70q12 -254 188 -425t427 -171q125 -2 240 48t197.5 135
t131 203t47.5 245z" />
    <glyph glyph-name="uni0473" unicode="&#x473;" horiz-adv-x="1255" 
d="M1133 492q3 -135 -67 -255t-189 -190t-252 -67q-133 -3 -250 67t-185.5 189.5t-66.5 255.5q-3 135 66 255t187 190t251 67q133 3 251 -67t187.5 -190t67.5 -255zM190 524q115 47 220 47q51 0 94 -8.5t127 -32.5q137 -41 215 -41q100 0 219 46q-15 175 -139 292t-299 117
t-301.5 -121.5t-135.5 -298.5zM1067 477q-116 -45 -221 -45q-94 0 -228 43q-61 17 -85.5 23t-57 11t-65.5 5q-95 0 -222 -47q9 -181 134.5 -304.5t304.5 -123.5q181 0 309 127.5t131 310.5z" />
    <glyph glyph-name="uni0474" unicode="&#x474;" horiz-adv-x="1423" 
d="M1413 1352v-62q-36 8 -70 8q-54 0 -89 -36t-72 -121l-486 -1161h-30l-574 1372h68l522 -1252l444 1065q45 104 92.5 149.5t124.5 45.5q34 0 70 -8z" />
    <glyph glyph-name="uni0475" unicode="&#x475;" horiz-adv-x="1093" 
d="M1094 983v-53l-47 2q-83 0 -132 -115l-368 -837h-31l-442 1003h67l389 -895l330 758q61 143 178 143q26 0 56 -6z" />
    <glyph glyph-name="uni0490" unicode="&#x490;" horiz-adv-x="983" 
d="M211 0v1352h657v247h66v-307h-658v-1292h-65z" />
    <glyph glyph-name="uni0491" unicode="&#x491;" horiz-adv-x="847" 
d="M203 0v983h542v248h62v-305h-543v-926h-61z" />
    <glyph glyph-name="uni0492" unicode="&#x492;" horiz-adv-x="985" 
d="M954 1292h-678v-626h383v-58h-383v-608h-65v608h-211v58h211v686h743v-60z" />
    <glyph glyph-name="uni0493" unicode="&#x493;" horiz-adv-x="882" 
d="M842 926h-584v-412h330v-57h-330v-457h-61v457h-177v57h177v469h645v-57z" />
    <glyph glyph-name="uni0496" unicode="&#x496;" horiz-adv-x="1902" 
d="M127 1352h92l649 -617l-698 -735h-88l702 735zM907 0v1352h66v-1352h-66zM1741 59h131v-348h-66v289h-96l-698 735l649 617h92l-657 -619z" />
    <glyph glyph-name="uni0497" unicode="&#x497;" horiz-adv-x="1540" 
d="M109 983h88l469 -451l-523 -532h-82l521 532zM705 0v983h61v-983h-61zM1352 57h127v-346h-62v289h-90l-522 532l469 451h88l-473 -451z" />
    <glyph glyph-name="uni0498" unicode="&#x498;" horiz-adv-x="1181" 
d="M1069 381q0 -174 -124 -287.5t-324 -113.5q-351 0 -504 282l49 39q141 -258 452 -258q172 0 277.5 94t105.5 242q0 134 -96 231t-256 97h-225v59h209q136 0 211.5 74.5t75.5 195.5q0 125 -83 199t-233 74q-235 0 -362 -183l-49 39q148 207 413 207q175 0 278 -95.5
t103 -238.5q0 -103 -53.5 -180.5t-151.5 -114.5q134 -35 210.5 -133.5t76.5 -228.5zM387 -369v56q87 -19 127 -19q75 0 122.5 41.5t47.5 116.5q0 54 -25.5 93.5t-78.5 80.5l18 27q69 -30 110.5 -84t41.5 -121q0 -90 -64 -150.5t-166 -60.5q-66 0 -133 20z" />
    <glyph glyph-name="uni0499" unicode="&#x499;" horiz-adv-x="946" 
d="M825 272q0 -130 -95 -211t-255 -81q-236 0 -362 196l49 37q55 -85 129 -129.5t184 -44.5q134 0 209.5 64t75.5 169q0 102 -74.5 161t-212.5 59h-147v59h153q113 0 172.5 55t59.5 146q0 92 -62 142t-172 50q-93 0 -156.5 -34t-117.5 -103l-43 37q115 160 317 160
q138 0 218.5 -68t80.5 -182q0 -80 -43.5 -140.5t-126.5 -89.5q101 -24 160 -93.5t59 -158.5zM250 -369v56q87 -19 127 -19q75 0 122.5 41.5t47.5 116.5q0 54 -25.5 93t-79.5 81l19 27q69 -30 110 -84t41 -121q0 -90 -63.5 -150.5t-165.5 -60.5q-66 0 -133 20z" />
    <glyph glyph-name="uni049A" unicode="&#x49a;" horiz-adv-x="1247" 
d="M211 0v1352h65v-1352h-65zM1081 59h136v-348h-66v289h-96l-740 735l691 617h92l-695 -617z" />
    <glyph glyph-name="uni049B" unicode="&#x49b;" horiz-adv-x="1038" 
d="M203 0v983h61v-983h-61zM850 57h127v-346h-62v289h-90l-522 532l469 451h88l-471 -451z" />
    <glyph glyph-name="uni04A0" unicode="&#x4a0;" horiz-adv-x="1591" 
d="M57 1292v60h586v-1352h-65v1292h-521zM772 735l737 -735h-88l-739 735l690 617h92z" />
    <glyph glyph-name="uni04A1" unicode="&#x4a1;" horiz-adv-x="1204" 
d="M57 926v57h443v-983h-62v926h-381zM625 532l518 -532h-82l-522 532l469 451h88z" />
    <glyph glyph-name="uni04A2" unicode="&#x4a2;" horiz-adv-x="1466" 
d="M1339 -289v289h-174v707h-889v-707h-65v1352h65v-586h889v586h66v-1293h174v-348h-66z" />
    <glyph glyph-name="uni04A3" unicode="&#x4a3;" horiz-adv-x="1177" 
d="M1034 -289v289h-153v506h-617v-506h-61v983h61v-420h617v420h61v-926h154v-346h-62z" />
    <glyph glyph-name="uni04AA" unicode="&#x4aa;" horiz-adv-x="1452" 
d="M117 676q-3 190 89.5 352t251.5 255t343 89q162 0 301.5 -70t232.5 -194l-49 -39q-86 115 -209.5 177.5t-273.5 62.5q-170 3 -313 -81.5t-224.5 -231t-79.5 -318.5q-3 -172 78.5 -319.5t225 -233t313.5 -82.5q150 0 273.5 62.5t209.5 177.5l49 -39q-93 -124 -232.5 -194
t-301.5 -70q-138 -3 -265.5 52t-220 149t-146.5 224t-52 271zM580 -369v56q87 -19 127 -19q75 0 122.5 41.5t47.5 116.5q0 54 -25.5 93t-79.5 81l19 27q69 -30 110 -84t41 -121q0 -90 -63.5 -150.5t-165.5 -60.5q-66 0 -133 20z" />
    <glyph glyph-name="uni04AB" unicode="&#x4ab;" horiz-adv-x="1132" 
d="M123 492q0 139 67 257t183 186.5t254 68.5q241 0 393 -195l-45 -37q-64 82 -153.5 127t-194.5 45q-185 0 -312 -131t-127 -321t126.5 -321.5t310.5 -131.5q105 0 196 45t154 127l45 -37q-73 -93 -174 -143.5t-221 -50.5q-133 -3 -250.5 67t-186 190t-65.5 255zM401 -369
v56q87 -19 127 -19q75 0 122.5 41.5t47.5 116.5q0 54 -25.5 93.5t-78.5 80.5l18 27q69 -30 110.5 -84t41.5 -121q0 -90 -63.5 -150.5t-165.5 -60.5q-67 0 -134 20z" />
    <glyph glyph-name="uni04AE" unicode="&#x4ae;" horiz-adv-x="1249" 
d="M1128 1352l-471 -766v-586h-65v586l-471 766h69l435 -711l434 711h69z" />
    <glyph glyph-name="uni04AF" unicode="&#x4af;" horiz-adv-x="1060" 
d="M987 983l-426 -983v-369h-61v369l-426 983h67l389 -911l390 911h67z" />
    <glyph glyph-name="uni04B0" unicode="&#x4b0;" horiz-adv-x="1249" 
d="M657 586h349v-60h-349v-526h-65v526h-348v60h348l-471 766h69l435 -711l434 711h69z" />
    <glyph glyph-name="uni04B1" unicode="&#x4b1;" horiz-adv-x="1060" 
d="M561 0h287v-57h-287v-312h-61v312h-287v57h287l-426 983h67l389 -911l390 911h67z" />
    <glyph glyph-name="uni04B2" unicode="&#x4b2;" horiz-adv-x="1228" 
d="M1065 59h133v-348h-65v289h-105l-434 641l-436 -641h-76l475 696l-440 656h76l403 -604l397 604h76l-436 -658z" />
    <glyph glyph-name="uni04B3" unicode="&#x4b3;" horiz-adv-x="1032" 
d="M852 57h119v-346h-62v289h-90l-342 467l-340 -467h-76l377 516l-344 467h76l307 -418l309 418h76l-346 -467z" />
    <glyph glyph-name="uni04B6" unicode="&#x4b6;" horiz-adv-x="1368" 
d="M1133 59h174v-348h-66v289h-174v610q-145 -71 -414 -71q-230 0 -354.5 123t-124.5 366v324h66v-324q0 -217 107.5 -322.5t307.5 -105.5q265 0 412 72v680h66v-1293z" />
    <glyph glyph-name="uni04B7" unicode="&#x4b7;" horiz-adv-x="1056" 
d="M821 57h154v-346h-62v289h-153v463q-106 -53 -268 -53q-174 0 -271.5 93.5t-97.5 274.5v205h61v-205q0 -157 79.5 -234t225.5 -77q165 0 271 53v463h61v-926z" />
    <glyph glyph-name="uni04BA" unicode="&#x4ba;" horiz-adv-x="1343" 
d="M1169 324v-324h-65v324q0 217 -108 322.5t-308 105.5q-230 0 -412 -72v-680h-65v1352h65v-611q179 72 414 72q230 0 354.5 -123t124.5 -366z" />
    <glyph glyph-name="uni04BB" unicode="&#x4bb;" horiz-adv-x="1128" 
d="M942 625v-625h-61v625q0 143 -80.5 231t-216.5 88q-140 0 -230 -90t-90 -229v-625h-61v1536h61v-711q48 85 131 132t191 47q164 0 260 -105t96 -274z" />
    <glyph glyph-name="uni04C0" unicode="&#x4c0;" horiz-adv-x="487" 
d="M211 0v1352h65v-1352h-65z" />
    <glyph glyph-name="uni04C1" unicode="&#x4c1;" horiz-adv-x="1878" 
d="M123 1352h94l649 -617l-698 -735h-86l700 733zM905 0v1352h66v-1352h-66zM1094 735l702 -735h-88l-698 735l649 617h92zM662 1794v70h61v-66q0 -115 57.5 -179.5t157.5 -64.5t157.5 64.5t57.5 179.5v66h61v-70q0 -135 -74.5 -215t-201.5 -80t-201.5 80t-74.5 215z" />
    <glyph glyph-name="uni04C2" unicode="&#x4c2;" horiz-adv-x="1470" 
d="M109 983h88l469 -451l-523 -532h-82l521 532zM705 0v983h61v-983h-61zM889 532l520 -532h-82l-522 532l469 451h88zM459 1473v69h61v-65q0 -115 57.5 -179.5t157.5 -64.5t157.5 64.5t57.5 179.5v65h62v-69q0 -135 -75 -215t-202 -80t-201.5 80t-74.5 215z" />
    <glyph glyph-name="uni04CF" unicode="&#x4cf;" horiz-adv-x="466" 
d="M203 0v1536h61v-1536h-61z" />
    <glyph glyph-name="uni04D0" unicode="&#x4d0;" horiz-adv-x="1361" 
d="M1202 0l-149 358h-746l-147 -358h-68l574 1372h30l574 -1372h-68zM680 1257l-348 -839h696zM406 1794v70h61v-66q0 -115 57.5 -179.5t157.5 -64.5t157.5 64.5t57.5 179.5v66h61v-70q0 -135 -74.5 -215t-201.5 -80t-201.5 80t-74.5 215z" />
    <glyph glyph-name="uni04D1" unicode="&#x4d1;" horiz-adv-x="1056" 
d="M870 625v-625h-61v174q-54 -92 -151 -143t-216 -51q-139 0 -237 67q-99 68 -99 193q0 117 91.5 185.5t244.5 68.5h367v133q0 153 -79.5 235t-217.5 82q-96 0 -170.5 -43.5t-138.5 -128.5l-45 37q145 195 358 195q162 0 258 -99.5t96 -279.5zM809 358v78h-365
q-130 0 -201 -50.5t-71 -141.5q0 -96 78 -150.5t194 -54.5q149 0 257 92.5t108 226.5zM238 1473v69h61v-65q0 -115 57.5 -179.5t157.5 -64.5t157.5 64.5t57.5 179.5v65h62v-69q0 -135 -75 -215t-202 -80t-201.5 80t-74.5 215z" />
    <glyph glyph-name="uni04D4" unicode="&#x4d4;" horiz-adv-x="1630" 
d="M1042 59h506v-59h-565l-63 360h-623l-186 -360h-70l704 1352h779v-60h-703l94 -526h445v-59h-434zM760 1260l-432 -840h581z" />
    <glyph glyph-name="uni04D5" unicode="&#x4d5;" horiz-adv-x="1859" 
d="M1731 469h-857q6 -183 132 -306.5t305 -123.5q105 0 196 45t154 127l45 -37q-69 -91 -173 -142.5t-222 -51.5q-149 0 -271 79t-184 213q-35 -133 -149 -213q-113 -79 -263 -79q-139 0 -239 71q-99 74 -99 207q0 124 91 196t245 72h367v101q0 153 -79.5 235t-217.5 82
q-96 0 -170.5 -43.5t-138.5 -128.5l-45 37q145 195 358 195q137 0 229.5 -73t116.5 -206q62 128 179 203.5t259 75.5q119 0 217.5 -52t159 -153t60.5 -232q0 -31 -6 -98zM877 526h794q12 179 -100.5 298.5t-278.5 119.5q-165 0 -285.5 -121.5t-129.5 -296.5zM809 358v111
h-365q-133 0 -202.5 -53t-69.5 -152q0 -106 79.5 -165.5t197.5 -59.5q145 0 252.5 93t107.5 226z" />
    <glyph glyph-name="uni04D6" unicode="&#x4d6;" horiz-adv-x="1148" 
d="M211 0v1352h831v-60h-766v-526h603v-59h-603v-648h791v-59h-856zM340 1794v70h61v-66q0 -115 57.5 -179.5t157.5 -64.5t157.5 64.5t57.5 179.5v66h62v-70q0 -135 -75 -215t-202 -80t-201.5 80t-74.5 215z" />
    <glyph glyph-name="uni04D7" unicode="&#x4d7;" horiz-adv-x="1173" 
d="M1044 485h-856q0 -188 127.5 -317t309.5 -129q105 0 196 45t154 127l45 -37q-69 -91 -173 -142.5t-222 -51.5q-136 0 -251.5 68.5t-183 186.5t-67.5 257q0 138 65.5 256t178.5 187t247 69q119 0 218 -52.5t159 -153t60 -229.5q0 -26 -7 -84zM190 543h795q6 89 -22 165
t-80 127t-123 80t-150 29q-164 0 -284.5 -115.5t-135.5 -285.5zM311 1473v69h62v-65q0 -115 57.5 -179.5t157.5 -64.5t157.5 64.5t57.5 179.5v65h61v-69q0 -135 -74.5 -215t-201.5 -80t-202 80t-75 215z" />
    <glyph glyph-name="uni04D8" unicode="&#x4d8;" horiz-adv-x="1495" 
d="M1378 680q2 -141 -49.5 -271.5t-138.5 -225.5t-208 -150.5t-251 -52.5q-122 -2 -233.5 40t-197 117.5t-135.5 190.5t-48 250q0 34 6 102h1186v4q2 127 -43 244t-122.5 201t-184.5 133t-224 47q-155 0 -289 -63.5t-219 -176.5l-49 39q92 123 242 193.5t317 70.5
q131 2 251.5 -53t206 -149t135.5 -222.5t48 -267.5zM1307 621h-1121q-2 -10 -2 -50q0 -157 75.5 -278.5t200.5 -185.5t275 -64q109 -2 211 43t178 123t125.5 185.5t57.5 226.5z" />
    <glyph glyph-name="uni04D9" unicode="&#x4d9;" horiz-adv-x="1173" 
d="M1051 492q0 -214 -138.5 -363t-343.5 -149q-90 0 -171 31t-142 86t-97 137.5t-36 179.5q0 34 6 84h856q0 191 -121 318.5t-305 127.5q-110 0 -204 -45t-156 -127l-45 37q69 92 175.5 143.5t229.5 51.5q135 3 249.5 -66t179.5 -188t63 -258zM983 440h-795q-8 -118 44 -211
t142 -141.5t199 -48.5q165 0 280 114.5t130 286.5z" />
    <glyph glyph-name="uni04E2" unicode="&#x4e2;" horiz-adv-x="1462" 
d="M1221 1372h30v-1372h-65v1235l-944 -1255h-31v1372h65v-1235zM453 1602v57h557v-57h-557z" />
    <glyph glyph-name="uni04E3" unicode="&#x4e3;" horiz-adv-x="1144" 
d="M911 1004h31v-1004h-61v874l-648 -894h-30v1003h61v-874zM315 1337v58h516v-58h-516z" />
    <glyph glyph-name="uni04E6" unicode="&#x4e6;" horiz-adv-x="1605" 
d="M117 676q-3 190 89.5 352t251.5 255t343 89q137 2 265 -52.5t221.5 -148t148.5 -224t53 -271.5q2 -141 -53 -271t-148.5 -224t-221.5 -149t-265 -52q-138 -3 -265.5 52t-220 149t-146.5 224t-52 271zM1419 678q2 127 -46 245t-131 203t-198 135t-241 48
q-168 3 -311.5 -81.5t-226 -231t-79.5 -318.5q-2 -173 79.5 -320t224.5 -232.5t313 -82.5q126 -2 241 48t198 135.5t131 204t46 247.5zM506 1651q0 29 20 49t49 20t49.5 -20t20.5 -49t-20.5 -49.5t-49.5 -20.5t-49 20.5t-20 49.5zM958 1651q0 29 20.5 49t49.5 20t49.5 -20
t20.5 -49t-20.5 -49.5t-49.5 -20.5t-49.5 20.5t-20.5 49.5z" />
    <glyph glyph-name="uni04E7" unicode="&#x4e7;" horiz-adv-x="1255" 
d="M123 492q-2 103 38 199t108 165t162.5 109.5t195.5 38.5q135 3 253 -66t186.5 -188.5t66.5 -257.5q0 -139 -68 -257t-185 -186.5t-255 -68.5q-134 -3 -251 66t-185.5 188.5t-65.5 257.5zM1067 492q0 191 -127.5 321.5t-312.5 130.5q-186 0 -312.5 -130t-126.5 -322
t126 -322.5t311 -130.5q186 0 314 132t128 321zM362 1364q0 29 20.5 49.5t49.5 20.5t49.5 -20.5t20.5 -49.5t-20.5 -49.5t-49.5 -20.5t-49.5 20.5t-20.5 49.5zM754 1364q0 29 20 49.5t49 20.5t49.5 -20.5t20.5 -49.5t-20.5 -49.5t-49.5 -20.5t-49 20.5t-20 49.5z" />
    <glyph glyph-name="uni04E8" unicode="&#x4e8;" horiz-adv-x="1605" 
d="M1489 676q2 -141 -53 -271t-148.5 -224t-221.5 -149t-265 -52q-138 -3 -265.5 52t-220 149t-146.5 224t-52 271q-3 190 89.5 352t251.5 255t343 89q137 2 265 -52.5t221.5 -148t148.5 -224t53 -271.5zM188 717h1229q-6 163 -89.5 300t-223 216t-301.5 76q-165 0 -303 -77
t-221 -212.5t-91 -302.5zM1419 657h-1233q1 -168 84 -310.5t225 -224.5t308 -79q167 0 307.5 81t222.5 222t86 311z" />
    <glyph glyph-name="uni04E9" unicode="&#x4e9;" horiz-adv-x="1255" 
d="M1133 492q3 -135 -67 -255t-189 -190t-252 -67q-133 -3 -250 67t-185.5 189.5t-66.5 255.5q-3 135 66 255t187 190t251 67q133 3 251 -67t187.5 -190t67.5 -255zM190 541h875q-15 171 -141 287t-297 116t-296.5 -116t-140.5 -287zM1067 483h-879q3 -186 129 -315
t308 -129q185 0 312 129t130 315z" />
    <glyph glyph-name="uni04EE" unicode="&#x4ee;" horiz-adv-x="1273" 
d="M1112 1352h70l-488 -1129q-55 -128 -128.5 -182.5t-186.5 -54.5q-68 0 -117 14v61q43 -14 115 -14q98 0 157.5 44t102.5 145l20 47l-536 1069h69l498 -998zM342 1602v57h557v-57h-557z" />
    <glyph glyph-name="uni04EF" unicode="&#x4ef;" horiz-adv-x="1060" 
d="M920 983h67l-498 -1163q-47 -109 -116.5 -159t-167.5 -50q-67 0 -131 18v56q87 -17 127 -17q81 0 138 41.5t97 136.5l70 166l-432 971h67l398 -891zM272 1337v58h516v-58h-516z" />
    <glyph glyph-name="uni04F2" unicode="&#x4f2;" horiz-adv-x="1273" 
d="M1112 1352h70l-488 -1129q-55 -128 -128.5 -182.5t-186.5 -54.5q-68 0 -117 14v61q43 -14 115 -14q98 0 157.5 44t102.5 145l20 47l-536 1069h69l498 -998zM360 1483l197 381h76v-11l-219 -370h-54zM778 1483l197 381h76v-11l-220 -370h-53z" />
    <glyph glyph-name="uni04F3" unicode="&#x4f3;" horiz-adv-x="1060" 
d="M920 983h67l-498 -1163q-47 -109 -116.5 -159t-167.5 -50q-67 0 -131 18v56q87 -17 127 -17q81 0 138 41.5t97 136.5l70 166l-432 971h67l398 -891zM305 1151l197 446h76v-10l-220 -436h-53zM682 1151l197 446h75v-10l-219 -436h-53z" />
    <glyph glyph-name="Wgrave" unicode="&#x1e80;" horiz-adv-x="2205" 
d="M2025 1352h68l-491 -1372h-31l-467 1267l-469 -1267h-31l-491 1372h67l441 -1250l466 1270h31l467 -1270zM1077 1483l-219 370v11h76l196 -381h-53z" />
    <glyph glyph-name="wgrave" unicode="&#x1e81;" horiz-adv-x="1722" 
d="M1581 983h68l-381 -1003h-31l-377 899l-375 -899h-30l-381 1003h67l328 -885l377 906h31l376 -906zM842 1151l-219 436v10h75l197 -446h-53z" />
    <glyph glyph-name="Wacute" unicode="&#x1e82;" horiz-adv-x="2205" 
d="M2025 1352h68l-491 -1372h-31l-467 1267l-469 -1267h-31l-491 1372h67l441 -1250l466 1270h31l467 -1270zM1075 1483l197 381h76v-11l-220 -370h-53z" />
    <glyph glyph-name="wacute" unicode="&#x1e83;" horiz-adv-x="1722" 
d="M1581 983h68l-381 -1003h-31l-377 899l-375 -899h-30l-381 1003h67l328 -885l377 906h31l376 -906zM836 1151l196 446h76v-10l-219 -436h-53z" />
    <glyph glyph-name="Wdieresis" unicode="&#x1e84;" horiz-adv-x="2205" 
d="M2025 1352h68l-491 -1372h-31l-467 1267l-469 -1267h-31l-491 1372h67l441 -1250l466 1270h31l467 -1270zM807 1651q0 29 20.5 49t49.5 20t49 -20t20 -49t-20 -49.5t-49 -20.5t-49.5 20.5t-20.5 49.5zM1260 1651q0 29 20 49t49 20t49.5 -20t20.5 -49t-20.5 -49.5
t-49.5 -20.5t-49 20.5t-20 49.5z" />
    <glyph glyph-name="wdieresis" unicode="&#x1e85;" horiz-adv-x="1722" 
d="M1581 983h68l-381 -1003h-31l-377 899l-375 -899h-30l-381 1003h67l328 -885l377 906h31l376 -906zM596 1364q0 29 20.5 49.5t49.5 20.5t49 -20.5t20 -49.5t-20 -49.5t-49 -20.5t-49.5 20.5t-20.5 49.5zM987 1364q0 29 20.5 49.5t49.5 20.5t49 -20.5t20 -49.5t-20 -49.5
t-49 -20.5t-49.5 20.5t-20.5 49.5z" />
    <glyph glyph-name="uni1E9E" unicode="&#x1e9e;" horiz-adv-x="1421" 
d="M1298 399q0 -178 -123.5 -298.5t-297.5 -120.5q-105 0 -202 47t-163 129l47 45q54 -74 139 -116t181 -42q149 0 249.5 100.5t100.5 251.5q0 160 -115 264.5t-287 104.5h-71v24l340 504h-820v-1292h-65v1352h981v-25l-342 -506q190 -3 319 -122t129 -300z" />
    <glyph glyph-name="Ygrave" unicode="&#x1ef2;" horiz-adv-x="1249" 
d="M1128 1352l-471 -766v-586h-65v586l-471 766h69l435 -711l434 711h69zM598 1483l-219 370v11h76l196 -381h-53z" />
    <glyph glyph-name="ygrave" unicode="&#x1ef3;" horiz-adv-x="1060" 
d="M920 983h67l-498 -1163q-47 -109 -116.5 -159t-167.5 -50q-67 0 -131 18v56q87 -17 127 -17q81 0 138 41.5t97 136.5l70 166l-432 971h67l398 -891zM510 1151l-219 436v10h76l196 -446h-53z" />
    <glyph glyph-name="uni2009" unicode="&#x2009;" horiz-adv-x="286" 
 />
    <glyph glyph-name="endash" unicode="&#x2013;" horiz-adv-x="1024" 
d="M102 604v58h820v-58h-820z" />
    <glyph glyph-name="emdash" unicode="&#x2014;" horiz-adv-x="2048" 
d="M102 604v58h1844v-58h-1844z" />
    <glyph glyph-name="uni2015" unicode="&#x2015;" horiz-adv-x="2048" 
d="M102 604v58h1844v-58h-1844z" />
    <glyph glyph-name="quoteleft" unicode="&#x2018;" horiz-adv-x="542" 
d="M209 860l67 492h54l-41 -492h-80z" />
    <glyph glyph-name="quoteright" unicode="&#x2019;" horiz-adv-x="542" 
d="M213 860l41 492h80l-68 -492h-53z" />
    <glyph glyph-name="quotesinglbase" unicode="&#x201a;" horiz-adv-x="542" 
d="M213 -362l41 491h80l-68 -491h-53z" />
    <glyph glyph-name="quotedblleft" unicode="&#x201c;" horiz-adv-x="829" 
d="M209 860l67 492h54l-41 -492h-80zM496 860l67 492h53l-41 -492h-79z" />
    <glyph glyph-name="quotedblright" unicode="&#x201d;" horiz-adv-x="829" 
d="M213 860l41 492h80l-68 -492h-53zM500 860l41 492h80l-68 -492h-53z" />
    <glyph glyph-name="quotedblbase" unicode="&#x201e;" horiz-adv-x="829" 
d="M213 -362l41 491h80l-68 -491h-53zM500 -362l41 491h80l-68 -491h-53z" />
    <glyph glyph-name="dagger" unicode="&#x2020;" horiz-adv-x="872" 
d="M406 791v430h-252v57h252v258h61v-258h252v-57h-252v-430h-61z" />
    <glyph glyph-name="daggerdbl" unicode="&#x2021;" horiz-adv-x="872" 
d="M406 729v197h-252v57h252v299h-252v57h252v197h61v-197h252v-57h-252v-299h252v-57h-252v-197h-61z" />
    <glyph glyph-name="bullet" unicode="&#x2022;" horiz-adv-x="690" 
d="M127 541q0 94 65 155.5t154 61.5t153 -61.5t64 -155.5t-64 -155.5t-153 -61.5t-154 61.5t-65 155.5z" />
    <glyph glyph-name="ellipsis" unicode="&#x2026;" horiz-adv-x="1556" 
d="M698 57q0 36 23 59t55 23q34 0 58 -22.5t24 -59.5q0 -34 -24 -55.5t-58 -21.5q-32 0 -55 21.5t-23 55.5zM207 57q0 36 23 59t55 23q34 0 58 -22.5t24 -59.5q0 -34 -24 -55.5t-58 -21.5q-32 0 -55 21.5t-23 55.5zM1190 57q0 36 23 59t55 23q34 0 58 -22.5t24 -59.5
q0 -34 -24 -55.5t-58 -21.5q-32 0 -55 21.5t-23 55.5z" />
    <glyph glyph-name="perthousand" unicode="&#x2030;" horiz-adv-x="2449" 
d="M154 1049q0 135 93.5 229t227.5 94q133 0 228.5 -94.5t95.5 -228.5t-95.5 -229t-228.5 -95q-134 0 -227.5 94.5t-93.5 229.5zM428 0l780 1352h64l-780 -1352h-64zM733 1049q0 113 -74 188.5t-184 75.5t-183 -75.5t-73 -188.5t73 -189t183 -76t184 76t74 189zM1651 307
q0 135 93.5 229.5t227.5 94.5q133 0 228.5 -95t95.5 -229t-95.5 -228.5t-228.5 -94.5q-134 0 -227.5 94t-93.5 229zM897 305q0 135 94 229.5t228 94.5q133 0 228 -95t95 -229t-95 -228.5t-228 -94.5q-134 0 -228 94t-94 229zM2230 307q0 113 -74 188.5t-184 75.5t-183 -75.5
t-73 -188.5t73 -188.5t183 -75.5t184 75.5t74 188.5zM1477 305q0 113 -74 188.5t-184 75.5t-183 -75.5t-73 -188.5t73 -188.5t183 -75.5t184 75.5t74 188.5z" />
    <glyph glyph-name="minute" unicode="&#x2032;" horiz-adv-x="436" 
d="M143 815l95 537h81l-118 -537h-58z" />
    <glyph glyph-name="second" unicode="&#x2033;" horiz-adv-x="722" 
d="M143 815l95 537h81l-118 -537h-58zM430 815l94 537h82l-119 -537h-57z" />
    <glyph glyph-name="guilsinglleft" unicode="&#x2039;" horiz-adv-x="569" 
d="M428 186l-334 353v24l334 352l45 -41l-301 -323l301 -328z" />
    <glyph glyph-name="guilsinglright" unicode="&#x203a;" horiz-adv-x="569" 
d="M141 186l-45 37l301 328l-301 323l45 41l334 -352v-24z" />
    <glyph glyph-name="fraction" unicode="&#x2044;" horiz-adv-x="462" 
d="M-190 0l780 1352h63l-780 -1352h-63z" />
    <glyph glyph-name="uni2070" unicode="&#x2070;" horiz-adv-x="825" 
d="M115 1180q0 202 75 316t224 114q146 0 221.5 -114.5t75.5 -315.5q0 -205 -75 -326t-222 -121t-223 121.5t-76 325.5zM647 1180q0 176 -57.5 273t-175.5 97q-119 0 -176.5 -97t-57.5 -273q0 -181 58.5 -285t175.5 -104t175 104t58 285z" />
    <glyph glyph-name="uni2074" unicode="&#x2074;" horiz-adv-x="704" 
d="M662 971v-58h-132v-168h-63v168h-428v21l287 663h65l-270 -626h346v309h63v-309h132z" />
    <glyph glyph-name="uni2075" unicode="&#x2075;" horiz-adv-x="745" 
d="M653 1014q0 -128 -86 -205q-85 -76 -207 -76q-90 0 -161.5 45t-116.5 121l47 33q89 -139 233 -139q99 0 162.5 60.5t63.5 158.5q0 94 -62.5 147t-177.5 53h-188v385h454v-57h-393v-278q57 8 123 8q143 0 226 -65.5t83 -190.5z" />
    <glyph glyph-name="uni2076" unicode="&#x2076;" horiz-adv-x="743" 
d="M651 1008q0 -115 -81 -195t-199 -80q-116 0 -199 80q-80 80 -80 199q0 66 27 118q26 51 92 152l211 315h76l-234 -342q56 29 111 29q115 0 195.5 -80t80.5 -196zM586 1008q0 94 -61.5 155.5t-153.5 61.5t-152.5 -61.5t-60.5 -155.5t60.5 -154.5t152.5 -60.5q93 0 154 61
t61 154z" />
    <glyph glyph-name="uni2077" unicode="&#x2077;" horiz-adv-x="645" 
d="M49 1597h555v-20l-452 -832h-70l436 795h-469v57z" />
    <glyph glyph-name="uni2078" unicode="&#x2078;" horiz-adv-x="778" 
d="M678 956q0 -101 -78.5 -162t-210.5 -61t-210.5 62t-78.5 163q0 159 222 236q-181 74 -181 213q0 92 70 147.5t178 55.5t178 -55t70 -150q0 -141 -180 -211q221 -77 221 -238zM389 1223q95 34 140.5 75.5t45.5 104.5q0 68 -52.5 109.5t-133.5 41.5t-133.5 -41.5
t-52.5 -109.5q0 -63 45.5 -104.5t140.5 -75.5zM616 961q0 75 -53.5 118.5t-173.5 85.5q-120 -42 -173.5 -85.5t-53.5 -118.5q0 -76 61.5 -124.5t165.5 -48.5t165.5 48.5t61.5 124.5z" />
    <glyph glyph-name="uni2079" unicode="&#x2079;" horiz-adv-x="743" 
d="M651 1331q0 -70 -26 -121q-15 -30 -93 -149l-210 -316h-76l233 342q-54 -28 -110 -28q-116 0 -196.5 80.5t-80.5 195.5q0 114 81.5 194.5t199.5 80.5q116 0 196 -80q82 -79 82 -199zM586 1335q0 94 -60.5 154.5t-152.5 60.5q-93 0 -154 -61t-61 -154q0 -94 61.5 -155.5
t153.5 -61.5t152.5 61.5t60.5 155.5z" />
    <glyph glyph-name="uni207A" unicode="&#x207a;" horiz-adv-x="874" 
d="M406 831v314h-306v55h306v313h61v-313h305v-55h-305v-314h-61z" />
    <glyph glyph-name="uni207B" unicode="&#x207b;" horiz-adv-x="874" 
d="M100 1145v55h672v-55h-672z" />
    <glyph glyph-name="uni207C" unicode="&#x207c;" horiz-adv-x="874" 
d="M117 1303v55h641v-55h-641zM117 987v55h641v-55h-641z" />
    <glyph glyph-name="uni207D" unicode="&#x207d;" horiz-adv-x="497" 
d="M133 1174q0 289 84 448q86 160 211 221l25 -45q-118 -65 -189 -218t-71 -406q0 -254 71 -408t189 -219l-25 -45q-124 61 -211 219q-84 162 -84 453z" />
    <glyph glyph-name="uni207E" unicode="&#x207e;" horiz-adv-x="497" 
d="M70 502l-25 45q118 65 189 219t71 408q0 253 -71 406t-189 218l25 45q126 -62 209 -221q86 -157 86 -448q0 -293 -86 -453q-83 -158 -209 -219z" />
    <glyph glyph-name="uni2080" unicode="&#x2080;" horiz-adv-x="825" 
d="M115 188q0 202 75 316t224 114q146 0 221.5 -114.5t75.5 -315.5q0 -205 -75 -325.5t-222 -120.5t-223 121t-76 325zM647 188q0 176 -57.5 273.5t-175.5 97.5q-119 0 -176.5 -97t-57.5 -274q0 -181 58.5 -285t175.5 -104t175 104t58 285z" />
    <glyph glyph-name="uni2081" unicode="&#x2081;" horiz-adv-x="698" 
d="M104 -246v58h230v737h-230v57h293v-794h205v-58h-498z" />
    <glyph glyph-name="uni2082" unicode="&#x2082;" horiz-adv-x="735" 
d="M190 -188h461v-58h-575v19l311 319q83 85 120.5 147t37.5 128q0 81 -53 136.5t-138 55.5q-88 0 -142 -58.5t-54 -142.5q0 -32 6 -69h-62q-8 27 -8 73q0 104 72.5 180t187.5 76q112 0 184 -70.5t72 -176.5q0 -82 -41 -149.5t-141 -168.5z" />
    <glyph glyph-name="uni2083" unicode="&#x2083;" horiz-adv-x="716" 
d="M625 18q0 -125 -85.5 -200.5t-207.5 -75.5q-90 0 -162 45t-117 121l47 33q90 -140 234 -140q99 0 162 60.5t63 156.5q0 94 -64 148.5t-176 54.5h-71v21l250 307h-392v57h494v-20l-254 -310q110 0 194.5 -68t84.5 -190z" />
    <glyph glyph-name="uni2084" unicode="&#x2084;" horiz-adv-x="704" 
d="M662 -20v-58h-132v-168h-63v168h-428v21l287 663h65l-270 -626h346v309h63v-309h132z" />
    <glyph glyph-name="uni2085" unicode="&#x2085;" horiz-adv-x="745" 
d="M653 23q0 -128 -86 -205q-85 -76 -207 -76q-90 0 -161.5 45t-116.5 121l47 33q90 -140 233 -140q99 0 162.5 60.5t63.5 158.5q0 94 -62.5 147.5t-177.5 53.5h-188v385h454v-57h-393v-279q65 9 123 9q143 0 226 -65.5t83 -190.5z" />
    <glyph glyph-name="uni2086" unicode="&#x2086;" horiz-adv-x="743" 
d="M651 16q0 -114 -81 -194t-199 -80q-116 0 -199 80q-80 80 -80 198q0 66 27 119q26 51 92 152l211 315h76l-234 -342q56 29 111 29q115 0 195.5 -80.5t80.5 -196.5zM586 16q0 94 -61.5 155.5t-153.5 61.5t-152.5 -61.5t-60.5 -155.5t60.5 -154.5t152.5 -60.5q93 0 154 61
t61 154z" />
    <glyph glyph-name="uni2087" unicode="&#x2087;" horiz-adv-x="645" 
d="M49 606h555v-20l-452 -832h-70l436 795h-469v57z" />
    <glyph glyph-name="uni2088" unicode="&#x2088;" horiz-adv-x="778" 
d="M678 -35q0 -101 -78.5 -162t-210.5 -61t-210.5 62t-78.5 163q0 159 222 236q-181 74 -181 213q0 92 70 147t178 55q109 0 178.5 -55t69.5 -149q0 -141 -180 -211q221 -77 221 -238zM389 231q95 34 140.5 75.5t45.5 105.5q0 68 -52.5 109.5t-133.5 41.5t-133.5 -41.5
t-52.5 -109.5q0 -64 45.5 -105.5t140.5 -75.5zM616 -31q0 75 -53.5 119t-173.5 86q-120 -42 -173.5 -86t-53.5 -119q0 -76 61.5 -124t165.5 -48t165.5 48t61.5 124z" />
    <glyph glyph-name="uni2089" unicode="&#x2089;" horiz-adv-x="743" 
d="M651 340q0 -70 -26 -121q-15 -30 -93 -149l-210 -316h-76l233 342q-54 -28 -110 -28q-116 0 -196.5 80.5t-80.5 195.5q0 114 81.5 194t199.5 80q117 0 196 -79q82 -79 82 -199zM586 344q0 94 -60.5 154.5t-152.5 60.5q-93 0 -154 -61t-61 -154q0 -94 61.5 -155.5
t153.5 -61.5t152.5 61.5t60.5 155.5z" />
    <glyph glyph-name="uni208A" unicode="&#x208a;" horiz-adv-x="874" 
d="M406 -162v314h-306v55h306v313h61v-313h305v-55h-305v-314h-61z" />
    <glyph glyph-name="uni208B" unicode="&#x208b;" horiz-adv-x="874" 
d="M100 152v55h672v-55h-672z" />
    <glyph glyph-name="uni208C" unicode="&#x208c;" horiz-adv-x="874" 
d="M117 309v56h641v-56h-641zM117 -6v55h641v-55h-641z" />
    <glyph glyph-name="uni208D" unicode="&#x208d;" horiz-adv-x="497" 
d="M133 180q0 290 84 449q86 160 211 221l25 -45q-118 -65 -189 -218.5t-71 -406.5q0 -254 70.5 -407.5t189.5 -218.5l-25 -46q-124 61 -211 222q-84 159 -84 450z" />
    <glyph glyph-name="uni208E" unicode="&#x208e;" horiz-adv-x="497" 
d="M70 -492l-25 46q119 65 189.5 218.5t70.5 407.5q0 253 -71 406.5t-189 218.5l25 45q126 -62 209 -221q86 -157 86 -449q0 -293 -86 -450q-83 -161 -209 -222z" />
    <glyph glyph-name="lira" unicode="&#x20a4;" horiz-adv-x="1011" 
d="M293 59h627v-59h-781v25q117 62 190 155.5t83 206.5h-252v57h254q-8 108 -82 250h-172v58h143q-48 95 -69 157.5t-21 130.5q0 148 96.5 240t251.5 92q139 0 234.5 -79t140.5 -226l-64 -20q-83 262 -313 262q-128 0 -202 -76.5t-74 -196.5q0 -66 20.5 -125t73.5 -159h407
v-58h-378q71 -148 73 -250h305v-57h-307q-7 -101 -56 -186.5t-128 -141.5z" />
    <glyph glyph-name="peseta" unicode="&#x20a7;" horiz-adv-x="1153" 
d="M1153 1018v-57h-180q-11 -145 -114.5 -234.5t-272.5 -89.5h-281v-637h-65v961h-177v57h177v334h346q171 0 276 -92t113 -242h178zM582 1292h-277v-274h602q-8 125 -93 199.5t-232 74.5zM905 961h-600v-265h277q144 0 228 71.5t95 193.5z" />
    <glyph glyph-name="Euro" unicode="&#x20ac;" horiz-adv-x="1400" 
d="M1237 213l47 -39q-74 -93 -184.5 -143.5t-245.5 -50.5q-228 0 -393 139q-160 138 -213 370h-232v58h222q-11 83 -11 129q0 66 9 119h-213v57h223q46 233 211 376.5t397 143.5q135 0 245.5 -50.5t184.5 -143.5l-47 -39q-132 170 -379 170q-211 0 -354.5 -123.5
t-188.5 -333.5h693l-17 -57h-686q-8 -47 -8 -119q0 -54 10 -129h615l-17 -58h-588q48 -206 190.5 -326t350.5 -120q247 0 379 170z" />
    <glyph glyph-name="uni20AE" unicode="&#x20ae;" horiz-adv-x="1196" 
d="M1141 1292h-510v-518l399 150v-64l-399 -149v-248l399 149v-63l-399 -150v-399h-66v377l-397 -148v64l397 147v248l-397 -147v63l397 148v540h-510v60h1086v-60z" />
    <glyph glyph-name="uni20B4" unicode="&#x20b4;" horiz-adv-x="1116" 
d="M1049 489h-736q-65 -71 -65 -167q0 -123 89 -201t230 -78q125 0 237 68.5t187 189.5l49 -37q-82 -135 -206 -209.5t-265 -74.5q-166 0 -278.5 97.5t-112.5 244.5q0 96 53 167h-163v58h215q74 71 202 145l115 70l53 33h-581v57h663q66 51 92.5 97.5t26.5 109.5
q0 110 -84 180t-217 70q-100 0 -186 -46.5t-148 -132.5l-47 37q66 97 167 151t218 54q163 0 264 -88q103 -86 103 -225q0 -64 -21.5 -112t-71.5 -95h216v-57h-285q-41 -30 -131 -86l-115 -70q-92 -58 -139 -92h672v-58z" />
    <glyph glyph-name="uni20B8" unicode="&#x20b8;" horiz-adv-x="1196" 
d="M55 1292v60h1086v-60h-1086zM565 0v987h-510v60h1086v-60h-510v-987h-66z" />
    <glyph glyph-name="uni20B9" unicode="&#x20b9;" horiz-adv-x="1011" 
d="M858 1352v-60l-330 2q150 -78 172 -247h158v-60h-153q-5 -157 -109 -253.5t-281 -96.5h-127l670 -637h-86l-674 637v59h213q152 0 238 79.5t88 211.5h-545v60h541q-18 113 -101.5 179t-220.5 66h-213v60h760z" />
    <glyph glyph-name="uni20BA" unicode="&#x20ba;" horiz-adv-x="1028" 
d="M942 438q0 -207 -168 -332.5t-446 -125.5h-37v559l-217 -101v64l217 100v248l-217 -100v63l217 100v439h65v-412l416 190v-63l-416 -190v-248l416 190v-63l-416 -191v-524q230 6 375.5 115.5t145.5 275.5q0 46 -17 146h62q20 -64 20 -140z" />
    <glyph glyph-name="uni20BD" unicode="&#x20bd;" horiz-adv-x="1148" 
d="M240 0v330h-177v59h177v246h-177v59h177v658h407q180 0 284.5 -99.5t104.5 -257.5q0 -161 -104.5 -260.5t-284.5 -99.5h-342v-246h553v-59h-553v-330h-65zM305 694h338q154 0 240 82.5t86 216.5t-86 216.5t-240 82.5h-338v-598z" />
    <glyph glyph-name="uni20BF" unicode="&#x20bf;" horiz-adv-x="1183" 
d="M737 66v-252h-63v249h-228v-249h-63v249h-172v1227h172v248h63v-248h220h8v248h63v-254q116 -19 180 -93.5t64 -191.5q0 -91 -46 -159t-126 -101q119 -31 185.5 -117t66.5 -210q0 -145 -87 -237t-237 -109zM659 1231h-383v-469h383q122 0 190.5 62.5t68.5 172.5t-68 172
t-191 62zM997 410q0 134 -85.5 213t-231.5 79h-404v-579h404q146 0 231.5 78t85.5 209z" />
    <glyph glyph-name="uni2113" unicode="&#x2113;" horiz-adv-x="743" 
d="M500 37q55 0 162 22v-55q-88 -24 -166 -24q-137 0 -215 87t-78 246v109l-41 -43l-82 -86l-41 43q80 80 164 174v698q0 178 64.5 263t181.5 85q106 0 164.5 -66t58.5 -202q0 -182 -105 -381t-303 -426v-168q0 -136 60 -206t176 -70zM264 1212v-643q168 199 255 374t87 341
q0 114 -39 163.5t-114 49.5q-189 0 -189 -285z" />
    <glyph glyph-name="uni2116" unicode="&#x2116;" horiz-adv-x="2312" 
d="M1165 131v1221h66v-1372h-31l-924 1230v-1210h-65v1372h31zM1544 811q0 135 94 229.5t228 94.5q133 0 228 -95t95 -229t-95 -229t-228 -95q-134 0 -228 94.5t-94 229.5zM1610 811q0 -113 73 -188.5t183 -75.5t184 75.5t74 188.5t-74 188.5t-184 75.5t-183 -75.5
t-73 -188.5zM1565 246v57h604v-57h-604z" />
    <glyph glyph-name="uni2117" unicode="&#x2117;" horiz-adv-x="1605" 
d="M117 676q-3 190 89.5 352t251.5 255t343 89q137 2 265 -52.5t221.5 -148t148.5 -224t53 -271.5q2 -141 -53 -271t-148.5 -224t-221.5 -149t-265 -52q-138 -3 -265.5 52t-220 149t-146.5 224t-52 271zM1425 678q2 127 -46.5 245.5t-132 204.5t-200 136.5t-243.5 48.5
q-127 2 -243.5 -48t-200.5 -135.5t-132.5 -204t-46.5 -247.5q-3 -172 80 -320.5t228 -235t315 -83.5q170 -3 314.5 83.5t227.5 235t80 320.5zM565 301v727h318q111 0 177 -62t66 -161t-66 -161t-177 -62h-254v-281h-64zM629 637h254q86 0 133 45.5t47 122.5q0 76 -47 122
t-133 46h-254v-336z" />
    <glyph glyph-name="trademark" unicode="&#x2122;" horiz-adv-x="1923" 
d="M961 432v934h24l383 -551l381 551h27v-934h-66v768l-330 -475h-26l-330 475v-768h-63zM379 432v862h-340v58h743v-58h-340v-862h-63z" />
    <glyph glyph-name="uni2126" unicode="&#x2126;" horiz-adv-x="1626" 
d="M1090 59h389v-59h-523v57q474 226 474 639q0 173 -80 313t-221.5 220t-315.5 80q-175 0 -316 -79.5t-220.5 -219t-79.5 -312.5q0 -416 473 -641v-57h-523v59h388q-408 246 -408 637q-2 140 51 266t144.5 216.5t219.5 143t269 50.5q141 2 269.5 -50.5t221 -143t146 -217
t51.5 -265.5q0 -195 -101 -351.5t-308 -285.5z" />
    <glyph glyph-name="estimated" unicode="&#x212e;" horiz-adv-x="1628" 
d="M1497 670h-1114v-420q73 -102 188.5 -157.5t262.5 -55.5q161 0 297 65.5t231 180.5l45 -39q-101 -124 -251 -194t-322 -70q-147 -2 -280 52.5t-228.5 147.5t-150.5 221t-52 267q-3 142 55 274t154.5 226.5t226.5 150.5t266 53q122 2 245 -42.5t221 -121.5t158 -190.5
t56 -237.5q0 -66 -8 -110zM383 1100v-373h862v403q-74 88 -179 135.5t-232 47.5q-141 0 -258 -56t-193 -157z" />
    <glyph glyph-name="uni2150" unicode="&#x2150;" horiz-adv-x="1806" 
d="M104 500v57h230v737h-230v58h293v-795h205v-57h-498zM508 0l780 1352h64l-781 -1352h-63zM1210 852h555v-21l-452 -831h-70l436 795h-469v57z" />
    <glyph glyph-name="uni2151" unicode="&#x2151;" horiz-adv-x="1843" 
d="M104 500v57h230v737h-230v58h293v-795h205v-57h-498zM508 0l780 1352h64l-781 -1352h-63zM1751 586q0 -68 -27 -121q-21 -42 -92 -150l-211 -315h-75l233 342q-56 -29 -111 -29q-115 0 -195.5 80.5t-80.5 196.5q0 114 81.5 194t199.5 80q116 0 196 -80q82 -79 82 -198z
M1686 590q0 94 -60.5 154.5t-152.5 60.5q-93 0 -154.5 -61t-61.5 -154q0 -94 61.5 -155.5t154.5 -61.5q92 0 152.5 61.5t60.5 155.5z" />
    <glyph glyph-name="uni2152" unicode="&#x2152;" horiz-adv-x="2684" 
d="M104 500v57h230v737h-230v58h293v-795h205v-57h-498zM508 0l780 1352h64l-781 -1352h-63zM1266 0v57h229v738h-229v57h293v-795h204v-57h-497zM1974 434q0 202 75 316t224 114q146 0 221.5 -114.5t75.5 -315.5q0 -205 -75 -325.5t-222 -120.5t-223 121t-76 325zM2507 434
q0 176 -58 273.5t-176 97.5q-119 0 -176 -97t-57 -274q0 -181 58 -285t175 -104t175.5 104t58.5 285z" />
    <glyph glyph-name="uni2153" unicode="&#x2153;" horiz-adv-x="1878" 
d="M104 500v57h230v737h-230v58h293v-795h205v-57h-498zM508 0l780 1352h64l-781 -1352h-63zM1786 264q0 -125 -85.5 -200.5t-207.5 -75.5q-90 0 -162 45t-117 121l48 32q89 -139 233 -139q99 0 162 60.5t63 156.5q0 94 -63.5 148.5t-175.5 54.5h-72v20l250 308h-391v57h493
v-21l-254 -309q110 0 194.5 -68t84.5 -190z" />
    <glyph glyph-name="uni2154" unicode="&#x2154;" horiz-adv-x="1914" 
d="M190 557h461v-57h-575v18l311 320q83 85 120.5 146.5t37.5 127.5q0 81 -53 137t-138 56q-88 0 -142 -58.5t-54 -142.5q0 -32 6 -70h-62q-8 27 -8 74q0 104 72.5 180t187.5 76q112 0 184 -70.5t72 -177.5q0 -81 -41 -148t-141 -169zM545 0l780 1352h64l-781 -1352h-63z
M1823 264q0 -125 -85.5 -200.5t-207.5 -75.5q-90 0 -162 45t-117 121l47 32q89 -139 234 -139q99 0 162 60.5t63 156.5q0 94 -63.5 148.5t-175.5 54.5h-72v20l250 308h-391v57h493v-21l-254 -309q110 0 194.5 -68t84.5 -190z" />
    <glyph glyph-name="uni2155" unicode="&#x2155;" horiz-adv-x="1890" 
d="M104 500v57h230v737h-230v58h293v-795h205v-57h-498zM508 0l780 1352h64l-781 -1352h-63zM1798 268q0 -128 -86 -205q-84 -75 -207 -75q-90 0 -161.5 45t-116.5 121l47 32q89 -139 233 -139q99 0 162.5 60.5t63.5 158.5q0 94 -62.5 147.5t-177.5 53.5h-188v385h454v-57
h-393v-279q57 8 123 8q143 0 226 -65.5t83 -190.5z" />
    <glyph glyph-name="uni2156" unicode="&#x2156;" horiz-adv-x="1927" 
d="M190 557h461v-57h-575v18l311 320q83 85 120.5 146.5t37.5 127.5q0 81 -53 137t-138 56q-88 0 -142 -58.5t-54 -142.5q0 -32 6 -70h-62q-8 27 -8 74q0 104 72.5 180t187.5 76q112 0 184 -70.5t72 -177.5q0 -81 -41 -148t-141 -169zM545 0l780 1352h64l-781 -1352h-63z
M1835 268q0 -128 -86 -205q-84 -75 -207 -75q-90 0 -161.5 45t-116.5 121l47 32q89 -139 233 -139q99 0 162 60.5t63 158.5q0 95 -62 148t-177 53h-189v385h455v-57h-393v-279q57 8 123 8q143 0 226 -65.5t83 -190.5z" />
    <glyph glyph-name="uni2157" unicode="&#x2157;" horiz-adv-x="1837" 
d="M625 764q0 -125 -85.5 -201t-207.5 -76q-90 0 -162 45t-117 121l47 33q89 -139 234 -139q99 0 162 60.5t63 156.5q0 94 -64 148.5t-176 54.5h-71v20l250 307h-392v58h494v-21l-254 -309q110 0 194.5 -68t84.5 -190zM455 0l780 1352h63l-780 -1352h-63zM1745 268
q0 -128 -86 -205q-84 -75 -207 -75q-90 0 -161.5 45t-116.5 121l47 32q89 -139 233 -139q99 0 162 60.5t63 158.5q0 95 -62 148t-177 53h-189v385h455v-57h-393v-279q57 8 123 8q143 0 226 -65.5t83 -190.5z" />
    <glyph glyph-name="uni2158" unicode="&#x2158;" horiz-adv-x="1916" 
d="M662 725v-57h-132v-168h-63v168h-428v20l287 664h65l-270 -627h346v309h63v-309h132zM535 0l780 1352h63l-780 -1352h-63zM1825 268q0 -128 -86 -205q-84 -75 -207 -75q-90 0 -162 45t-117 121l47 32q89 -139 234 -139q99 0 162 60.5t63 158.5q0 95 -62 148t-177 53h-189
v385h455v-57h-393v-279q57 8 123 8q143 0 226 -65.5t83 -190.5z" />
    <glyph glyph-name="uni2159" unicode="&#x2159;" horiz-adv-x="1740" 
d="M104 500v57h230v737h-230v58h293v-795h205v-57h-498zM508 0l780 1352h64l-781 -1352h-63zM1649 262q0 -114 -81.5 -194t-199.5 -80q-116 0 -199 80q-79 79 -79 198q0 68 26 119t92 152l211 315h76l-233 -342q56 29 110 29q116 0 196.5 -80.5t80.5 -196.5zM1583 262
q0 94 -61.5 155.5t-153.5 61.5t-152.5 -61.5t-60.5 -155.5t60.5 -154.5t152.5 -60.5q93 0 154 61t61 154z" />
    <glyph glyph-name="uni215A" unicode="&#x215a;" horiz-adv-x="1716" 
d="M653 768q0 -128 -86 -205q-85 -76 -207 -76q-90 0 -161.5 45t-116.5 121l47 33q89 -139 233 -139q99 0 162.5 60.5t63.5 158.5q0 94 -62.5 147.5t-177.5 53.5h-188v385h454v-58h-393v-278q57 8 123 8q143 0 226 -65.5t83 -190.5zM483 0l781 1352h63l-780 -1352h-64z
M1624 262q0 -114 -81.5 -194t-199.5 -80q-115 0 -198 80q-80 80 -80 198q0 66 27 119q26 51 92 152l211 315h75l-233 -342q56 29 111 29q115 0 195.5 -80.5t80.5 -196.5zM1559 262q0 94 -61.5 155.5t-154.5 61.5q-92 0 -152.5 -61.5t-60.5 -155.5t60.5 -154.5t152.5 -60.5
q93 0 154.5 61t61.5 154z" />
    <glyph glyph-name="oneeighth" unicode="&#x215b;" horiz-adv-x="1847" 
d="M104 500v57h230v737h-230v58h293v-795h205v-57h-498zM508 0l780 1352h64l-781 -1352h-63zM1747 211q0 -101 -78.5 -162t-210.5 -61t-210.5 62t-78.5 163q0 159 222 236q-181 74 -181 213q0 92 70 147t178 55t178 -55t70 -150q0 -140 -180 -210q221 -77 221 -238z
M1458 477q96 34 141.5 75.5t45.5 104.5q0 68 -53 110t-134 42t-133.5 -42t-52.5 -110q0 -63 45.5 -104.5t140.5 -75.5zM1686 215q0 75 -54 119t-174 86q-120 -42 -173.5 -86t-53.5 -119q0 -76 61.5 -124t165.5 -48t166 48t62 124z" />
    <glyph glyph-name="threeeighths" unicode="&#x215c;" horiz-adv-x="1794" 
d="M625 764q0 -125 -85.5 -201t-207.5 -76q-90 0 -162 45t-117 121l47 33q89 -139 234 -139q99 0 162 60.5t63 156.5q0 94 -64 148.5t-176 54.5h-71v20l250 307h-392v58h494v-21l-254 -309q110 0 194.5 -68t84.5 -190zM455 0l780 1352h63l-780 -1352h-63zM1694 211
q0 -101 -78.5 -162t-210.5 -61t-210.5 62t-78.5 163q0 159 221 236q-180 74 -180 213q0 92 70 147t178 55t178 -55t70 -150q0 -140 -180 -210q221 -77 221 -238zM1405 477q95 34 140.5 75.5t45.5 104.5q0 68 -52.5 110t-133.5 42t-133.5 -42t-52.5 -110q0 -63 45.5 -104.5
t140.5 -75.5zM1632 215q0 75 -53.5 119t-173.5 86q-120 -42 -173.5 -86t-53.5 -119q0 -76 61.5 -124t165.5 -48t165.5 48t61.5 124z" />
    <glyph glyph-name="fiveeighths" unicode="&#x215d;" horiz-adv-x="1822" 
d="M653 768q0 -128 -86 -205q-85 -76 -207 -76q-90 0 -161.5 45t-116.5 121l47 33q89 -139 233 -139q99 0 162.5 60.5t63.5 158.5q0 94 -62.5 147.5t-177.5 53.5h-188v385h454v-58h-393v-278q57 8 123 8q143 0 226 -65.5t83 -190.5zM483 0l781 1352h63l-780 -1352h-64z
M1722 211q0 -101 -78 -162t-210 -61t-210.5 62t-78.5 163q0 159 221 236q-180 74 -180 213q0 92 70 147t178 55t177.5 -55t69.5 -150q0 -140 -180 -210q221 -77 221 -238zM1434 477q95 34 140.5 75.5t45.5 104.5q0 68 -52.5 110t-133.5 42t-134 -42t-53 -110
q0 -63 45.5 -104.5t141.5 -75.5zM1661 215q0 75 -53.5 119t-173.5 86q-120 -42 -174 -86t-54 -119q0 -76 62 -124t166 -48t165.5 48t61.5 124z" />
    <glyph glyph-name="seveneighths" unicode="&#x215e;" horiz-adv-x="1593" 
d="M49 1352h555v-21l-452 -831h-70l436 794h-469v58zM254 0l780 1352h64l-781 -1352h-63zM1493 211q0 -101 -78.5 -162t-210.5 -61t-210.5 62t-78.5 163q0 159 222 236q-181 74 -181 213q0 92 70 147t178 55t178 -55t70 -150q0 -140 -180 -210q221 -77 221 -238zM1204 477
q96 34 141.5 75.5t45.5 104.5q0 68 -53 110t-134 42t-133.5 -42t-52.5 -110q0 -63 45.5 -104.5t140.5 -75.5zM1432 215q0 75 -54 119t-174 86q-120 -42 -173.5 -86t-53.5 -119q0 -76 61.5 -124t165.5 -48t166 48t62 124z" />
    <glyph glyph-name="arrowleft" unicode="&#x2190;" horiz-adv-x="1331" 
d="M1208 604h-936l428 -428l-38 -39l-486 486v24l486 486l38 -39l-432 -432h940v-58z" />
    <glyph glyph-name="arrowup" unicode="&#x2191;" horiz-adv-x="1331" 
d="M1157 625l-39 -39l-420 420v-871h-61v875l-424 -424l-39 39l479 479h25z" />
    <glyph glyph-name="arrowright" unicode="&#x2192;" horiz-adv-x="1331" 
d="M670 1133l485 -486v-24l-485 -486l-39 39l428 428h-936v58h940l-432 432z" />
    <glyph glyph-name="arrowdown" unicode="&#x2193;" horiz-adv-x="1331" 
d="M1118 686l39 -39l-479 -479h-25l-479 479l39 39l424 -424v875h61v-871z" />
    <glyph glyph-name="arrowboth" unicode="&#x2194;" horiz-adv-x="1966" 
d="M1305 1133l485 -486v-24l-485 -486l-39 39l428 428h-1422l428 -428l-38 -39l-486 486v24l486 486l38 -39l-432 -432h1430l-432 432z" />
    <glyph glyph-name="arrowupdn" unicode="&#x2195;" horiz-adv-x="1331" 
d="M698 0l420 420l39 -39l-479 -479h-25l-479 479l39 39l424 -424v1360l-424 -424l-39 39l479 479h25l479 -479l-39 -39l-420 420v-1352z" />
    <glyph glyph-name="uni2196" unicode="&#x2196;" horiz-adv-x="1331" 
d="M1102 223l-43 -43l-697 697v-627h-59v717l16 16h717v-57h-635z" />
    <glyph glyph-name="uni2197" unicode="&#x2197;" horiz-adv-x="1331" 
d="M1012 983l16 -16v-717h-59v627l-697 -697l-43 43l701 703h-635v57h717z" />
    <glyph glyph-name="uni2198" unicode="&#x2198;" horiz-adv-x="1331" 
d="M969 979h59v-717l-16 -16h-717v57h635l-701 703l43 43l697 -697v627z" />
    <glyph glyph-name="uni2199" unicode="&#x2199;" horiz-adv-x="1331" 
d="M401 303h635v-57h-717l-16 16v717h59v-627l697 697l43 -43z" />
    <glyph glyph-name="partialdiff" unicode="&#x2202;" horiz-adv-x="1159" 
d="M1006 756q0 -223 -63.5 -400t-183 -279t-274.5 -102q-167 0 -280 107.5t-113 290.5q0 195 133.5 316.5t366.5 121.5q146 0 348 -41q-1 272 -102 407.5t-275 135.5q-204 0 -327 -168l-46 37q68 90 163.5 140t211.5 50q204 0 322.5 -156t118.5 -460zM940 715
q-205 39 -348 39q-110 0 -195 -31t-136 -84.5t-77 -120t-26 -143.5q0 -150 94 -245t235 -95q133 0 235 90t157 243t61 347z" />
    <glyph glyph-name="uni2206" unicode="&#x2206;" horiz-adv-x="1361" 
d="M696 1372l564 -1347v-25h-1158v25l564 1347h30zM680 1257l-498 -1198h998z" />
    <glyph glyph-name="product" unicode="&#x220f;" horiz-adv-x="1400" 
d="M211 -248v1600h979v-1600h-66v1540h-848v-1540h-65z" />
    <glyph glyph-name="summation" unicode="&#x2211;" horiz-adv-x="1112" 
d="M209 -188h821v-60h-917v27l530 792l-530 754v27h893v-60h-795l496 -704v-27z" />
    <glyph glyph-name="minus" unicode="&#x2212;" 
d="M135 604v58h875v-58h-875z" />
    <glyph glyph-name="uni2219" unicode="&#x2219;" horiz-adv-x="573" 
d="M207 631q0 36 23 59t55 23q34 0 58 -22.5t24 -59.5q0 -34 -24.5 -56t-57.5 -22q-32 0 -55 22t-23 56z" />
    <glyph glyph-name="radical" unicode="&#x221a;" horiz-adv-x="1497" 
d="M1411 1536h66l-1051 -1808h-31v753h-313v58h375v-645z" />
    <glyph glyph-name="infinity" unicode="&#x221e;" horiz-adv-x="1591" 
d="M1501 631q0 -126 -89.5 -209.5t-223.5 -83.5q-77 0 -144.5 31t-122 81t-124.5 136q-106 -131 -192.5 -189.5t-201.5 -58.5q-137 0 -225 82t-88 211q0 127 91 211t225 84q110 0 197 -58.5t192 -185.5q106 128 192 186t197 58q134 0 225.5 -84t91.5 -211zM756 633
q-102 126 -176.5 179.5t-171.5 53.5q-109 0 -180.5 -65.5t-71.5 -169.5t70.5 -169t179.5 -65q97 0 172 54.5t178 181.5zM1436 631q0 104 -71.5 169.5t-180.5 65.5q-97 0 -171.5 -53.5t-176.5 -179.5q109 -130 181.5 -183t168.5 -53q109 0 179.5 65t70.5 169z" />
    <glyph glyph-name="integral" unicode="&#x222b;" horiz-adv-x="618" 
d="M14 -248v53q58 -6 99 -6q235 0 235 289q0 75 -16 209q-13 109 -56 383q-71 434 -71 584q0 168 79 256t216 88q47 0 104 -11v-53q-58 6 -98 6q-236 0 -236 -286q0 -70 17 -213q17 -142 55 -379q72 -430 72 -584q0 -172 -78.5 -259t-216.5 -87q-53 0 -105 10z" />
    <glyph glyph-name="approxequal" unicode="&#x2248;" 
d="M655 748l-202 122q-83 50 -134 50q-42 0 -68 -29t-26 -74v-63h-59q0 21 -1 41t-1 22q0 66 41 113t110 47q68 0 174 -64l203 -122q83 -50 133 -50q42 0 68.5 29t26.5 74v63h59q0 -21 1 -41t1 -22q0 -66 -41.5 -113t-110.5 -47q-68 0 -174 64zM655 338l-202 123
q-82 49 -134 49q-42 0 -68 -28.5t-26 -73.5v-64h-59q0 21 -1 41.5t-1 22.5q0 66 41 112.5t110 46.5q70 0 174 -63l203 -123q82 -49 133 -49q42 0 68.5 28.5t26.5 73.5v64h59q0 -21 1 -41.5t1 -22.5q0 -66 -41.5 -113t-110.5 -47q-68 0 -174 64z" />
    <glyph glyph-name="notequal" unicode="&#x2260;" 
d="M989 809h-264l-231 -354h495v-58h-532l-160 -245h-72l160 245h-229v58h266l231 354h-497v57h534l158 244h72l-158 -244h227v-57z" />
    <glyph glyph-name="lessequal" unicode="&#x2264;" 
d="M983 1024v-63l-731 -285l731 -285v-63l-854 336v24zM150 0v57h833v-57h-833z" />
    <glyph glyph-name="greaterequal" unicode="&#x2265;" 
d="M164 1024l854 -336v-24l-854 -336v63l731 285l-731 285v63zM164 0v57h833v-57h-833z" />
    <glyph glyph-name="uni24EA" unicode="&#x24ea;" horiz-adv-x="2002" 
d="M121 676q-3 140 41.5 275t127 244.5t192 192t244.5 127t275 41.5q175 3 339 -68t283.5 -190.5t190.5 -283.5t68 -338q2 -117 -29.5 -230.5t-89.5 -211t-140.5 -180t-180 -140.5t-211 -89.5t-230.5 -29.5q-175 -4 -339.5 67t-284 190.5t-190 284t-66.5 339.5zM1825 676
q4 162 -63 315t-179 264.5t-266 178t-316 63.5q-163 3 -316.5 -63.5t-265.5 -178t-178.5 -264.5t-62.5 -315q-4 -162 62.5 -315t178.5 -264.5t265.5 -178t316.5 -63.5q162 -3 316 63.5t266 178t179 264.5t63 315zM682 682q0 219 81.5 343t237.5 124q158 0 240 -124t82 -343
q0 -210 -80 -346q-77 -135 -242 -135q-164 0 -241 135q-78 138 -78 346zM1257 682q0 195 -63 301.5t-193 106.5q-253 0 -253 -408q0 -197 63 -309.5t190 -112.5q129 0 192.5 112t63.5 310z" />
    <glyph glyph-name="uni24FF" unicode="&#x24ff;" horiz-adv-x="2002" 
d="M121 676q-3 140 41.5 275t127 244.5t192 192t244.5 127t275 41.5q175 3 339 -68t283.5 -190.5t190.5 -283.5t68 -338q2 -117 -29.5 -230.5t-89.5 -211t-140.5 -180t-180 -140.5t-211 -89.5t-230.5 -29.5q-175 -4 -339.5 67t-284 190.5t-190 284t-66.5 339.5zM1323 682
q0 219 -82 343t-240 124q-156 0 -237.5 -124t-81.5 -343q0 -208 78 -346q77 -135 241 -135q165 0 242 135q80 136 80 346zM748 682q0 408 253 408q130 0 193 -106.5t63 -301.5q0 -198 -63.5 -310t-192.5 -112q-127 0 -190 112.5t-63 309.5z" />
    <glyph glyph-name="filledbox" unicode="&#x25a0;" horiz-adv-x="1495" 
d="M184 113v1126h1127v-1126h-1127z" />
    <glyph glyph-name="uni25A1" unicode="&#x25a1;" horiz-adv-x="1495" 
d="M184 113v1126h1127v-1126h-1127zM248 172h999v1008h-999v-1008z" />
    <glyph glyph-name="uni25AA" unicode="&#x25aa;" horiz-adv-x="1085" 
d="M164 102v779h780v-779h-780z" />
    <glyph glyph-name="uni25AB" unicode="&#x25ab;" horiz-adv-x="1085" 
d="M164 102v779h780v-779h-780zM225 160h658v663h-658v-663z" />
    <glyph glyph-name="triagup" unicode="&#x25b2;" horiz-adv-x="1495" 
d="M49 113l-8 20l696 1219h21l696 -1219l-8 -20h-1397z" />
    <glyph glyph-name="uni25B3" unicode="&#x25b3;" horiz-adv-x="1495" 
d="M758 1352l696 -1219l-8 -20h-1397l-8 20l696 1219h21zM1362 172l-614 1075l-615 -1075h1229z" />
    <glyph glyph-name="uni25B4" unicode="&#x25b4;" horiz-adv-x="1085" 
d="M61 102l-8 21l479 838h21l479 -838l-8 -21h-963z" />
    <glyph glyph-name="uni25B5" unicode="&#x25b5;" horiz-adv-x="1085" 
d="M553 961l479 -838l-8 -21h-963l-8 21l479 838h21zM942 160l-399 696l-402 -696h801z" />
    <glyph glyph-name="uni25B6" unicode="&#x25b6;" horiz-adv-x="1495" 
d="M266 -20l-20 8v1376l20 8l1069 -686v-20z" />
    <glyph glyph-name="uni25B7" unicode="&#x25b7;" horiz-adv-x="1495" 
d="M266 1372l1069 -686v-20l-1069 -686l-20 8v1376zM1239 676l-930 596v-1192z" />
    <glyph glyph-name="uni25B8" unicode="&#x25b8;" horiz-adv-x="1085" 
d="M246 10l-21 8v949l21 8l735 -471v-21z" />
    <glyph glyph-name="uni25B9" unicode="&#x25b9;" horiz-adv-x="1085" 
d="M246 975l735 -471v-21l-735 -473l-21 8v949zM889 494l-602 385v-773z" />
    <glyph glyph-name="triagrt" unicode="&#x25ba;" horiz-adv-x="1968" 
d="M225 -20l-20 8v1376l20 8l1702 -686v-20z" />
    <glyph glyph-name="uni25BB" unicode="&#x25bb;" horiz-adv-x="1968" 
d="M225 1372l1702 -686v-20l-1702 -686l-20 8v1376zM1790 676l-1522 614v-1229z" />
    <glyph glyph-name="triagdn" unicode="&#x25bc;" horiz-adv-x="1495" 
d="M49 1239h1397l8 -20l-696 -1219h-21l-696 1219z" />
    <glyph glyph-name="uni25BD" unicode="&#x25bd;" horiz-adv-x="1495" 
d="M1446 1239l8 -20l-696 -1219h-21l-696 1219l8 20h1397zM1362 1180h-1229l615 -1076z" />
    <glyph glyph-name="uni25BE" unicode="&#x25be;" horiz-adv-x="1085" 
d="M532 23l-479 837l8 21h963l8 -21l-479 -837h-21z" />
    <glyph glyph-name="uni25BF" unicode="&#x25bf;" horiz-adv-x="1085" 
d="M1024 881l8 -21l-479 -837h-21l-479 837l8 21h963zM942 823h-801l402 -696z" />
    <glyph glyph-name="uni25C0" unicode="&#x25c0;" horiz-adv-x="1495" 
d="M1229 -20l-1069 686v20l1069 686l20 -8v-1376z" />
    <glyph glyph-name="uni25C1" unicode="&#x25c1;" horiz-adv-x="1495" 
d="M1229 1372l20 -8v-1376l-20 -8l-1069 686v20zM1186 80v1192l-930 -596z" />
    </font>
</defs>
</svg>
