<?xml version="1.0" standalone="no"?>
<!DOCTYPE svg PUBLIC "-//W3C//DTD SVG 1.1//EN" "http://www.w3.org/Graphics/SVG/1.1/DTD/svg11.dtd" >
<svg xmlns="http://www.w3.org/2000/svg" xmlns:xlink="http://www.w3.org/1999/xlink" version="1.1">
<metadata>
Created by FontForge 20170731 at Mon Dec 21 18:11:35 2020
 By Aleksey,,,
Copyright (c) 2015, 2018 by Jakob Runge, under exclusive license to TypeMates. All rights reserved.
</metadata>
<defs>
<font id="CeraPro-Regular" horiz-adv-x="1146" >
  <font-face 
    font-family="Cera Pro"
    font-weight="400"
    font-stretch="normal"
    units-per-em="2048"
    panose-1="0 0 5 0 0 0 0 0 0 0"
    ascent="1655"
    descent="-393"
    x-height="997"
    cap-height="1352"
    bbox="-909 -496 2669 2048"
    underline-thickness="133"
    underline-position="-337"
    unicode-range="U+0020-FB02"
  />
<missing-glyph horiz-adv-x="1447" 
d="M186 1352h1076v-1352h-1076v1352zM1143 106v1137h-842z" />
    <glyph glyph-name="fi" unicode="fi" horiz-adv-x="1155" 
d="M356 1225v-228h250v-141h-250v-856h-157v856h-144v141h144v238q0 161 86.5 242.5t242.5 81.5q59 0 125 -17v-133q-49 6 -88 6q-104 0 -156.5 -44t-52.5 -146zM825 0v997h158v-997h-158zM786 1378q0 47 35 81t84 34q47 0 82 -34t35 -81q0 -49 -33.5 -81.5t-83.5 -32.5
t-84.5 32.5t-34.5 81.5z" />
    <glyph glyph-name="fl" unicode="fl" horiz-adv-x="1155" 
d="M356 1225v-228h250v-141h-250v-856h-157v856h-144v141h144v238q0 161 86.5 242.5t242.5 81.5q59 0 125 -17v-133q-49 6 -88 6q-104 0 -156.5 -44t-52.5 -146zM825 0v1536h158v-1536h-158z" />
    <glyph glyph-name=".notdef" horiz-adv-x="1447" 
d="M186 1352h1076v-1352h-1076v1352zM1143 106v1137h-842z" />
    <glyph glyph-name=".null" horiz-adv-x="0" 
 />
    <glyph glyph-name="nonmarkingreturn" horiz-adv-x="682" 
 />
    <glyph glyph-name="space" unicode=" " horiz-adv-x="573" 
 />
    <glyph glyph-name="exclam" unicode="!" horiz-adv-x="624" 
d="M246 428l-31 924h191l-29 -924h-131zM182 106q0 55 37.5 92.5t91.5 37.5q55 0 92 -37t37 -93t-37 -92.5t-92 -36.5q-54 0 -91.5 37t-37.5 92z" />
    <glyph glyph-name="quotedbl" unicode="&#x22;" horiz-adv-x="948" 
d="M193 825l28 527h185l-89 -527h-124zM567 825l29 527h184l-88 -527h-125z" />
    <glyph glyph-name="numbersign" unicode="#" horiz-adv-x="1222" 
d="M1165 862h-198l-49 -373h200v-135h-219l-49 -354h-133l47 354h-391l-49 -354h-134l48 354h-181v135h199l49 373h-199v135h218l47 355h137l-49 -355h391l47 355h137l-49 -355h180v-135zM391 489h391l49 373h-391z" />
    <glyph glyph-name="dollar" unicode="$" horiz-adv-x="1097" 
d="M627 47v-240h-158v242q-247 36 -387 281l115 82q138 -228 360 -228q112 0 182 53t70 142q0 70 -48.5 117.5t-158.5 97.5l-145 61q-141 60 -213 137t-72 193q0 121 82 203.5t215 103.5v244h158v-240q202 -27 315 -219l-108 -84q-56 85 -122.5 124.5t-154.5 39.5
q-97 0 -161 -44t-64 -126q0 -69 42 -110.5t148 -92.5l150 -61q149 -63 223 -144t74 -198q0 -135 -94 -225t-248 -109z" />
    <glyph glyph-name="percent" unicode="%" horiz-adv-x="1724" 
d="M135 1044q0 137 98.5 233.5t237.5 96.5q137 0 235.5 -96.5t98.5 -233.5t-98.5 -233t-235.5 -96q-139 0 -237.5 96t-98.5 233zM406 0l774 1352h141l-774 -1352h-141zM674 1044q0 91 -58 152t-145 61q-88 0 -145.5 -60.5t-57.5 -152.5t57.5 -152.5t145.5 -60.5q87 0 145 61
t58 152zM922 309q0 138 96.5 234t234.5 96q139 0 237.5 -96.5t98.5 -233.5t-98.5 -233t-237.5 -96q-138 0 -234.5 95.5t-96.5 233.5zM1456 309q0 92 -57.5 152.5t-143.5 60.5q-88 0 -145 -60.5t-57 -152.5q0 -91 57 -151t145 -60q86 0 143.5 60t57.5 151z" />
    <glyph glyph-name="ampersand" unicode="&#x26;" horiz-adv-x="1280" 
d="M1233 598l-23 -35q-122 -187 -204 -297l223 -266h-193l-129 154q-89 -89 -183 -133t-208 -44q-180 0 -297 100t-117 253q0 107 68 202q72 97 238 220q-78 101 -112 173.5t-34 151.5q0 133 83 215t218 82q130 0 213 -80q84 -78 84 -198q0 -92 -58.5 -179t-183.5 -184
l287 -344q57 80 133 199l64 96zM418 1077q0 -55 26 -109t88 -130q94 76 133.5 133t39.5 119q0 66 -38 102.5t-104 36.5q-72 0 -108.5 -39t-36.5 -113zM809 272l-309 371q-144 -112 -187 -168t-43 -131q0 -96 70.5 -157.5t179.5 -61.5q154 0 289 147z" />
    <glyph glyph-name="quotesingle" unicode="'" horiz-adv-x="573" 
d="M193 825l28 527h185l-89 -527h-124z" />
    <glyph glyph-name="parenleft" unicode="(" horiz-adv-x="681" 
d="M160 616q0 380 112 588q116 218 285 299l68 -108q-310 -199 -310 -779q0 -581 310 -776l-68 -108q-168 80 -285 297q-112 211 -112 587z" />
    <glyph glyph-name="parenright" unicode=")" horiz-adv-x="681" 
d="M127 -268l-70 108q312 196 312 776q0 576 -312 779l70 108q167 -81 283 -299q112 -208 112 -588q0 -379 -112 -587q-116 -216 -283 -297z" />
    <glyph glyph-name="asterisk" unicode="*" horiz-adv-x="839" 
d="M745 1319l-192 -131l192 -131l-51 -84l-209 100l-16 -231h-98l-19 231l-209 -100l-49 84l193 131l-193 131l49 86l209 -100l19 231h98l16 -231l209 100z" />
    <glyph glyph-name="plus" unicode="+" 
d="M500 180v395h-385v140h385v389h155v-389h375v-140h-375v-395h-155z" />
    <glyph glyph-name="comma" unicode="," horiz-adv-x="573" 
d="M184 -367l27 551h186l-84 -551h-129z" />
    <glyph glyph-name="hyphen" unicode="-" horiz-adv-x="708" 
d="M109 578v133h489v-133h-489z" />
    <glyph glyph-name="period" unicode="." horiz-adv-x="573" 
d="M158 106q0 55 37.5 92.5t91.5 37.5t91.5 -37.5t37.5 -92.5t-37.5 -92t-91.5 -37t-91.5 37t-37.5 92z" />
    <glyph glyph-name="slash" unicode="/" horiz-adv-x="1286" 
d="M14 -248l1071 1845h187l-1071 -1845h-187z" />
    <glyph glyph-name="zero" unicode="0" horiz-adv-x="1259" 
d="M135 688q0 312 125 498q126 188 371 188t368 -188q125 -186 125 -498t-123 -512q-123 -199 -370 -199t-373 199q-123 200 -123 512zM958 686q0 541 -327 541q-168 0 -249 -140t-81 -401q0 -266 82 -413.5t248 -147.5q165 0 246 147t81 414z" />
    <glyph glyph-name="one" unicode="1" horiz-adv-x="776" 
d="M496 1352h59v-1352h-160v1163l-295 -92l-39 137z" />
    <glyph glyph-name="two" unicode="2" 
d="M399 143h637v-143h-940v41l482 512q130 137 183.5 223.5t53.5 179.5q0 115 -72 193t-188 78q-124 0 -197 -82t-73 -197q0 -56 12 -112h-164q-14 52 -14 118q0 108 53 203.5t154.5 156t228.5 60.5q184 0 305 -118t121 -291q0 -99 -39 -181q-36 -81 -89 -149.5t-155 -175.5
z" />
    <glyph glyph-name="three" unicode="3" horiz-adv-x="1101" 
d="M991 428q0 -132 -66.5 -236.5t-175.5 -159.5t-237 -55q-150 0 -269.5 76.5t-189.5 204.5l113 80q71 -104 153 -158.5t191 -54.5q140 0 227.5 83t87.5 218q0 131 -89.5 205t-252.5 74h-133v47l355 452h-560v148h811v-47l-358 -461q78 -8 148 -38.5t125 -82t87.5 -128
t32.5 -167.5z" />
    <glyph glyph-name="four" unicode="4" horiz-adv-x="1122" 
d="M1077 391v-139h-196v-252h-160v252h-678v45l444 1055h164l-405 -961h475v451h160v-451h196z" />
    <glyph glyph-name="five" unicode="5" horiz-adv-x="1136" 
d="M1026 428q0 -132 -67 -236.5t-175.5 -159.5t-236.5 -55q-155 0 -275 75t-192 204l110 82q139 -213 355 -213q138 0 226.5 83.5t88.5 217.5t-89.5 207.5t-254.5 73.5h-305v645h739v-144h-579v-379q107 17 192 17q95 0 178 -26.5t147 -77.5t101 -131.5t37 -182.5z" />
    <glyph glyph-name="six" unicode="6" horiz-adv-x="1128" 
d="M1024 432q0 -127 -61.5 -231.5t-167.5 -164t-232 -59.5t-231.5 59.5t-167.5 165t-62 232.5q0 106 37 187q45 91 121 202q8 9 17 23.5t12 17.5l336 488h190l-344 -496q49 18 113 18q181 0 310.5 -128.5t129.5 -313.5zM866 432q0 128 -88 217.5t-215 89.5t-215 -89.5
t-88 -217.5q0 -129 88 -219t215 -90t215 90t88 219z" />
    <glyph glyph-name="seven" unicode="7" horiz-adv-x="1026" 
d="M72 1352h903v-47l-684 -1305h-174l643 1208h-688v144z" />
    <glyph glyph-name="eight" unicode="8" horiz-adv-x="1183" 
d="M1065 344q0 -163 -130 -265t-343 -102t-345 102t-132 267q0 248 321 361q-128 59 -193 139t-65 192q0 158 117 246q122 90 297 90q172 0 291 -90q118 -87 118 -246q0 -215 -258 -329q322 -120 322 -365zM590 782q134 53 194 109t60 141q0 95 -70 150t-182 55
q-115 0 -185.5 -55t-70.5 -150q0 -83 59 -138t195 -112zM903 350q0 100 -73 162t-238 121q-166 -59 -241 -121.5t-75 -161.5q0 -107 84 -171t232 -64q147 0 229 64t82 171z" />
    <glyph glyph-name="nine" unicode="9" horiz-adv-x="1128" 
d="M1024 918q0 -77 -25 -150q-21 -67 -55 -119q-27 -48 -106 -162l-336 -487h-189l344 496q-52 -19 -114 -19q-117 0 -218 58.5t-162 161t-61 223.5q0 192 135.5 323t327.5 131q191 0 325 -131.5t134 -324.5zM866 922q0 131 -86 219t-215 88t-217 -88.5t-88 -218.5
q0 -129 88 -219.5t217 -90.5q128 0 214.5 90t86.5 220z" />
    <glyph glyph-name="colon" unicode=":" horiz-adv-x="573" 
d="M158 879q0 55 37.5 92t91.5 37t91.5 -37t37.5 -92t-37.5 -92t-91.5 -37t-91.5 37t-37.5 92zM158 106q0 55 37.5 92.5t91.5 37.5t91.5 -37.5t37.5 -92.5t-37.5 -92t-91.5 -37t-91.5 37t-37.5 92z" />
    <glyph glyph-name="semicolon" unicode=";" horiz-adv-x="573" 
d="M158 879q0 55 37.5 92t91.5 37t91.5 -37t37.5 -92t-37.5 -92t-91.5 -37t-91.5 37t-37.5 92zM184 -367l27 551h186l-84 -551h-129z" />
    <glyph glyph-name="less" unicode="&#x3c;" 
d="M1004 1053v-148l-619 -260l619 -258v-149l-898 383v49z" />
    <glyph glyph-name="equal" unicode="=" 
d="M135 786v142h877v-142h-877zM135 362v140h877v-140h-877z" />
    <glyph glyph-name="greater" unicode="&#x3e;" 
d="M143 1053l899 -383v-49l-899 -383v149l619 258l-619 260v148z" />
    <glyph glyph-name="question" unicode="?" horiz-adv-x="911" 
d="M332 518q0 65 37 118t127 134q92 86 125 133q34 49 34 119q0 90 -57.5 148.5t-142.5 58.5q-80 0 -139.5 -50.5t-90.5 -146.5l-133 55q41 137 136.5 212t230.5 75q151 0 255.5 -98t104.5 -244q0 -90 -45.5 -165t-148.5 -167q-88 -81 -117 -119.5t-29 -86.5q0 -14 10 -66
h-137q-20 39 -20 90zM301 106q0 55 38.5 92.5t90.5 37.5q56 0 93.5 -37.5t37.5 -92.5t-37.5 -92t-93.5 -37q-52 0 -90.5 37.5t-38.5 91.5z" />
    <glyph glyph-name="at" unicode="@" horiz-adv-x="1888" 
d="M1790 586q0 -238 -145 -375t-379 -137h-49v133q-47 -73 -130 -114.5t-182 -41.5q-174 0 -290.5 125.5t-116.5 310.5t116 310t293 125q92 0 171 -36.5t126 -99.5v119h148v-692q137 11 216 108t79 265q3 173 -83.5 317t-242.5 227t-348 80q-203 2 -371 -90t-263.5 -254.5
t-92.5 -359.5q-2 -148 54.5 -281t153 -226.5t229.5 -147.5t278 -52q144 0 266 45l28 -123q-140 -55 -309 -55q-170 -4 -328 62t-273 178.5t-182.5 269.5t-64.5 328q-4 174 65.5 332t187.5 270t280.5 177.5t337.5 62.5q135 2 262 -36.5t228 -110t177 -166t116 -210.5t38 -237
zM1196 489q0 136 -75.5 213.5t-188.5 77.5q-118 0 -195.5 -82.5t-77.5 -210.5q0 -124 78 -208q76 -82 195 -82q111 0 187.5 77.5t76.5 214.5z" />
    <glyph glyph-name="A" unicode="A" horiz-adv-x="1357" 
d="M1124 0l-114 274h-664l-115 -274h-168l586 1374h60l585 -1374h-170zM948 418l-270 665l-270 -665h540z" />
    <glyph glyph-name="B" unicode="B" horiz-adv-x="1261" 
d="M1171 389q0 -171 -116.5 -280t-311.5 -109h-557v1352h465q173 0 281 -97q104 -94 104 -245q0 -168 -129 -267q125 -37 194.5 -130.5t69.5 -223.5zM635 1208h-289v-420h289q114 0 175.5 56.5t61.5 154.5t-61 153.5t-176 55.5zM1008 393q0 114 -74.5 182t-206.5 68h-381
v-500h381q132 0 206.5 68t74.5 182z" />
    <glyph glyph-name="C" unicode="C" horiz-adv-x="1464" 
d="M98 676q-3 142 53 272.5t151.5 224.5t226.5 148.5t272 52.5q178 0 326 -78t235 -213l-119 -94q-165 238 -440 238q-150 0 -274 -72t-194.5 -198.5t-70.5 -280.5t70.5 -280.5t194.5 -198.5t274 -72q137 0 249 61.5t191 175.5l119 -94q-86 -135 -234.5 -213t-326.5 -78
q-141 -2 -272 53t-226.5 148.5t-151.5 224.5t-53 273z" />
    <glyph glyph-name="D" unicode="D" horiz-adv-x="1421" 
d="M186 0v1352h402q222 0 390 -86.5t256.5 -239t88.5 -348.5q0 -145 -51.5 -270t-145.5 -215t-232.5 -141.5t-305.5 -51.5h-402zM346 143h240q262 0 416.5 150t154.5 385q0 237 -153.5 383.5t-417.5 146.5h-240v-1065z" />
    <glyph glyph-name="E" unicode="E" horiz-adv-x="1159" 
d="M186 0v1352h867v-144h-707v-413h541v-144h-541v-508h731v-143h-891z" />
    <glyph glyph-name="F" unicode="F" horiz-adv-x="1073" 
d="M186 0v1352h846v-144h-686v-465h569v-145h-569v-598h-160z" />
    <glyph glyph-name="G" unicode="G" horiz-adv-x="1527" 
d="M98 676q-2 142 53.5 272.5t150 224.5t226 148.5t273.5 52.5q171 0 314 -72.5t237 -203.5l-121 -94q-164 223 -430 223q-150 3 -275 -70.5t-195 -200.5t-67 -278q-3 -153 68 -282t198 -203.5t279 -71.5q145 0 263 64.5t188 176.5v183h-461v143h620v-360
q-90 -162 -256 -256q-164 -95 -362 -95q-142 -2 -273.5 53t-226 149t-150 224.5t-53.5 272.5z" />
    <glyph glyph-name="H" unicode="H" horiz-adv-x="1449" 
d="M186 0v1352h160v-557h758v557h160v-1352h-160v651h-758v-651h-160z" />
    <glyph glyph-name="I" unicode="I" horiz-adv-x="530" 
d="M186 0v1352h160v-1352h-160z" />
    <glyph glyph-name="J" unicode="J" horiz-adv-x="763" 
d="M49 0v137q83 -12 148 -12q114 0 168.5 46t54.5 157v1024h160v-1039q0 -167 -92.5 -251.5t-260.5 -84.5q-70 0 -178 23z" />
    <glyph glyph-name="K" unicode="K" horiz-adv-x="1296" 
d="M186 0v1352h160v-1352h-160zM573 725l660 -725h-203l-665 725l608 627h205z" />
    <glyph glyph-name="L" unicode="L" horiz-adv-x="1036" 
d="M186 0v1352h160v-1209h641v-143h-801z" />
    <glyph glyph-name="M" unicode="M" horiz-adv-x="1615" 
d="M1374 1374h56v-1374h-160v969l-432 -586h-58l-434 590v-973h-160v1374h58l563 -780z" />
    <glyph glyph-name="N" unicode="N" horiz-adv-x="1449" 
d="M1104 1352h160v-1375h-58l-860 1037v-1014h-160v1374h58l860 -1038v1016z" />
    <glyph glyph-name="O" unicode="O" horiz-adv-x="1599" 
d="M98 676q-3 142 52.5 272.5t151 224.5t226 148.5t271.5 52.5q140 2 270.5 -53t226 -148.5t152 -224t53.5 -272.5q3 -142 -53.5 -273t-152 -224.5t-226 -148.5t-270.5 -53q-141 -3 -272 52.5t-226 150t-150.5 225t-52.5 271.5zM1335 678q3 150 -68 277.5t-195.5 201
t-270.5 70.5q-150 0 -273.5 -71.5t-193.5 -197.5t-70 -280t70 -281t193.5 -199.5t273.5 -72.5q146 -2 270 71.5t195.5 201.5t68.5 280z" />
    <glyph glyph-name="P" unicode="P" horiz-adv-x="1173" 
d="M186 0v1352h476q195 0 313.5 -109.5t118.5 -281.5q0 -175 -118.5 -285.5t-313.5 -110.5h-316v-565h-160zM346 709h311q127 0 199 67.5t72 181.5q0 112 -72 181t-199 69h-311v-499z" />
    <glyph glyph-name="Q" unicode="Q" horiz-adv-x="1599" 
d="M2130 -268v-127q-114 -21 -217 -21q-263 0 -478.5 113.5t-369.5 331.5q-125 -52 -266 -52q-141 -3 -272 52.5t-226 150t-150.5 225t-52.5 271.5q-3 142 52.5 272.5t151 224.5t226 148.5t271.5 52.5q140 2 270.5 -53t226 -148.5t152 -224t53.5 -272.5q0 -178 -81 -330
t-224 -250q143 -190 324 -282.5t413 -92.5q58 0 197 11zM801 125q146 -3 270.5 71t195.5 202t68 278q0 154 -70 280.5t-193 198.5t-273 72t-273 -71.5t-192.5 -197.5t-69.5 -280t70 -281t193.5 -199.5t273.5 -72.5z" />
    <glyph glyph-name="R" unicode="R" horiz-adv-x="1273" 
d="M1241 0h-186l-420 567h-289v-567h-160v1352h476q195 0 313.5 -109.5t118.5 -281.5q0 -137 -76 -237t-209 -138zM346 1208v-497h309q129 0 201 66.5t72 180.5q0 112 -73 181t-200 69h-309z" />
    <glyph glyph-name="S" unicode="S" horiz-adv-x="1142" 
d="M84 268l119 88q150 -231 377 -231q122 0 197 61.5t75 163.5q0 37 -10 65.5t-24.5 49.5t-46.5 43t-61 38t-83 42l-152 71q-75 35 -127 69t-94.5 77.5t-63 97t-20.5 119.5q0 155 119 253.5t289 98.5q132 0 244 -62t179 -167l-116 -88q-55 81 -136 125.5t-174 44.5
q-103 0 -171 -53t-68 -144q0 -59 26 -98q25 -36 64 -61.5t127 -67.5l149 -72q167 -81 241.5 -166t74.5 -211q0 -166 -123 -271.5t-313 -105.5q-157 0 -287.5 77.5t-210.5 213.5z" />
    <glyph glyph-name="T" unicode="T" horiz-adv-x="1189" 
d="M514 0v1208h-475v144h1112v-144h-477v-1208h-160z" />
    <glyph glyph-name="U" unicode="U" horiz-adv-x="1411" 
d="M168 537v815h160v-826q0 -192 103.5 -296.5t275.5 -104.5q170 0 272 104.5t102 296.5v826h160v-815q0 -260 -148.5 -410t-385.5 -150q-241 0 -390 149.5t-149 410.5z" />
    <glyph glyph-name="V" unicode="V" horiz-adv-x="1357" 
d="M1118 1352h176l-585 -1375h-60l-586 1375h177l440 -1061z" />
    <glyph glyph-name="W" unicode="W" horiz-adv-x="2183" 
d="M1915 1352h174l-512 -1375h-57l-428 1074l-428 -1074h-58l-514 1375h176l373 -1030l422 1052h57l422 -1050z" />
    <glyph glyph-name="X" unicode="X" horiz-adv-x="1226" 
d="M1165 0h-186l-365 555l-366 -555h-187l465 692l-432 660h185l335 -527l334 527h185l-426 -662z" />
    <glyph glyph-name="Y" unicode="Y" horiz-adv-x="1261" 
d="M1180 1352l-469 -793v-559h-160v559l-469 793h180l369 -635l370 635h179z" />
    <glyph glyph-name="Z" unicode="Z" horiz-adv-x="1206" 
d="M315 143h822v-143h-1071v47l815 1161h-727v144h981v-47z" />
    <glyph glyph-name="bracketleft" unicode="[" horiz-adv-x="702" 
d="M207 -268v1761h391v-139h-238v-1479h238v-143h-391z" />
    <glyph glyph-name="backslash" unicode="\" horiz-adv-x="1286" 
d="M1085 -248l-1071 1845h187l1071 -1845h-187z" />
    <glyph glyph-name="bracketright" unicode="]" horiz-adv-x="702" 
d="M102 -268v143h240v1479h-240v139h392v-1761h-392z" />
    <glyph glyph-name="asciicircum" unicode="^" horiz-adv-x="1048" 
d="M926 582h-164l-238 508l-237 -508h-164l373 790h57z" />
    <glyph glyph-name="underscore" unicode="_" horiz-adv-x="1036" 
d="M88 -287v133h858v-133h-858z" />
    <glyph glyph-name="grave" unicode="`" horiz-adv-x="1228" 
d="M676 1159l-246 410v28h193l174 -438h-121z" />
    <glyph glyph-name="a" unicode="a" horiz-adv-x="1081" 
d="M922 614v-614h-148v129q-115 -152 -336 -152q-155 0 -251.5 76.5t-96.5 204.5q0 127 98.5 203t260.5 76h315v86q0 121 -64 186t-178 65q-89 0 -158.5 -39t-132.5 -120l-104 86q66 108 172 163.5t233 55.5q180 0 285 -106t105 -300zM764 383v25h-297q-104 0 -159.5 -36.5
t-55.5 -105.5q0 -73 58.5 -115t148.5 -42q124 0 214.5 80t90.5 194z" />
    <glyph glyph-name="b" unicode="b" horiz-adv-x="1294" 
d="M1192 498q0 -145 -64 -264t-177 -188t-251 -69q-118 0 -219.5 48.5t-158.5 132.5v-158h-148v1536h158v-684q60 78 157 123t209 45q210 0 352 -151t142 -371zM1030 500q0 161 -101 267.5t-253 106.5q-147 0 -246.5 -97.5t-99.5 -278.5q0 -91 29 -164t77.5 -118.5t110 -69
t129.5 -23.5q152 0 253 108t101 269z" />
    <glyph glyph-name="c" unicode="c" horiz-adv-x="1128" 
d="M102 500q-2 105 39.5 202t112.5 167t168.5 111t202.5 40q128 0 235 -57.5t176 -159.5l-112 -90q-118 161 -297 161q-154 0 -258.5 -109t-104.5 -265q0 -158 104.5 -267.5t258.5 -109.5q174 0 295 160l112 -88q-69 -102 -175 -160t-234 -58q-142 0 -262.5 70t-190.5 190.5
t-70 262.5z" />
    <glyph glyph-name="d" unicode="d" horiz-adv-x="1294" 
d="M965 1536h157v-1536h-149v158q-57 -84 -158 -132.5t-219 -48.5q-210 0 -352 150.5t-142 370.5t142 371t352 151q113 0 211 -45.5t158 -124.5v686zM967 498q0 92 -29 165.5t-78.5 118.5t-111 68.5t-130.5 23.5q-152 0 -253 -106.5t-101 -267.5t101 -269t253 -108
q93 0 170.5 40t128 127t50.5 208z" />
    <glyph glyph-name="e" unicode="e" horiz-adv-x="1169" 
d="M1055 451h-789q13 -147 115.5 -237.5t251.5 -90.5q170 0 305 135l92 -106q-167 -175 -399 -175q-146 0 -267.5 68.5t-191.5 188.5t-70 264q0 217 148.5 369.5t361.5 152.5q195 0 325 -127t130 -324q0 -57 -12 -118zM272 590h633q-1 131 -85.5 209t-211.5 78
q-125 0 -217.5 -79t-118.5 -208z" />
    <glyph glyph-name="f" unicode="f" horiz-adv-x="620" 
d="M356 1225v-228h250v-141h-250v-856h-157v856h-144v141h144v238q0 161 86.5 242.5t242.5 81.5q59 0 125 -17v-133q-49 6 -88 6q-104 0 -156.5 -44t-52.5 -146z" />
    <glyph glyph-name="g" unicode="g" horiz-adv-x="1304" 
d="M983 997h150v-901q0 -226 -131.5 -356.5t-354.5 -130.5q-141 0 -260.5 51.5t-208.5 140.5l92 111q91 -79 178.5 -118.5t194.5 -39.5q156 0 244 87t88 247v88q-60 -78 -159 -122t-212 -44q-211 0 -350 143.5t-139 360.5q0 216 139.5 361t349.5 145q120 0 221 -48t158 -134
v159zM977 514q0 87 -29 156.5t-78 112t-110.5 65t-130.5 22.5q-153 0 -254 -101t-101 -257q0 -157 100.5 -256.5t254.5 -99.5q70 0 131.5 22.5t110.5 65.5t77.5 112.5t28.5 157.5z" />
    <glyph glyph-name="h" unicode="h" horiz-adv-x="1159" 
d="M999 627v-627h-157v606q0 122 -66.5 195t-181.5 73t-188.5 -75.5t-73.5 -192.5v-606h-158v1536h158v-651q52 64 129.5 99.5t169.5 35.5q170 0 269 -107t99 -286z" />
    <glyph glyph-name="i" unicode="i" horiz-adv-x="503" 
d="M174 0v997h158v-997h-158zM135 1378q0 47 35 81t84 34q47 0 82 -34t35 -81q0 -49 -33.5 -81.5t-83.5 -32.5t-84.5 32.5t-34.5 81.5z" />
    <glyph glyph-name="j" unicode="j" horiz-adv-x="503" 
d="M-123 -375v133q52 -6 92 -6q102 0 153.5 45t51.5 146v1054h158v-1065q0 -160 -87 -241.5t-241 -81.5q-65 0 -127 16zM135 1378q0 47 35 81t84 34q47 0 82 -34t35 -81q0 -49 -33.5 -81.5t-83.5 -32.5t-84.5 32.5t-34.5 81.5z" />
    <glyph glyph-name="k" unicode="k" horiz-adv-x="1036" 
d="M174 0v1536h158v-1536h-158zM539 559l471 -559h-203l-459 561l416 436h207z" />
    <glyph glyph-name="l" unicode="l" horiz-adv-x="503" 
d="M174 0v1536h158v-1536h-158z" />
    <glyph glyph-name="m" unicode="m" horiz-adv-x="1789" 
d="M1630 627v-627h-157v606q0 122 -63.5 195t-172.5 73q-111 0 -183.5 -73t-72.5 -180v-621h-158v606q0 122 -64.5 195t-172.5 73q-112 0 -183 -74.5t-71 -193.5v-606h-158v997h148v-104q112 127 296 127q108 0 186.5 -44.5t121.5 -127.5q57 80 145.5 126t196.5 46
q170 0 266 -106.5t96 -286.5z" />
    <glyph glyph-name="n" unicode="n" horiz-adv-x="1159" 
d="M999 627v-627h-157v608q0 120 -67 193t-181 73q-115 0 -188.5 -74.5t-73.5 -191.5v-608h-158v997h148v-106q116 129 307 129q172 0 271 -107t99 -286z" />
    <glyph glyph-name="o" unicode="o" horiz-adv-x="1249" 
d="M102 500q-2 105 39.5 202t112.5 167.5t168.5 111.5t202.5 39q140 2 261.5 -68t192.5 -191t68 -261q2 -103 -39.5 -200t-112.5 -168t-169 -112.5t-203 -39.5q-140 -3 -261 68t-191.5 192.5t-68.5 259.5zM985 498q0 161 -103.5 268.5t-256.5 107.5q-154 0 -257.5 -107.5
t-103.5 -268.5q0 -157 103.5 -265t255.5 -108t257 108t105 265z" />
    <glyph glyph-name="p" unicode="p" horiz-adv-x="1294" 
d="M1192 500q0 -145 -64.5 -265t-178 -189t-251.5 -69q-110 0 -207.5 44t-158.5 122v-512h-158v1366h148v-159q57 86 157.5 134t218.5 48q140 0 253.5 -68.5t177 -187.5t63.5 -264zM1030 498q0 161 -101 268.5t-253 107.5q-68 0 -129.5 -23.5t-110 -68.5t-77.5 -118
t-29 -164q0 -181 99.5 -279t246.5 -98q152 0 253 107t101 268z" />
    <glyph glyph-name="q" unicode="q" horiz-adv-x="1294" 
d="M973 997h149v-1366h-157v514q-60 -79 -158 -123.5t-211 -44.5q-138 0 -251.5 69t-178 189t-64.5 265q0 220 142 370t352 150q118 0 219.5 -48.5t157.5 -133.5v159zM967 500q0 91 -29 164t-78 118t-111 68.5t-131 23.5q-152 0 -253 -107.5t-101 -268.5t101 -268t253 -107
q145 0 247 98.5t102 278.5z" />
    <glyph glyph-name="r" unicode="r" horiz-adv-x="741" 
d="M705 997v-139h-60q-131 0 -222 -80t-91 -213v-565h-158v997h148v-141q54 71 135.5 110.5t173.5 39.5q33 0 74 -9z" />
    <glyph glyph-name="s" unicode="s" horiz-adv-x="929" 
d="M80 172l100 104q78 -79 142.5 -116t144.5 -37q83 0 136.5 38t53.5 103q0 57 -37.5 89t-136.5 71l-96 41q-129 53 -188.5 116t-59.5 160q0 128 95 203.5t241 75.5q202 0 334 -158l-96 -98q-110 110 -246 110q-75 0 -120.5 -32.5t-45.5 -91.5q0 -46 34.5 -76.5t127.5 -69.5
l92 -39q142 -61 203 -127.5t61 -167.5q0 -140 -102 -217q-101 -76 -248 -76q-120 0 -220 52.5t-169 142.5z" />
    <glyph glyph-name="t" unicode="t" horiz-adv-x="780" 
d="M719 133v-133q-103 -23 -166 -23q-159 0 -247.5 81.5t-88.5 242.5v555h-168v141h168v273h158v-273h311v-141h-311v-545q0 -102 52 -146t159 -44q56 0 133 12z" />
    <glyph glyph-name="u" unicode="u" 
d="M162 397v600h155v-610q0 -119 73 -191.5t185 -72.5q110 0 182 73.5t72 190.5v610h158v-600q0 -186 -118 -303t-294 -117q-177 0 -295 117t-118 303z" />
    <glyph glyph-name="v" unicode="v" horiz-adv-x="1103" 
d="M883 997h168l-469 -1020h-58l-471 1020h168l332 -751z" />
    <glyph glyph-name="w" unicode="w" horiz-adv-x="1742" 
d="M1520 997h168l-420 -1020h-58l-340 754l-338 -754h-55l-424 1020h168l289 -739l332 762h59l336 -756z" />
    <glyph glyph-name="x" unicode="x" horiz-adv-x="1017" 
d="M975 0h-182l-285 410l-283 -410h-184l371 520l-340 477h182l254 -366l256 366h182l-346 -477z" />
    <glyph glyph-name="y" unicode="y" horiz-adv-x="1103" 
d="M883 997h168l-492 -1136q-57 -130 -139.5 -191t-198.5 -61q-80 0 -153 20v133q85 -10 120 -10q81 0 135 36t91 124l53 119l-414 966h170l330 -794z" />
    <glyph glyph-name="z" unicode="z" horiz-adv-x="929" 
d="M297 139h577v-139h-819v47l570 809h-523v141h766v-47z" />
    <glyph glyph-name="braceleft" unicode="{" horiz-adv-x="813" 
d="M449 1182q0 -72 26 -199q25 -150 25 -197q0 -67 -26.5 -108t-82.5 -66q56 -25 82.5 -66t26.5 -108q0 -44 -25 -194q-26 -127 -26 -201q0 -172 159 -172h101v-139h-129q-283 0 -283 272q0 87 31 250q22 132 22 170q0 119 -125 119h-116v139h116q125 0 125 119
q0 41 -22 170q-31 163 -31 250q0 272 283 272h129v-139h-101q-159 0 -159 -172z" />
    <glyph glyph-name="bar" unicode="|" horiz-adv-x="679" 
d="M272 -248v1845h136v-1845h-136z" />
    <glyph glyph-name="braceright" unicode="}" horiz-adv-x="813" 
d="M588 682h117v-139h-117q-125 0 -125 -119q0 -38 22 -170l17 -107q12 -83 12 -143q0 -272 -281 -272h-131v139h103q160 0 160 172q0 69 -27 201q-25 150 -25 194q0 67 26.5 108t82.5 66q-56 25 -82.5 66t-26.5 108q0 47 25 197q27 132 27 199q0 172 -160 172h-103v139h131
q281 0 281 -272q0 -63 -12 -146l-17 -104q-22 -129 -22 -170q0 -119 125 -119z" />
    <glyph glyph-name="asciitilde" unicode="~" 
d="M653 512l-192 117q-89 53 -125 53q-37 0 -58.5 -25.5t-21.5 -66.5v-60h-129l-2 76q0 93 54 156t140 63q85 0 173 -55l192 -117q47 -28 73.5 -39.5t53.5 -11.5q36 0 57 25.5t21 64.5v60h129q1 -15 2 -33t1.5 -28t0.5 -15q0 -94 -55 -155.5t-144 -61.5q-81 0 -170 53z" />
    <glyph glyph-name="uni00A0" unicode="&#xa0;" horiz-adv-x="573" 
 />
    <glyph glyph-name="exclamdown" unicode="&#xa1;" horiz-adv-x="624" 
d="M182 891q0 55 37.5 92t91.5 37q55 0 92 -37t37 -92q0 -57 -36.5 -93t-92.5 -36q-55 0 -92 36.5t-37 92.5zM215 -369l31 938h131l31 -938h-193z" />
    <glyph glyph-name="cent" unicode="&#xa2;" horiz-adv-x="1134" 
d="M895 457l109 -90q-62 -91 -153.5 -147t-201.5 -68v-345h-157v353q-180 34 -299 179.5t-119 332.5q0 188 118.5 332t299.5 178v354h157v-346q111 -12 203 -67.5t154 -147.5l-109 -88q-121 160 -299 160q-154 0 -258 -109t-104 -266q0 -158 104 -267.5t258 -109.5
q178 0 297 162z" />
    <glyph glyph-name="sterling" unicode="&#xa3;" horiz-adv-x="1083" 
d="M426 139h565v-139h-874v41q272 169 272 391q0 34 -6 68h-246v139h197l-39 76q-53 99 -74.5 162.5t-21.5 138.5q0 159 110 258.5t281 99.5q155 0 264.5 -87t153.5 -247l-142 -53q-76 240 -268 240q-108 0 -172 -67t-64 -169q0 -40 11.5 -79.5t25 -69t50.5 -101.5
q42 -78 53 -102h325v-139h-282q4 -54 4 -66q0 -181 -123 -295z" />
    <glyph glyph-name="currency" unicode="&#xa4;" horiz-adv-x="1316" 
d="M1036 393l226 -225l-95 -94l-229 227q-125 -88 -283 -88q-149 0 -276 86l-227 -225l-97 94l226 227q-97 123 -97 281q0 156 97 285l-226 225l97 94l227 -227q127 86 278 86q158 0 279 -86l229 227l97 -94l-226 -225q99 -126 99 -285q0 -157 -99 -283zM973 674
q0 136 -91.5 228.5t-224.5 92.5t-222 -92t-89 -229q0 -133 88.5 -224.5t220.5 -91.5q136 0 227 91.5t91 224.5z" />
    <glyph glyph-name="yen" unicode="&#xa5;" horiz-adv-x="1130" 
d="M1114 1352l-430 -615h363v-139h-400v-188h400v-142h-400v-268h-160v268h-397v142h397v188h-397v139h359l-431 615h181l368 -531l369 531h178z" />
    <glyph glyph-name="brokenbar" unicode="&#xa6;" horiz-adv-x="679" 
d="M272 983v614h136v-614h-136zM272 -248v615h136v-615h-136z" />
    <glyph glyph-name="section" unicode="&#xa7;" horiz-adv-x="1185" 
d="M856 76q2 -6 2 -27q0 -127 -90.5 -210t-239.5 -83q-210 0 -348 181l117 96q109 -129 240 -129q74 0 116.5 36t42.5 103q0 64 -34.5 111.5t-124.5 119.5l-35 29l-217 178q-115 95 -164 166t-49 156q0 100 68.5 169t187.5 89q-2 6 -2 29q0 123 91 206.5t240 83.5
q212 0 349 -180l-117 -94q-117 129 -240 129q-74 0 -118 -37t-44 -102q0 -63 35 -110.5t125 -119.5l37 -30l215 -181q114 -92 163.5 -163t49.5 -156q0 -102 -68.5 -171t-187.5 -89zM952 338q0 46 -32 84q-33 44 -125 119l-217 180q-157 129 -209 215q-69 -20 -102.5 -51.5
t-33.5 -85.5q0 -44 31 -86q39 -46 127 -117l215 -178q157 -127 209 -217q70 19 103.5 51t33.5 86z" />
    <glyph glyph-name="dieresis" unicode="&#xa8;" horiz-adv-x="1228" 
d="M283 1378q0 44 34.5 77.5t77.5 33.5q47 0 81 -33t34 -78q0 -44 -34 -76t-81 -32q-43 0 -77.5 33t-34.5 75zM717 1378q0 44 34.5 77.5t79.5 33.5q47 0 80 -33t33 -78q0 -44 -33 -76t-80 -32q-44 0 -79 32.5t-35 75.5z" />
    <glyph glyph-name="copyright" unicode="&#xa9;" horiz-adv-x="1599" 
d="M98 676q-4 189 93.5 352t260.5 256t347 90q138 2 268.5 -53t226.5 -148.5t153 -224t54 -272.5q3 -142 -54 -273t-153 -224.5t-226.5 -148.5t-268.5 -53q-138 -2 -268.5 53t-226.5 148.5t-153 224.5t-53 273zM1378 676q3 163 -76.5 299.5t-213.5 212.5t-289 74
q-116 1 -223 -43.5t-186 -122t-125 -188t-44 -232.5q-2 -122 44 -232.5t125 -188t186 -122t223 -43.5q154 -2 287.5 74t213.5 212.5t78 299.5zM428 676q0 167 114 280t279 113q187 0 309 -160l-100 -86q-85 113 -207 113q-106 0 -177 -75t-71 -185q0 -108 70 -184
q71 -74 176 -74q127 0 209 110l100 -86q-58 -75 -138 -116t-173 -41q-163 0 -277 113t-114 278z" />
    <glyph glyph-name="ordfeminine" unicode="&#xaa;" horiz-adv-x="729" 
d="M608 885v-385h-125v63q-72 -78 -196 -78q-98 0 -158.5 51t-60.5 136q0 86 62 134t169 48h174v39q0 66 -35.5 99.5t-101.5 33.5q-87 0 -174 -78l-70 88q111 111 258 111q120 0 189 -68t69 -194zM473 735v21h-154q-53 0 -81.5 -21.5t-28.5 -58.5q0 -40 30.5 -61t79.5 -21
q67 0 110.5 39.5t43.5 101.5z" />
    <glyph glyph-name="guillemotleft" unicode="&#xab;" horiz-adv-x="1032" 
d="M442 145l-364 385v48l364 387l103 -93l-289 -317l289 -322zM848 145l-365 385v48l365 387l102 -93l-288 -317l288 -322z" />
    <glyph glyph-name="logicalnot" unicode="&#xac;" 
d="M811 197v378h-698v140h856v-518h-158z" />
    <glyph glyph-name="uni00AD" unicode="&#xad;" horiz-adv-x="708" 
d="M109 578v133h489v-133h-489z" />
    <glyph glyph-name="registered" unicode="&#xae;" horiz-adv-x="1167" 
d="M1079 891q3 -133 -65 -251t-183 -187.5t-245 -67.5q-97 -1 -189.5 40t-161 109.5t-109 162.5t-38.5 194q-3 133 66 252t185.5 189t246.5 67q129 3 244.5 -67t183.5 -189t65 -252zM977 893q0 169 -114.5 286t-276.5 117q-163 0 -277 -117t-114 -286t114 -287.5t277 -118.5
q162 0 276.5 118t114.5 288zM698 834l144 -199h-133l-129 172h-74v-172h-119v514h207q83 0 135.5 -47.5t52.5 -124.5q0 -96 -84 -143zM506 1044v-135h86q31 0 50.5 18.5t19.5 47.5q0 31 -19.5 50t-50.5 19h-86z" />
    <glyph glyph-name="overscore" unicode="&#xaf;" horiz-adv-x="1228" 
d="M334 1315v127h563v-127h-563z" />
    <glyph glyph-name="degree" unicode="&#xb0;" horiz-adv-x="737" 
d="M63 1073q0 123 90 212t216 89t215.5 -89t89.5 -212q0 -124 -89.5 -212.5t-215.5 -88.5t-216 88.5t-90 212.5zM543 1073q0 75 -50 125.5t-124 50.5q-72 0 -122 -51t-50 -125t50 -125t122 -51q73 0 123.5 51t50.5 125z" />
    <glyph glyph-name="plusminus" unicode="&#xb1;" 
d="M496 307v328h-361v139h361v324h157v-324h359v-139h-359v-328h-157zM135 0v139h877v-139h-877z" />
    <glyph glyph-name="uni00B2" unicode="&#xb2;" horiz-adv-x="755" 
d="M315 868h359v-123h-602v31l303 326q71 74 101 125.5t30 109.5q0 64 -39.5 107t-101.5 43q-66 0 -106 -43.5t-40 -112.5q0 -4 0.5 -12.5t1.5 -24t2 -28.5h-133q-8 31 -8 73q0 109 80 191t203 82q122 0 200 -74.5t78 -189.5q0 -82 -41.5 -152t-140.5 -174z" />
    <glyph glyph-name="uni00B3" unicode="&#xb3;" horiz-adv-x="724" 
d="M643 1020q0 -128 -89 -208.5t-218 -80.5q-100 0 -176.5 49.5t-120.5 134.5l94 68q77 -127 199 -127q75 0 123.5 45.5t48.5 118.5q0 72 -50.5 110.5t-144.5 38.5h-84v37l199 269h-326v122h527v-38l-205 -277q97 -20 160 -88.5t63 -173.5z" />
    <glyph glyph-name="acute" unicode="&#xb4;" horiz-adv-x="1228" 
d="M430 1159l174 438h193v-28l-246 -410h-121z" />
    <glyph glyph-name="uni00B5" unicode="&#xb5;" horiz-adv-x="1212" 
d="M1169 133v-133q-57 -14 -106 -14q-144 0 -193 120q-99 -129 -274 -129q-164 0 -264 117v-463h-158v1366h158v-596q0 -122 71 -200t183 -78t184 78t72 200v596h157v-718q0 -78 27 -115t84 -37q18 0 59 6z" />
    <glyph glyph-name="paragraph" unicode="&#xb6;" horiz-adv-x="1155" 
d="M80 920q0 194 137.5 313t349.5 119h123v-869h-123q-209 0 -348 122t-139 315zM467 -369v136q111 -13 133 -13q107 0 160 47.5t53 159.5v1391h158v-1403q0 -173 -88 -256.5t-252 -83.5q-71 0 -164 22z" />
    <glyph glyph-name="middot" unicode="&#xb7;" horiz-adv-x="573" 
d="M158 643q0 55 37.5 92t91.5 37t91.5 -37t37.5 -92t-37.5 -92t-91.5 -37t-91.5 37t-37.5 92z" />
    <glyph glyph-name="cedilla" unicode="&#xb8;" horiz-adv-x="1228" 
d="M410 -371v113q57 -8 114 -8q74 0 117 33.5t43 99.5q0 81 -70 151l68 35q63 -31 100 -86t37 -123q0 -102 -74 -168.5t-196 -66.5q-72 0 -139 20z" />
    <glyph glyph-name="uni00B9" unicode="&#xb9;" horiz-adv-x="722" 
d="M96 745v123h215v607h-205v122h343v-729h184v-123h-537z" />
    <glyph glyph-name="ordmasculine" unicode="&#xba;" horiz-adv-x="825" 
d="M78 815q0 138 97 234t237 96q139 0 237.5 -96.5t98.5 -233.5t-98.5 -233.5t-237.5 -96.5q-140 0 -237 96t-97 234zM612 815q0 92 -56 150.5t-144 58.5t-143.5 -58.5t-55.5 -150.5t55.5 -150.5t143.5 -58.5t144 59t56 150z" />
    <glyph glyph-name="guillemotright" unicode="&#xbb;" horiz-adv-x="1032" 
d="M184 145l-104 88l291 322l-291 317l104 93l363 -387v-48zM590 145l-105 88l291 322l-291 317l105 93l362 -387v-48z" />
    <glyph glyph-name="onequarter" unicode="&#xbc;" horiz-adv-x="1814" 
d="M96 500v123h215v606h-205v123h343v-729h184v-123h-537zM508 0l774 1352h141l-774 -1352h-141zM1782 262v-112h-115v-150h-125v150h-424v36l266 666h138l-238 -590h258v266h125v-266h115z" />
    <glyph glyph-name="onehalf" unicode="&#xbd;" horiz-adv-x="1892" 
d="M96 500v123h215v606h-205v123h343v-729h184v-123h-537zM508 0l774 1352h141l-774 -1352h-141zM1452 123h358v-123h-602v31l303 325q70 74 100.5 125.5t30.5 110.5q0 64 -39.5 106.5t-101.5 42.5q-66 0 -105.5 -43t-39.5 -112l4 -66h-133q-8 31 -8 74q0 109 79.5 190.5
t202.5 81.5q122 0 200.5 -74.5t78.5 -189.5q0 -82 -41.5 -151.5t-141.5 -174.5z" />
    <glyph glyph-name="threequarters" unicode="&#xbe;" horiz-adv-x="1746" 
d="M643 774q0 -128 -89 -208.5t-218 -80.5q-99 0 -176 50t-121 135l94 67q77 -127 199 -127q75 0 123.5 45.5t48.5 118.5q0 72 -50.5 111t-144.5 39h-84v37l199 268h-326v123h527v-39l-205 -277q97 -20 160 -88.5t63 -173.5zM438 0l774 1352h142l-774 -1352h-142zM1712 262
v-112h-115v-150h-124v150h-424v36l266 666h137l-238 -590h259v266h124v-266h115z" />
    <glyph glyph-name="questiondown" unicode="&#xbf;" horiz-adv-x="909" 
d="M348 891q0 55 37.5 92t91.5 37t91.5 -37t37.5 -92q0 -57 -37 -94t-92 -37t-92 37t-37 94zM90 -45q0 95 45.5 169.5t149.5 168.5q83 75 114 118t31 91q0 34 -8 67h137q21 -49 21 -90q0 -65 -38.5 -120.5t-127.5 -135.5q-90 -86 -126 -141.5t-36 -120.5q0 -87 60 -147
t145 -60q163 0 229 197l131 -55q-38 -136 -134 -211.5t-230 -75.5q-150 0 -256.5 99t-106.5 247z" />
    <glyph glyph-name="Agrave" unicode="&#xc0;" horiz-adv-x="1357" 
d="M1124 0l-114 274h-664l-115 -274h-168l586 1374h60l585 -1374h-170zM948 418l-270 665l-270 -665h540zM621 1483l-246 352v29h192l174 -381h-120z" />
    <glyph glyph-name="Aacute" unicode="&#xc1;" horiz-adv-x="1357" 
d="M1124 0l-114 274h-664l-115 -274h-168l586 1374h60l585 -1374h-170zM948 418l-270 665l-270 -665h540zM621 1483l174 381h192v-29l-246 -352h-120z" />
    <glyph glyph-name="Acircumflex" unicode="&#xc2;" horiz-adv-x="1357" 
d="M1124 0l-114 274h-664l-115 -274h-168l586 1374h60l585 -1374h-170zM948 418l-270 665l-270 -665h540zM1028 1483h-123l-225 221l-227 -221h-123l301 381h96z" />
    <glyph glyph-name="Atilde" unicode="&#xc3;" horiz-adv-x="1357" 
d="M1124 0l-114 274h-664l-115 -274h-168l586 1374h60l585 -1374h-170zM948 418l-270 665l-270 -665h540zM694 1569l-67 41q-61 41 -88 41q-28 0 -45 -22.5t-17 -55.5v-33h-131q-4 36 -4 51q0 91 49.5 149t128.5 58q70 0 144 -47l69 -45q59 -41 90 -41q29 0 45.5 21.5
t16.5 54.5v37h131q2 -10 2 -54q0 -89 -48.5 -146.5t-125.5 -57.5q-71 0 -150 49z" />
    <glyph glyph-name="Adieresis" unicode="&#xc4;" horiz-adv-x="1357" 
d="M1124 0l-114 274h-664l-115 -274h-168l586 1374h60l585 -1374h-170zM948 418l-270 665l-270 -665h540zM328 1659q0 44 33.5 76t78.5 32q47 0 80 -32t33 -76q0 -45 -33 -77t-80 -32q-45 0 -78.5 32.5t-33.5 76.5zM805 1657q0 44 34 77t79 33q47 0 79.5 -32.5t32.5 -77.5
t-32.5 -77t-79.5 -32q-45 0 -79 32.5t-34 76.5z" />
    <glyph glyph-name="Aring" unicode="&#xc5;" horiz-adv-x="1357" 
d="M1124 0l-114 274h-664l-115 -274h-168l586 1374h60l585 -1374h-170zM948 418l-270 665l-270 -665h540zM453 1651q0 93 64.5 157t160.5 64q97 0 162 -64t65 -157t-65 -157t-162 -64q-96 0 -160.5 64t-64.5 157zM782 1651q0 44 -29.5 74t-72.5 30q-44 0 -74.5 -30
t-30.5 -74q0 -43 31 -73t74 -30t72.5 30t29.5 73z" />
    <glyph glyph-name="AE" unicode="&#xc6;" horiz-adv-x="1681" 
d="M1096 143h503v-143h-643l-47 274h-565l-145 -274h-172l704 1352h844v-144h-660l70 -413h426v-144h-401zM772 1108l-352 -690h465z" />
    <glyph glyph-name="Ccedilla" unicode="&#xc7;" horiz-adv-x="1464" 
d="M98 676q-3 142 53 272.5t151.5 224.5t226.5 148.5t272 52.5q178 0 326 -78t235 -213l-119 -94q-165 238 -440 238q-150 0 -274 -72t-194.5 -198.5t-70.5 -280.5t70.5 -280.5t194.5 -198.5t274 -72q137 0 249 61.5t191 175.5l119 -94q-86 -135 -234.5 -213t-326.5 -78
q-141 -2 -272 53t-226.5 148.5t-151.5 224.5t-53 273zM555 -371v113q57 -8 115 -8q74 0 116.5 33.5t42.5 99.5q0 82 -69 151l67 35q63 -32 100.5 -87t37.5 -122q0 -102 -74.5 -168.5t-196.5 -66.5q-72 0 -139 20z" />
    <glyph glyph-name="Egrave" unicode="&#xc8;" horiz-adv-x="1159" 
d="M186 0v1352h867v-144h-707v-413h541v-144h-541v-508h731v-143h-891zM561 1483l-246 352v29h193l174 -381h-121z" />
    <glyph glyph-name="Eacute" unicode="&#xc9;" horiz-adv-x="1159" 
d="M186 0v1352h867v-144h-707v-413h541v-144h-541v-508h731v-143h-891zM561 1483l174 381h193v-29l-246 -352h-121z" />
    <glyph glyph-name="Ecircumflex" unicode="&#xca;" horiz-adv-x="1159" 
d="M186 0v1352h867v-144h-707v-413h541v-144h-541v-508h731v-143h-891zM969 1483h-123l-225 221l-228 -221h-123l301 381h97z" />
    <glyph glyph-name="Edieresis" unicode="&#xcb;" horiz-adv-x="1159" 
d="M186 0v1352h867v-144h-707v-413h541v-144h-541v-508h731v-143h-891zM268 1659q0 44 34 76t79 32q47 0 80 -32t33 -76q0 -45 -33 -77t-80 -32q-45 0 -79 32.5t-34 76.5zM745 1657q0 44 34 77t79 33q47 0 80 -32.5t33 -77.5t-33 -77t-80 -32q-45 0 -79 32.5t-34 76.5z" />
    <glyph glyph-name="Igrave" unicode="&#xcc;" horiz-adv-x="530" 
d="M186 0v1352h160v-1352h-160zM209 1483l-246 352v29h193l174 -381h-121z" />
    <glyph glyph-name="Iacute" unicode="&#xcd;" horiz-adv-x="530" 
d="M186 0v1352h160v-1352h-160zM207 1483l174 381h192v-29l-245 -352h-121z" />
    <glyph glyph-name="Icircumflex" unicode="&#xce;" horiz-adv-x="530" 
d="M186 0v1352h160v-1352h-160zM616 1483h-122l-226 221l-227 -221h-123l301 381h96z" />
    <glyph glyph-name="Idieresis" unicode="&#xcf;" horiz-adv-x="530" 
d="M186 0v1352h160v-1352h-160zM-84 1659q0 44 34 76t79 32q47 0 79.5 -31.5t32.5 -76.5t-32.5 -77t-79.5 -32q-45 0 -79 32.5t-34 76.5zM393 1657q0 44 34 77t79 33q47 0 79.5 -32.5t32.5 -77.5t-32.5 -77t-79.5 -32q-45 0 -79 32.5t-34 76.5z" />
    <glyph glyph-name="Eth" unicode="&#xd0;" horiz-adv-x="1421" 
d="M1323 678q0 -145 -51.5 -270t-145.5 -215t-232.5 -141.5t-305.5 -51.5h-402v561h-194v135h194v656h402q222 0 390 -86.5t256.5 -239t88.5 -348.5zM1157 678q0 237 -153.5 383.5t-417.5 146.5h-240v-512h266v-135h-266v-418h240q262 0 416.5 150t154.5 385z" />
    <glyph glyph-name="Ntilde" unicode="&#xd1;" horiz-adv-x="1449" 
d="M1104 1352h160v-1375h-58l-860 1037v-1014h-160v1374h58l860 -1038v1016zM739 1569l-67 41q-62 41 -88 41q-28 0 -45 -22.5t-17 -55.5v-33h-131q-4 36 -4 51q0 91 49.5 149t128.5 58q70 0 144 -47l69 -45q59 -41 90 -41q29 0 45.5 21.5t16.5 54.5v37h131q2 -10 2 -54
q0 -89 -48.5 -146.5t-125.5 -57.5q-71 0 -150 49z" />
    <glyph glyph-name="Ograve" unicode="&#xd2;" horiz-adv-x="1599" 
d="M98 676q-3 142 52.5 272.5t151 224.5t226 148.5t271.5 52.5q140 2 270.5 -53t226 -148.5t152 -224t53.5 -272.5q3 -142 -53.5 -273t-152 -224.5t-226 -148.5t-270.5 -53q-141 -3 -272 52.5t-226 150t-150.5 225t-52.5 271.5zM1335 678q3 150 -68 277.5t-195.5 201
t-270.5 70.5q-150 0 -273.5 -71.5t-193.5 -197.5t-70 -280t70 -281t193.5 -199.5t273.5 -72.5q146 -2 270 71.5t195.5 201.5t68.5 280zM741 1483l-245 352v29h192l174 -381h-121z" />
    <glyph glyph-name="Oacute" unicode="&#xd3;" horiz-adv-x="1599" 
d="M98 676q-3 142 52.5 272.5t151 224.5t226 148.5t271.5 52.5q140 2 270.5 -53t226 -148.5t152 -224t53.5 -272.5q3 -142 -53.5 -273t-152 -224.5t-226 -148.5t-270.5 -53q-141 -3 -272 52.5t-226 150t-150.5 225t-52.5 271.5zM1335 678q3 150 -68 277.5t-195.5 201
t-270.5 70.5q-150 0 -273.5 -71.5t-193.5 -197.5t-70 -280t70 -281t193.5 -199.5t273.5 -72.5q146 -2 270 71.5t195.5 201.5t68.5 280zM741 1483l174 381h193v-29l-246 -352h-121z" />
    <glyph glyph-name="Ocircumflex" unicode="&#xd4;" horiz-adv-x="1599" 
d="M98 676q-3 142 52.5 272.5t151 224.5t226 148.5t271.5 52.5q140 2 270.5 -53t226 -148.5t152 -224t53.5 -272.5q3 -142 -53.5 -273t-152 -224.5t-226 -148.5t-270.5 -53q-141 -3 -272 52.5t-226 150t-150.5 225t-52.5 271.5zM1335 678q3 150 -68 277.5t-195.5 201
t-270.5 70.5q-150 0 -273.5 -71.5t-193.5 -197.5t-70 -280t70 -281t193.5 -199.5t273.5 -72.5q146 -2 270 71.5t195.5 201.5t68.5 280zM1149 1483h-123l-225 221l-228 -221h-122l301 381h96z" />
    <glyph glyph-name="Otilde" unicode="&#xd5;" horiz-adv-x="1599" 
d="M98 676q-3 142 52.5 272.5t151 224.5t226 148.5t271.5 52.5q140 2 270.5 -53t226 -148.5t152 -224t53.5 -272.5q3 -142 -53.5 -273t-152 -224.5t-226 -148.5t-270.5 -53q-141 -3 -272 52.5t-226 150t-150.5 225t-52.5 271.5zM1335 678q3 150 -68 277.5t-195.5 201
t-270.5 70.5q-150 0 -273.5 -71.5t-193.5 -197.5t-70 -280t70 -281t193.5 -199.5t273.5 -72.5q146 -2 270 71.5t195.5 201.5t68.5 280zM815 1569l-67 41q-62 41 -89 41q-28 0 -44.5 -22t-16.5 -56v-33h-131q-4 36 -4 51q0 91 49.5 149t128.5 58q69 0 143 -47l70 -45
q59 -41 90 -41q29 0 45.5 21.5t16.5 54.5v37h131q2 -10 2 -54q0 -89 -48.5 -146.5t-125.5 -57.5q-71 0 -150 49z" />
    <glyph glyph-name="Odieresis" unicode="&#xd6;" horiz-adv-x="1599" 
d="M98 676q-3 142 52.5 272.5t151 224.5t226 148.5t271.5 52.5q140 2 270.5 -53t226 -148.5t152 -224t53.5 -272.5q3 -142 -53.5 -273t-152 -224.5t-226 -148.5t-270.5 -53q-141 -3 -272 52.5t-226 150t-150.5 225t-52.5 271.5zM1335 678q3 150 -68 277.5t-195.5 201
t-270.5 70.5q-150 0 -273.5 -71.5t-193.5 -197.5t-70 -280t70 -281t193.5 -199.5t273.5 -72.5q146 -2 270 71.5t195.5 201.5t68.5 280zM449 1659q0 44 33.5 76t78.5 32q47 0 80 -32t33 -76q0 -45 -33 -77t-80 -32q-45 0 -78.5 32.5t-33.5 76.5zM926 1657q0 44 34 77t78 33
q47 0 80 -32.5t33 -77.5t-33 -77t-80 -32q-45 0 -78.5 32.5t-33.5 76.5z" />
    <glyph glyph-name="multiply" unicode="&#xd7;" 
d="M254 229l-96 95l319 323l-319 320l96 96l319 -320l320 320l96 -96l-319 -320l319 -323l-94 -95l-322 320z" />
    <glyph glyph-name="Oslash" unicode="&#xd8;" horiz-adv-x="1599" 
d="M1513 1292l-170 -170q158 -194 158 -446q3 -142 -53.5 -273t-152 -224.5t-226 -148.5t-270.5 -53q-252 0 -445 154l-170 -170l-98 98l170 170q-158 194 -158 447q-3 142 52.5 272.5t151 224.5t226 148.5t271.5 52.5q249 0 444 -155l172 172zM258 678q0 -197 107 -340
l776 776q-143 119 -340 119q-231 0 -387 -160t-156 -395zM1341 678q0 197 -106 338l-776 -780q144 -117 342 -117q150 0 274 74t195 202.5t71 282.5z" />
    <glyph glyph-name="Ugrave" unicode="&#xd9;" horiz-adv-x="1411" 
d="M168 537v815h160v-826q0 -192 103.5 -296.5t275.5 -104.5q170 0 272 104.5t102 296.5v826h160v-815q0 -260 -148.5 -410t-385.5 -150q-241 0 -390 149.5t-149 410.5zM645 1483l-246 352v29h193l174 -381h-121z" />
    <glyph glyph-name="Uacute" unicode="&#xda;" horiz-adv-x="1411" 
d="M168 537v815h160v-826q0 -192 103.5 -296.5t275.5 -104.5q170 0 272 104.5t102 296.5v826h160v-815q0 -260 -148.5 -410t-385.5 -150q-241 0 -390 149.5t-149 410.5zM643 1483l174 381h193v-29l-246 -352h-121z" />
    <glyph glyph-name="Ucircumflex" unicode="&#xdb;" horiz-adv-x="1411" 
d="M168 537v815h160v-826q0 -192 103.5 -296.5t275.5 -104.5q170 0 272 104.5t102 296.5v826h160v-815q0 -260 -148.5 -410t-385.5 -150q-241 0 -390 149.5t-149 410.5zM1053 1483h-123l-225 221l-228 -221h-123l301 381h97z" />
    <glyph glyph-name="Udieresis" unicode="&#xdc;" horiz-adv-x="1411" 
d="M168 537v815h160v-826q0 -192 103.5 -296.5t275.5 -104.5q170 0 272 104.5t102 296.5v826h160v-815q0 -260 -148.5 -410t-385.5 -150q-241 0 -390 149.5t-149 410.5zM352 1659q0 44 34 76t79 32q47 0 80 -32t33 -76q0 -45 -33 -77t-80 -32q-45 0 -79 32.5t-34 76.5z
M829 1657q0 44 34 77t79 33q47 0 80 -32.5t33 -77.5t-33 -77t-80 -32q-45 0 -79 32.5t-34 76.5z" />
    <glyph glyph-name="Yacute" unicode="&#xdd;" horiz-adv-x="1261" 
d="M1180 1352l-469 -793v-559h-160v559l-469 793h180l369 -635l370 635h179zM565 1483l174 381h193v-29l-246 -352h-121z" />
    <glyph glyph-name="Thorn" unicode="&#xde;" horiz-adv-x="1173" 
d="M186 0v1352h160v-242h316q197 0 314.5 -110t117.5 -291q0 -177 -119 -290.5t-313 -113.5h-316v-305h-160zM346 449h311q128 0 199.5 70t71.5 188q0 119 -72 189.5t-199 70.5h-311v-518z" />
    <glyph glyph-name="germandbls" unicode="&#xdf;" horiz-adv-x="1251" 
d="M508 117l88 114q114 -108 262 -108q82 0 129 32t47 93q0 43 -22 71q-24 34 -49 48l-109 65q-116 70 -167.5 127t-51.5 129q0 70 37 162l86 237q30 83 30 148q0 81 -51.5 129.5t-142.5 48.5q-120 0 -192 -82t-72 -231v-1100h-156v1106q0 212 117 332q121 121 313 121
q157 0 251.5 -80.5t94.5 -218.5q0 -78 -28 -160l-86 -248q-35 -99 -35 -137q0 -35 18 -62q13 -16 32.5 -31t37.5 -26.5t80 -48.5q120 -72 172.5 -137t52.5 -154q0 -127 -98 -203t-250 -76q-201 0 -338 140z" />
    <glyph glyph-name="agrave" unicode="&#xe0;" horiz-adv-x="1081" 
d="M922 614v-614h-148v129q-115 -152 -336 -152q-155 0 -251.5 76.5t-96.5 204.5q0 127 98.5 203t260.5 76h315v86q0 121 -64 186t-178 65q-89 0 -158.5 -39t-132.5 -120l-104 86q66 108 172 163.5t233 55.5q180 0 285 -106t105 -300zM764 383v25h-297q-104 0 -159.5 -36.5
t-55.5 -105.5q0 -73 58.5 -115t148.5 -42q124 0 214.5 80t90.5 194zM469 1159l-246 410v28h193l174 -438h-121z" />
    <glyph glyph-name="aacute" unicode="&#xe1;" horiz-adv-x="1081" 
d="M922 614v-614h-148v129q-115 -152 -336 -152q-155 0 -251.5 76.5t-96.5 204.5q0 127 98.5 203t260.5 76h315v86q0 121 -64 186t-178 65q-89 0 -158.5 -39t-132.5 -120l-104 86q66 108 172 163.5t233 55.5q180 0 285 -106t105 -300zM764 383v25h-297q-104 0 -159.5 -36.5
t-55.5 -105.5q0 -73 58.5 -115t148.5 -42q124 0 214.5 80t90.5 194zM473 1159l174 438h193v-28l-246 -410h-121z" />
    <glyph glyph-name="acircumflex" unicode="&#xe2;" horiz-adv-x="1081" 
d="M922 614v-614h-148v129q-115 -152 -336 -152q-155 0 -251.5 76.5t-96.5 204.5q0 127 98.5 203t260.5 76h315v86q0 121 -64 186t-178 65q-89 0 -158.5 -39t-132.5 -120l-104 86q66 108 172 163.5t233 55.5q180 0 285 -106t105 -300zM764 383v25h-297q-104 0 -159.5 -36.5
t-55.5 -105.5q0 -73 58.5 -115t148.5 -42q124 0 214.5 80t90.5 194zM856 1159h-119l-205 262l-206 -262h-121l278 438h97z" />
    <glyph glyph-name="atilde" unicode="&#xe3;" horiz-adv-x="1081" 
d="M922 614v-614h-148v129q-115 -152 -336 -152q-155 0 -251.5 76.5t-96.5 204.5q0 127 98.5 203t260.5 76h315v86q0 121 -64 186t-178 65q-89 0 -158.5 -39t-132.5 -120l-104 86q66 108 172 163.5t233 55.5q180 0 285 -106t105 -300zM764 383v25h-297q-104 0 -159.5 -36.5
t-55.5 -105.5q0 -73 58.5 -115t148.5 -42q124 0 214.5 80t90.5 194zM539 1274l-54 45q-5 3 -19 14t-22 16.5t-20.5 11t-24.5 5.5q-57 0 -57 -84v-35h-131q-2 12 -2 51q0 93 47.5 153t126.5 60q74 0 139 -53l53 -45q53 -47 87 -47q57 0 57 84v35h131q2 -12 2 -51
q0 -93 -47.5 -153t-126.5 -60q-73 0 -139 53z" />
    <glyph glyph-name="adieresis" unicode="&#xe4;" horiz-adv-x="1081" 
d="M922 614v-614h-148v129q-115 -152 -336 -152q-155 0 -251.5 76.5t-96.5 204.5q0 127 98.5 203t260.5 76h315v86q0 121 -64 186t-178 65q-89 0 -158.5 -39t-132.5 -120l-104 86q66 108 172 163.5t233 55.5q180 0 285 -106t105 -300zM764 383v25h-297q-104 0 -159.5 -36.5
t-55.5 -105.5q0 -73 58.5 -115t148.5 -42q124 0 214.5 80t90.5 194zM199 1378q0 44 34.5 77.5t77.5 33.5q47 0 81 -33t34 -78q0 -44 -34 -76t-81 -32q-43 0 -77.5 33t-34.5 75zM633 1378q0 44 35 77.5t80 33.5q47 0 79.5 -33t32.5 -78t-32.5 -76.5t-79.5 -31.5q-45 0 -80 33
t-35 75z" />
    <glyph glyph-name="aring" unicode="&#xe5;" horiz-adv-x="1081" 
d="M922 614v-614h-148v129q-115 -152 -336 -152q-155 0 -251.5 76.5t-96.5 204.5q0 127 98.5 203t260.5 76h315v86q0 121 -64 186t-178 65q-89 0 -158.5 -39t-132.5 -120l-104 86q66 108 172 163.5t233 55.5q180 0 285 -106t105 -300zM764 383v25h-297q-104 0 -159.5 -36.5
t-55.5 -105.5q0 -73 58.5 -115t148.5 -42q124 0 214.5 80t90.5 194zM303 1368q0 94 64.5 157.5t160.5 63.5q97 0 162.5 -63.5t65.5 -157.5t-65.5 -158.5t-162.5 -64.5q-94 0 -159.5 64.5t-65.5 158.5zM633 1368q0 44 -30.5 75.5t-72.5 31.5q-43 0 -73.5 -31.5t-30.5 -75.5
t30 -73t74 -29q43 0 73 29t30 73z" />
    <glyph glyph-name="ae" unicode="&#xe6;" horiz-adv-x="1832" 
d="M1714 432h-782q20 -140 120 -224.5t242 -84.5q168 0 301 133l95 -104q-75 -85 -178 -130t-220 -45q-137 0 -252 65t-184 177q-54 -115 -164 -178.5t-250 -63.5q-158 0 -255 79.5t-97 209.5q0 133 98.5 214t260.5 81h315v62q0 121 -64.5 186t-175.5 65q-166 0 -288 -159
l-105 86q66 107 172 163t232 56q122 0 211 -53.5t131 -155.5q68 99 172.5 154t228.5 55q191 0 321 -128.5t130 -324.5q0 -88 -15 -135zM932 561h633q9 142 -77 229t-218 87q-133 0 -226 -87.5t-112 -228.5zM764 381v51h-297q-215 0 -215 -149q0 -80 58 -126t151 -46
q122 0 212.5 79t90.5 191z" />
    <glyph glyph-name="ccedilla" unicode="&#xe7;" horiz-adv-x="1128" 
d="M102 500q-2 105 39.5 202t112.5 167t168.5 111t202.5 40q128 0 235 -57.5t176 -159.5l-112 -90q-118 161 -297 161q-154 0 -258.5 -109t-104.5 -265q0 -158 104.5 -267.5t258.5 -109.5q174 0 295 160l112 -88q-69 -102 -175 -160t-234 -58q-142 0 -262.5 70t-190.5 190.5
t-70 262.5zM356 -371v113q57 -8 115 -8q74 0 117 33.5t43 99.5q0 81 -70 151l68 35q63 -31 100 -86t37 -123q0 -102 -74 -168.5t-196 -66.5q-73 0 -140 20z" />
    <glyph glyph-name="egrave" unicode="&#xe8;" horiz-adv-x="1169" 
d="M1055 451h-789q13 -147 115.5 -237.5t251.5 -90.5q170 0 305 135l92 -106q-167 -175 -399 -175q-146 0 -267.5 68.5t-191.5 188.5t-70 264q0 217 148.5 369.5t361.5 152.5q195 0 325 -127t130 -324q0 -57 -12 -118zM272 590h633q-1 131 -85.5 209t-211.5 78
q-125 0 -217.5 -79t-118.5 -208zM547 1159l-246 410v28h193l174 -438h-121z" />
    <glyph glyph-name="eacute" unicode="&#xe9;" horiz-adv-x="1169" 
d="M1055 451h-789q13 -147 115.5 -237.5t251.5 -90.5q170 0 305 135l92 -106q-167 -175 -399 -175q-146 0 -267.5 68.5t-191.5 188.5t-70 264q0 217 148.5 369.5t361.5 152.5q195 0 325 -127t130 -324q0 -57 -12 -118zM272 590h633q-1 131 -85.5 209t-211.5 78
q-125 0 -217.5 -79t-118.5 -208zM551 1159l174 438h193v-28l-246 -410h-121z" />
    <glyph glyph-name="ecircumflex" unicode="&#xea;" horiz-adv-x="1169" 
d="M1055 451h-789q13 -147 115.5 -237.5t251.5 -90.5q170 0 305 135l92 -106q-167 -175 -399 -175q-146 0 -267.5 68.5t-191.5 188.5t-70 264q0 217 148.5 369.5t361.5 152.5q195 0 325 -127t130 -324q0 -57 -12 -118zM272 590h633q-1 131 -85.5 209t-211.5 78
q-125 0 -217.5 -79t-118.5 -208zM934 1159h-119l-205 262l-207 -262h-120l278 438h96z" />
    <glyph glyph-name="edieresis" unicode="&#xeb;" horiz-adv-x="1169" 
d="M1055 451h-789q13 -147 115.5 -237.5t251.5 -90.5q170 0 305 135l92 -106q-167 -175 -399 -175q-146 0 -267.5 68.5t-191.5 188.5t-70 264q0 217 148.5 369.5t361.5 152.5q195 0 325 -127t130 -324q0 -57 -12 -118zM272 590h633q-1 131 -85.5 209t-211.5 78
q-125 0 -217.5 -79t-118.5 -208zM276 1378q0 44 35 77.5t78 33.5q47 0 81 -33t34 -78q0 -44 -34 -76t-81 -32q-43 0 -78 33t-35 75zM711 1378q0 44 34.5 77.5t79.5 33.5q47 0 80 -33t33 -78q0 -44 -33 -76t-80 -32q-44 0 -79 32.5t-35 75.5z" />
    <glyph glyph-name="igrave" unicode="&#xec;" horiz-adv-x="503" 
d="M174 0v997h158v-997h-158zM195 1159l-185 410v28h193l112 -438h-120z" />
    <glyph glyph-name="iacute" unicode="&#xed;" horiz-adv-x="503" 
d="M174 0v997h158v-997h-158zM190 1159l113 438h193v-28l-185 -410h-121z" />
    <glyph glyph-name="icircumflex" unicode="&#xee;" horiz-adv-x="503" 
d="M174 0v997h158v-997h-158zM580 1159h-119l-205 262l-207 -262h-121l279 438h96z" />
    <glyph glyph-name="idieresis" unicode="&#xef;" horiz-adv-x="503" 
d="M174 0v997h158v-997h-158zM-47 1378q0 44 34.5 77.5t78.5 33.5q47 0 80.5 -33t33.5 -78q0 -44 -33.5 -76t-80.5 -32q-45 0 -79 32t-34 76zM326 1378q0 44 34.5 77.5t79.5 33.5q47 0 80 -33t33 -78q0 -44 -33 -76t-80 -32q-44 0 -79 32.5t-35 75.5z" />
    <glyph glyph-name="eth" unicode="&#xf0;" horiz-adv-x="1165" 
d="M1061 455q0 -202 -136.5 -340t-342.5 -138t-343 134.5t-137 332.5q0 194 134 327.5t327 133.5q61 0 123 -16l-207 287l-305 -148l-55 117l282 135l-137 190l119 89l158 -213l315 151l57 -113l-297 -143l224 -301q85 -117 123 -178q98 -151 98 -307zM899 444
q0 138 -90 229t-227 91q-136 0 -227 -92t-91 -230q0 -139 90 -229t228 -90q136 0 226.5 91.5t90.5 229.5z" />
    <glyph glyph-name="ntilde" unicode="&#xf1;" horiz-adv-x="1159" 
d="M999 627v-627h-157v608q0 120 -67 193t-181 73q-115 0 -188.5 -74.5t-73.5 -191.5v-608h-158v997h148v-106q116 129 307 129q172 0 271 -107t99 -286zM592 1274l-53 45q-5 3 -19 14t-22 16.5t-20.5 11t-24.5 5.5q-58 0 -58 -84v-35h-131q-2 12 -2 51q0 93 47.5 153
t126.5 60q74 0 139 -53l54 -45q53 -47 86 -47q57 0 57 84v35h131q2 -12 2 -51q0 -93 -47.5 -153t-126.5 -60q-73 0 -139 53z" />
    <glyph glyph-name="ograve" unicode="&#xf2;" horiz-adv-x="1249" 
d="M102 500q-2 105 39.5 202t112.5 167.5t168.5 111.5t202.5 39q140 2 261.5 -68t192.5 -191t68 -261q2 -103 -39.5 -200t-112.5 -168t-169 -112.5t-203 -39.5q-140 -3 -261 68t-191.5 192.5t-68.5 259.5zM985 498q0 161 -103.5 268.5t-256.5 107.5q-154 0 -257.5 -107.5
t-103.5 -268.5q0 -157 103.5 -265t255.5 -108t257 108t105 265zM565 1159l-246 410v28h193l174 -438h-121z" />
    <glyph glyph-name="oacute" unicode="&#xf3;" horiz-adv-x="1249" 
d="M102 500q-2 105 39.5 202t112.5 167.5t168.5 111.5t202.5 39q140 2 261.5 -68t192.5 -191t68 -261q2 -103 -39.5 -200t-112.5 -168t-169 -112.5t-203 -39.5q-140 -3 -261 68t-191.5 192.5t-68.5 259.5zM985 498q0 161 -103.5 268.5t-256.5 107.5q-154 0 -257.5 -107.5
t-103.5 -268.5q0 -157 103.5 -265t255.5 -108t257 108t105 265zM569 1159l174 438h193v-28l-246 -410h-121z" />
    <glyph glyph-name="ocircumflex" unicode="&#xf4;" horiz-adv-x="1249" 
d="M102 500q-2 105 39.5 202t112.5 167.5t168.5 111.5t202.5 39q140 2 261.5 -68t192.5 -191t68 -261q2 -103 -39.5 -200t-112.5 -168t-169 -112.5t-203 -39.5q-140 -3 -261 68t-191.5 192.5t-68.5 259.5zM985 498q0 161 -103.5 268.5t-256.5 107.5q-154 0 -257.5 -107.5
t-103.5 -268.5q0 -157 103.5 -265t255.5 -108t257 108t105 265zM950 1159h-119l-204 262l-207 -262h-121l279 438h96z" />
    <glyph glyph-name="otilde" unicode="&#xf5;" horiz-adv-x="1249" 
d="M102 500q-2 105 39.5 202t112.5 167.5t168.5 111.5t202.5 39q140 2 261.5 -68t192.5 -191t68 -261q2 -103 -39.5 -200t-112.5 -168t-169 -112.5t-203 -39.5q-140 -3 -261 68t-191.5 192.5t-68.5 259.5zM985 498q0 161 -103.5 268.5t-256.5 107.5q-154 0 -257.5 -107.5
t-103.5 -268.5q0 -157 103.5 -265t255.5 -108t257 108t105 265zM633 1274l-53 45q-5 3 -19 14t-22 16.5t-20.5 11t-24.5 5.5q-58 0 -58 -84v-35h-131q-2 12 -2 51q0 93 47.5 153t126.5 60q74 0 139 -53l54 -45q53 -47 86 -47q57 0 57 84v35h131q2 -12 2 -51
q0 -93 -47.5 -153t-126.5 -60q-73 0 -139 53z" />
    <glyph glyph-name="odieresis" unicode="&#xf6;" horiz-adv-x="1249" 
d="M102 500q-2 105 39.5 202t112.5 167.5t168.5 111.5t202.5 39q140 2 261.5 -68t192.5 -191t68 -261q2 -103 -39.5 -200t-112.5 -168t-169 -112.5t-203 -39.5q-140 -3 -261 68t-191.5 192.5t-68.5 259.5zM985 498q0 161 -103.5 268.5t-256.5 107.5q-154 0 -257.5 -107.5
t-103.5 -268.5q0 -157 103.5 -265t255.5 -108t257 108t105 265zM293 1378q0 44 35 77.5t78 33.5q47 0 80.5 -33t33.5 -78q0 -44 -33.5 -76t-80.5 -32q-43 0 -78 33t-35 75zM727 1378q0 44 35 77.5t80 33.5q47 0 79.5 -33t32.5 -78t-32.5 -76.5t-79.5 -31.5q-45 0 -80 33
t-35 75z" />
    <glyph glyph-name="divide" unicode="&#xf7;" 
d="M457 1006q0 47 32.5 78.5t79.5 31.5q48 0 80.5 -31.5t32.5 -78.5q0 -45 -33 -77t-80 -32t-79.5 32t-32.5 77zM115 575v140h915v-140h-915zM457 276q0 47 32 78t80 31t80.5 -31t32.5 -78q0 -44 -33 -76t-80 -32t-79.5 31.5t-32.5 76.5z" />
    <glyph glyph-name="oslash" unicode="&#xf8;" horiz-adv-x="1269" 
d="M1171 938l-120 -123q106 -135 106 -317q2 -103 -40.5 -200.5t-113.5 -168t-169 -112.5t-201 -40q-179 0 -316 107l-118 -123l-99 98l121 121q-106 135 -106 318q-2 140 68 261.5t191 192.5t261 68q180 0 317 -107l121 119zM266 498q0 -124 62 -219l528 532
q-101 70 -221 70q-160 0 -264.5 -109.5t-104.5 -273.5zM1006 498q0 124 -62 219l-530 -531q91 -73 219 -73q157 0 265 112t108 273z" />
    <glyph glyph-name="ugrave" unicode="&#xf9;" 
d="M162 397v600h155v-610q0 -119 73 -191.5t185 -72.5q110 0 182 73.5t72 190.5v610h158v-600q0 -186 -118 -303t-294 -117q-177 0 -295 117t-118 303zM512 1159l-246 410v28h193l174 -438h-121z" />
    <glyph glyph-name="uacute" unicode="&#xfa;" 
d="M162 397v600h155v-610q0 -119 73 -191.5t185 -72.5q110 0 182 73.5t72 190.5v610h158v-600q0 -186 -118 -303t-294 -117q-177 0 -295 117t-118 303zM516 1159l174 438h193v-28l-246 -410h-121z" />
    <glyph glyph-name="ucircumflex" unicode="&#xfb;" 
d="M162 397v600h155v-610q0 -119 73 -191.5t185 -72.5q110 0 182 73.5t72 190.5v610h158v-600q0 -186 -118 -303t-294 -117q-177 0 -295 117t-118 303zM899 1159h-119l-205 262l-206 -262h-121l278 438h97z" />
    <glyph glyph-name="udieresis" unicode="&#xfc;" 
d="M162 397v600h155v-610q0 -119 73 -191.5t185 -72.5q110 0 182 73.5t72 190.5v610h158v-600q0 -186 -118 -303t-294 -117q-177 0 -295 117t-118 303zM242 1378q0 44 34.5 77.5t77.5 33.5q47 0 81 -33t34 -78q0 -44 -34 -76t-81 -32q-43 0 -77.5 33t-34.5 75zM676 1378
q0 44 35 77.5t80 33.5q47 0 79.5 -33t32.5 -78t-32.5 -76.5t-79.5 -31.5q-45 0 -80 33t-35 75z" />
    <glyph glyph-name="yacute" unicode="&#xfd;" horiz-adv-x="1103" 
d="M883 997h168l-492 -1136q-57 -130 -139.5 -191t-198.5 -61q-80 0 -153 20v133q85 -10 120 -10q81 0 135 36t91 124l53 119l-414 966h170l330 -794zM489 1159l175 438h192v-28l-246 -410h-121z" />
    <glyph glyph-name="thorn" unicode="&#xfe;" horiz-adv-x="1294" 
d="M1192 500q0 -145 -64.5 -265t-178 -189t-251.5 -69q-110 0 -207.5 44t-158.5 122v-512h-158v1905h158v-684q60 78 157 123t209 45q140 0 253.5 -68.5t177 -187.5t63.5 -264zM1030 498q0 161 -101 268.5t-253 107.5q-68 0 -129.5 -23.5t-110 -68.5t-77.5 -118t-29 -164
q0 -181 99.5 -279t246.5 -98q152 0 253 107t101 268z" />
    <glyph glyph-name="ydieresis" unicode="&#xff;" horiz-adv-x="1103" 
d="M883 997h168l-492 -1136q-57 -130 -139.5 -191t-198.5 -61q-80 0 -153 20v133q85 -10 120 -10q81 0 135 36t91 124l53 119l-414 966h170l330 -794zM215 1378q0 44 35 77.5t78 33.5q47 0 80.5 -33t33.5 -78q0 -44 -33.5 -76t-80.5 -32q-43 0 -78 33t-35 75zM649 1378
q0 44 35 77.5t80 33.5q47 0 80 -33t33 -78q0 -44 -33 -76t-80 -32q-45 0 -80 33t-35 75z" />
    <glyph glyph-name="Amacron" unicode="&#x100;" horiz-adv-x="1357" 
d="M1124 0l-114 274h-664l-115 -274h-168l586 1374h60l585 -1374h-170zM948 418l-270 665l-270 -665h540zM379 1577v129h604v-129h-604z" />
    <glyph glyph-name="amacron" unicode="&#x101;" horiz-adv-x="1081" 
d="M922 614v-614h-148v129q-115 -152 -336 -152q-155 0 -251.5 76.5t-96.5 204.5q0 127 98.5 203t260.5 76h315v86q0 121 -64 186t-178 65q-89 0 -158.5 -39t-132.5 -120l-104 86q66 108 172 163.5t233 55.5q180 0 285 -106t105 -300zM764 383v25h-297q-104 0 -159.5 -36.5
t-55.5 -105.5q0 -73 58.5 -115t148.5 -42q124 0 214.5 80t90.5 194zM250 1315v127h563v-127h-563z" />
    <glyph glyph-name="Abreve" unicode="&#x102;" horiz-adv-x="1357" 
d="M1124 0l-114 274h-664l-115 -274h-168l586 1374h60l585 -1374h-170zM948 418l-270 665l-270 -665h540zM369 1812v52h129v-49q0 -92 49 -147.5t131 -55.5q85 0 133.5 54.5t48.5 148.5v49h129v-52q0 -145 -87 -235t-224 -90q-140 0 -224.5 88.5t-84.5 236.5z" />
    <glyph glyph-name="abreve" unicode="&#x103;" horiz-adv-x="1081" 
d="M922 614v-614h-148v129q-115 -152 -336 -152q-155 0 -251.5 76.5t-96.5 204.5q0 127 98.5 203t260.5 76h315v86q0 121 -64 186t-178 65q-89 0 -158.5 -39t-132.5 -120l-104 86q66 108 172 163.5t233 55.5q180 0 285 -106t105 -300zM764 383v25h-297q-104 0 -159.5 -36.5
t-55.5 -105.5q0 -73 58.5 -115t148.5 -42q124 0 214.5 80t90.5 194zM219 1497v64h129v-60q0 -93 49 -148t131 -55q85 0 134 54.5t49 148.5v60h129v-64q0 -146 -86 -234.5t-226 -88.5q-136 0 -222.5 90t-86.5 233z" />
    <glyph glyph-name="Aogonek" unicode="&#x104;" horiz-adv-x="1357" 
d="M1124 0l-114 274h-664l-115 -274h-168l586 1374h60l585 -1374h-170zM948 418l-270 665l-270 -665h540zM930 -213q0 75 65 137q69 63 238 148l63 -72l-102 -68q-67 -46 -87 -66.5t-20 -53.5q0 -37 26 -56.5t73 -19.5t110 14v-119q-74 -22 -147 -22q-98 0 -158.5 49
t-60.5 129z" />
    <glyph glyph-name="aogonek" unicode="&#x105;" horiz-adv-x="1081" 
d="M922 614v-614h-148v129q-115 -152 -336 -152q-155 0 -251.5 76.5t-96.5 204.5q0 127 98.5 203t260.5 76h315v86q0 121 -64 186t-178 65q-89 0 -158.5 -39t-132.5 -120l-104 86q66 108 172 163.5t233 55.5q180 0 285 -106t105 -300zM764 383v25h-297q-104 0 -159.5 -36.5
t-55.5 -105.5q0 -73 58.5 -115t148.5 -42q124 0 214.5 80t90.5 194zM555 -213q0 74 66 137q70 64 237 148l64 -72l-103 -68q-66 -46 -86 -66.5t-20 -53.5q0 -37 25.5 -56.5t72.5 -19.5q48 0 111 14v-119q-74 -22 -148 -22q-98 0 -158.5 49t-60.5 129z" />
    <glyph glyph-name="Cacute" unicode="&#x106;" horiz-adv-x="1464" 
d="M98 676q-3 142 53 272.5t151.5 224.5t226.5 148.5t272 52.5q178 0 326 -78t235 -213l-119 -94q-165 238 -440 238q-150 0 -274 -72t-194.5 -198.5t-70.5 -280.5t70.5 -280.5t194.5 -198.5t274 -72q137 0 249 61.5t191 175.5l119 -94q-86 -135 -234.5 -213t-326.5 -78
q-141 -2 -272 53t-226.5 148.5t-151.5 224.5t-53 273zM741 1483l174 381h193v-29l-246 -352h-121z" />
    <glyph glyph-name="cacute" unicode="&#x107;" horiz-adv-x="1128" 
d="M102 500q-2 105 39.5 202t112.5 167t168.5 111t202.5 40q128 0 235 -57.5t176 -159.5l-112 -90q-118 161 -297 161q-154 0 -258.5 -109t-104.5 -265q0 -158 104.5 -267.5t258.5 -109.5q174 0 295 160l112 -88q-69 -102 -175 -160t-234 -58q-142 0 -262.5 70t-190.5 190.5
t-70 262.5zM567 1159l174 438h193v-28l-246 -410h-121z" />
    <glyph glyph-name="Ccircumflex" unicode="&#x108;" horiz-adv-x="1464" 
d="M98 676q-3 142 53 272.5t151.5 224.5t226.5 148.5t272 52.5q178 0 326 -78t235 -213l-119 -94q-165 238 -440 238q-150 0 -274 -72t-194.5 -198.5t-70.5 -280.5t70.5 -280.5t194.5 -198.5t274 -72q137 0 249 61.5t191 175.5l119 -94q-86 -135 -234.5 -213t-326.5 -78
q-141 -2 -272 53t-226.5 148.5t-151.5 224.5t-53 273zM1149 1483h-123l-225 221l-228 -221h-122l301 381h96z" />
    <glyph glyph-name="ccircumflex" unicode="&#x109;" horiz-adv-x="1128" 
d="M102 500q-2 105 39.5 202t112.5 167t168.5 111t202.5 40q128 0 235 -57.5t176 -159.5l-112 -90q-118 161 -297 161q-154 0 -258.5 -109t-104.5 -265q0 -158 104.5 -267.5t258.5 -109.5q174 0 295 160l112 -88q-69 -102 -175 -160t-234 -58q-142 0 -262.5 70t-190.5 190.5
t-70 262.5zM948 1159h-119l-204 262l-207 -262h-121l278 438h97z" />
    <glyph glyph-name="Cdotaccent" unicode="&#x10a;" horiz-adv-x="1464" 
d="M98 676q-3 142 53 272.5t151.5 224.5t226.5 148.5t272 52.5q178 0 326 -78t235 -213l-119 -94q-165 238 -440 238q-150 0 -274 -72t-194.5 -198.5t-70.5 -280.5t70.5 -280.5t194.5 -198.5t274 -72q137 0 249 61.5t191 175.5l119 -94q-86 -135 -234.5 -213t-326.5 -78
q-141 -2 -272 53t-226.5 148.5t-151.5 224.5t-53 273zM682 1659q0 47 35 81t84 34q47 0 82 -34t35 -81q0 -49 -33.5 -82t-83.5 -33t-84.5 33t-34.5 82z" />
    <glyph glyph-name="cdotaccent" unicode="&#x10b;" horiz-adv-x="1128" 
d="M102 500q-2 105 39.5 202t112.5 167t168.5 111t202.5 40q128 0 235 -57.5t176 -159.5l-112 -90q-118 161 -297 161q-154 0 -258.5 -109t-104.5 -265q0 -158 104.5 -267.5t258.5 -109.5q174 0 295 160l112 -88q-69 -102 -175 -160t-234 -58q-142 0 -262.5 70t-190.5 190.5
t-70 262.5zM504 1378q0 47 35 81t84 34q47 0 81.5 -34t34.5 -81q0 -49 -33 -81.5t-83 -32.5t-84.5 32.5t-34.5 81.5z" />
    <glyph glyph-name="Ccaron" unicode="&#x10c;" horiz-adv-x="1464" 
d="M98 676q-3 142 53 272.5t151.5 224.5t226.5 148.5t272 52.5q178 0 326 -78t235 -213l-119 -94q-165 238 -440 238q-150 0 -274 -72t-194.5 -198.5t-70.5 -280.5t70.5 -280.5t194.5 -198.5t274 -72q137 0 249 61.5t191 175.5l119 -94q-86 -135 -234.5 -213t-326.5 -78
q-141 -2 -272 53t-226.5 148.5t-151.5 224.5t-53 273zM1026 1864h123l-301 -381h-96l-301 381h122l228 -222z" />
    <glyph glyph-name="ccaron" unicode="&#x10d;" horiz-adv-x="1128" 
d="M102 500q-2 105 39.5 202t112.5 167t168.5 111t202.5 40q128 0 235 -57.5t176 -159.5l-112 -90q-118 161 -297 161q-154 0 -258.5 -109t-104.5 -265q0 -158 104.5 -267.5t258.5 -109.5q174 0 295 160l112 -88q-69 -102 -175 -160t-234 -58q-142 0 -262.5 70t-190.5 190.5
t-70 262.5zM829 1597h119l-276 -438h-97l-278 438h121l207 -262z" />
    <glyph glyph-name="Dcaron" unicode="&#x10e;" horiz-adv-x="1421" 
d="M186 0v1352h402q222 0 390 -86.5t256.5 -239t88.5 -348.5q0 -145 -51.5 -270t-145.5 -215t-232.5 -141.5t-305.5 -51.5h-402zM346 143h240q262 0 416.5 150t154.5 385q0 237 -153.5 383.5t-417.5 146.5h-240v-1065zM809 1864h123l-301 -381h-96l-302 381h123l228 -222z
" />
    <glyph glyph-name="dcaron" unicode="&#x10f;" horiz-adv-x="1523" 
d="M965 1536h157v-1536h-149v158q-57 -84 -158 -132.5t-219 -48.5q-210 0 -352 150.5t-142 370.5t142 371t352 151q113 0 211 -45.5t158 -124.5v686zM967 498q0 92 -29 165.5t-78.5 118.5t-111 68.5t-130.5 23.5q-152 0 -253 -106.5t-101 -267.5t101 -269t253 -108
q93 0 170.5 40t128 127t50.5 208zM1327 1104l27 432h170l-80 -432h-117z" />
    <glyph glyph-name="Dcroat" unicode="&#x110;" horiz-adv-x="1421" 
d="M1323 678q0 -145 -51.5 -270t-145.5 -215t-232.5 -141.5t-305.5 -51.5h-402v561h-194v135h194v656h402q222 0 390 -86.5t256.5 -239t88.5 -348.5zM1157 678q0 237 -153.5 383.5t-417.5 146.5h-240v-512h266v-135h-266v-418h240q262 0 416.5 150t154.5 385z" />
    <glyph glyph-name="dslash" unicode="&#x111;" horiz-adv-x="1298" 
d="M1288 1321v-131h-170v-1190h-147v162q-60 -86 -163 -135.5t-220 -49.5q-135 0 -247 66.5t-176.5 183t-64.5 256.5q0 216 140.5 362t347.5 146q115 0 214 -46t161 -128v373h-449v131h449v215h155v-215h170zM963 483q0 91 -29 162.5t-78 115.5t-110.5 66.5t-129.5 22.5
q-153 0 -253.5 -104t-100.5 -263q0 -157 101 -260.5t253 -103.5q68 0 129.5 22.5t110.5 66t78 114.5t29 161z" />
    <glyph glyph-name="Emacron" unicode="&#x112;" horiz-adv-x="1159" 
d="M186 0v1352h867v-144h-707v-413h541v-144h-541v-508h731v-143h-891zM319 1577v129h605v-129h-605z" />
    <glyph glyph-name="emacron" unicode="&#x113;" horiz-adv-x="1169" 
d="M1055 451h-789q13 -147 115.5 -237.5t251.5 -90.5q170 0 305 135l92 -106q-167 -175 -399 -175q-146 0 -267.5 68.5t-191.5 188.5t-70 264q0 217 148.5 369.5t361.5 152.5q195 0 325 -127t130 -324q0 -57 -12 -118zM272 590h633q-1 131 -85.5 209t-211.5 78
q-125 0 -217.5 -79t-118.5 -208zM328 1315v127h563v-127h-563z" />
    <glyph glyph-name="Ebreve" unicode="&#x114;" horiz-adv-x="1159" 
d="M186 0v1352h867v-144h-707v-413h541v-144h-541v-508h731v-143h-891zM309 1812v52h129v-49q0 -92 49 -147.5t131 -55.5q85 0 134 54.5t49 148.5v49h129v-52q0 -145 -87.5 -235t-224.5 -90q-140 0 -224.5 88.5t-84.5 236.5z" />
    <glyph glyph-name="ebreve" unicode="&#x115;" horiz-adv-x="1169" 
d="M1055 451h-789q13 -147 115.5 -237.5t251.5 -90.5q170 0 305 135l92 -106q-167 -175 -399 -175q-146 0 -267.5 68.5t-191.5 188.5t-70 264q0 217 148.5 369.5t361.5 152.5q195 0 325 -127t130 -324q0 -57 -12 -118zM272 590h633q-1 131 -85.5 209t-211.5 78
q-125 0 -217.5 -79t-118.5 -208zM297 1497v64h129v-60q0 -93 49 -148t131 -55q85 0 133.5 54.5t48.5 148.5v60h130v-64q0 -146 -86 -234.5t-226 -88.5q-136 0 -222.5 90t-86.5 233z" />
    <glyph glyph-name="Edotaccent" unicode="&#x116;" horiz-adv-x="1159" 
d="M186 0v1352h867v-144h-707v-413h541v-144h-541v-508h731v-143h-891zM502 1659q0 47 35 81t84 34q47 0 81.5 -34t34.5 -81q0 -49 -33 -82t-83 -33t-84.5 33t-34.5 82z" />
    <glyph glyph-name="edotaccent" unicode="&#x117;" horiz-adv-x="1169" 
d="M1055 451h-789q13 -147 115.5 -237.5t251.5 -90.5q170 0 305 135l92 -106q-167 -175 -399 -175q-146 0 -267.5 68.5t-191.5 188.5t-70 264q0 217 148.5 369.5t361.5 152.5q195 0 325 -127t130 -324q0 -57 -12 -118zM272 590h633q-1 131 -85.5 209t-211.5 78
q-125 0 -217.5 -79t-118.5 -208zM489 1378q0 47 35 81t84 34q47 0 82 -34t35 -81q0 -49 -33.5 -81.5t-83.5 -32.5t-84.5 32.5t-34.5 81.5z" />
    <glyph glyph-name="Eogonek" unicode="&#x118;" horiz-adv-x="1159" 
d="M186 0v1352h867v-144h-707v-413h541v-144h-541v-508h731v-143h-891zM711 -213q0 75 65 137q69 63 238 148l63 -72l-102 -68q-67 -46 -87 -66.5t-20 -53.5q0 -37 26 -56.5t73 -19.5t110 14v-119q-74 -22 -147 -22q-98 0 -158.5 49t-60.5 129z" />
    <glyph glyph-name="eogonek" unicode="&#x119;" horiz-adv-x="1169" 
d="M1055 451h-789q13 -147 115.5 -237.5t251.5 -90.5q170 0 305 135l92 -106q-167 -175 -399 -175q-146 0 -267.5 68.5t-191.5 188.5t-70 264q0 217 148.5 369.5t361.5 152.5q195 0 325 -127t130 -324q0 -57 -12 -118zM272 590h633q-1 131 -85.5 209t-211.5 78
q-125 0 -217.5 -79t-118.5 -208zM604 -213q4 84 47 144t213 221h164l-188 -201q-46 -51 -61 -77t-15 -62q0 -76 96 -76q48 0 111 14v-119q-74 -22 -148 -22q-99 0 -159 48.5t-60 129.5z" />
    <glyph glyph-name="Ecaron" unicode="&#x11a;" horiz-adv-x="1159" 
d="M186 0v1352h867v-144h-707v-413h541v-144h-541v-508h731v-143h-891zM846 1864h123l-301 -381h-97l-301 381h123l228 -222z" />
    <glyph glyph-name="ecaron" unicode="&#x11b;" horiz-adv-x="1169" 
d="M1055 451h-789q13 -147 115.5 -237.5t251.5 -90.5q170 0 305 135l92 -106q-167 -175 -399 -175q-146 0 -267.5 68.5t-191.5 188.5t-70 264q0 217 148.5 369.5t361.5 152.5q195 0 325 -127t130 -324q0 -57 -12 -118zM272 590h633q-1 131 -85.5 209t-211.5 78
q-125 0 -217.5 -79t-118.5 -208zM815 1597h119l-277 -438h-96l-278 438h120l207 -262z" />
    <glyph glyph-name="Gcircumflex" unicode="&#x11c;" horiz-adv-x="1527" 
d="M98 676q-2 142 53.5 272.5t150 224.5t226 148.5t273.5 52.5q171 0 314 -72.5t237 -203.5l-121 -94q-164 223 -430 223q-150 3 -275 -70.5t-195 -200.5t-67 -278q-3 -153 68 -282t198 -203.5t279 -71.5q145 0 263 64.5t188 176.5v183h-461v143h620v-360
q-90 -162 -256 -256q-164 -95 -362 -95q-142 -2 -273.5 53t-226 149t-150 224.5t-53.5 272.5zM1153 1483h-123l-225 221l-227 -221h-123l301 381h96z" />
    <glyph glyph-name="gcircumflex" unicode="&#x11d;" horiz-adv-x="1304" 
d="M983 997h150v-901q0 -226 -131.5 -356.5t-354.5 -130.5q-141 0 -260.5 51.5t-208.5 140.5l92 111q91 -79 178.5 -118.5t194.5 -39.5q156 0 244 87t88 247v88q-60 -78 -159 -122t-212 -44q-211 0 -350 143.5t-139 360.5q0 216 139.5 361t349.5 145q120 0 221 -48t158 -134
v159zM977 514q0 87 -29 156.5t-78 112t-110.5 65t-130.5 22.5q-153 0 -254 -101t-101 -257q0 -157 100.5 -256.5t254.5 -99.5q70 0 131.5 22.5t110.5 65.5t77.5 112.5t28.5 157.5zM963 1159h-119l-205 262l-207 -262h-121l279 438h96z" />
    <glyph glyph-name="Gbreve" unicode="&#x11e;" horiz-adv-x="1527" 
d="M98 676q-2 142 53.5 272.5t150 224.5t226 148.5t273.5 52.5q171 0 314 -72.5t237 -203.5l-121 -94q-164 223 -430 223q-150 3 -275 -70.5t-195 -200.5t-67 -278q-3 -153 68 -282t198 -203.5t279 -71.5q145 0 263 64.5t188 176.5v183h-461v143h620v-360
q-90 -162 -256 -256q-164 -95 -362 -95q-142 -2 -273.5 53t-226 149t-150 224.5t-53.5 272.5zM494 1812v52h129v-49q0 -92 49 -147.5t131 -55.5q85 0 133.5 54.5t48.5 148.5v49h129v-52q0 -145 -87 -235t-224 -90q-140 0 -224.5 88.5t-84.5 236.5z" />
    <glyph glyph-name="gbreve" unicode="&#x11f;" horiz-adv-x="1304" 
d="M983 997h150v-901q0 -226 -131.5 -356.5t-354.5 -130.5q-141 0 -260.5 51.5t-208.5 140.5l92 111q91 -79 178.5 -118.5t194.5 -39.5q156 0 244 87t88 247v88q-60 -78 -159 -122t-212 -44q-211 0 -350 143.5t-139 360.5q0 216 139.5 361t349.5 145q120 0 221 -48t158 -134
v159zM977 514q0 87 -29 156.5t-78 112t-110.5 65t-130.5 22.5q-153 0 -254 -101t-101 -257q0 -157 100.5 -256.5t254.5 -99.5q70 0 131.5 22.5t110.5 65.5t77.5 112.5t28.5 157.5zM326 1497v64h129v-60q0 -93 49 -148t131 -55q85 0 133.5 54.5t48.5 148.5v60h129v-64
q0 -146 -85.5 -234.5t-225.5 -88.5q-136 0 -222.5 90t-86.5 233z" />
    <glyph glyph-name="Gdotaccent" unicode="&#x120;" horiz-adv-x="1527" 
d="M98 676q-2 142 53.5 272.5t150 224.5t226 148.5t273.5 52.5q171 0 314 -72.5t237 -203.5l-121 -94q-164 223 -430 223q-150 3 -275 -70.5t-195 -200.5t-67 -278q-3 -153 68 -282t198 -203.5t279 -71.5q145 0 263 64.5t188 176.5v183h-461v143h620v-360
q-90 -162 -256 -256q-164 -95 -362 -95q-142 -2 -273.5 53t-226 149t-150 224.5t-53.5 272.5zM686 1659q0 47 35 81t84 34q47 0 82 -34t35 -81q0 -49 -33.5 -82t-83.5 -33t-84.5 33t-34.5 82z" />
    <glyph glyph-name="gdotaccent" unicode="&#x121;" horiz-adv-x="1304" 
d="M983 997h150v-901q0 -226 -131.5 -356.5t-354.5 -130.5q-141 0 -260.5 51.5t-208.5 140.5l92 111q91 -79 178.5 -118.5t194.5 -39.5q156 0 244 87t88 247v88q-60 -78 -159 -122t-212 -44q-211 0 -350 143.5t-139 360.5q0 216 139.5 361t349.5 145q120 0 221 -48t158 -134
v159zM977 514q0 87 -29 156.5t-78 112t-110.5 65t-130.5 22.5q-153 0 -254 -101t-101 -257q0 -157 100.5 -256.5t254.5 -99.5q70 0 131.5 22.5t110.5 65.5t77.5 112.5t28.5 157.5zM518 1378q0 47 35 81t84 34q47 0 82 -34t35 -81q0 -49 -33.5 -81.5t-83.5 -32.5t-84.5 32.5
t-34.5 81.5z" />
    <glyph glyph-name="uni0122" unicode="&#x122;" horiz-adv-x="1527" 
d="M98 676q-2 142 53.5 272.5t150 224.5t226 148.5t273.5 52.5q171 0 314 -72.5t237 -203.5l-121 -94q-164 223 -430 223q-150 3 -275 -70.5t-195 -200.5t-67 -278q-3 -153 68 -282t198 -203.5t279 -71.5q145 0 263 64.5t188 176.5v183h-461v143h620v-360
q-90 -162 -256 -256q-164 -95 -362 -95q-142 -2 -273.5 53t-226 149t-150 224.5t-53.5 272.5zM707 -451l18 351h156l-52 -351h-122z" />
    <glyph glyph-name="uni0123" unicode="&#x123;" horiz-adv-x="1304" 
d="M983 997h150v-901q0 -226 -131.5 -356.5t-354.5 -130.5q-141 0 -260.5 51.5t-208.5 140.5l92 111q91 -79 178.5 -118.5t194.5 -39.5q156 0 244 87t88 247v88q-60 -78 -159 -122t-212 -44q-211 0 -350 143.5t-139 360.5q0 216 139.5 361t349.5 145q120 0 221 -48t158 -134
v159zM977 514q0 87 -29 156.5t-78 112t-110.5 65t-130.5 22.5q-153 0 -254 -101t-101 -257q0 -157 100.5 -256.5t254.5 -99.5q70 0 131.5 22.5t110.5 65.5t77.5 112.5t28.5 157.5zM559 1159l66 438h118l-28 -438h-156z" />
    <glyph glyph-name="Hcircumflex" unicode="&#x124;" horiz-adv-x="1449" 
d="M186 0v1352h160v-557h758v557h160v-1352h-160v651h-758v-651h-160zM1073 1483h-123l-225 221l-227 -221h-123l301 381h96z" />
    <glyph glyph-name="hcircumflex" unicode="&#x125;" horiz-adv-x="1159" 
d="M999 627v-627h-157v606q0 122 -66.5 195t-181.5 73t-188.5 -75.5t-73.5 -192.5v-606h-158v1536h158v-651q52 64 129.5 99.5t169.5 35.5q170 0 269 -107t99 -286zM680 1667h-123l-225 221l-228 -221h-122l301 381h96z" />
    <glyph glyph-name="Hbar" unicode="&#x126;" horiz-adv-x="1472" 
d="M195 0v942h-203v135h203v275h159v-275h760v275h160v-275h205v-135h-205v-942h-160v518h-760v-518h-159zM354 664h760v278h-760v-278z" />
    <glyph glyph-name="hbar" unicode="&#x127;" horiz-adv-x="1167" 
d="M1008 600v-600h-158v582q0 119 -68 191.5t-180 72.5q-117 0 -191.5 -74t-74.5 -190v-582h-156v1186h-170v139h170v211h156v-211h414v-139h-414v-332q106 137 301 137q171 0 271 -106.5t100 -284.5z" />
    <glyph glyph-name="Itilde" unicode="&#x128;" horiz-adv-x="530" 
d="M186 0v1352h160v-1352h-160zM283 1569l-68 41q-62 41 -88 41q-28 0 -44.5 -22t-16.5 -56v-33h-132q-4 36 -4 51q0 91 50 149t129 58q69 0 143 -47l70 -45q59 -41 90 -41q28 0 44.5 21.5t16.5 54.5v37h131q2 -10 2 -54q0 -89 -48.5 -146.5t-125.5 -57.5q-70 0 -149 49z
" />
    <glyph glyph-name="itilde" unicode="&#x129;" horiz-adv-x="503" 
d="M174 0v997h158v-997h-158zM254 1282l-39 37q-47 47 -74 47q-55 0 -55 -84v-35h-131q-4 28 -4 49q0 94 47 154.5t125 60.5q74 0 133 -59l39 -39q28 -28 42 -37.5t32 -9.5q53 0 53 84v35h129q4 -28 4 -49q0 -94 -45.5 -154.5t-122.5 -60.5q-69 0 -133 61z" />
    <glyph glyph-name="Imacron" unicode="&#x12a;" horiz-adv-x="530" 
d="M186 0v1352h160v-1352h-160zM-33 1577v129h604v-129h-604z" />
    <glyph glyph-name="imacron" unicode="&#x12b;" horiz-adv-x="503" 
d="M174 0v997h158v-997h-158zM29 1313v131h450v-131h-450z" />
    <glyph glyph-name="Ibreve" unicode="&#x12c;" horiz-adv-x="530" 
d="M186 0v1352h160v-1352h-160zM-43 1812v52h129v-49q0 -92 49 -147.5t131 -55.5q85 0 134 54.5t49 148.5v49h129v-52q0 -145 -87.5 -235t-224.5 -90q-140 0 -224.5 88.5t-84.5 236.5z" />
    <glyph glyph-name="ibreve" unicode="&#x12d;" horiz-adv-x="503" 
d="M174 0v997h158v-997h-158zM-57 1497v64h129v-60q0 -93 49 -148t131 -55q85 0 133.5 54.5t48.5 148.5v60h129v-64q0 -146 -85.5 -234.5t-225.5 -88.5q-136 0 -222.5 90t-86.5 233z" />
    <glyph glyph-name="Iogonek" unicode="&#x12e;" horiz-adv-x="530" 
d="M186 0v1352h160v-1352h-160zM-20 -213q0 75 65 137q69 63 238 148l63 -72l-102 -68q-67 -46 -87 -66.5t-20 -53.5q0 -37 26 -56.5t73 -19.5t110 14v-119q-74 -22 -147 -22q-98 0 -158.5 49t-60.5 129z" />
    <glyph glyph-name="iogonek" unicode="&#x12f;" horiz-adv-x="503" 
d="M174 0v997h158v-997h-158zM135 1378q0 47 35 81t84 34q47 0 82 -34t35 -81q0 -49 -33.5 -81.5t-83.5 -32.5t-84.5 32.5t-34.5 81.5zM-35 -213q0 74 66 137q70 64 237 148l64 -72l-103 -68q-66 -46 -86 -66.5t-20 -53.5q0 -37 25.5 -56.5t72.5 -19.5q48 0 111 14v-119
q-74 -22 -148 -22q-98 0 -158.5 49t-60.5 129z" />
    <glyph glyph-name="Idot" unicode="&#x130;" horiz-adv-x="530" 
d="M186 0v1352h160v-1352h-160zM150 1659q0 47 34.5 81t83.5 34q47 0 82 -34t35 -81q0 -49 -33.5 -82t-83.5 -33t-84 33t-34 82z" />
    <glyph glyph-name="dotlessi" unicode="&#x131;" horiz-adv-x="503" 
d="M174 0v997h158v-997h-158z" />
    <glyph glyph-name="IJ" unicode="&#x132;" horiz-adv-x="1296" 
d="M186 0v1352h160v-1352h-160zM580 0v137q82 -12 147 -12q114 0 168.5 46t54.5 157v1024h160v-1039q0 -167 -92 -251.5t-260 -84.5q-70 0 -178 23z" />
    <glyph glyph-name="ij" unicode="&#x133;" horiz-adv-x="1007" 
d="M174 0v997h158v-997h-158zM135 1378q0 47 35 81t84 34q47 0 82 -34t35 -81q0 -49 -33.5 -81.5t-83.5 -32.5t-84.5 32.5t-34.5 81.5zM381 -375v133q53 -6 92 -6q102 0 153.5 45t51.5 146v1054h158v-1065q0 -160 -87 -241.5t-241 -81.5q-65 0 -127 16zM639 1378q0 47 35 81
t84 34q47 0 81.5 -34t34.5 -81q0 -49 -33 -81.5t-83 -32.5t-84.5 32.5t-34.5 81.5z" />
    <glyph glyph-name="Jcircumflex" unicode="&#x134;" horiz-adv-x="763" 
d="M49 0v137q83 -12 148 -12q114 0 168.5 46t54.5 157v1024h160v-1039q0 -167 -92.5 -251.5t-260.5 -84.5q-70 0 -178 23zM829 1483h-122l-226 221l-227 -221h-123l301 381h96z" />
    <glyph glyph-name="jcircumflex" unicode="&#x135;" horiz-adv-x="503" 
d="M-123 -375v133q52 -6 92 -6q102 0 153.5 45t51.5 146v1054h158v-1065q0 -160 -87 -241.5t-241 -81.5q-65 0 -127 16zM580 1159h-119l-205 262l-207 -262h-121l279 438h96z" />
    <glyph glyph-name="uni0136" unicode="&#x136;" horiz-adv-x="1296" 
d="M186 0v1352h160v-1352h-160zM573 725l660 -725h-203l-665 725l608 627h205zM524 -451l19 351h155l-51 -351h-123z" />
    <glyph glyph-name="uni0137" unicode="&#x137;" horiz-adv-x="1036" 
d="M174 0v1536h158v-1536h-158zM539 559l471 -559h-203l-459 561l416 436h207zM422 -451l18 351h156l-51 -351h-123z" />
    <glyph glyph-name="Lacute" unicode="&#x139;" horiz-adv-x="1036" 
d="M186 0v1352h160v-1209h641v-143h-801zM205 1483l174 381h192v-29l-245 -352h-121z" />
    <glyph glyph-name="lacute" unicode="&#x13a;" horiz-adv-x="503" 
d="M174 0v1536h158v-1536h-158zM193 1667l174 381h192v-29l-246 -352h-120z" />
    <glyph glyph-name="uni013B" unicode="&#x13b;" horiz-adv-x="1036" 
d="M186 0v1352h160v-1209h641v-143h-801zM473 -451l19 351h155l-51 -351h-123z" />
    <glyph glyph-name="uni013C" unicode="&#x13c;" horiz-adv-x="503" 
d="M174 0v1536h158v-1536h-158zM156 -451l18 351h156l-51 -351h-123z" />
    <glyph glyph-name="Lcaron" unicode="&#x13d;" horiz-adv-x="1036" 
d="M186 0v1352h160v-1209h641v-143h-801zM743 1042l27 433h170l-80 -433h-117z" />
    <glyph glyph-name="lcaron" unicode="&#x13e;" horiz-adv-x="733" 
d="M174 0v1536h158v-1536h-158zM537 1104l26 432h170l-80 -432h-116z" />
    <glyph glyph-name="Ldot" unicode="&#x13f;" horiz-adv-x="1036" 
d="M186 0v1352h160v-1209h641v-143h-801zM666 754q0 55 37.5 92t91.5 37t91.5 -37t37.5 -92t-37.5 -92t-91.5 -37t-91.5 37t-37.5 92z" />
    <glyph glyph-name="ldot" unicode="&#x140;" horiz-adv-x="612" 
d="M174 0v1536h158v-1536h-158zM436 643q0 55 37.5 92t91.5 37t91.5 -37t37.5 -92t-37.5 -92t-91.5 -37t-91.5 37t-37.5 92z" />
    <glyph glyph-name="Lslash" unicode="&#x141;" horiz-adv-x="1036" 
d="M346 143h641v-143h-801v520l-161 -71v147l161 72v684h160v-623l451 207v-152l-451 -204v-437z" />
    <glyph glyph-name="lslash" unicode="&#x142;" horiz-adv-x="737" 
d="M610 922v-150l-178 -82v-690h-158v635l-159 -74v150l159 75v750h158v-696z" />
    <glyph glyph-name="Nacute" unicode="&#x143;" horiz-adv-x="1449" 
d="M1104 1352h160v-1375h-58l-860 1037v-1014h-160v1374h58l860 -1038v1016zM666 1483l174 381h192v-29l-246 -352h-120z" />
    <glyph glyph-name="nacute" unicode="&#x144;" horiz-adv-x="1159" 
d="M999 627v-627h-157v608q0 120 -67 193t-181 73q-115 0 -188.5 -74.5t-73.5 -191.5v-608h-158v997h148v-106q116 129 307 129q172 0 271 -107t99 -286zM528 1159l174 438h193v-28l-246 -410h-121z" />
    <glyph glyph-name="uni0145" unicode="&#x145;" horiz-adv-x="1449" 
d="M1104 1352h160v-1375h-58l-860 1037v-1014h-160v1374h58l860 -1038v1016zM627 -451l18 351h156l-51 -351h-123z" />
    <glyph glyph-name="uni0146" unicode="&#x146;" horiz-adv-x="1159" 
d="M999 627v-627h-157v608q0 120 -67 193t-181 73q-115 0 -188.5 -74.5t-73.5 -191.5v-608h-158v997h148v-106q116 129 307 129q172 0 271 -107t99 -286zM485 -451l19 351h155l-51 -351h-123z" />
    <glyph glyph-name="Ncaron" unicode="&#x147;" horiz-adv-x="1449" 
d="M1104 1352h160v-1375h-58l-860 1037v-1014h-160v1374h58l860 -1038v1016zM950 1864h123l-301 -381h-96l-301 381h123l227 -222z" />
    <glyph glyph-name="ncaron" unicode="&#x148;" horiz-adv-x="1159" 
d="M999 627v-627h-157v608q0 120 -67 193t-181 73q-115 0 -188.5 -74.5t-73.5 -191.5v-608h-158v997h148v-106q116 129 307 129q172 0 271 -107t99 -286zM791 1597h118l-276 -438h-96l-279 438h121l207 -262z" />
    <glyph glyph-name="Eng" unicode="&#x14a;" horiz-adv-x="1449" 
d="M1104 1352h160v-1420q0 -161 -86 -242t-242 -81q-63 0 -125 16v133q53 -6 92 -6q101 0 151 44.5t50 146.5v84l-758 970v-997h-160v1374h58l860 -1106v1084z" />
    <glyph glyph-name="eng" unicode="&#x14b;" horiz-adv-x="1159" 
d="M999 627v-695q0 -160 -86.5 -241.5t-240.5 -81.5q-65 0 -127 16v133q53 -6 90 -6q104 0 155.5 44.5t51.5 146.5v663q0 122 -66.5 195t-181.5 73t-188.5 -75.5t-73.5 -192.5v-606h-158v997h148v-106q116 129 307 129q172 0 271 -107t99 -286z" />
    <glyph glyph-name="Omacron" unicode="&#x14c;" horiz-adv-x="1599" 
d="M98 676q-3 142 52.5 272.5t151 224.5t226 148.5t271.5 52.5q140 2 270.5 -53t226 -148.5t152 -224t53.5 -272.5q3 -142 -53.5 -273t-152 -224.5t-226 -148.5t-270.5 -53q-141 -3 -272 52.5t-226 150t-150.5 225t-52.5 271.5zM1335 678q3 150 -68 277.5t-195.5 201
t-270.5 70.5q-150 0 -273.5 -71.5t-193.5 -197.5t-70 -280t70 -281t193.5 -199.5t273.5 -72.5q146 -2 270 71.5t195.5 201.5t68.5 280zM500 1577v129h604v-129h-604z" />
    <glyph glyph-name="omacron" unicode="&#x14d;" horiz-adv-x="1249" 
d="M102 500q-2 105 39.5 202t112.5 167.5t168.5 111.5t202.5 39q140 2 261.5 -68t192.5 -191t68 -261q2 -103 -39.5 -200t-112.5 -168t-169 -112.5t-203 -39.5q-140 -3 -261 68t-191.5 192.5t-68.5 259.5zM985 498q0 161 -103.5 268.5t-256.5 107.5q-154 0 -257.5 -107.5
t-103.5 -268.5q0 -157 103.5 -265t255.5 -108t257 108t105 265zM344 1315v127h563v-127h-563z" />
    <glyph glyph-name="Obreve" unicode="&#x14e;" horiz-adv-x="1599" 
d="M98 676q-3 142 52.5 272.5t151 224.5t226 148.5t271.5 52.5q140 2 270.5 -53t226 -148.5t152 -224t53.5 -272.5q3 -142 -53.5 -273t-152 -224.5t-226 -148.5t-270.5 -53q-141 -3 -272 52.5t-226 150t-150.5 225t-52.5 271.5zM1335 678q3 150 -68 277.5t-195.5 201
t-270.5 70.5q-150 0 -273.5 -71.5t-193.5 -197.5t-70 -280t70 -281t193.5 -199.5t273.5 -72.5q146 -2 270 71.5t195.5 201.5t68.5 280zM489 1812v52h129v-49q0 -92 49.5 -147.5t131.5 -55.5q85 0 133.5 54.5t48.5 148.5v49h129v-52q0 -145 -87 -235t-224 -90q-140 0 -225 89
t-85 236z" />
    <glyph glyph-name="obreve" unicode="&#x14f;" horiz-adv-x="1249" 
d="M102 500q-2 105 39.5 202t112.5 167.5t168.5 111.5t202.5 39q140 2 261.5 -68t192.5 -191t68 -261q2 -103 -39.5 -200t-112.5 -168t-169 -112.5t-203 -39.5q-140 -3 -261 68t-191.5 192.5t-68.5 259.5zM985 498q0 161 -103.5 268.5t-256.5 107.5q-154 0 -257.5 -107.5
t-103.5 -268.5q0 -157 103.5 -265t255.5 -108t257 108t105 265zM313 1497v64h129v-60q0 -93 49.5 -148t131.5 -55q85 0 133.5 54.5t48.5 148.5v60h129v-64q0 -146 -85.5 -234.5t-225.5 -88.5q-137 0 -223.5 90.5t-86.5 232.5z" />
    <glyph glyph-name="Ohungarumlaut" unicode="&#x150;" horiz-adv-x="1599" 
d="M98 676q-3 142 52.5 272.5t151 224.5t226 148.5t271.5 52.5q140 2 270.5 -53t226 -148.5t152 -224t53.5 -272.5q3 -142 -53.5 -273t-152 -224.5t-226 -148.5t-270.5 -53q-141 -3 -272 52.5t-226 150t-150.5 225t-52.5 271.5zM1335 678q3 150 -68 277.5t-195.5 201
t-270.5 70.5q-150 0 -273.5 -71.5t-193.5 -197.5t-70 -280t70 -281t193.5 -199.5t273.5 -72.5q146 -2 270 71.5t195.5 201.5t68.5 280zM496 1483l176 381h170v-29l-234 -352h-112zM944 1483l176 381h170v-29l-233 -352h-113z" />
    <glyph glyph-name="ohungarumlaut" unicode="&#x151;" horiz-adv-x="1249" 
d="M102 500q-2 105 39.5 202t112.5 167.5t168.5 111.5t202.5 39q140 2 261.5 -68t192.5 -191t68 -261q2 -103 -39.5 -200t-112.5 -168t-169 -112.5t-203 -39.5q-140 -3 -261 68t-191.5 192.5t-68.5 259.5zM985 498q0 161 -103.5 268.5t-256.5 107.5q-154 0 -257.5 -107.5
t-103.5 -268.5q0 -157 103.5 -265t255.5 -108t257 108t105 265zM354 1159l176 438h170v-28l-233 -410h-113zM762 1159l176 438h170v-28l-234 -410h-112z" />
    <glyph glyph-name="OE" unicode="&#x152;" horiz-adv-x="2308" 
d="M1495 143h731v-143h-891v256q-85 -131 -227 -205t-311 -74q-142 -2 -272.5 53t-224.5 149t-149 224.5t-53 272.5q-2 142 53.5 272.5t150 224.5t225 148.5t272.5 52.5q170 0 312 -73.5t224 -202.5v254h867v-144h-707v-413h541v-144h-541v-508zM1335 676q0 153 -70 279
t-193 199t-273 73t-273 -72t-192.5 -198.5t-69.5 -280.5t69.5 -280.5t192.5 -198.5t273 -72t273 73t193 199t70 279z" />
    <glyph glyph-name="oe" unicode="&#x153;" horiz-adv-x="2009" 
d="M1894 449h-774q13 -147 111.5 -236.5t245.5 -89.5q167 0 297 133l96 -104q-78 -84 -181 -129.5t-216 -45.5q-136 0 -251.5 67t-181.5 183q-64 -118 -174 -184t-248 -66q-138 -3 -258.5 67.5t-190.5 192t-67 261.5q0 144 70 264t189 189t260 69q138 0 247.5 -67
t171.5 -185q67 117 177.5 183.5t242.5 66.5q121 0 223.5 -57.5t163 -161.5t60.5 -232q0 -51 -13 -118zM965 498q0 162 -96.5 269t-247.5 107q-153 0 -255 -108t-102 -268q0 -159 101 -267t253 -108q151 0 249 107.5t98 267.5zM1126 588h619q-1 131 -85 208.5t-210 77.5
q-122 0 -210.5 -78t-113.5 -208z" />
    <glyph glyph-name="Racute" unicode="&#x154;" horiz-adv-x="1273" 
d="M1241 0h-186l-420 567h-289v-567h-160v1352h476q195 0 313.5 -109.5t118.5 -281.5q0 -137 -76 -237t-209 -138zM346 1208v-497h309q129 0 201 66.5t72 180.5q0 112 -73 181t-200 69h-309zM477 1483l174 381h193v-29l-246 -352h-121z" />
    <glyph glyph-name="racute" unicode="&#x155;" horiz-adv-x="741" 
d="M705 997v-139h-60q-131 0 -222 -80t-91 -213v-565h-158v997h148v-141q54 71 135.5 110.5t173.5 39.5q33 0 74 -9zM299 1159l174 438h193v-28l-246 -410h-121z" />
    <glyph glyph-name="uni0156" unicode="&#x156;" horiz-adv-x="1273" 
d="M1241 0h-186l-420 567h-289v-567h-160v1352h476q195 0 313.5 -109.5t118.5 -281.5q0 -137 -76 -237t-209 -138zM346 1208v-497h309q129 0 201 66.5t72 180.5q0 112 -73 181t-200 69h-309zM541 -451l18 351h156l-51 -351h-123z" />
    <glyph glyph-name="uni0157" unicode="&#x157;" horiz-adv-x="741" 
d="M705 997v-139h-60q-131 0 -222 -80t-91 -213v-565h-158v997h148v-141q54 71 135.5 110.5t173.5 39.5q33 0 74 -9zM154 -451l18 351h156l-52 -351h-122z" />
    <glyph glyph-name="Rcaron" unicode="&#x158;" horiz-adv-x="1273" 
d="M1241 0h-186l-420 567h-289v-567h-160v1352h476q195 0 313.5 -109.5t118.5 -281.5q0 -137 -76 -237t-209 -138zM346 1208v-497h309q129 0 201 66.5t72 180.5q0 112 -73 181t-200 69h-309zM762 1864h123l-301 -381h-97l-301 381h123l228 -222z" />
    <glyph glyph-name="rcaron" unicode="&#x159;" horiz-adv-x="741" 
d="M705 997v-139h-60q-131 0 -222 -80t-91 -213v-565h-158v997h148v-141q54 71 135.5 110.5t173.5 39.5q33 0 74 -9zM561 1597h119l-277 -438h-96l-278 438h121l206 -262z" />
    <glyph glyph-name="Sacute" unicode="&#x15a;" horiz-adv-x="1142" 
d="M84 268l119 88q150 -231 377 -231q122 0 197 61.5t75 163.5q0 37 -10 65.5t-24.5 49.5t-46.5 43t-61 38t-83 42l-152 71q-75 35 -127 69t-94.5 77.5t-63 97t-20.5 119.5q0 155 119 253.5t289 98.5q132 0 244 -62t179 -167l-116 -88q-55 81 -136 125.5t-174 44.5
q-103 0 -171 -53t-68 -144q0 -59 26 -98q25 -36 64 -61.5t127 -67.5l149 -72q167 -81 241.5 -166t74.5 -211q0 -166 -123 -271.5t-313 -105.5q-157 0 -287.5 77.5t-210.5 213.5zM520 1483l174 381h193v-29l-246 -352h-121z" />
    <glyph glyph-name="sacute" unicode="&#x15b;" horiz-adv-x="929" 
d="M80 172l100 104q78 -79 142.5 -116t144.5 -37q83 0 136.5 38t53.5 103q0 57 -37.5 89t-136.5 71l-96 41q-129 53 -188.5 116t-59.5 160q0 128 95 203.5t241 75.5q202 0 334 -158l-96 -98q-110 110 -246 110q-75 0 -120.5 -32.5t-45.5 -91.5q0 -46 34.5 -76.5t127.5 -69.5
l92 -39q142 -61 203 -127.5t61 -167.5q0 -140 -102 -217q-101 -76 -248 -76q-120 0 -220 52.5t-169 142.5zM416 1159l174 438h192v-28l-245 -410h-121z" />
    <glyph glyph-name="Scircumflex" unicode="&#x15c;" horiz-adv-x="1142" 
d="M84 268l119 88q150 -231 377 -231q122 0 197 61.5t75 163.5q0 37 -10 65.5t-24.5 49.5t-46.5 43t-61 38t-83 42l-152 71q-75 35 -127 69t-94.5 77.5t-63 97t-20.5 119.5q0 155 119 253.5t289 98.5q132 0 244 -62t179 -167l-116 -88q-55 81 -136 125.5t-174 44.5
q-103 0 -171 -53t-68 -144q0 -59 26 -98q25 -36 64 -61.5t127 -67.5l149 -72q167 -81 241.5 -166t74.5 -211q0 -166 -123 -271.5t-313 -105.5q-157 0 -287.5 77.5t-210.5 213.5zM928 1483h-123l-225 221l-228 -221h-123l301 381h97z" />
    <glyph glyph-name="scircumflex" unicode="&#x15d;" horiz-adv-x="929" 
d="M80 172l100 104q78 -79 142.5 -116t144.5 -37q83 0 136.5 38t53.5 103q0 57 -37.5 89t-136.5 71l-96 41q-129 53 -188.5 116t-59.5 160q0 128 95 203.5t241 75.5q202 0 334 -158l-96 -98q-110 110 -246 110q-75 0 -120.5 -32.5t-45.5 -91.5q0 -46 34.5 -76.5t127.5 -69.5
l92 -39q142 -61 203 -127.5t61 -167.5q0 -140 -102 -217q-101 -76 -248 -76q-120 0 -220 52.5t-169 142.5zM797 1159h-119l-205 262l-207 -262h-121l279 438h96z" />
    <glyph glyph-name="Scedilla" unicode="&#x15e;" horiz-adv-x="1142" 
d="M84 268l119 88q150 -231 377 -231q122 0 197 61.5t75 163.5q0 37 -10 65.5t-24.5 49.5t-46.5 43t-61 38t-83 42l-152 71q-75 35 -127 69t-94.5 77.5t-63 97t-20.5 119.5q0 155 119 253.5t289 98.5q132 0 244 -62t179 -167l-116 -88q-55 81 -136 125.5t-174 44.5
q-103 0 -171 -53t-68 -144q0 -59 26 -98q25 -36 64 -61.5t127 -67.5l149 -72q167 -81 241.5 -166t74.5 -211q0 -166 -123 -271.5t-313 -105.5q-157 0 -287.5 77.5t-210.5 213.5zM332 -371v113q57 -8 114 -8q74 0 117 33.5t43 99.5q0 82 -69 151l67 35q63 -31 100 -86
t37 -123q0 -102 -74 -168.5t-196 -66.5q-72 0 -139 20z" />
    <glyph glyph-name="scedilla" unicode="&#x15f;" horiz-adv-x="929" 
d="M80 172l100 104q78 -79 142.5 -116t144.5 -37q83 0 136.5 38t53.5 103q0 57 -37.5 89t-136.5 71l-96 41q-129 53 -188.5 116t-59.5 160q0 128 95 203.5t241 75.5q202 0 334 -158l-96 -98q-110 110 -246 110q-75 0 -120.5 -32.5t-45.5 -91.5q0 -46 34.5 -76.5t127.5 -69.5
l92 -39q142 -61 203 -127.5t61 -167.5q0 -140 -102 -217q-101 -76 -248 -76q-120 0 -220 52.5t-169 142.5zM229 -371v113q57 -8 115 -8q74 0 117 33.5t43 99.5q0 81 -70 151l68 35q63 -31 100 -86t37 -123q0 -102 -74 -168.5t-196 -66.5q-73 0 -140 20z" />
    <glyph glyph-name="Scaron" unicode="&#x160;" horiz-adv-x="1142" 
d="M84 268l119 88q150 -231 377 -231q122 0 197 61.5t75 163.5q0 37 -10 65.5t-24.5 49.5t-46.5 43t-61 38t-83 42l-152 71q-75 35 -127 69t-94.5 77.5t-63 97t-20.5 119.5q0 155 119 253.5t289 98.5q132 0 244 -62t179 -167l-116 -88q-55 81 -136 125.5t-174 44.5
q-103 0 -171 -53t-68 -144q0 -59 26 -98q25 -36 64 -61.5t127 -67.5l149 -72q167 -81 241.5 -166t74.5 -211q0 -166 -123 -271.5t-313 -105.5q-157 0 -287.5 77.5t-210.5 213.5zM805 1864h123l-301 -381h-97l-301 381h123l228 -222z" />
    <glyph glyph-name="scaron" unicode="&#x161;" horiz-adv-x="929" 
d="M80 172l100 104q78 -79 142.5 -116t144.5 -37q83 0 136.5 38t53.5 103q0 57 -37.5 89t-136.5 71l-96 41q-129 53 -188.5 116t-59.5 160q0 128 95 203.5t241 75.5q202 0 334 -158l-96 -98q-110 110 -246 110q-75 0 -120.5 -32.5t-45.5 -91.5q0 -46 34.5 -76.5t127.5 -69.5
l92 -39q142 -61 203 -127.5t61 -167.5q0 -140 -102 -217q-101 -76 -248 -76q-120 0 -220 52.5t-169 142.5zM678 1597h119l-277 -438h-96l-279 438h121l207 -262z" />
    <glyph glyph-name="uni0162" unicode="&#x162;" horiz-adv-x="1189" 
d="M514 0v1208h-475v144h1112v-144h-477v-1208h-160zM330 -371v113q57 -8 114 -8q74 0 117 33.5t43 99.5q0 82 -69 151l67 35q63 -31 100 -86t37 -123q0 -102 -74 -168.5t-196 -66.5q-72 0 -139 20z" />
    <glyph glyph-name="uni0163" unicode="&#x163;" horiz-adv-x="780" 
d="M719 133v-133q-103 -23 -166 -23q-159 0 -247.5 81.5t-88.5 242.5v555h-168v141h168v273h158v-273h311v-141h-311v-545q0 -102 52 -146t159 -44q56 0 133 12zM190 -371v113q57 -8 115 -8q74 0 117 33.5t43 99.5q0 81 -70 151l68 35q63 -31 100 -86t37 -123
q0 -102 -74 -168.5t-196 -66.5q-73 0 -140 20z" />
    <glyph glyph-name="Tcaron" unicode="&#x164;" horiz-adv-x="1189" 
d="M514 0v1208h-475v144h1112v-144h-477v-1208h-160zM821 1864h123l-301 -381h-96l-301 381h123l227 -222z" />
    <glyph glyph-name="tcaron" unicode="&#x165;" horiz-adv-x="780" 
d="M719 133v-133q-103 -23 -166 -23q-159 0 -247.5 81.5t-88.5 242.5v555h-168v141h168v273h158v-273h311v-141h-311v-545q0 -102 52 -146t159 -44q56 0 133 12zM569 1104l27 432h170l-80 -432h-117z" />
    <glyph glyph-name="Tbar" unicode="&#x166;" horiz-adv-x="1189" 
d="M514 0v532h-399v136h399v540h-475v144h1112v-144h-477v-540h401v-136h-401v-532h-160z" />
    <glyph glyph-name="tbar" unicode="&#x167;" horiz-adv-x="806" 
d="M737 133v-133q-97 -23 -166 -23q-158 0 -245.5 81.5t-87.5 242.5v148h-170v135h170v276h-170v137h170v273h155v-273h312v-137h-312v-276h312v-135h-312v-138q0 -101 52 -145.5t155 -44.5q60 0 137 12z" />
    <glyph glyph-name="Utilde" unicode="&#x168;" horiz-adv-x="1411" 
d="M168 537v815h160v-826q0 -192 103.5 -296.5t275.5 -104.5q170 0 272 104.5t102 296.5v826h160v-815q0 -260 -148.5 -410t-385.5 -150q-241 0 -390 149.5t-149 410.5zM719 1569l-68 41q-61 41 -88 41q-28 0 -44.5 -22t-16.5 -56v-33h-131q-4 36 -4 51q0 91 49.5 149
t128.5 58q69 0 143 -47l70 -45q59 -41 90 -41q28 0 44.5 21.5t16.5 54.5v37h131q2 -10 2 -54q0 -89 -48.5 -146.5t-125.5 -57.5q-70 0 -149 49z" />
    <glyph glyph-name="utilde" unicode="&#x169;" 
d="M162 397v600h155v-610q0 -119 73 -191.5t185 -72.5q110 0 182 73.5t72 190.5v610h158v-600q0 -186 -118 -303t-294 -117q-177 0 -295 117t-118 303zM582 1274l-54 45q-5 3 -19 14t-22 16.5t-20.5 11t-24.5 5.5q-57 0 -57 -84v-35h-131q-2 12 -2 51q0 93 47.5 153
t126.5 60q74 0 139 -53l53 -45q53 -47 87 -47q57 0 57 84v35h131q2 -12 2 -51q0 -93 -47.5 -153t-126.5 -60q-73 0 -139 53z" />
    <glyph glyph-name="Umacron" unicode="&#x16a;" horiz-adv-x="1411" 
d="M168 537v815h160v-826q0 -192 103.5 -296.5t275.5 -104.5q170 0 272 104.5t102 296.5v826h160v-815q0 -260 -148.5 -410t-385.5 -150q-241 0 -390 149.5t-149 410.5zM403 1577v129h605v-129h-605z" />
    <glyph glyph-name="umacron" unicode="&#x16b;" 
d="M162 397v600h155v-610q0 -119 73 -191.5t185 -72.5q110 0 182 73.5t72 190.5v610h158v-600q0 -186 -118 -303t-294 -117q-177 0 -295 117t-118 303zM293 1315v127h563v-127h-563z" />
    <glyph glyph-name="Ubreve" unicode="&#x16c;" horiz-adv-x="1411" 
d="M168 537v815h160v-826q0 -192 103.5 -296.5t275.5 -104.5q170 0 272 104.5t102 296.5v826h160v-815q0 -260 -148.5 -410t-385.5 -150q-241 0 -390 149.5t-149 410.5zM393 1812v52h129v-49q0 -92 49 -147.5t131 -55.5q85 0 134 54.5t49 148.5v49h129v-52
q0 -145 -87.5 -235t-224.5 -90q-140 0 -224.5 88.5t-84.5 236.5z" />
    <glyph glyph-name="ubreve" unicode="&#x16d;" 
d="M162 397v600h155v-610q0 -119 73 -191.5t185 -72.5q110 0 182 73.5t72 190.5v610h158v-600q0 -186 -118 -303t-294 -117q-177 0 -295 117t-118 303zM262 1497v64h129v-60q0 -93 49 -148t131 -55q85 0 134 54.5t49 148.5v60h129v-64q0 -146 -86 -234.5t-226 -88.5
q-136 0 -222.5 90t-86.5 233z" />
    <glyph glyph-name="Uring" unicode="&#x16e;" horiz-adv-x="1411" 
d="M168 537v815h160v-826q0 -192 103.5 -296.5t275.5 -104.5q170 0 272 104.5t102 296.5v826h160v-815q0 -260 -148.5 -410t-385.5 -150q-241 0 -390 149.5t-149 410.5zM477 1651q0 93 64.5 157t160.5 64q98 0 163 -64t65 -157t-65 -157t-163 -64q-96 0 -160.5 64t-64.5 157
zM807 1651q0 44 -29.5 74t-72.5 30q-44 0 -74.5 -30t-30.5 -74q0 -43 31 -73t74 -30t72.5 30t29.5 73z" />
    <glyph glyph-name="uring" unicode="&#x16f;" 
d="M162 397v600h155v-610q0 -119 73 -191.5t185 -72.5q110 0 182 73.5t72 190.5v610h158v-600q0 -186 -118 -303t-294 -117q-177 0 -295 117t-118 303zM346 1368q0 94 64.5 157.5t160.5 63.5q97 0 162.5 -63.5t65.5 -157.5t-65.5 -158.5t-162.5 -64.5q-94 0 -159.5 64.5
t-65.5 158.5zM676 1368q0 44 -30.5 75.5t-72.5 31.5q-43 0 -73.5 -31.5t-30.5 -75.5t30 -73t74 -29q43 0 73 29t30 73z" />
    <glyph glyph-name="Uhungarumlaut" unicode="&#x170;" horiz-adv-x="1411" 
d="M168 537v815h160v-826q0 -192 103.5 -296.5t275.5 -104.5q170 0 272 104.5t102 296.5v826h160v-815q0 -260 -148.5 -410t-385.5 -150q-241 0 -390 149.5t-149 410.5zM399 1483l176 381h170v-29l-233 -352h-113zM848 1483l176 381h170v-29l-233 -352h-113z" />
    <glyph glyph-name="uhungarumlaut" unicode="&#x171;" 
d="M162 397v600h155v-610q0 -119 73 -191.5t185 -72.5q110 0 182 73.5t72 190.5v610h158v-600q0 -186 -118 -303t-294 -117q-177 0 -295 117t-118 303zM303 1159l176 438h170v-28l-233 -410h-113zM711 1159l176 438h170v-28l-234 -410h-112z" />
    <glyph glyph-name="Uogonek" unicode="&#x172;" horiz-adv-x="1411" 
d="M168 537v815h160v-826q0 -192 103.5 -296.5t275.5 -104.5q170 0 272 104.5t102 296.5v826h160v-815q0 -260 -148.5 -410t-385.5 -150q-241 0 -390 149.5t-149 410.5zM688 -213q4 84 47 144t213 221h164l-188 -201q-46 -51 -61 -77t-15 -62q0 -76 96 -76q48 0 111 14v-119
q-74 -22 -148 -22q-99 0 -159 48.5t-60 129.5z" />
    <glyph glyph-name="uogonek" unicode="&#x173;" 
d="M829 997h158v-600q0 -99 -31 -172q-25 -65 -71 -114q-38 -40 -154 -144q-58 -53 -79 -83.5t-21 -67.5q0 -42 28 -64t78 -22q49 0 109 14v-109q-79 -26 -152 -26q-99 0 -156 44.5t-57 127.5q0 108 117 196h-23q-177 0 -295 117t-118 303v600h155v-610q0 -119 73 -191.5
t185 -72.5q110 0 182 73.5t72 190.5v610z" />
    <glyph glyph-name="Wcircumflex" unicode="&#x174;" horiz-adv-x="2183" 
d="M1915 1352h174l-512 -1375h-57l-428 1074l-428 -1074h-58l-514 1375h176l373 -1030l422 1052h57l422 -1050zM1440 1483h-123l-225 221l-228 -221h-123l301 381h97z" />
    <glyph glyph-name="wcircumflex" unicode="&#x175;" horiz-adv-x="1742" 
d="M1520 997h168l-420 -1020h-58l-340 754l-338 -754h-55l-424 1020h168l289 -739l332 762h59l336 -756zM1192 1159h-119l-205 262l-206 -262h-121l278 438h96z" />
    <glyph glyph-name="Ycircumflex" unicode="&#x176;" horiz-adv-x="1261" 
d="M1180 1352l-469 -793v-559h-160v559l-469 793h180l369 -635l370 635h179zM973 1483h-123l-225 221l-228 -221h-123l301 381h97z" />
    <glyph glyph-name="ycircumflex" unicode="&#x177;" horiz-adv-x="1103" 
d="M883 997h168l-492 -1136q-57 -130 -139.5 -191t-198.5 -61q-80 0 -153 20v133q85 -10 120 -10q81 0 135 36t91 124l53 119l-414 966h170l330 -794zM872 1159h-118l-205 262l-207 -262h-121l279 438h96z" />
    <glyph glyph-name="Ydieresis" unicode="&#x178;" horiz-adv-x="1261" 
d="M1180 1352l-469 -793v-559h-160v559l-469 793h180l369 -635l370 635h179zM272 1659q0 44 34 76t79 32q47 0 80 -32t33 -76q0 -45 -33 -77t-80 -32q-45 0 -79 32.5t-34 76.5zM750 1657q0 44 34 77t78 33q47 0 80 -32.5t33 -77.5t-33 -77t-80 -32q-45 0 -78.5 32.5
t-33.5 76.5z" />
    <glyph glyph-name="Zacute" unicode="&#x179;" horiz-adv-x="1206" 
d="M315 143h822v-143h-1071v47l815 1161h-727v144h981v-47zM555 1483l174 381h193v-29l-246 -352h-121z" />
    <glyph glyph-name="zacute" unicode="&#x17a;" horiz-adv-x="929" 
d="M297 139h577v-139h-819v47l570 809h-523v141h766v-47zM430 1159l174 438h193v-28l-246 -410h-121z" />
    <glyph glyph-name="Zdotaccent" unicode="&#x17b;" horiz-adv-x="1206" 
d="M315 143h822v-143h-1071v47l815 1161h-727v144h981v-47zM496 1659q0 47 34.5 81t83.5 34q47 0 82 -34t35 -81q0 -49 -33.5 -82t-83.5 -33t-84 33t-34 82z" />
    <glyph glyph-name="zdotaccent" unicode="&#x17c;" horiz-adv-x="929" 
d="M297 139h577v-139h-819v47l570 809h-523v141h766v-47zM367 1378q0 47 34.5 81t83.5 34q47 0 82 -34t35 -81q0 -49 -33.5 -81.5t-83.5 -32.5t-84 32.5t-34 81.5z" />
    <glyph glyph-name="Zcaron" unicode="&#x17d;" horiz-adv-x="1206" 
d="M315 143h822v-143h-1071v47l815 1161h-727v144h981v-47zM840 1864h123l-301 -381h-97l-301 381h123l227 -222z" />
    <glyph glyph-name="zcaron" unicode="&#x17e;" horiz-adv-x="929" 
d="M297 139h577v-139h-819v47l570 809h-523v141h766v-47zM692 1597h119l-276 -438h-97l-278 438h121l206 -262z" />
    <glyph glyph-name="uni018F" unicode="&#x18f;" horiz-adv-x="1497" 
d="M1399 680q2 -143 -49.5 -273.5t-141 -225.5t-214.5 -150.5t-263 -53.5q-128 0 -244 44t-202 121.5t-136.5 191t-50.5 244.5q0 52 13 145h1120q-12 222 -150 363t-344 141q-142 0 -261.5 -59.5t-199.5 -168.5l-110 93q98 135 245 208.5t328 73.5q184 3 337.5 -91
t239.5 -254.5t83 -348.5zM1227 580h-969q-4 -135 61.5 -240.5t175 -160t242.5 -54.5q195 0 326 125q134 128 164 330z" />
    <glyph glyph-name="florin" unicode="&#x192;" horiz-adv-x="907" 
d="M895 1358v-131q-18 1 -39.5 2t-33 1.5t-17.5 0.5q-99 0 -149.5 -44t-63.5 -147l-27 -223h213v-141h-231l-76 -627q-40 -321 -340 -321q-64 0 -121 14v133q52 -6 90 -6q100 0 151 44.5t64 147.5l76 615h-201v141h218l28 234q41 323 340 323q63 0 119 -16z" />
    <glyph glyph-name="uni01D4" unicode="&#x1d4;" 
d="M162 397v600h155v-610q0 -119 73 -191.5t185 -72.5q110 0 182 73.5t72 190.5v610h158v-600q0 -186 -118 -303t-294 -117q-177 0 -295 117t-118 303zM780 1597h119l-276 -438h-97l-278 438h121l206 -262z" />
    <glyph glyph-name="AEacute" unicode="&#x1fc;" horiz-adv-x="1681" 
d="M1096 143h503v-143h-643l-47 274h-565l-145 -274h-172l704 1352h844v-144h-660l70 -413h426v-144h-401zM772 1108l-352 -690h465zM795 1483l174 381h192v-29l-246 -352h-120z" />
    <glyph glyph-name="aeacute" unicode="&#x1fd;" horiz-adv-x="1832" 
d="M1714 432h-782q20 -140 120 -224.5t242 -84.5q168 0 301 133l95 -104q-75 -85 -178 -130t-220 -45q-137 0 -252 65t-184 177q-54 -115 -164 -178.5t-250 -63.5q-158 0 -255 79.5t-97 209.5q0 133 98.5 214t260.5 81h315v62q0 121 -64.5 186t-175.5 65q-166 0 -288 -159
l-105 86q66 107 172 163t232 56q122 0 211 -53.5t131 -155.5q68 99 172.5 154t228.5 55q191 0 321 -128.5t130 -324.5q0 -88 -15 -135zM932 561h633q9 142 -77 229t-218 87q-133 0 -226 -87.5t-112 -228.5zM764 381v51h-297q-215 0 -215 -149q0 -80 58 -126t151 -46
q122 0 212.5 79t90.5 191zM817 1159l174 438h193v-28l-246 -410h-121z" />
    <glyph glyph-name="Oslashacute" unicode="&#x1fe;" horiz-adv-x="1599" 
d="M1513 1292l-170 -170q158 -194 158 -446q3 -142 -53.5 -273t-152 -224.5t-226 -148.5t-270.5 -53q-252 0 -445 154l-170 -170l-98 98l170 170q-158 194 -158 447q-3 142 52.5 272.5t151 224.5t226 148.5t271.5 52.5q249 0 444 -155l172 172zM258 678q0 -197 107 -340
l776 776q-143 119 -340 119q-231 0 -387 -160t-156 -395zM1341 678q0 197 -106 338l-776 -780q144 -117 342 -117q150 0 274 74t195 202.5t71 282.5zM741 1483l174 381h193v-29l-246 -352h-121z" />
    <glyph glyph-name="oslashacute" unicode="&#x1ff;" horiz-adv-x="1269" 
d="M1171 938l-120 -123q106 -135 106 -317q2 -103 -40.5 -200.5t-113.5 -168t-169 -112.5t-201 -40q-179 0 -316 107l-118 -123l-99 98l121 121q-106 135 -106 318q-2 140 68 261.5t191 192.5t261 68q180 0 317 -107l121 119zM266 498q0 -124 62 -219l528 532
q-101 70 -221 70q-160 0 -264.5 -109.5t-104.5 -273.5zM1006 498q0 124 -62 219l-530 -531q91 -73 219 -73q157 0 265 112t108 273zM582 1159l174 438h192v-28l-246 -410h-120z" />
    <glyph glyph-name="uni0218" unicode="&#x218;" horiz-adv-x="1142" 
d="M84 268l119 88q150 -231 377 -231q122 0 197 61.5t75 163.5q0 37 -10 65.5t-24.5 49.5t-46.5 43t-61 38t-83 42l-152 71q-75 35 -127 69t-94.5 77.5t-63 97t-20.5 119.5q0 155 119 253.5t289 98.5q132 0 244 -62t179 -167l-116 -88q-55 81 -136 125.5t-174 44.5
q-103 0 -171 -53t-68 -144q0 -59 26 -98q25 -36 64 -61.5t127 -67.5l149 -72q167 -81 241.5 -166t74.5 -211q0 -166 -123 -271.5t-313 -105.5q-157 0 -287.5 77.5t-210.5 213.5zM500 -451l18 351h156l-51 -351h-123z" />
    <glyph glyph-name="uni0219" unicode="&#x219;" horiz-adv-x="929" 
d="M80 172l100 104q78 -79 142.5 -116t144.5 -37q83 0 136.5 38t53.5 103q0 57 -37.5 89t-136.5 71l-96 41q-129 53 -188.5 116t-59.5 160q0 128 95 203.5t241 75.5q202 0 334 -158l-96 -98q-110 110 -246 110q-75 0 -120.5 -32.5t-45.5 -91.5q0 -46 34.5 -76.5t127.5 -69.5
l92 -39q142 -61 203 -127.5t61 -167.5q0 -140 -102 -217q-101 -76 -248 -76q-120 0 -220 52.5t-169 142.5zM397 -451l19 351h155l-51 -351h-123z" />
    <glyph glyph-name="uni021A" unicode="&#x21a;" horiz-adv-x="1189" 
d="M514 0v1208h-475v144h1112v-144h-477v-1208h-160zM498 -451l18 351h156l-51 -351h-123z" />
    <glyph glyph-name="uni021B" unicode="&#x21b;" horiz-adv-x="780" 
d="M719 133v-133q-103 -23 -166 -23q-159 0 -247.5 81.5t-88.5 242.5v555h-168v141h168v273h158v-273h311v-141h-311v-545q0 -102 52 -146t159 -44q56 0 133 12zM356 -451l19 351h155l-51 -351h-123z" />
    <glyph glyph-name="uni0237" unicode="&#x237;" horiz-adv-x="503" 
d="M-123 -375v133q52 -6 92 -6q102 0 153.5 45t51.5 146v1054h158v-1065q0 -160 -87 -241.5t-241 -81.5q-65 0 -127 16z" />
    <glyph glyph-name="uni0259" unicode="&#x259;" horiz-adv-x="1169" 
d="M1067 500q0 -221 -141 -372t-355 -151q-199 0 -334 127.5t-135 323.5q0 52 13 119h788q-14 149 -109 238t-243 89q-185 0 -320 -135l-92 107q160 174 414 174q147 0 265 -68.5t183.5 -187.5t65.5 -264zM897 408h-631q4 -131 91 -210t218 -79q126 0 212.5 78.5
t109.5 210.5z" />
    <glyph glyph-name="circumflex" unicode="&#x2c6;" horiz-adv-x="1228" 
d="M940 1159h-119l-205 262l-206 -262h-121l278 438h97z" />
    <glyph glyph-name="caron" unicode="&#x2c7;" horiz-adv-x="1228" 
d="M821 1597h119l-276 -438h-97l-278 438h121l206 -262z" />
    <glyph glyph-name="breve" unicode="&#x2d8;" horiz-adv-x="1228" 
d="M303 1497v64h129v-60q0 -93 49 -148t131 -55q85 0 134 54.5t49 148.5v60h129v-64q0 -146 -86 -234.5t-226 -88.5q-136 0 -222.5 90t-86.5 233z" />
    <glyph glyph-name="dotaccent" unicode="&#x2d9;" horiz-adv-x="1228" 
d="M496 1378q0 47 34.5 81t83.5 34q47 0 82 -34t35 -81q0 -49 -33.5 -81.5t-83.5 -32.5t-84 32.5t-34 81.5z" />
    <glyph glyph-name="ring" unicode="&#x2da;" horiz-adv-x="1228" 
d="M387 1368q0 94 64.5 157.5t160.5 63.5q97 0 162.5 -63.5t65.5 -157.5t-65.5 -158.5t-162.5 -64.5q-94 0 -159.5 64.5t-65.5 158.5zM717 1368q0 44 -30.5 75.5t-72.5 31.5q-43 0 -73.5 -31.5t-30.5 -75.5t30 -73t74 -29q43 0 73 29t30 73z" />
    <glyph glyph-name="ogonek" unicode="&#x2db;" horiz-adv-x="1228" 
d="M432 -213q0 74 66 137q70 64 237 148l64 -72l-103 -68q-66 -46 -86 -66.5t-20 -53.5q0 -37 25.5 -56.5t72.5 -19.5q48 0 111 14v-119q-74 -22 -148 -22q-98 0 -158.5 49t-60.5 129z" />
    <glyph glyph-name="tilde" unicode="&#x2dc;" horiz-adv-x="1228" 
d="M623 1274l-54 45q-5 3 -19 14t-22 16.5t-20.5 11t-24.5 5.5q-57 0 -57 -84v-35h-131q-2 12 -2 51q0 93 47.5 153t126.5 60q74 0 139 -53l53 -45q53 -47 86 -47q58 0 58 84v35h131q2 -12 2 -51q0 -93 -47.5 -153t-126.5 -60q-73 0 -139 53z" />
    <glyph glyph-name="hungarumlaut" unicode="&#x2dd;" horiz-adv-x="1228" 
d="M238 1159l176 438h170v-28l-234 -410h-112zM645 1159l176 438h170v-28l-233 -410h-113z" />
    <glyph glyph-name="gravecomb" unicode="&#x300;" horiz-adv-x="0" 
d="M-451 1159l-245 410v28h192l174 -438h-121z" />
    <glyph glyph-name="acutecomb" unicode="&#x301;" horiz-adv-x="0" 
d="M-696 1159l174 438h192v-28l-245 -410h-121z" />
    <glyph glyph-name="uni0302" unicode="&#x302;" horiz-adv-x="0" 
d="M-186 1159h-119l-205 262l-207 -262h-121l279 438h96z" />
    <glyph glyph-name="tildecomb" unicode="&#x303;" horiz-adv-x="0" 
d="M-504 1274l-53 45q-5 3 -19 14t-22 16.5t-20.5 11t-24.5 5.5q-57 0 -57 -84v-35h-131q-3 18 -3 51q0 93 48 153t127 60q74 0 139 -53l53 -45q53 -47 86 -47q57 0 57 84v35h131q3 -18 3 -51q0 -93 -48 -153t-127 -60q-73 0 -139 53z" />
    <glyph glyph-name="uni0304" unicode="&#x304;" horiz-adv-x="0" 
d="M-793 1315v127h564v-127h-564z" />
    <glyph glyph-name="uni0306" unicode="&#x306;" horiz-adv-x="0" 
d="M-823 1497v64h129v-60q0 -93 49 -148t131 -55q85 0 133.5 54.5t48.5 148.5v60h129v-64q0 -146 -85.5 -234.5t-225.5 -88.5q-136 0 -222.5 90t-86.5 233z" />
    <glyph glyph-name="uni0307" unicode="&#x307;" horiz-adv-x="0" 
d="M-631 1378q0 47 35 81t84 34q47 0 82 -34t35 -81q0 -49 -33.5 -81.5t-83.5 -32.5t-84.5 32.5t-34.5 81.5z" />
    <glyph glyph-name="uni0308" unicode="&#x308;" horiz-adv-x="0" 
d="M-844 1378q0 44 35 77.5t78 33.5q47 0 81 -33t34 -78q0 -44 -34 -76t-81 -32q-43 0 -78 33t-35 75zM-410 1378q0 44 35 77.5t80 33.5q47 0 80 -33t33 -78q0 -44 -33 -76t-80 -32q-45 0 -80 33t-35 75z" />
    <glyph glyph-name="uni030A" unicode="&#x30a;" horiz-adv-x="0" 
d="M-739 1368q0 94 64.5 157.5t160.5 63.5q97 0 162 -63.5t65 -157.5t-65.5 -158.5t-161.5 -64.5q-94 0 -159.5 64.5t-65.5 158.5zM-410 1368q0 44 -30.5 75.5t-71.5 31.5q-43 0 -73.5 -31.5t-30.5 -75.5t30 -73t74 -29q43 0 72.5 29t29.5 73z" />
    <glyph glyph-name="uni030B" unicode="&#x30b;" horiz-adv-x="0" 
d="M-889 1159l176 438h170v-28l-233 -410h-113zM-481 1159l176 438h170v-28l-234 -410h-112z" />
    <glyph glyph-name="uni030C" unicode="&#x30c;" horiz-adv-x="0" 
d="M-305 1597h119l-277 -438h-96l-279 438h121l207 -262z" />
    <glyph glyph-name="uni0326" unicode="&#x326;" horiz-adv-x="0" 
d="M-600 -451l18 351h156l-51 -351h-123z" />
    <glyph glyph-name="uni0327" unicode="&#x327;" horiz-adv-x="0" 
d="M-717 -371v113q57 -8 115 -8q74 0 117 33.5t43 99.5q0 81 -70 151l68 35q63 -31 100 -86t37 -123q0 -102 -74.5 -168.5t-196.5 -66.5q-72 0 -139 20z" />
    <glyph glyph-name="uni0328" unicode="&#x328;" horiz-adv-x="0" 
d="M-694 -213q0 76 67 137q64 61 236 148l63 -72l-102 -68q-67 -46 -87 -66.5t-20 -53.5q0 -37 26 -56.5t73 -19.5t110 14v-119q-74 -22 -147 -22q-98 0 -158.5 49t-60.5 129z" />
    <glyph glyph-name="tonos" unicode="&#x384;" horiz-adv-x="1024" 
d="M385 1159l61 438h191v-28l-129 -410h-123z" />
    <glyph glyph-name="dieresistonos" unicode="&#x385;" horiz-adv-x="1024" 
d="M389 1159l80 438h190v-28l-151 -410h-119zM88 1378q0 44 35 77.5t78 33.5q47 0 79.5 -32t32.5 -79q0 -45 -32.5 -76.5t-79.5 -31.5q-43 0 -78 33t-35 75zM709 1378q0 45 32.5 78t79.5 33t80 -33t33 -78q0 -44 -33 -76t-80 -32t-79.5 31.5t-32.5 76.5z" />
    <glyph glyph-name="Alphatonos" unicode="&#x386;" horiz-adv-x="1357" 
d="M1124 0l-114 274h-664l-115 -274h-168l586 1374h60l585 -1374h-170zM948 418l-270 665l-270 -665h540zM74 920l26 432h170l-80 -432h-116z" />
    <glyph glyph-name="anoteleia" unicode="&#x387;" horiz-adv-x="573" 
d="M158 643q0 55 37.5 92t91.5 37t91.5 -37t37.5 -92t-37.5 -92t-91.5 -37t-91.5 37t-37.5 92z" />
    <glyph glyph-name="Epsilontonos" unicode="&#x388;" horiz-adv-x="1159" 
d="M186 0v1352h867v-144h-707v-413h541v-144h-541v-508h731v-143h-891zM-197 920l27 432h170l-80 -432h-117z" />
    <glyph glyph-name="Etatonos" unicode="&#x389;" horiz-adv-x="1449" 
d="M186 0v1352h160v-557h758v557h160v-1352h-160v651h-758v-651h-160zM-197 920l27 432h170l-80 -432h-117z" />
    <glyph glyph-name="Iotatonos" unicode="&#x38a;" horiz-adv-x="530" 
d="M186 0v1352h160v-1352h-160zM-197 920l27 432h170l-80 -432h-117z" />
    <glyph glyph-name="Omicrontonos" unicode="&#x38c;" horiz-adv-x="1599" 
d="M98 676q-3 142 52.5 272.5t151 224.5t226 148.5t271.5 52.5q140 2 270.5 -53t226 -148.5t152 -224t53.5 -272.5q3 -142 -53.5 -273t-152 -224.5t-226 -148.5t-270.5 -53q-141 -3 -272 52.5t-226 150t-150.5 225t-52.5 271.5zM1335 678q3 150 -68 277.5t-195.5 201
t-270.5 70.5q-150 0 -273.5 -71.5t-193.5 -197.5t-70 -280t70 -281t193.5 -199.5t273.5 -72.5q146 -2 270 71.5t195.5 201.5t68.5 280zM-98 920l26 432h170l-80 -432h-116z" />
    <glyph glyph-name="Upsilontonos" unicode="&#x38e;" horiz-adv-x="1261" 
d="M1180 1352l-469 -793v-559h-160v559l-469 793h180l369 -635l370 635h179zM-240 920l27 432h170l-80 -432h-117z" />
    <glyph glyph-name="Omegatonos" unicode="&#x38f;" horiz-adv-x="1619" 
d="M1180 143h311v-143h-551v143q406 189 406 553q0 228 -153 379.5t-384 151.5q-232 0 -383.5 -150t-151.5 -379q0 -360 406 -555v-143h-551v143h307q-327 217 -327 559q-3 184 90 340t255.5 245.5t354.5 86.5q190 3 353 -87t257.5 -246.5t91.5 -338.5q0 -169 -81.5 -305
t-249.5 -254zM-98 920l26 432h170l-80 -432h-116z" />
    <glyph glyph-name="iotadieresistonos" unicode="&#x390;" horiz-adv-x="636" 
d="M168 293v704h158v-686q0 -100 40 -145t128 -45q56 0 133 12v-133q-103 -23 -166 -23q-146 0 -219.5 80t-73.5 236zM139 1159l80 438h191v-28l-152 -410h-119zM-162 1378q0 44 35 77.5t78 33.5q47 0 79.5 -32t32.5 -79q0 -45 -32.5 -76.5t-79.5 -31.5q-43 0 -78 33t-35 75
zM459 1378q0 45 32.5 78t79.5 33t80 -33t33 -78q0 -44 -33 -76t-80 -32t-79.5 31.5t-32.5 76.5z" />
    <glyph glyph-name="Alpha" unicode="&#x391;" horiz-adv-x="1357" 
d="M1124 0l-114 274h-664l-115 -274h-168l586 1374h60l585 -1374h-170zM948 418l-270 665l-270 -665h540z" />
    <glyph glyph-name="Beta" unicode="&#x392;" horiz-adv-x="1261" 
d="M1171 389q0 -171 -116.5 -280t-311.5 -109h-557v1352h465q173 0 281 -97q104 -94 104 -245q0 -168 -129 -267q125 -37 194.5 -130.5t69.5 -223.5zM635 1208h-289v-420h289q114 0 175.5 56.5t61.5 154.5t-61 153.5t-176 55.5zM1008 393q0 114 -74.5 182t-206.5 68h-381
v-500h381q132 0 206.5 68t74.5 182z" />
    <glyph glyph-name="Gamma" unicode="&#x393;" horiz-adv-x="1036" 
d="M186 0v1352h801v-144h-641v-1208h-160z" />
    <glyph glyph-name="uni0394" unicode="&#x394;" horiz-adv-x="1357" 
d="M709 1374l567 -1327v-47h-1194v47l567 1327h60zM1065 143l-387 916l-385 -916h772z" />
    <glyph glyph-name="Epsilon" unicode="&#x395;" horiz-adv-x="1159" 
d="M186 0v1352h867v-144h-707v-413h541v-144h-541v-508h731v-143h-891z" />
    <glyph glyph-name="Zeta" unicode="&#x396;" horiz-adv-x="1206" 
d="M315 143h822v-143h-1071v47l815 1161h-727v144h981v-47z" />
    <glyph glyph-name="Eta" unicode="&#x397;" horiz-adv-x="1449" 
d="M186 0v1352h160v-557h758v557h160v-1352h-160v651h-758v-651h-160z" />
    <glyph glyph-name="Theta" unicode="&#x398;" horiz-adv-x="1599" 
d="M98 676q-3 142 52.5 272.5t151 224.5t226 148.5t271.5 52.5q140 2 270.5 -53t226 -148.5t152 -224t53.5 -272.5q3 -142 -53.5 -273t-152 -224.5t-226 -148.5t-270.5 -53q-141 -3 -272 52.5t-226 150t-150.5 225t-52.5 271.5zM1343 676q3 152 -69 281.5t-198.5 204
t-276.5 71.5q-151 0 -275 -72.5t-195 -200.5t-71 -284t71 -284t195 -200.5t275 -72.5q150 -3 276.5 71.5t198.5 204t69 281.5zM475 600v143h649v-143h-649z" />
    <glyph glyph-name="Iota" unicode="&#x399;" horiz-adv-x="530" 
d="M186 0v1352h160v-1352h-160z" />
    <glyph glyph-name="Kappa" unicode="&#x39a;" horiz-adv-x="1296" 
d="M186 0v1352h160v-1352h-160zM573 725l660 -725h-203l-665 725l608 627h205z" />
    <glyph glyph-name="Lambda" unicode="&#x39b;" horiz-adv-x="1357" 
d="M1294 0h-170l-446 1061l-447 -1061h-168l586 1374h60z" />
    <glyph glyph-name="Mu" unicode="&#x39c;" horiz-adv-x="1615" 
d="M1374 1374h56v-1374h-160v969l-432 -586h-58l-434 590v-973h-160v1374h58l563 -780z" />
    <glyph glyph-name="Nu" unicode="&#x39d;" horiz-adv-x="1449" 
d="M1104 1352h160v-1375h-58l-860 1037v-1014h-160v1374h58l860 -1038v1016z" />
    <glyph glyph-name="Xi" unicode="&#x39e;" horiz-adv-x="1259" 
d="M82 1208v144h1096v-144h-1096zM221 610v144h821v-144h-821zM82 0v143h1096v-143h-1096z" />
    <glyph glyph-name="Omicron" unicode="&#x39f;" horiz-adv-x="1599" 
d="M98 676q-3 142 52.5 272.5t151 224.5t226 148.5t271.5 52.5q140 2 270.5 -53t226 -148.5t152 -224t53.5 -272.5q3 -142 -53.5 -273t-152 -224.5t-226 -148.5t-270.5 -53q-141 -3 -272 52.5t-226 150t-150.5 225t-52.5 271.5zM1335 678q3 150 -68 277.5t-195.5 201
t-270.5 70.5q-150 0 -273.5 -71.5t-193.5 -197.5t-70 -280t70 -281t193.5 -199.5t273.5 -72.5q146 -2 270 71.5t195.5 201.5t68.5 280z" />
    <glyph glyph-name="Pi" unicode="&#x3a0;" horiz-adv-x="1396" 
d="M186 0v1352h1024v-1352h-159v1208h-705v-1208h-160z" />
    <glyph glyph-name="Rho" unicode="&#x3a1;" horiz-adv-x="1173" 
d="M186 0v1352h476q195 0 313.5 -109.5t118.5 -281.5q0 -175 -118.5 -285.5t-313.5 -110.5h-316v-565h-160zM346 709h311q127 0 199 67.5t72 181.5q0 112 -72 181t-199 69h-311v-499z" />
    <glyph glyph-name="Sigma" unicode="&#x3a3;" horiz-adv-x="1175" 
d="M381 143h713v-143h-961v47l483 645l-483 613v47h936v-144h-682l393 -497v-33z" />
    <glyph glyph-name="Tau" unicode="&#x3a4;" horiz-adv-x="1189" 
d="M514 0v1208h-475v144h1112v-144h-477v-1208h-160z" />
    <glyph glyph-name="Upsilon" unicode="&#x3a5;" horiz-adv-x="1261" 
d="M1180 1352l-469 -793v-559h-160v559l-469 793h180l369 -635l370 635h179z" />
    <glyph glyph-name="Phi" unicode="&#x3a6;" horiz-adv-x="1636" 
d="M897 39v-125h-160v125q-136 0 -254.5 48.5t-203 133t-133 203t-48.5 254.5q-2 132 46.5 250.5t133.5 203t205 133.5t254 48v123h160v-123q135 1 255 -48t205 -133.5t133.5 -203t47.5 -250.5q3 -178 -81.5 -326t-233 -232t-326.5 -81zM737 182v985q-207 0 -340 -139
t-133 -354q0 -216 133 -354t340 -138zM1372 674q0 215 -134.5 354t-340.5 139v-985q205 0 340 140t135 352z" />
    <glyph glyph-name="Chi" unicode="&#x3a7;" horiz-adv-x="1226" 
d="M1165 0h-186l-365 555l-366 -555h-187l465 692l-432 660h185l335 -527l334 527h185l-426 -662z" />
    <glyph glyph-name="Psi" unicode="&#x3a8;" horiz-adv-x="1556" 
d="M698 0v311q-268 33 -417.5 194.5t-149.5 430.5v416h160v-424q0 -203 110 -328q115 -127 297 -139v891h160v-891q183 12 295 139q113 125 113 328v424h159v-416q0 -269 -149.5 -430.5t-417.5 -194.5v-311h-160z" />
    <glyph glyph-name="uni03A9" unicode="&#x3a9;" horiz-adv-x="1619" 
d="M1180 143h311v-143h-551v143q406 189 406 553q0 228 -153 379.5t-384 151.5q-232 0 -383.5 -150t-151.5 -379q0 -360 406 -555v-143h-551v143h307q-327 217 -327 559q-3 184 90 340t255.5 245.5t354.5 86.5q190 3 353 -87t257.5 -246.5t91.5 -338.5q0 -169 -81.5 -305
t-249.5 -254z" />
    <glyph glyph-name="Iotadieresis" unicode="&#x3aa;" horiz-adv-x="530" 
d="M186 0v1352h160v-1352h-160zM-84 1659q0 44 34 76t79 32q47 0 79.5 -31.5t32.5 -76.5t-32.5 -77t-79.5 -32q-45 0 -79 32.5t-34 76.5zM393 1657q0 44 34 77t79 33q47 0 79.5 -32.5t32.5 -77.5t-32.5 -77t-79.5 -32q-45 0 -79 32.5t-34 76.5z" />
    <glyph glyph-name="Upsilondieresis" unicode="&#x3ab;" horiz-adv-x="1261" 
d="M1180 1352l-469 -793v-559h-160v559l-469 793h180l369 -635l370 635h179zM279 1659q0 44 33.5 76t78.5 32q47 0 80 -32t33 -76q0 -45 -33 -77t-80 -32q-45 0 -78.5 32.5t-33.5 76.5zM756 1657q0 44 34 77t78 33q47 0 80 -32.5t33 -77.5t-33 -77t-80 -32q-45 0 -78.5 32.5
t-33.5 76.5z" />
    <glyph glyph-name="alphatonos" unicode="&#x3ac;" horiz-adv-x="1318" 
d="M1276 133v-133q-57 -14 -109 -14q-175 0 -209 174q-57 -86 -155 -134.5t-215 -48.5q-134 -3 -247.5 67t-177.5 192t-61 264q0 145 62.5 264t174 187.5t249.5 68.5q119 0 220.5 -52t158.5 -143l10 172h149q-20 -296 -20 -475v-250q0 -145 108 -145q18 0 62 6zM950 498
q0 176 -98.5 276t-243.5 100q-149 0 -246.5 -107t-97.5 -267q0 -162 97.5 -269.5t246.5 -107.5q142 0 242 99.5t100 275.5zM516 1159l62 438h190v-28l-129 -410h-123z" />
    <glyph glyph-name="epsilontonos" unicode="&#x3ad;" horiz-adv-x="1040" 
d="M840 264l106 -94q-138 -193 -428 -193q-414 0 -414 283q0 96 50.5 161.5t142.5 90.5q-72 31 -109.5 90t-37.5 139q0 131 98.5 205t277.5 74q280 0 404 -174l-107 -94q-55 64 -122 93t-164 29q-226 0 -226 -159q0 -144 197 -144h207v-139h-203q-129 0 -187.5 -35.5
t-58.5 -111.5q0 -87 57 -124.5t195 -37.5q114 0 187.5 32.5t134.5 108.5zM444 1159l62 438h190v-28l-129 -410h-123z" />
    <glyph glyph-name="etatonos" unicode="&#x3ae;" horiz-adv-x="1200" 
d="M1040 627v-996h-157v975q0 121 -68.5 194.5t-179.5 73.5q-117 0 -190.5 -75.5t-73.5 -192.5v-606h-156v725q0 141 -113 141l-59 -2v133q59 15 111 15q147 0 194 -133q56 68 139 104.5t181 36.5q170 0 271 -106.5t101 -286.5zM551 1159l61 438h191v-28l-129 -410h-123z
" />
    <glyph glyph-name="iotatonos" unicode="&#x3af;" horiz-adv-x="636" 
d="M168 293v704h158v-686q0 -100 40 -145t128 -45q56 0 133 12v-133q-103 -23 -166 -23q-146 0 -219.5 80t-73.5 236zM166 1159l61 438h191v-28l-129 -410h-123z" />
    <glyph glyph-name="upsilondieresistonos" unicode="&#x3b0;" horiz-adv-x="1161" 
d="M162 410v587h157v-596q0 -127 72 -203.5t191 -76.5q117 0 189.5 77.5t72.5 202.5v596h157v-587q0 -197 -114.5 -315t-304.5 -118q-192 0 -306 118t-114 315zM461 1159l80 438h190v-28l-151 -410h-119zM160 1378q0 44 34.5 77.5t77.5 33.5q47 0 80 -32t33 -79
q0 -44 -33 -76t-80 -32q-43 0 -77.5 33t-34.5 75zM780 1378q0 45 33 78t80 33t80 -33t33 -78q0 -44 -33 -76t-80 -32t-80 32t-33 76z" />
    <glyph glyph-name="alpha" unicode="&#x3b1;" horiz-adv-x="1318" 
d="M1276 133v-133q-57 -14 -109 -14q-175 0 -209 174q-57 -86 -155 -134.5t-215 -48.5q-134 -3 -247.5 67t-177.5 192t-61 264q0 145 62.5 264t174 187.5t249.5 68.5q119 0 220.5 -52t158.5 -143l10 172h149q-20 -296 -20 -475v-250q0 -145 108 -145q18 0 62 6zM950 498
q0 176 -98.5 276t-243.5 100q-149 0 -246.5 -107t-97.5 -267q0 -162 97.5 -269.5t246.5 -107.5q142 0 242 99.5t100 275.5z" />
    <glyph glyph-name="beta" unicode="&#x3b2;" horiz-adv-x="1249" 
d="M1147 440q0 -201 -135 -332t-342 -131q-197 0 -338 123v-469h-158v1504q0 187 124 307.5t318 120.5q180 0 296 -106.5t116 -272.5q0 -108 -48 -191t-136 -131q141 -44 222 -156.5t81 -265.5zM985 444q0 146 -94 235t-248 89h-127v139h96q117 0 185.5 70.5t68.5 191.5
q0 108 -71.5 178t-182.5 70q-124 0 -202 -81.5t-78 -209.5v-858q62 -69 145 -107t176 -38q148 0 240 89t92 232z" />
    <glyph glyph-name="gamma" unicode="&#x3b3;" horiz-adv-x="1140" 
d="M1087 997l-438 -1036v-330h-155v330l-441 1036h168l350 -831l349 831h167z" />
    <glyph glyph-name="delta" unicode="&#x3b4;" horiz-adv-x="1220" 
d="M1118 485q2 -101 -39 -196t-110 -164t-164.5 -109.5t-196.5 -38.5q-102 -2 -197 38.5t-163 109.5t-108 163.5t-38 196.5q-2 134 65.5 250t184.5 183.5t252 64.5h21l-500 506v47h911v-150h-594l445 -450q125 -130 178 -232.5t53 -218.5zM956 477q0 157 -100 261t-252 104
t-246 -101t-94 -260q0 -161 95.5 -259.5t250.5 -98.5q156 0 250 98q96 101 96 256z" />
    <glyph glyph-name="epsilon" unicode="&#x3b5;" horiz-adv-x="1040" 
d="M840 264l106 -94q-138 -193 -428 -193q-414 0 -414 283q0 96 50.5 161.5t142.5 90.5q-72 31 -109.5 90t-37.5 139q0 131 98.5 205t277.5 74q280 0 404 -174l-107 -94q-55 64 -122 93t-164 29q-226 0 -226 -159q0 -144 197 -144h207v-139h-203q-129 0 -187.5 -35.5
t-58.5 -111.5q0 -87 57 -124.5t195 -37.5q114 0 187.5 32.5t134.5 108.5z" />
    <glyph glyph-name="zeta" unicode="&#x3b6;" horiz-adv-x="931" 
d="M932 1489l-408 -582q-146 -207 -205 -313q-57 -102 -57 -188q0 -106 66.5 -169.5t212.5 -95.5l80 -16q129 -26 196.5 -103t67.5 -194q0 -103 -49 -197h-158q47 86 47 170q0 83 -46 128.5t-144 64.5l-82 16q-170 35 -260.5 135.5t-90.5 249.5q0 72 29 154q31 78 90 174
q64 99 182 268l279 398h-573v147h823v-47z" />
    <glyph glyph-name="eta" unicode="&#x3b7;" horiz-adv-x="1200" 
d="M1040 627v-996h-157v975q0 121 -68.5 194.5t-179.5 73.5q-117 0 -190.5 -75.5t-73.5 -192.5v-606h-156v725q0 141 -113 141l-59 -2v133q59 15 111 15q147 0 194 -133q56 68 139 104.5t181 36.5q170 0 271 -106.5t101 -286.5z" />
    <glyph glyph-name="theta" unicode="&#x3b8;" horiz-adv-x="1263" 
d="M1161 770q0 -382 -139.5 -587.5t-388.5 -205.5t-389 206t-140 587t140 585t389 204t388.5 -204t139.5 -585zM268 850h729q-12 274 -107.5 418.5t-256.5 144.5q-162 0 -257.5 -144t-107.5 -419zM997 700h-729q10 -281 106.5 -430t258.5 -149q161 0 257.5 149.5
t106.5 429.5z" />
    <glyph glyph-name="iota" unicode="&#x3b9;" horiz-adv-x="636" 
d="M168 293v704h158v-686q0 -100 40 -145t128 -45q56 0 133 12v-133q-103 -23 -166 -23q-146 0 -219.5 80t-73.5 236z" />
    <glyph glyph-name="kappa" unicode="&#x3ba;" horiz-adv-x="1040" 
d="M174 0v997h158v-997h-158zM549 543l465 -543h-199l-463 541l430 456h203z" />
    <glyph glyph-name="lambda" unicode="&#x3bb;" horiz-adv-x="1122" 
d="M1051 131h45v-131q-40 -12 -80 -12q-75 0 -123 41.5t-80 134.5l-250 674l-360 -838h-168l454 1024l-75 217q-36 95 -79 134.5t-114 39.5q-37 0 -98 -6v133q63 17 125 17q108 0 178.5 -61.5t124.5 -201.5l395 -1065q20 -54 44.5 -77t60.5 -23z" />
    <glyph glyph-name="uni03BC" unicode="&#x3bc;" horiz-adv-x="1212" 
d="M1169 133v-133q-57 -14 -106 -14q-144 0 -193 120q-99 -129 -274 -129q-164 0 -264 117v-463h-158v1366h158v-596q0 -122 71 -200t183 -78t184 78t72 200v596h157v-718q0 -78 27 -115t84 -37q18 0 59 6z" />
    <glyph glyph-name="nu" unicode="&#x3bd;" horiz-adv-x="1103" 
d="M883 997h168l-469 -1020h-58l-471 1020h168l332 -751z" />
    <glyph glyph-name="xi" unicode="&#x3be;" horiz-adv-x="964" 
d="M346 1126q0 -104 68 -184q69 -78 182 -78h244v-143h-244q-142 0 -227.5 -79.5t-85.5 -213.5q0 -119 72.5 -190.5t224.5 -102.5l84 -16q131 -26 195.5 -97.5t64.5 -193.5q0 -102 -50 -197h-155q45 91 45 168q0 85 -43.5 130.5t-140.5 58.5l-88 14q-172 26 -271.5 136
t-99.5 272q0 139 70 240.5t198 148.5q-96 43 -148.5 123t-52.5 176q0 89 35.5 164.5t102.5 126.5h-193v147h791v-147h-303q-126 0 -200.5 -76.5t-74.5 -186.5z" />
    <glyph glyph-name="omicron" unicode="&#x3bf;" horiz-adv-x="1249" 
d="M102 500q-2 105 39.5 202t112.5 167.5t168.5 111.5t202.5 39q140 2 261.5 -68t192.5 -191t68 -261q2 -103 -39.5 -200t-112.5 -168t-169 -112.5t-203 -39.5q-140 -3 -261 68t-191.5 192.5t-68.5 259.5zM985 498q0 161 -103.5 268.5t-256.5 107.5q-154 0 -257.5 -107.5
t-103.5 -268.5q0 -157 103.5 -265t255.5 -108t257 108t105 265z" />
    <glyph glyph-name="pi" unicode="&#x3c0;" horiz-adv-x="1212" 
d="M209 0v848h-162v149h1116v-149h-159v-848h-156v848h-481v-848h-158z" />
    <glyph glyph-name="rho" unicode="&#x3c1;" horiz-adv-x="1271" 
d="M1169 500q0 -221 -140 -372t-347 -151q-112 0 -208.5 44.5t-156.5 123.5v-514h-155v863q0 234 136.5 380t358.5 146q223 0 367.5 -147t144.5 -373zM1008 498q0 161 -100.5 268.5t-252.5 107.5q-155 0 -247.5 -103t-92.5 -275q0 -165 95 -271q94 -102 247 -102
q152 0 251.5 107.5t99.5 267.5z" />
    <glyph glyph-name="uni03C2" unicode="&#x3c2;" horiz-adv-x="1077" 
d="M764 -201q0 77 -39.5 119.5t-132.5 67.5l-105 26q-189 49 -287 175.5t-98 312.5q0 226 140.5 373t359.5 147q135 0 244 -57.5t178 -165.5l-113 -90q-124 167 -305 167q-147 0 -244.5 -105.5t-97.5 -262.5q0 -287 307 -363l107 -26q248 -61 248 -289q0 -99 -49 -197h-156
q43 87 43 168z" />
    <glyph glyph-name="sigma" unicode="&#x3c3;" horiz-adv-x="1298" 
d="M1270 997v-149h-301q78 -66 121 -160.5t43 -202.5q3 -138 -66.5 -256.5t-190 -186.5t-260.5 -65q-142 0 -260 68t-186 187.5t-68 263.5q0 217 148.5 359t374.5 142h645zM971 498q0 156 -99.5 256t-253.5 100q-155 0 -254.5 -100.5t-99.5 -257.5t101 -265t251 -108
q152 0 253.5 108t101.5 267z" />
    <glyph glyph-name="tau" unicode="&#x3c4;" horiz-adv-x="978" 
d="M918 848h-390v-537q0 -97 50.5 -143.5t154.5 -46.5q61 0 137 12v-133q-97 -23 -163 -23q-161 0 -247.5 84t-86.5 240v547h-338v149h883v-149z" />
    <glyph glyph-name="upsilon" unicode="&#x3c5;" horiz-adv-x="1161" 
d="M162 410v587h157v-596q0 -127 72 -203.5t191 -76.5q117 0 189.5 77.5t72.5 202.5v596h157v-587q0 -197 -114.5 -315t-304.5 -118q-192 0 -306 118t-114 315z" />
    <glyph glyph-name="phi" unicode="&#x3c6;" horiz-adv-x="1529" 
d="M842 -23v-346h-158v349q-162 6 -295 71.5t-211 182.5t-76 264q0 148 77.5 263.5t208.5 180t296 72.5v338h158v-336q164 -8 296.5 -73t210.5 -181.5t78 -263.5q0 -148 -78 -265t-210.5 -182.5t-296.5 -73.5zM1272 496q0 168 -123 270t-311 111v-760q188 9 311 108
q123 102 123 271zM688 117v760q-184 -9 -307 -113q-121 -103 -121 -268q0 -168 121 -271q120 -99 307 -108z" />
    <glyph glyph-name="chi" unicode="&#x3c7;" horiz-adv-x="999" 
d="M987 -238v-131q-46 -12 -94 -12q-76 0 -127.5 38t-89.5 124l-191 401l-260 -551h-174l344 705l-196 436q-25 51 -51 72.5t-74 21.5t-64 -2v133q54 13 101 13q83 0 129 -37t86 -127l163 -369l252 520h172l-338 -673l224 -469q30 -58 55 -76.5t76 -18.5q45 0 57 2z" />
    <glyph glyph-name="psi" unicode="&#x3c8;" horiz-adv-x="1513" 
d="M678 -369v346q-227 0 -371.5 147t-144.5 376v497h155v-485q0 -166 104.5 -278.5t256.5 -112.5v1231h158v-1231q153 0 257.5 113t104.5 278v485h156v-497q0 -229 -145 -376t-373 -147v-346h-158z" />
    <glyph glyph-name="omega" unicode="&#x3c9;" horiz-adv-x="1605" 
d="M1503 477q0 -230 -110 -364q-109 -136 -297 -136q-208 0 -293 168q-38 -81 -114 -124.5t-179 -43.5q-187 0 -299 136q-109 136 -109 364q0 198 90 335.5t257 197.5l57 -140q-244 -117 -244 -395q0 -161 68.5 -256.5t183.5 -95.5q100 0 157.5 69.5t57.5 188.5v283h150
v-283q0 -121 56.5 -189.5t156.5 -68.5q116 0 183.5 94.5t67.5 255.5q0 285 -241 397l55 140q167 -60 256.5 -197.5t89.5 -335.5z" />
    <glyph glyph-name="iotadieresis" unicode="&#x3ca;" horiz-adv-x="636" 
d="M168 293v704h158v-686q0 -100 40 -145t128 -45q56 0 133 12v-133q-103 -23 -166 -23q-146 0 -219.5 80t-73.5 236zM-53 1378q0 44 34 77.5t78 33.5q47 0 81 -33t34 -78q0 -44 -34 -76t-81 -32q-45 0 -78.5 32t-33.5 76zM319 1378q0 44 35 77.5t80 33.5q47 0 80 -33
t33 -78q0 -44 -33 -76t-80 -32q-45 0 -80 33t-35 75z" />
    <glyph glyph-name="upsilondieresis" unicode="&#x3cb;" horiz-adv-x="1161" 
d="M162 410v587h157v-596q0 -127 72 -203.5t191 -76.5q117 0 189.5 77.5t72.5 202.5v596h157v-587q0 -197 -114.5 -315t-304.5 -118q-192 0 -306 118t-114 315zM236 1378q0 44 34.5 77.5t77.5 33.5q47 0 81 -33t34 -78q0 -44 -34 -76t-81 -32q-43 0 -77.5 33t-34.5 75z
M670 1378q0 44 34.5 77.5t79.5 33.5q47 0 80 -33t33 -78q0 -44 -33 -76t-80 -32q-44 0 -79 32.5t-35 75.5z" />
    <glyph glyph-name="omicrontonos" unicode="&#x3cc;" horiz-adv-x="1249" 
d="M102 500q-2 105 39.5 202t112.5 167.5t168.5 111.5t202.5 39q140 2 261.5 -68t192.5 -191t68 -261q2 -103 -39.5 -200t-112.5 -168t-169 -112.5t-203 -39.5q-140 -3 -261 68t-191.5 192.5t-68.5 259.5zM985 498q0 161 -103.5 268.5t-256.5 107.5q-154 0 -257.5 -107.5
t-103.5 -268.5q0 -157 103.5 -265t255.5 -108t257 108t105 265zM543 1159l61 438h191v-28l-129 -410h-123z" />
    <glyph glyph-name="upsilontonos" unicode="&#x3cd;" horiz-adv-x="1161" 
d="M162 410v587h157v-596q0 -127 72 -203.5t191 -76.5q117 0 189.5 77.5t72.5 202.5v596h157v-587q0 -197 -114.5 -315t-304.5 -118q-192 0 -306 118t-114 315zM485 1159l62 438h190v-28l-129 -410h-123z" />
    <glyph glyph-name="omegatonos" unicode="&#x3ce;" horiz-adv-x="1605" 
d="M1503 477q0 -230 -110 -364q-109 -136 -297 -136q-208 0 -293 168q-38 -81 -114 -124.5t-179 -43.5q-187 0 -299 136q-109 136 -109 364q0 198 90 335.5t257 197.5l57 -140q-244 -117 -244 -395q0 -161 68.5 -256.5t183.5 -95.5q100 0 157.5 69.5t57.5 188.5v283h150
v-283q0 -121 56.5 -189.5t156.5 -68.5q116 0 183.5 94.5t67.5 255.5q0 285 -241 397l55 140q167 -60 256.5 -197.5t89.5 -335.5zM723 1159l61 438h191v-28l-129 -410h-123z" />
    <glyph glyph-name="uni0400" unicode="&#x400;" horiz-adv-x="1159" 
d="M186 0v1352h867v-144h-707v-413h541v-144h-541v-508h731v-143h-891zM561 1483l-246 352v29h193l174 -381h-121z" />
    <glyph glyph-name="uni0401" unicode="&#x401;" horiz-adv-x="1159" 
d="M186 0v1352h867v-144h-707v-413h541v-144h-541v-508h731v-143h-891zM268 1659q0 44 34 76t79 32q47 0 80 -32t33 -76q0 -45 -33 -77t-80 -32q-45 0 -79 32.5t-34 76.5zM745 1657q0 44 34 77t79 33q47 0 80 -32.5t33 -77.5t-33 -77t-80 -32q-45 0 -79 32.5t-34 76.5z" />
    <glyph glyph-name="uni0402" unicode="&#x402;" horiz-adv-x="1499" 
d="M952 -23l-28 144q307 40 307 287q0 125 -84.5 192.5t-228.5 67.5q-170 0 -304 -52v-616h-159v1208h-416v144h1071v-144h-496v-446q140 49 310 49q215 0 342 -106q131 -107 131 -299q0 -193 -127 -302q-128 -106 -318 -127z" />
    <glyph glyph-name="uni0403" unicode="&#x403;" horiz-adv-x="1036" 
d="M186 0v1352h801v-144h-641v-1208h-160zM479 1483l174 381h193v-29l-246 -352h-121z" />
    <glyph glyph-name="uni0404" unicode="&#x404;" horiz-adv-x="1464" 
d="M1243 362l119 -94q-86 -135 -234.5 -213t-326.5 -78q-141 -2 -272 53t-226.5 148.5t-151.5 224.5t-53 273q-3 142 53 272.5t151.5 224.5t226.5 148.5t272 52.5q178 0 326 -78t235 -213l-119 -94q-165 238 -440 238q-207 0 -356 -131.5t-177 -335.5h650v-144h-654
q22 -213 173.5 -352t363.5 -139q137 0 249 61.5t191 175.5z" />
    <glyph glyph-name="uni0405" unicode="&#x405;" horiz-adv-x="1142" 
d="M84 268l119 88q150 -231 377 -231q122 0 197 61.5t75 163.5q0 37 -10 65.5t-24.5 49.5t-46.5 43t-61 38t-83 42l-152 71q-75 35 -127 69t-94.5 77.5t-63 97t-20.5 119.5q0 155 119 253.5t289 98.5q132 0 244 -62t179 -167l-116 -88q-55 81 -136 125.5t-174 44.5
q-103 0 -171 -53t-68 -144q0 -59 26 -98q25 -36 64 -61.5t127 -67.5l149 -72q167 -81 241.5 -166t74.5 -211q0 -166 -123 -271.5t-313 -105.5q-157 0 -287.5 77.5t-210.5 213.5z" />
    <glyph glyph-name="uni0406" unicode="&#x406;" horiz-adv-x="530" 
d="M186 0v1352h160v-1352h-160z" />
    <glyph glyph-name="uni0407" unicode="&#x407;" horiz-adv-x="530" 
d="M186 0v1352h160v-1352h-160zM-86 1659q0 44 34 76t79 32q47 0 79.5 -31.5t32.5 -76.5t-32.5 -77t-79.5 -32q-45 0 -79 32.5t-34 76.5zM391 1657q0 44 34 77t79 33q47 0 79.5 -32.5t32.5 -77.5t-32.5 -77t-79.5 -32q-45 0 -79 32.5t-34 76.5z" />
    <glyph glyph-name="uni0408" unicode="&#x408;" horiz-adv-x="763" 
d="M49 0v137q83 -12 148 -12q114 0 168.5 46t54.5 157v1024h160v-1039q0 -167 -92.5 -251.5t-260.5 -84.5q-70 0 -178 23z" />
    <glyph glyph-name="uni0409" unicode="&#x409;" horiz-adv-x="1976" 
d="M1874 410q0 -182 -123 -296t-328 -114h-458v1208h-467q-8 -237 -21.5 -410.5t-36 -313t-53 -229.5t-75 -151t-100 -88t-130.5 -30q-48 0 -80 14v139q18 -6 55 -6q145 0 210 244t77 772l4 203h776v-533h299q205 0 328 -113.5t123 -295.5zM1708 408q0 120 -76.5 193
t-210.5 73h-297v-531h297q134 0 210.5 73t76.5 192z" />
    <glyph glyph-name="uni040A" unicode="&#x40a;" horiz-adv-x="1976" 
d="M186 0v1352h160v-533h621v533h159v-533h297q205 0 329 -113.5t124 -295.5t-124 -296t-329 -114h-456v676h-621v-676h-160zM1126 143h295q134 0 211.5 73t77.5 192q0 120 -77.5 194t-211.5 74h-295v-533z" />
    <glyph glyph-name="uni040B" unicode="&#x40b;" horiz-adv-x="1579" 
d="M1417 301v-301h-160v289q0 181 -91 280t-248 99q-170 0 -304 -52v-616h-159v1208h-416v144h1071v-144h-496v-448q134 51 310 51q222 0 358 -133q135 -132 135 -377z" />
    <glyph glyph-name="uni040C" unicode="&#x40c;" horiz-adv-x="1296" 
d="M186 0v1352h160v-1352h-160zM573 725l660 -725h-203l-665 725l608 627h205zM588 1483l174 381h192v-29l-245 -352h-121z" />
    <glyph glyph-name="uni040D" unicode="&#x40d;" horiz-adv-x="1470" 
d="M1227 1374h57v-1374h-160v1049l-880 -1072h-58v1375h160v-1049zM676 1483l-246 352v29h193l174 -381h-121z" />
    <glyph glyph-name="uni040E" unicode="&#x40e;" horiz-adv-x="1349" 
d="M1126 1352h162l-485 -1035q-87 -185 -168 -260q-83 -77 -217 -77q-58 0 -111 20v139q55 -12 107 -12q70 0 117.5 33t89.5 116l-539 1076h180l447 -891zM397 1812v52h133v-54q0 -97 46 -150.5t131 -53.5t131.5 53t46.5 151v54h133v-52q0 -148 -85 -236.5t-226 -88.5
q-140 0 -225 89t-85 236z" />
    <glyph glyph-name="uni040F" unicode="&#x40f;" horiz-adv-x="1429" 
d="M1243 1352v-1352h-448v-289h-160v289h-449v1352h160v-1209h737v1209h160z" />
    <glyph glyph-name="uni0410" unicode="&#x410;" horiz-adv-x="1357" 
d="M1124 0l-114 274h-664l-115 -274h-168l586 1374h60l585 -1374h-170zM948 418l-270 665l-270 -665h540z" />
    <glyph glyph-name="uni0411" unicode="&#x411;" horiz-adv-x="1183" 
d="M186 0v1352h801v-144h-641v-409h297q204 0 327.5 -112t123.5 -286q0 -177 -123 -289t-328 -112h-457zM346 143h295q134 0 210.5 70.5t76.5 185.5t-76.5 185.5t-210.5 70.5h-295v-512z" />
    <glyph glyph-name="uni0412" unicode="&#x412;" horiz-adv-x="1261" 
d="M1171 389q0 -171 -116.5 -280t-311.5 -109h-557v1352h465q173 0 281 -97q104 -94 104 -245q0 -168 -129 -267q125 -37 194.5 -130.5t69.5 -223.5zM635 1208h-289v-420h289q114 0 175.5 56.5t61.5 154.5t-61 153.5t-176 55.5zM1008 393q0 114 -74.5 182t-206.5 68h-381
v-500h381q132 0 206.5 68t74.5 182z" />
    <glyph glyph-name="uni0413" unicode="&#x413;" horiz-adv-x="1036" 
d="M186 0v1352h801v-144h-641v-1208h-160z" />
    <glyph glyph-name="uni0414" unicode="&#x414;" horiz-adv-x="1382" 
d="M1157 143h164v-432h-160v289h-981v-289h-160v432h105q108 102 160 344q51 239 51 695l2 170h819v-1209zM303 143h694v1065h-514q-3 -829 -180 -1065z" />
    <glyph glyph-name="uni0415" unicode="&#x415;" horiz-adv-x="1159" 
d="M186 0v1352h867v-144h-707v-413h541v-144h-541v-508h731v-143h-891z" />
    <glyph glyph-name="uni0416" unicode="&#x416;" horiz-adv-x="1978" 
d="M117 1352h207l567 -627l-625 -725h-205l625 725zM909 0v1352h160v-1352h-160zM1292 725l623 -725h-203l-625 725l568 627h207z" />
    <glyph glyph-name="uni0417" unicode="&#x417;" horiz-adv-x="1193" 
d="M1096 393q0 -179 -139.5 -297.5t-344.5 -118.5q-165 0 -298 79t-214 218l117 86q74 -112 174 -173.5t219 -61.5q139 0 230 76q92 77 92 196q0 112 -81 179t-235 67h-159v145h168q113 0 173 58.5t60 157.5q0 102 -63.5 162.5t-182.5 60.5q-203 0 -329 -185l-115 86
q70 118 183.5 182t260.5 64q186 0 299 -102t113 -260q0 -88 -42 -161t-120 -120q110 -43 172 -132t62 -206z" />
    <glyph glyph-name="uni0418" unicode="&#x418;" horiz-adv-x="1470" 
d="M1227 1374h57v-1374h-160v1049l-880 -1072h-58v1375h160v-1049z" />
    <glyph glyph-name="uni0419" unicode="&#x419;" horiz-adv-x="1470" 
d="M1227 1374h57v-1374h-160v1049l-880 -1072h-58v1375h160v-1049zM424 1812v52h133v-54q0 -97 46 -150.5t130 -53.5q85 0 131.5 53t46.5 151v54h133v-52q0 -148 -85 -236.5t-226 -88.5q-140 0 -224.5 88.5t-84.5 236.5z" />
    <glyph glyph-name="uni041A" unicode="&#x41a;" horiz-adv-x="1296" 
d="M186 0v1352h160v-1352h-160zM573 725l660 -725h-203l-665 725l608 627h205z" />
    <glyph glyph-name="uni041B" unicode="&#x41b;" horiz-adv-x="1370" 
d="M348 1352h838v-1352h-160v1208h-528q-15 -476 -60 -729q-44 -261 -129 -377t-227 -116q-48 0 -80 14v139q18 -6 55 -6q145 0 210 244t77 772z" />
    <glyph glyph-name="uni041C" unicode="&#x41c;" horiz-adv-x="1615" 
d="M1374 1374h56v-1374h-160v969l-432 -586h-58l-434 590v-973h-160v1374h58l563 -780z" />
    <glyph glyph-name="uni041D" unicode="&#x41d;" horiz-adv-x="1449" 
d="M186 0v1352h160v-557h758v557h160v-1352h-160v651h-758v-651h-160z" />
    <glyph glyph-name="uni041E" unicode="&#x41e;" horiz-adv-x="1599" 
d="M98 676q-3 142 52.5 272.5t151 224.5t226 148.5t271.5 52.5q140 2 270.5 -53t226 -148.5t152 -224t53.5 -272.5q3 -142 -53.5 -273t-152 -224.5t-226 -148.5t-270.5 -53q-141 -3 -272 52.5t-226 150t-150.5 225t-52.5 271.5zM1335 678q3 150 -68 277.5t-195.5 201
t-270.5 70.5q-150 0 -273.5 -71.5t-193.5 -197.5t-70 -280t70 -281t193.5 -199.5t273.5 -72.5q146 -2 270 71.5t195.5 201.5t68.5 280z" />
    <glyph glyph-name="uni041F" unicode="&#x41f;" horiz-adv-x="1429" 
d="M186 0v1352h1057v-1352h-160v1208h-737v-1208h-160z" />
    <glyph glyph-name="uni0420" unicode="&#x420;" horiz-adv-x="1173" 
d="M186 0v1352h476q195 0 313.5 -109.5t118.5 -281.5q0 -175 -118.5 -285.5t-313.5 -110.5h-316v-565h-160zM346 709h311q127 0 199 67.5t72 181.5q0 112 -72 181t-199 69h-311v-499z" />
    <glyph glyph-name="uni0421" unicode="&#x421;" horiz-adv-x="1464" 
d="M98 676q-3 142 53 272.5t151.5 224.5t226.5 148.5t272 52.5q178 0 326 -78t235 -213l-119 -94q-165 238 -440 238q-150 0 -274 -72t-194.5 -198.5t-70.5 -280.5t70.5 -280.5t194.5 -198.5t274 -72q137 0 249 61.5t191 175.5l119 -94q-86 -135 -234.5 -213t-326.5 -78
q-141 -2 -272 53t-226.5 148.5t-151.5 224.5t-53 273z" />
    <glyph glyph-name="uni0422" unicode="&#x422;" horiz-adv-x="1189" 
d="M514 0v1208h-475v144h1112v-144h-477v-1208h-160z" />
    <glyph glyph-name="uni0423" unicode="&#x423;" horiz-adv-x="1349" 
d="M1126 1352h162l-485 -1035q-87 -185 -168 -260q-83 -77 -217 -77q-58 0 -111 20v139q55 -12 107 -12q70 0 117.5 33t89.5 116l-539 1076h180l447 -891z" />
    <glyph glyph-name="uni0424" unicode="&#x424;" horiz-adv-x="1632" 
d="M895 127v-168h-160v168q-188 2 -334.5 69.5t-229.5 194.5t-83 295q0 251 180 400.5t467 152.5v154h160v-154q289 -3 469 -152.5t180 -400.5q0 -253 -180.5 -404.5t-468.5 -154.5zM735 272v822q-222 0 -351.5 -109.5t-129.5 -302.5q0 -191 130 -300.5t351 -109.5z
M1378 682q0 193 -130.5 302.5t-352.5 109.5v-822q217 0 350 109t133 301z" />
    <glyph glyph-name="uni0425" unicode="&#x425;" horiz-adv-x="1226" 
d="M1165 0h-186l-365 555l-366 -555h-187l465 692l-432 660h185l335 -527l334 527h185l-426 -662z" />
    <glyph glyph-name="uni0426" unicode="&#x426;" horiz-adv-x="1470" 
d="M1249 -289v289h-1063v1352h160v-1209h737v1209h160v-1209h166v-432h-160z" />
    <glyph glyph-name="uni0427" unicode="&#x427;" horiz-adv-x="1327" 
d="M983 1352h160v-1352h-160v545q-127 -58 -326 -58q-256 0 -394 131t-138 386v348h160v-338q0 -383 377 -383q194 0 321 59v662z" />
    <glyph glyph-name="uni0428" unicode="&#x428;" horiz-adv-x="1974" 
d="M186 0v1352h160v-1209h561v1209h160v-1209h563v1209h160v-1352h-1604z" />
    <glyph glyph-name="uni0429" unicode="&#x429;" horiz-adv-x="2015" 
d="M1794 -289v289h-1608v1352h160v-1209h561v1209h160v-1209h563v1209h160v-1209h164v-432h-160z" />
    <glyph glyph-name="uni042A" unicode="&#x42a;" horiz-adv-x="1357" 
d="M348 0v1208h-309v144h469v-533h297q205 0 327.5 -113.5t122.5 -295.5t-122.5 -296t-327.5 -114h-457zM508 143h295q134 0 211.5 73t77.5 192q0 120 -77 193t-212 73h-295v-531z" />
    <glyph glyph-name="uni042B" unicode="&#x42b;" horiz-adv-x="1705" 
d="M186 0v1352h160v-533h297q205 0 328 -113.5t123 -295.5t-123 -296t-328 -114h-457zM346 143h295q134 0 211.5 73t77.5 192q0 120 -77 193t-212 73h-295v-531zM1362 0v1352h160v-1352h-160z" />
    <glyph glyph-name="uni042C" unicode="&#x42c;" horiz-adv-x="1196" 
d="M186 0v1352h160v-533h297q205 0 328 -113.5t123 -295.5t-123 -296t-328 -114h-457zM346 143h295q134 0 211.5 73t77.5 192q0 120 -77 193t-212 73h-295v-531z" />
    <glyph glyph-name="uni042D" unicode="&#x42d;" horiz-adv-x="1464" 
d="M1364 676q4 -190 -91 -352.5t-257.5 -256t-351.5 -90.5q-178 0 -327.5 78t-236.5 213l121 94q79 -114 191 -175.5t250 -61.5q213 0 362.5 139t171.5 352h-633v144h629q-28 204 -176.5 335.5t-353.5 131.5q-137 0 -249.5 -62t-191.5 -176l-121 94q89 135 237.5 213
t326.5 78q141 2 271.5 -52.5t225.5 -148.5t150.5 -224.5t52.5 -272.5z" />
    <glyph glyph-name="uni042E" unicode="&#x42e;" horiz-adv-x="2000" 
d="M1901 676q3 -190 -86.5 -352.5t-245.5 -256t-340 -90.5q-180 -3 -333 87.5t-242.5 246.5t-92.5 340h-215v-651h-160v1352h160v-557h223q37 252 222.5 415.5t437.5 163.5q184 3 340 -90.5t245.5 -255.5t86.5 -352zM1735 678q0 155 -63.5 280.5t-179 197t-261.5 71.5
t-261.5 -71.5t-179 -197t-63.5 -280.5q0 -239 141.5 -396t362.5 -157t362.5 157.5t141.5 395.5z" />
    <glyph glyph-name="uni042F" unicode="&#x42f;" horiz-adv-x="1267" 
d="M631 1352h450v-1352h-159v526h-269l-379 -526h-182l393 547q-146 41 -231.5 146.5t-85.5 246.5q0 184 128 298t335 114zM922 672v536h-291q-135 0 -216 -73t-81 -195q0 -123 81 -195.5t216 -72.5h291z" />
    <glyph glyph-name="uni0430" unicode="&#x430;" horiz-adv-x="1081" 
d="M922 614v-614h-148v129q-115 -152 -336 -152q-155 0 -251.5 76.5t-96.5 204.5q0 127 98.5 203t260.5 76h315v86q0 121 -64 186t-178 65q-89 0 -158.5 -39t-132.5 -120l-104 86q66 108 172 163.5t233 55.5q180 0 285 -106t105 -300zM764 383v25h-297q-104 0 -159.5 -36.5
t-55.5 -105.5q0 -73 58.5 -115t148.5 -42q124 0 214.5 80t90.5 194z" />
    <glyph glyph-name="uni0431" unicode="&#x431;" horiz-adv-x="1259" 
d="M1157 481q2 -134 -68 -250.5t-191 -185t-261 -65.5q-229 0 -371.5 156t-142.5 405v174q0 235 45 377q49 152 185.5 248.5t383.5 138.5q257 47 336 80v-152q-92 -40 -317 -74q-211 -30 -318 -108q-106 -78 -133 -181q-29 -110 -29 -262q63 94 164.5 147.5t218.5 53.5
q131 3 248 -66.5t185 -186.5t65 -249zM995 481q0 149 -103.5 253t-252.5 104q-147 0 -251.5 -104t-104.5 -253q0 -146 105 -251t251 -105q149 0 252.5 103.5t103.5 252.5z" />
    <glyph glyph-name="uni0432" unicode="&#x432;" horiz-adv-x="1114" 
d="M991 301q0 -134 -97 -217.5t-257 -83.5h-463v997h412q148 0 234.5 -71t86.5 -193q0 -124 -104 -192q89 -31 138.5 -93t49.5 -147zM332 856v-266h256q80 0 122 35.5t42 99.5q0 131 -164 131h-256zM834 301q0 70 -54.5 110t-152.5 40h-295v-312h295q97 0 152 44.5t55 117.5
z" />
    <glyph glyph-name="uni0433" unicode="&#x433;" horiz-adv-x="890" 
d="M174 0v997h672v-141h-514v-856h-158z" />
    <glyph glyph-name="uni0434" unicode="&#x434;" horiz-adv-x="1183" 
d="M948 139h162v-428h-158v289h-784v-289h-158v428h113q67 70 96.5 207t34.5 371l6 280h688v-858zM289 139h502v717h-381l-7 -141q-4 -208 -34 -357t-80 -219z" />
    <glyph glyph-name="uni0435" unicode="&#x435;" horiz-adv-x="1169" 
d="M1055 451h-789q13 -147 115.5 -237.5t251.5 -90.5q170 0 305 135l92 -106q-167 -175 -399 -175q-146 0 -267.5 68.5t-191.5 188.5t-70 264q0 217 148.5 369.5t361.5 152.5q195 0 325 -127t130 -324q0 -57 -12 -118zM272 590h633q-1 131 -85.5 209t-211.5 78
q-125 0 -217.5 -79t-118.5 -208z" />
    <glyph glyph-name="uni0436" unicode="&#x436;" horiz-adv-x="1581" 
d="M80 997h196l412 -456l-455 -541h-192l457 541zM709 0v997h157v-997h-157zM1079 545l459 -545h-197l-454 541l411 456h195z" />
    <glyph glyph-name="uni0437" unicode="&#x437;" horiz-adv-x="958" 
d="M852 287q0 -141 -103 -225.5t-274 -84.5q-242 0 -383 193l107 94q107 -141 274 -141q103 0 160 47.5t57 126.5q0 73 -57.5 117.5t-159.5 44.5h-108v139h106q85 0 129.5 36t44.5 103q0 64 -46.5 100.5t-131.5 36.5q-82 0 -140 -30t-110 -92l-106 94q59 81 151 127.5
t211 46.5q150 0 239 -72.5t89 -199.5q0 -143 -119 -216q82 -32 126 -96t44 -149z" />
    <glyph glyph-name="uni0438" unicode="&#x438;" horiz-adv-x="1169" 
d="M940 1020h57v-1020h-157v705l-609 -728h-57v1020h158v-706z" />
    <glyph glyph-name="uni0439" unicode="&#x439;" horiz-adv-x="1169" 
d="M940 1020h57v-1020h-157v705l-609 -728h-57v1020h158v-706zM299 1497v64h133v-60q0 -100 45.5 -154.5t130.5 -54.5q86 0 132 54.5t46 154.5v60h134v-64q0 -146 -85.5 -234.5t-226.5 -88.5q-140 0 -224.5 88.5t-84.5 234.5z" />
    <glyph glyph-name="uni043A" unicode="&#x43a;" horiz-adv-x="1054" 
d="M174 0v997h158v-997h-158zM545 545l469 -545h-199l-463 541l420 456h197z" />
    <glyph glyph-name="uni043B" unicode="&#x43b;" horiz-adv-x="1101" 
d="M252 997h676v-997h-158v856h-371l-4 -123q-6 -162 -18 -276.5t-34.5 -205.5t-58.5 -145t-87.5 -83t-122.5 -31q-33 0 -54 8v133q32 -4 41 -4q94 0 136.5 146t48.5 462z" />
    <glyph glyph-name="uni043C" unicode="&#x43c;" horiz-adv-x="1404" 
d="M174 0v1020h57l474 -561l471 561h55v-1020h-158v674l-340 -406h-61l-340 406v-674h-158z" />
    <glyph glyph-name="uni043D" unicode="&#x43d;" horiz-adv-x="1150" 
d="M174 0v997h158v-397h489v397h158v-997h-158v461h-489v-461h-158z" />
    <glyph glyph-name="uni043E" unicode="&#x43e;" horiz-adv-x="1249" 
d="M102 500q-2 105 39.5 202t112.5 167.5t168.5 111.5t202.5 39q140 2 261.5 -68t192.5 -191t68 -261q2 -103 -39.5 -200t-112.5 -168t-169 -112.5t-203 -39.5q-140 -3 -261 68t-191.5 192.5t-68.5 259.5zM985 498q0 161 -103.5 268.5t-256.5 107.5q-154 0 -257.5 -107.5
t-103.5 -268.5q0 -157 103.5 -265t255.5 -108t257 108t105 265z" />
    <glyph glyph-name="uni043F" unicode="&#x43f;" horiz-adv-x="1142" 
d="M174 0v997h797v-997h-160v856h-479v-856h-158z" />
    <glyph glyph-name="uni0440" unicode="&#x440;" horiz-adv-x="1294" 
d="M1192 500q0 -145 -64.5 -265t-178 -189t-251.5 -69q-110 0 -207.5 44t-158.5 122v-512h-158v1366h148v-159q57 86 157.5 134t218.5 48q140 0 253.5 -68.5t177 -187.5t63.5 -264zM1030 498q0 161 -101 268.5t-253 107.5q-68 0 -129.5 -23.5t-110 -68.5t-77.5 -118
t-29 -164q0 -181 99.5 -279t246.5 -98q152 0 253 107t101 268z" />
    <glyph glyph-name="uni0441" unicode="&#x441;" horiz-adv-x="1128" 
d="M102 500q-2 105 39.5 202t112.5 167t168.5 111t202.5 40q128 0 235 -57.5t176 -159.5l-112 -90q-118 161 -297 161q-154 0 -258.5 -109t-104.5 -265q0 -158 104.5 -267.5t258.5 -109.5q174 0 295 160l112 -88q-69 -102 -175 -160t-234 -58q-142 0 -262.5 70t-190.5 190.5
t-70 262.5z" />
    <glyph glyph-name="uni0442" unicode="&#x442;" horiz-adv-x="911" 
d="M377 0v856h-336v141h827v-141h-336v-856h-155z" />
    <glyph glyph-name="uni0443" unicode="&#x443;" horiz-adv-x="1103" 
d="M883 997h168l-492 -1136q-57 -130 -139.5 -191t-198.5 -61q-80 0 -153 20v133q85 -10 120 -10q81 0 135 36t91 124l53 119l-414 966h170l330 -794z" />
    <glyph glyph-name="uni0444" unicode="&#x444;" horiz-adv-x="1488" 
d="M823 -23v-346h-157v346q-251 9 -407.5 150.5t-156.5 370.5q0 228 157.5 368.5t406.5 149.5v520h157v-520q251 -9 407 -150t156 -370t-157 -369.5t-406 -149.5zM668 117v760q-187 -8 -295.5 -109t-108.5 -272t108.5 -271t295.5 -108zM1225 498q0 171 -108.5 271
t-295.5 108v-760q187 8 295.5 109t108.5 272z" />
    <glyph glyph-name="uni0445" unicode="&#x445;" horiz-adv-x="1017" 
d="M975 0h-182l-285 410l-283 -410h-184l371 520l-340 477h182l254 -366l256 366h182l-346 -477z" />
    <glyph glyph-name="uni0446" unicode="&#x446;" horiz-adv-x="1204" 
d="M973 -289v289h-799v997h158v-858h479v858h158v-858h161v-428h-157z" />
    <glyph glyph-name="uni0447" unicode="&#x447;" horiz-adv-x="1081" 
d="M750 997h157v-997h-157v393q-91 -45 -252 -45q-183 0 -289.5 101.5t-106.5 287.5v260h158v-252q0 -256 268 -256q128 0 222 43v465z" />
    <glyph glyph-name="uni0448" unicode="&#x448;" horiz-adv-x="1656" 
d="M174 0v997h158v-858h418v858h157v-858h420v858h158v-997h-1311z" />
    <glyph glyph-name="uni0449" unicode="&#x449;" horiz-adv-x="1720" 
d="M1489 -289v289h-1315v997h158v-858h418v858h157v-858h420v858h158v-858h162v-428h-158z" />
    <glyph glyph-name="uni044A" unicode="&#x44a;" horiz-adv-x="1140" 
d="M268 0v856h-227v141h385v-344h240q170 0 271 -88.5t101 -236.5t-101 -238t-271 -90h-398zM426 139h229q103 0 162.5 51t59.5 136t-60.5 136.5t-163.5 51.5h-227v-375z" />
    <glyph glyph-name="uni044B" unicode="&#x44b;" horiz-adv-x="1417" 
d="M174 0v997h158v-344h237q168 0 270.5 -89t102.5 -236q0 -149 -101.5 -238.5t-271.5 -89.5h-395zM1087 0v997h158v-997h-158zM332 139h229q106 0 162.5 48t56.5 139t-57.5 139.5t-163.5 48.5h-227v-375z" />
    <glyph glyph-name="uni044C" unicode="&#x44c;" horiz-adv-x="1044" 
d="M174 0v997h158v-344h237q170 0 271.5 -88.5t101.5 -236.5t-101.5 -238t-271.5 -90h-395zM332 139h229q103 0 161 50.5t58 136.5t-59 137t-162 51h-227v-375z" />
    <glyph glyph-name="uni044D" unicode="&#x44d;" horiz-adv-x="1128" 
d="M1026 500q0 -142 -69.5 -262.5t-190 -190.5t-262.5 -70q-128 0 -234.5 58t-175.5 160l111 88q121 -160 297 -160q138 0 239 90q101 87 119 229h-430v140h426q-26 130 -123.5 211t-230.5 81q-181 0 -299 -161l-111 90q70 104 176.5 160.5t235.5 56.5q140 2 261.5 -68
t192.5 -191t68 -261z" />
    <glyph glyph-name="uni044E" unicode="&#x44e;" horiz-adv-x="1636" 
d="M1534 500q2 -103 -38.5 -200t-110.5 -168t-166 -112.5t-199 -39.5q-133 0 -247 64t-183.5 174.5t-77.5 242.5h-180v-461h-158v997h158v-397h186q34 182 175.5 301t328.5 119q102 1 197 -40t165 -111t111 -167t39 -202zM1372 498q0 157 -101.5 266.5t-248.5 109.5
q-152 0 -251 -107t-99 -269q0 -158 99.5 -265.5t248.5 -107.5t250.5 108t101.5 265z" />
    <glyph glyph-name="uni044F" unicode="&#x44f;" horiz-adv-x="1075" 
d="M504 997h397v-997h-158v365h-188l-274 -365h-185l291 385q-110 32 -172.5 109.5t-62.5 183.5q0 146 96 232.5t256 86.5zM743 504v352h-229q-94 0 -147.5 -47t-53.5 -129q0 -80 55 -128t148 -48h227z" />
    <glyph glyph-name="uni0450" unicode="&#x450;" horiz-adv-x="1169" 
d="M1055 451h-789q13 -147 115.5 -237.5t251.5 -90.5q170 0 305 135l92 -106q-167 -175 -399 -175q-146 0 -267.5 68.5t-191.5 188.5t-70 264q0 217 148.5 369.5t361.5 152.5q195 0 325 -127t130 -324q0 -57 -12 -118zM272 590h633q-1 131 -85.5 209t-211.5 78
q-125 0 -217.5 -79t-118.5 -208zM547 1159l-246 410v28h193l174 -438h-121z" />
    <glyph glyph-name="uni0451" unicode="&#x451;" horiz-adv-x="1169" 
d="M1055 451h-789q13 -147 115.5 -237.5t251.5 -90.5q170 0 305 135l92 -106q-167 -175 -399 -175q-146 0 -267.5 68.5t-191.5 188.5t-70 264q0 217 148.5 369.5t361.5 152.5q195 0 325 -127t130 -324q0 -57 -12 -118zM272 590h633q-1 131 -85.5 209t-211.5 78
q-125 0 -217.5 -79t-118.5 -208zM276 1378q0 44 35 77.5t78 33.5q47 0 81 -33t34 -78q0 -44 -34 -76t-81 -32q-43 0 -78 33t-35 75zM711 1378q0 44 34.5 77.5t79.5 33.5q47 0 80 -33t33 -78q0 -44 -33 -76t-80 -32q-44 0 -79 32.5t-35 75.5z" />
    <glyph glyph-name="uni0452" unicode="&#x452;" horiz-adv-x="1167" 
d="M1008 600v-668q0 -161 -87 -242t-243 -81q-66 0 -125 16v133q49 -6 88 -6q104 0 156.5 44.5t52.5 146.5v639q0 119 -68 191.5t-180 72.5q-117 0 -191.5 -74t-74.5 -190v-582h-156v1188h-170v139h170v209h156v-209h414v-139h-414v-334q106 137 301 137q171 0 271 -106.5
t100 -284.5z" />
    <glyph glyph-name="uni0453" unicode="&#x453;" horiz-adv-x="890" 
d="M174 0v997h672v-141h-514v-856h-158zM430 1159l174 438h193v-28l-246 -410h-121z" />
    <glyph glyph-name="uni0454" unicode="&#x454;" horiz-adv-x="1128" 
d="M924 283l110 -88q-69 -102 -175 -160t-234 -58q-142 0 -262.5 70t-190.5 190.5t-70 262.5q-2 105 39.5 202t112.5 167t168.5 111t202.5 40q128 0 235 -57.5t176 -159.5l-110 -90q-118 161 -299 161q-133 0 -231 -81t-124 -211h426v-140h-430q18 -141 117 -229
q104 -90 242 -90q176 0 297 160z" />
    <glyph glyph-name="uni0455" unicode="&#x455;" horiz-adv-x="929" 
d="M80 172l100 104q78 -79 142.5 -116t144.5 -37q83 0 136.5 38t53.5 103q0 57 -37.5 89t-136.5 71l-96 41q-129 53 -188.5 116t-59.5 160q0 128 95 203.5t241 75.5q202 0 334 -158l-96 -98q-110 110 -246 110q-75 0 -120.5 -32.5t-45.5 -91.5q0 -46 34.5 -76.5t127.5 -69.5
l92 -39q142 -61 203 -127.5t61 -167.5q0 -140 -102 -217q-101 -76 -248 -76q-120 0 -220 52.5t-169 142.5z" />
    <glyph glyph-name="uni0456" unicode="&#x456;" horiz-adv-x="548" 
d="M158 1378q0 48 34 81.5t84 33.5q47 0 82 -34t35 -81q0 -49 -33.5 -81.5t-83.5 -32.5q-51 0 -84.5 32.5t-33.5 81.5zM197 0v997h157v-997h-157z" />
    <glyph glyph-name="uni0457" unicode="&#x457;" horiz-adv-x="505" 
d="M20 1378q0 47 32.5 81t76.5 34q43 0 75 -34t32 -81q0 -49 -31.5 -81.5t-75.5 -32.5q-47 0 -78 32.5t-31 81.5zM270 1378q0 47 32.5 81t76.5 34q43 0 74.5 -34t31.5 -81q0 -49 -31 -81.5t-75 -32.5q-47 0 -78 32.5t-31 81.5zM174 0v997h158v-997h-158z" />
    <glyph glyph-name="uni0458" unicode="&#x458;" horiz-adv-x="503" 
d="M-123 -375v133q52 -6 92 -6q102 0 153.5 45t51.5 146v1054h158v-1065q0 -160 -87 -241.5t-241 -81.5q-65 0 -127 16zM135 1378q0 47 35 81t84 34q47 0 82 -34t35 -81q0 -49 -33.5 -81.5t-83.5 -32.5t-84.5 32.5t-34.5 81.5z" />
    <glyph glyph-name="uni0459" unicode="&#x459;" horiz-adv-x="1591" 
d="M1487 328q0 -148 -100.5 -238t-270.5 -90h-395v856h-322l-4 -123q-6 -162 -18 -276.5t-34.5 -205.5t-58.5 -145t-87.5 -83t-122.5 -31q-33 0 -54 8v133q32 -4 41 -4q94 0 136.5 146t48.5 462l6 260h627v-344h237q170 0 270.5 -88.5t100.5 -236.5zM1325 326q0 86 -59 137
t-162 51h-225v-375h227q103 0 161 50.5t58 136.5z" />
    <glyph glyph-name="uni045A" unicode="&#x45a;" horiz-adv-x="1644" 
d="M1540 322q0 -152 -102 -237t-281 -85h-397v498h-428v-498h-158v997h158v-360h428v360h158v-360h239q177 0 280 -84.5t103 -230.5zM1378 319q0 81 -62 130t-169 49h-229v-359h229q110 0 170.5 47t60.5 133z" />
    <glyph glyph-name="uni045B" unicode="&#x45b;" horiz-adv-x="1167" 
d="M1008 600v-600h-158v582q0 119 -68 191.5t-180 72.5q-117 0 -191.5 -74t-74.5 -190v-582h-156v1186h-170v139h170v211h156v-211h414v-139h-414v-332q106 137 301 137q171 0 271 -106.5t100 -284.5z" />
    <glyph glyph-name="uni045C" unicode="&#x45c;" horiz-adv-x="1054" 
d="M174 0v997h158v-997h-158zM545 545l469 -545h-199l-463 541l420 456h197zM494 1159l174 438h192v-28l-246 -410h-120z" />
    <glyph glyph-name="uni045D" unicode="&#x45d;" horiz-adv-x="1169" 
d="M940 1020h57v-1020h-157v705l-609 -728h-57v1020h158v-706zM551 1159l-246 410v28h193l174 -438h-121z" />
    <glyph glyph-name="uni045E" unicode="&#x45e;" horiz-adv-x="1103" 
d="M883 997h168l-492 -1136q-57 -130 -139.5 -191t-198.5 -61q-80 0 -153 20v133q85 -10 120 -10q81 0 135 36t91 124l53 119l-414 966h170l330 -794zM236 1497v64h133v-60q0 -100 45.5 -154.5t130.5 -54.5q86 0 132 54.5t46 154.5v60h133v-64q0 -146 -85 -234.5t-226 -88.5
q-140 0 -224.5 88.5t-84.5 234.5z" />
    <glyph glyph-name="uni045F" unicode="&#x45f;" horiz-adv-x="1140" 
d="M969 997v-997h-318v-289h-157v289h-320v997h158v-858h479v858h158z" />
    <glyph glyph-name="uni0462" unicode="&#x462;" horiz-adv-x="1339" 
d="M330 0v1028h-291v133h291v191h159v-191h385v-133h-385v-248h308q201 0 320.5 -108.5t119.5 -280.5q0 -174 -119.5 -282.5t-320.5 -108.5h-467zM489 143h306q131 0 203.5 67.5t72.5 178.5q0 112 -72.5 179t-203.5 67h-306v-492z" />
    <glyph glyph-name="uni0463" unicode="&#x463;" horiz-adv-x="1165" 
d="M293 0v856h-283v141h283v539h158v-539h325v-141h-325v-223h239q170 0 271.5 -86t101.5 -228q0 -146 -101.5 -232.5t-271.5 -86.5h-397zM451 139h229q104 0 162.5 48t58.5 130q0 79 -60 128t-163 49h-227v-355z" />
    <glyph glyph-name="uni0472" unicode="&#x472;" horiz-adv-x="1599" 
d="M1501 676q3 -142 -53.5 -273t-152 -224.5t-226 -148.5t-270.5 -53q-141 -3 -272 52.5t-226 150t-150.5 225t-52.5 271.5q-3 142 52.5 272.5t151 224.5t226 148.5t271.5 52.5q140 2 270.5 -53t226 -148.5t152 -224t53.5 -272.5zM266 739q148 60 281 60q97 0 258 -41
q152 -41 254 -41q140 0 268 55q-31 199 -178.5 327t-349.5 128q-211 0 -361 -138t-172 -350zM1333 629q-136 -56 -274 -56q-104 0 -262 41q-94 23 -143.5 32t-106.5 9q-136 0 -279 -59q28 -205 176.5 -338t354.5 -133q217 0 368 143t166 361z" />
    <glyph glyph-name="uni0473" unicode="&#x473;" horiz-adv-x="1249" 
d="M1147 500q0 -106 -41.5 -202.5t-112 -166t-167 -110.5t-203.5 -41q-105 -2 -202 39t-167.5 111.5t-111.5 167.5t-40 202q-2 105 39.5 202t112.5 167.5t168.5 111.5t202.5 39q105 2 202.5 -39t168 -111.5t112 -167.5t39.5 -202zM272 580q77 32 166 32q80 0 189 -34
q109 -33 184 -33q84 0 166 33q-25 131 -122 213.5t-230 82.5q-134 0 -231 -81.5t-122 -212.5zM981 446q-85 -36 -170 -36q-47 0 -83.5 7t-109.5 27q-110 35 -180 35q-77 0 -170 -35q15 -140 115 -229q104 -90 240 -90q137 0 241 90q102 91 117 231z" />
    <glyph glyph-name="uni0474" unicode="&#x474;" horiz-adv-x="1406" 
d="M1407 1352v-138q-40 7 -61 7q-62 0 -99.5 -31.5t-68.5 -106.5l-469 -1106h-60l-586 1375h177l438 -1061l352 850q49 118 118 169.5t175 51.5q19 0 84 -10z" />
    <glyph glyph-name="uni0475" unicode="&#x475;" horiz-adv-x="1118" 
d="M1118 997v-135q-46 4 -51 4q-46 0 -74.5 -23.5t-52.5 -78.5l-358 -787h-58l-471 1020h168l332 -755l252 577q44 96 98.5 141.5t134.5 45.5q46 0 80 -9z" />
    <glyph glyph-name="uni0490" unicode="&#x490;" horiz-adv-x="1001" 
d="M186 0v1352h607v286h159v-430h-606v-1208h-160z" />
    <glyph glyph-name="uni0491" unicode="&#x491;" horiz-adv-x="890" 
d="M174 0v997h514v287h158v-428h-514v-856h-158z" />
    <glyph glyph-name="uni0492" unicode="&#x492;" horiz-adv-x="1077" 
d="M1036 1208h-645v-512h346v-133h-346v-563h-160v563h-194v133h194v656h805v-144z" />
    <glyph glyph-name="uni0493" unicode="&#x493;" horiz-adv-x="892" 
d="M848 856h-518v-307h293v-139h-293v-410h-156v410h-164v139h164v448h674v-141z" />
    <glyph glyph-name="uni0496" unicode="&#x496;" horiz-adv-x="1972" 
d="M117 1352h207l567 -627l-625 -725h-205l625 725zM909 0v1352h160v-1352h-160zM1792 143h178v-432h-160v289h-98l-625 725l568 627h207l-570 -627z" />
    <glyph glyph-name="uni0497" unicode="&#x497;" horiz-adv-x="1652" 
d="M80 997h196l412 -456l-455 -541h-192l457 541zM709 0v997h157v-997h-157zM1421 139h160v-428h-158v289h-82l-454 541l411 456h195l-414 -452z" />
    <glyph glyph-name="uni0498" unicode="&#x498;" horiz-adv-x="1193" 
d="M1096 393q0 -179 -139.5 -297.5t-344.5 -118.5q-165 0 -298 79t-214 218l117 86q74 -112 174 -173.5t219 -61.5q139 0 230 76q92 77 92 196q0 112 -81 179t-235 67h-159v145h168q113 0 173 58.5t60 157.5q0 102 -63.5 162.5t-182.5 60.5q-203 0 -329 -185l-115 86
q70 118 183.5 182t260.5 64q186 0 299 -102t113 -260q0 -88 -42 -161t-120 -120q110 -43 172 -132t62 -206zM352 -371v113q57 -8 115 -8q74 0 117 33.5t43 99.5q0 81 -70 151l68 35q63 -31 100 -86t37 -123q0 -102 -74 -168.5t-196 -66.5q-73 0 -140 20z" />
    <glyph glyph-name="uni0499" unicode="&#x499;" horiz-adv-x="958" 
d="M852 287q0 -141 -103 -225.5t-274 -84.5q-242 0 -383 193l107 94q107 -141 274 -141q103 0 160 47.5t57 126.5q0 73 -57.5 117.5t-159.5 44.5h-108v139h106q85 0 129.5 36t44.5 103q0 64 -46.5 100.5t-131.5 36.5q-82 0 -140 -30t-110 -92l-106 94q59 81 151 127.5
t211 46.5q150 0 239 -72.5t89 -199.5q0 -143 -119 -216q82 -32 126 -96t44 -149zM250 -371v113q57 -8 115 -8q74 0 116.5 33.5t42.5 99.5q0 82 -69 151l67 35q63 -31 100 -86t37 -123q0 -102 -74 -168.5t-196 -66.5q-72 0 -139 20z" />
    <glyph glyph-name="uni049A" unicode="&#x49a;" horiz-adv-x="1286" 
d="M186 0v1352h160v-1352h-160zM1104 143h182v-432h-160v289h-96l-665 725l608 627h205l-607 -627z" />
    <glyph glyph-name="uni049B" unicode="&#x49b;" horiz-adv-x="1124" 
d="M174 0v997h158v-997h-158zM895 139h158v-428h-158v289h-80l-463 541l420 456h197l-424 -452z" />
    <glyph glyph-name="uni04A0" unicode="&#x4a0;" horiz-adv-x="1640" 
d="M41 1208v144h649v-1352h-160v1208h-489zM918 725l661 -725h-205l-665 725l608 627h207z" />
    <glyph glyph-name="uni04A1" unicode="&#x4a1;" horiz-adv-x="1290" 
d="M41 856v141h526v-997h-157v856h-369zM780 545l469 -545h-198l-463 541l420 456h196z" />
    <glyph glyph-name="uni04A2" unicode="&#x4a2;" horiz-adv-x="1490" 
d="M1270 -289v289h-166v651h-758v-651h-160v1352h160v-557h758v557h160v-1209h166v-432h-160z" />
    <glyph glyph-name="uni04A3" unicode="&#x4a3;" horiz-adv-x="1214" 
d="M985 -289v289h-164v461h-489v-461h-158v997h158v-397h489v397h158v-858h164v-428h-158z" />
    <glyph glyph-name="uni04AA" unicode="&#x4aa;" horiz-adv-x="1464" 
d="M98 676q-3 142 53 272.5t151.5 224.5t226.5 148.5t272 52.5q178 0 326 -78t235 -213l-119 -94q-165 238 -440 238q-150 0 -274 -72t-194.5 -198.5t-70.5 -280.5t70.5 -280.5t194.5 -198.5t274 -72q137 0 249 61.5t191 175.5l119 -94q-86 -135 -234.5 -213t-326.5 -78
q-141 -2 -272 53t-226.5 148.5t-151.5 224.5t-53 273zM555 -371v113q57 -8 115 -8q74 0 116.5 33.5t42.5 99.5q0 82 -69 151l67 35q63 -32 100.5 -87t37.5 -122q0 -102 -74.5 -168.5t-196.5 -66.5q-72 0 -139 20z" />
    <glyph glyph-name="uni04AB" unicode="&#x4ab;" horiz-adv-x="1128" 
d="M102 500q-2 105 39.5 202t112.5 167t168.5 111t202.5 40q128 0 235 -57.5t176 -159.5l-112 -90q-118 161 -297 161q-154 0 -258.5 -109t-104.5 -265q0 -158 104.5 -267.5t258.5 -109.5q174 0 295 160l112 -88q-69 -102 -175 -160t-234 -58q-142 0 -262.5 70t-190.5 190.5
t-70 262.5zM356 -371v113q57 -8 115 -8q74 0 117 33.5t43 99.5q0 81 -70 151l68 35q63 -31 100 -86t37 -123q0 -102 -74 -168.5t-196 -66.5q-73 0 -140 20z" />
    <glyph glyph-name="uni04AE" unicode="&#x4ae;" horiz-adv-x="1261" 
d="M1180 1352l-469 -793v-559h-160v559l-469 793h180l369 -635l370 635h179z" />
    <glyph glyph-name="uni04AF" unicode="&#x4af;" horiz-adv-x="1103" 
d="M1051 997l-418 -989v-377h-158v363l-422 1003h168l332 -839l330 839h168z" />
    <glyph glyph-name="uni04B0" unicode="&#x4b0;" horiz-adv-x="1261" 
d="M1180 1352l-469 -791h309v-135h-309v-426h-160v426h-309v135h309l-469 791h180l369 -635l370 635h179z" />
    <glyph glyph-name="uni04B1" unicode="&#x4b1;" horiz-adv-x="1103" 
d="M633 4v-4h268v-139h-268v-230h-158v230h-270v139h266l-418 997h168l332 -843l330 843h168z" />
    <glyph glyph-name="uni04B2" unicode="&#x4b2;" horiz-adv-x="1239" 
d="M1069 143h168v-432h-160v289h-98l-365 555l-366 -555h-187l465 692l-432 660h185l335 -527l334 527h185l-426 -662z" />
    <glyph glyph-name="uni04B3" unicode="&#x4b3;" horiz-adv-x="1103" 
d="M874 139h160v-428h-157v289h-80l-289 406l-287 -406h-180l375 520l-344 477h178l260 -362l256 362h180l-348 -479z" />
    <glyph glyph-name="uni04B6" unicode="&#x4b6;" horiz-adv-x="1368" 
d="M1143 143h164v-432h-160v289h-164v545q-127 -58 -326 -58q-256 0 -394 131t-138 386v348h160v-338q0 -383 377 -383q194 0 321 59v662h160v-1209z" />
    <glyph glyph-name="uni04B7" unicode="&#x4b7;" horiz-adv-x="1142" 
d="M907 139h164v-428h-158v289h-163v403q-113 -55 -252 -55q-183 0 -289.5 101.5t-106.5 287.5v260h158v-252q0 -127 63.5 -191.5t176.5 -64.5q148 0 250 54v454h157v-858z" />
    <glyph glyph-name="uni04BA" unicode="&#x4ba;" horiz-adv-x="1327" 
d="M1202 348v-348h-160v338q0 196 -94 289.5t-282 93.5q-193 0 -320 -59v-662h-160v1352h160v-545q125 57 324 57q257 0 394.5 -130.5t137.5 -385.5z" />
    <glyph glyph-name="uni04BB" unicode="&#x4bb;" horiz-adv-x="1159" 
d="M999 627v-627h-157v606q0 122 -66.5 195t-181.5 73t-188.5 -75.5t-73.5 -192.5v-606h-158v1536h158v-651q52 64 129.5 99.5t169.5 35.5q170 0 269 -107t99 -286z" />
    <glyph glyph-name="uni04C0" unicode="&#x4c0;" horiz-adv-x="530" 
d="M186 0v1352h160v-1352h-160z" />
    <glyph glyph-name="uni04C1" unicode="&#x4c1;" horiz-adv-x="1978" 
d="M117 1352h207l567 -627l-625 -725h-205l625 725zM909 0v1352h160v-1352h-160zM1292 725l623 -725h-203l-625 725l568 627h207zM678 1812v52h133v-54q0 -97 46 -150.5t130 -53.5q85 0 131.5 53t46.5 151v54h133v-52q0 -148 -85 -236.5t-226 -88.5q-140 0 -224.5 88.5
t-84.5 236.5z" />
    <glyph glyph-name="uni04C2" unicode="&#x4c2;" horiz-adv-x="1581" 
d="M80 997h196l412 -456l-455 -541h-192l457 541zM709 0v997h157v-997h-157zM1079 545l459 -545h-197l-454 541l411 456h195zM479 1497v64h133v-60q0 -100 45.5 -154.5t130.5 -54.5q86 0 132.5 54.5t46.5 154.5v60h133v-64q0 -146 -85.5 -234.5t-226.5 -88.5
q-140 0 -224.5 88.5t-84.5 234.5z" />
    <glyph glyph-name="uni04CF" unicode="&#x4cf;" horiz-adv-x="503" 
d="M174 0v1536h158v-1536h-158z" />
    <glyph glyph-name="uni04D0" unicode="&#x4d0;" horiz-adv-x="1357" 
d="M1124 0l-114 274h-664l-115 -274h-168l586 1374h60l585 -1374h-170zM948 418l-270 665l-270 -665h540zM369 1812v52h133v-54q0 -97 46 -150.5t130 -53.5q85 0 131.5 53t46.5 151v54h133v-52q0 -148 -85 -236.5t-226 -88.5q-140 0 -224.5 88.5t-84.5 236.5z" />
    <glyph glyph-name="uni04D1" unicode="&#x4d1;" horiz-adv-x="1081" 
d="M922 614v-614h-148v129q-115 -152 -336 -152q-155 0 -251.5 76.5t-96.5 204.5q0 127 98.5 203t260.5 76h315v86q0 121 -64 186t-178 65q-89 0 -158.5 -39t-132.5 -120l-104 86q66 108 172 163.5t233 55.5q180 0 285 -106t105 -300zM764 383v25h-297q-104 0 -159.5 -36.5
t-55.5 -105.5q0 -73 58.5 -115t148.5 -42q124 0 214.5 80t90.5 194zM219 1497v64h133v-60q0 -100 45.5 -154.5t130.5 -54.5q86 0 132.5 54.5t46.5 154.5v60h133v-64q0 -146 -85.5 -234.5t-226.5 -88.5q-140 0 -224.5 88.5t-84.5 234.5z" />
    <glyph glyph-name="uni04D4" unicode="&#x4d4;" horiz-adv-x="1681" 
d="M1096 143h503v-143h-643l-47 274h-565l-145 -274h-172l704 1352h844v-144h-660l70 -413h426v-144h-401zM772 1108l-352 -690h465z" />
    <glyph glyph-name="uni04D5" unicode="&#x4d5;" horiz-adv-x="1832" 
d="M1714 432h-782q20 -140 120 -224.5t242 -84.5q168 0 301 133l95 -104q-75 -85 -178 -130t-220 -45q-137 0 -252 65t-184 177q-54 -115 -164 -178.5t-250 -63.5q-158 0 -255 79.5t-97 209.5q0 133 98.5 214t260.5 81h315v62q0 121 -64.5 186t-175.5 65q-166 0 -288 -159
l-105 86q66 107 172 163t232 56q122 0 211 -53.5t131 -155.5q68 99 172.5 154t228.5 55q191 0 321 -128.5t130 -324.5q0 -88 -15 -135zM932 561h633q9 142 -77 229t-218 87q-133 0 -226 -87.5t-112 -228.5zM764 381v51h-297q-215 0 -215 -149q0 -80 58 -126t151 -46
q122 0 212.5 79t90.5 191z" />
    <glyph glyph-name="uni04D6" unicode="&#x4d6;" horiz-adv-x="1159" 
d="M186 0v1352h867v-144h-707v-413h541v-144h-541v-508h731v-143h-891zM270 1812v52h133v-54q0 -97 46 -150.5t131 -53.5t131.5 53t46.5 151v54h133v-52q0 -148 -85 -236.5t-226 -88.5q-140 0 -225 89t-85 236z" />
    <glyph glyph-name="uni04D7" unicode="&#x4d7;" horiz-adv-x="1169" 
d="M1055 451h-789q13 -147 115.5 -237.5t251.5 -90.5q170 0 305 135l92 -106q-167 -175 -399 -175q-146 0 -267.5 68.5t-191.5 188.5t-70 264q0 217 148.5 369.5t361.5 152.5q195 0 325 -127t130 -324q0 -57 -12 -118zM272 590h633q-1 131 -85.5 209t-211.5 78
q-125 0 -217.5 -79t-118.5 -208zM274 1497v64h134v-60q0 -100 45.5 -154.5t130.5 -54.5q86 0 132 54.5t46 154.5v60h133v-64q0 -146 -85 -234.5t-226 -88.5q-140 0 -225 88.5t-85 234.5z" />
    <glyph glyph-name="uni04D8" unicode="&#x4d8;" horiz-adv-x="1497" 
d="M1399 680q2 -143 -49.5 -273.5t-141 -225.5t-214.5 -150.5t-263 -53.5q-128 0 -244 44t-202 121.5t-136.5 191t-50.5 244.5q0 52 13 145h1120q-12 222 -150 363t-344 141q-142 0 -261.5 -59.5t-199.5 -168.5l-110 93q98 135 245 208.5t328 73.5q184 3 337.5 -91
t239.5 -254.5t83 -348.5zM1227 580h-969q-4 -135 61.5 -240.5t175 -160t242.5 -54.5q195 0 326 125q134 128 164 330z" />
    <glyph glyph-name="uni04D9" unicode="&#x4d9;" horiz-adv-x="1169" 
d="M1067 500q0 -221 -141 -372t-355 -151q-199 0 -334 127.5t-135 323.5q0 52 13 119h788q-14 149 -109 238t-243 89q-185 0 -320 -135l-92 107q160 174 414 174q147 0 265 -68.5t183.5 -187.5t65.5 -264zM897 408h-631q4 -131 91 -210t218 -79q126 0 212.5 78.5
t109.5 210.5z" />
    <glyph glyph-name="uni04E2" unicode="&#x4e2;" horiz-adv-x="1470" 
d="M1227 1374h57v-1374h-160v1049l-880 -1072h-58v1375h160v-1049zM434 1577v129h604v-129h-604z" />
    <glyph glyph-name="uni04E3" unicode="&#x4e3;" horiz-adv-x="1169" 
d="M940 1020h57v-1020h-157v705l-609 -728h-57v1020h158v-706zM330 1315v127h563v-127h-563z" />
    <glyph glyph-name="uni04E6" unicode="&#x4e6;" horiz-adv-x="1599" 
d="M98 676q-3 142 52.5 272.5t151 224.5t226 148.5t271.5 52.5q140 2 270.5 -53t226 -148.5t152 -224t53.5 -272.5q3 -142 -53.5 -273t-152 -224.5t-226 -148.5t-270.5 -53q-141 -3 -272 52.5t-226 150t-150.5 225t-52.5 271.5zM1335 678q3 150 -68 277.5t-195.5 201
t-270.5 70.5q-150 0 -273.5 -71.5t-193.5 -197.5t-70 -280t70 -281t193.5 -199.5t273.5 -72.5q146 -2 270 71.5t195.5 201.5t68.5 280zM449 1659q0 44 33.5 76t78.5 32q47 0 80 -32t33 -76q0 -45 -33 -77t-80 -32q-45 0 -78.5 32.5t-33.5 76.5zM926 1657q0 44 34 77t78 33
q47 0 80 -32.5t33 -77.5t-33 -77t-80 -32q-45 0 -78.5 32.5t-33.5 76.5z" />
    <glyph glyph-name="uni04E7" unicode="&#x4e7;" horiz-adv-x="1249" 
d="M102 500q-2 105 39.5 202t112.5 167.5t168.5 111.5t202.5 39q140 2 261.5 -68t192.5 -191t68 -261q2 -103 -39.5 -200t-112.5 -168t-169 -112.5t-203 -39.5q-140 -3 -261 68t-191.5 192.5t-68.5 259.5zM985 498q0 161 -103.5 268.5t-256.5 107.5q-154 0 -257.5 -107.5
t-103.5 -268.5q0 -157 103.5 -265t255.5 -108t257 108t105 265zM293 1378q0 44 35 77.5t78 33.5q47 0 80.5 -33t33.5 -78q0 -44 -33.5 -76t-80.5 -32q-43 0 -78 33t-35 75zM727 1378q0 44 35 77.5t80 33.5q47 0 79.5 -33t32.5 -78t-32.5 -76.5t-79.5 -31.5q-45 0 -80 33
t-35 75z" />
    <glyph glyph-name="uni04E8" unicode="&#x4e8;" horiz-adv-x="1599" 
d="M1501 676q3 -142 -53.5 -273t-152 -224.5t-226 -148.5t-270.5 -53q-141 -3 -272 52.5t-226 150t-150.5 225t-52.5 271.5q-3 142 52.5 272.5t151 224.5t226 148.5t271.5 52.5q140 2 270.5 -53t226 -148.5t152 -224t53.5 -272.5zM270 762h1059q-28 201 -176 333t-352 132
q-206 0 -354.5 -131t-176.5 -334zM1333 618h-1067q19 -214 170 -353.5t365 -139.5q212 0 362.5 139.5t169.5 353.5z" />
    <glyph glyph-name="uni04E9" unicode="&#x4e9;" horiz-adv-x="1249" 
d="M1147 500q0 -106 -41.5 -202.5t-112 -166t-167 -110.5t-203.5 -41q-105 -2 -202 39t-167.5 111.5t-111.5 167.5t-40 202q-2 105 39.5 202t112.5 167.5t168.5 111.5t202.5 39q105 2 202.5 -39t168 -111.5t112 -167.5t39.5 -202zM272 582h705q-26 129 -124 210.5t-228 81.5
q-133 0 -230 -81t-123 -211zM981 442h-713q15 -138 115 -227q104 -90 240 -90q135 0 239 90q101 87 119 227z" />
    <glyph glyph-name="uni04EE" unicode="&#x4ee;" horiz-adv-x="1349" 
d="M1126 1352h162l-485 -1035q-87 -185 -168 -260q-83 -77 -217 -77q-58 0 -111 20v139q55 -12 107 -12q70 0 117.5 33t89.5 116l-539 1076h180l447 -891zM408 1577v129h604v-129h-604z" />
    <glyph glyph-name="uni04EF" unicode="&#x4ef;" horiz-adv-x="1103" 
d="M883 997h168l-492 -1136q-57 -130 -139.5 -191t-198.5 -61q-80 0 -153 20v133q85 -10 120 -10q81 0 135 36t91 124l53 119l-414 966h170l330 -794zM272 1315v127h564v-127h-564z" />
    <glyph glyph-name="uni04F2" unicode="&#x4f2;" horiz-adv-x="1349" 
d="M1126 1352h162l-485 -1035q-87 -185 -168 -260q-83 -77 -217 -77q-58 0 -111 20v139q55 -12 107 -12q70 0 117.5 33t89.5 116l-539 1076h180l447 -891zM403 1483l177 381h170v-29l-234 -352h-113zM852 1483l176 381h170v-29l-233 -352h-113z" />
    <glyph glyph-name="uni04F3" unicode="&#x4f3;" horiz-adv-x="1103" 
d="M883 997h168l-492 -1136q-57 -130 -139.5 -191t-198.5 -61q-80 0 -153 20v133q85 -10 120 -10q81 0 135 36t91 124l53 119l-414 966h170l330 -794zM281 1159l176 438h170v-28l-234 -410h-112zM688 1159l176 438h170v-28l-233 -410h-113z" />
    <glyph glyph-name="Wgrave" unicode="&#x1e80;" horiz-adv-x="2183" 
d="M1915 1352h174l-512 -1375h-57l-428 1074l-428 -1074h-58l-514 1375h176l373 -1030l422 1052h57l422 -1050zM1034 1483l-246 352v29h193l174 -381h-121z" />
    <glyph glyph-name="wgrave" unicode="&#x1e81;" horiz-adv-x="1742" 
d="M1520 997h168l-420 -1020h-58l-340 754l-338 -754h-55l-424 1020h168l289 -739l332 762h59l336 -756zM805 1159l-246 410v28h193l174 -438h-121z" />
    <glyph glyph-name="Wacute" unicode="&#x1e82;" horiz-adv-x="2183" 
d="M1915 1352h174l-512 -1375h-57l-428 1074l-428 -1074h-58l-514 1375h176l373 -1030l422 1052h57l422 -1050zM1032 1483l174 381h193v-29l-246 -352h-121z" />
    <glyph glyph-name="wacute" unicode="&#x1e83;" horiz-adv-x="1742" 
d="M1520 997h168l-420 -1020h-58l-340 754l-338 -754h-55l-424 1020h168l289 -739l332 762h59l336 -756zM811 1159l174 438h193v-28l-246 -410h-121z" />
    <glyph glyph-name="Wdieresis" unicode="&#x1e84;" horiz-adv-x="2183" 
d="M1915 1352h174l-512 -1375h-57l-428 1074l-428 -1074h-58l-514 1375h176l373 -1030l422 1052h57l422 -1050zM739 1659q0 44 34 76t79 32q47 0 80 -32t33 -76q0 -45 -33 -77t-80 -32q-45 0 -79 32.5t-34 76.5zM1217 1657q0 44 34 77t78 33q47 0 80 -32.5t33 -77.5t-33 -77
t-80 -32q-45 0 -78.5 32.5t-33.5 76.5z" />
    <glyph glyph-name="wdieresis" unicode="&#x1e85;" horiz-adv-x="1742" 
d="M1520 997h168l-420 -1020h-58l-340 754l-338 -754h-55l-424 1020h168l289 -739l332 762h59l336 -756zM535 1378q0 44 34.5 77.5t77.5 33.5q47 0 81 -33t34 -78q0 -44 -34 -76t-81 -32q-43 0 -77.5 33t-34.5 75zM969 1378q0 44 34.5 77.5t79.5 33.5q47 0 80 -33t33 -78
q0 -44 -33 -76t-80 -32q-44 0 -79 32.5t-35 75.5z" />
    <glyph glyph-name="uni1E9E" unicode="&#x1e9e;" horiz-adv-x="1454" 
d="M1352 410q0 -186 -130 -309.5t-313 -123.5q-108 0 -208.5 46.5t-172.5 128.5l97 114q123 -141 278 -141q123 0 203 81t80 206q0 134 -94.5 214.5t-249.5 80.5h-109v45l281 456h-668v-1208h-160v1352h1061v-47l-284 -463q166 -22 277.5 -141t111.5 -291z" />
    <glyph glyph-name="Ygrave" unicode="&#x1ef2;" horiz-adv-x="1261" 
d="M1180 1352l-469 -793v-559h-160v559l-469 793h180l369 -635l370 635h179zM565 1483l-246 352v29h193l174 -381h-121z" />
    <glyph glyph-name="ygrave" unicode="&#x1ef3;" horiz-adv-x="1103" 
d="M883 997h168l-492 -1136q-57 -130 -139.5 -191t-198.5 -61q-80 0 -153 20v133q85 -10 120 -10q81 0 135 36t91 124l53 119l-414 966h170l330 -794zM485 1159l-245 410v28h192l174 -438h-121z" />
    <glyph glyph-name="uni2009" unicode="&#x2009;" horiz-adv-x="286" 
 />
    <glyph glyph-name="endash" unicode="&#x2013;" horiz-adv-x="1036" 
d="M88 578v133h858v-133h-858z" />
    <glyph glyph-name="emdash" unicode="&#x2014;" horiz-adv-x="2048" 
d="M102 578v133h1844v-133h-1844z" />
    <glyph glyph-name="uni2015" unicode="&#x2015;" horiz-adv-x="2048" 
d="M102 578v133h1844v-133h-1844z" />
    <glyph glyph-name="quoteleft" unicode="&#x2018;" horiz-adv-x="573" 
d="M170 825l86 527h125l-27 -527h-184z" />
    <glyph glyph-name="quoteright" unicode="&#x2019;" horiz-adv-x="573" 
d="M193 825l28 527h185l-89 -527h-124z" />
    <glyph glyph-name="quotesinglbase" unicode="&#x201a;" horiz-adv-x="573" 
d="M193 -342l28 526h185l-89 -526h-124z" />
    <glyph glyph-name="quotedblleft" unicode="&#x201c;" horiz-adv-x="948" 
d="M170 825l86 527h125l-27 -527h-184zM545 825l86 527h125l-27 -527h-184z" />
    <glyph glyph-name="quotedblright" unicode="&#x201d;" horiz-adv-x="948" 
d="M193 825l28 527h185l-89 -527h-124zM567 825l29 527h184l-88 -527h-125z" />
    <glyph glyph-name="quotedblbase" unicode="&#x201e;" horiz-adv-x="948" 
d="M193 -342l28 526h185l-89 -526h-124zM567 -342l29 526h184l-88 -526h-125z" />
    <glyph glyph-name="dagger" unicode="&#x2020;" horiz-adv-x="923" 
d="M383 666v458h-254v140h254v272h156v-272h256v-140h-256v-458h-156z" />
    <glyph glyph-name="daggerdbl" unicode="&#x2021;" horiz-adv-x="923" 
d="M383 555v213h-254v141h254v277h-254v139h254v211h156v-211h256v-139h-256v-277h256v-141h-256v-213h-156z" />
    <glyph glyph-name="bullet" unicode="&#x2022;" horiz-adv-x="772" 
d="M117 547q0 113 80 189.5t190 76.5q109 0 188.5 -76.5t79.5 -189.5t-79 -188.5t-189 -75.5t-190 75.5t-80 188.5z" />
    <glyph glyph-name="ellipsis" unicode="&#x2026;" horiz-adv-x="1595" 
d="M670 106q0 55 37.5 92.5t91.5 37.5t91.5 -37.5t37.5 -92.5t-37.5 -92t-91.5 -37t-91.5 37t-37.5 92zM158 106q0 55 37.5 92.5t91.5 37.5t91.5 -37.5t37.5 -92.5t-37.5 -92t-91.5 -37t-91.5 37t-37.5 92zM1180 106q0 55 37.5 92.5t91.5 37.5t91.5 -37.5t37.5 -92.5
t-37.5 -92t-91.5 -37t-91.5 37t-37.5 92z" />
    <glyph glyph-name="perthousand" unicode="&#x2030;" horiz-adv-x="2476" 
d="M135 1044q0 137 98.5 233.5t237.5 96.5q137 0 235.5 -96.5t98.5 -233.5t-98.5 -233t-235.5 -96q-139 0 -237.5 96t-98.5 233zM406 0l774 1352h141l-774 -1352h-141zM674 1044q0 91 -58 152t-145 61q-88 0 -145.5 -60.5t-57.5 -152.5t57.5 -152.5t145.5 -60.5q87 0 145 61
t58 152zM1673 311q0 138 97 234t235 96q139 0 237.5 -96.5t98.5 -233.5t-98.5 -233t-237.5 -96q-138 0 -235 95.5t-97 233.5zM922 309q0 138 96.5 234t234.5 96q139 0 237.5 -96.5t98.5 -233.5t-98.5 -233t-237.5 -96q-138 0 -234.5 95.5t-96.5 233.5zM2210 311
q0 92 -57.5 152.5t-145.5 60.5t-145.5 -60.5t-57.5 -152.5q0 -91 57.5 -151t145.5 -60t145.5 60t57.5 151zM1456 309q0 92 -57.5 152.5t-143.5 60.5q-88 0 -145 -60.5t-57 -152.5q0 -91 57 -151t145 -60q86 0 143.5 60t57.5 151z" />
    <glyph glyph-name="minute" unicode="&#x2032;" horiz-adv-x="507" 
d="M139 795l84 557h189l-146 -557h-127z" />
    <glyph glyph-name="second" unicode="&#x2033;" horiz-adv-x="882" 
d="M139 795l84 557h189l-146 -557h-127zM514 795l84 557h188l-145 -557h-127z" />
    <glyph glyph-name="guilsinglleft" unicode="&#x2039;" horiz-adv-x="626" 
d="M442 145l-364 385v48l364 387l103 -93l-289 -317l289 -322z" />
    <glyph glyph-name="guilsinglright" unicode="&#x203a;" horiz-adv-x="626" 
d="M184 145l-104 88l291 322l-291 317l104 93l363 -387v-48z" />
    <glyph glyph-name="fraction" unicode="&#x2044;" horiz-adv-x="487" 
d="M-215 0l774 1352h141l-774 -1352h-141z" />
    <glyph glyph-name="uni2070" unicode="&#x2070;" horiz-adv-x="839" 
d="M100 1180q0 200 82.5 316t237.5 116q156 0 236.5 -115.5t80.5 -316.5q0 -205 -81 -327t-236 -122q-154 0 -237 123t-83 326zM602 1178q0 309 -182 309q-180 0 -180 -309q0 -154 45 -239t135 -85q91 0 136.5 85t45.5 239z" />
    <glyph glyph-name="uni2074" unicode="&#x2074;" horiz-adv-x="729" 
d="M696 1008v-113h-114v-150h-125v150h-424v37l266 665h137l-237 -589h258v266h125v-266h114z" />
    <glyph glyph-name="uni2075" unicode="&#x2075;" horiz-adv-x="751" 
d="M670 1024q0 -130 -91 -211.5t-223 -81.5q-100 0 -177 50t-120 134l95 68q74 -127 200 -127q78 0 127 44.5t49 117.5q0 74 -50 112.5t-146 38.5h-193v428h486v-122h-355v-199q65 10 101 10q131 0 214 -70t83 -192z" />
    <glyph glyph-name="uni2076" unicode="&#x2076;" horiz-adv-x="753" 
d="M676 1024q0 -123 -88.5 -208t-212.5 -85q-123 0 -210 85t-87 212q0 68 24.5 121.5t90.5 146.5l210 301h160l-203 -292q32 4 39 4q109 0 193 -83t84 -202zM539 1024q0 72 -47.5 122t-116.5 50t-115.5 -50t-46.5 -122q0 -73 46.5 -120.5t115.5 -47.5q72 0 118 47t46 121z
" />
    <glyph glyph-name="uni2077" unicode="&#x2077;" horiz-adv-x="667" 
d="M53 1597h576v-38l-406 -814h-147l370 730h-393v122z" />
    <glyph glyph-name="uni2078" unicode="&#x2078;" horiz-adv-x="782" 
d="M696 967q0 -106 -85 -171t-222 -65q-136 0 -219.5 65t-83.5 173q0 148 182 219q-143 73 -143 207q0 99 73.5 158t190.5 59q119 0 193.5 -59t74.5 -160q0 -132 -143 -205q182 -71 182 -221zM250 1386q0 -47 32.5 -78t108.5 -63q75 32 108 63.5t33 77.5q0 53 -39.5 85
t-103.5 32q-61 0 -100 -32t-39 -85zM563 973q0 57 -41 92t-133 68q-90 -33 -130 -68t-40 -92q0 -60 45.5 -95.5t124.5 -35.5q81 0 127.5 35.5t46.5 95.5z" />
    <glyph glyph-name="uni2079" unicode="&#x2079;" horiz-adv-x="753" 
d="M676 1315q0 -68 -24.5 -120.5t-92.5 -147.5l-211 -302h-158l205 293q-36 -4 -41 -4q-109 0 -192.5 83t-83.5 202q0 123 88.5 208t212.5 85q123 0 210 -85t87 -212zM541 1319q0 73 -46.5 120.5t-115.5 47.5q-72 0 -118 -47t-46 -121q0 -72 47.5 -122t116.5 -50t115.5 50
t46.5 122z" />
    <glyph glyph-name="uni207A" unicode="&#x207a;" horiz-adv-x="874" 
d="M373 819v295h-287v117h287v295h129v-295h286v-117h-286v-295h-129z" />
    <glyph glyph-name="uni207B" unicode="&#x207b;" horiz-adv-x="874" 
d="M86 1120v107h702v-107h-702z" />
    <glyph glyph-name="uni207C" unicode="&#x207c;" horiz-adv-x="874" 
d="M100 1276v117h674v-117h-674zM100 952v117h674v-117h-674z" />
    <glyph glyph-name="uni207D" unicode="&#x207d;" horiz-adv-x="522" 
d="M119 1171q0 272 82.5 439.5t224.5 234.5l51 -82q-239 -152 -239 -592t239 -589l-51 -84q-141 94 -223 245q-84 159 -84 428z" />
    <glyph glyph-name="uni207E" unicode="&#x207e;" horiz-adv-x="522" 
d="M94 498l-51 84q240 150 240 589t-240 592l51 82q142 -67 224.5 -234.5t82.5 -439.5q0 -270 -83 -438t-224 -235z" />
    <glyph glyph-name="uni2080" unicode="&#x2080;" horiz-adv-x="839" 
d="M100 188q0 200 82.5 316.5t237.5 116.5q156 0 236.5 -116t80.5 -317q0 -205 -81 -326.5t-236 -121.5q-154 0 -237 122.5t-83 325.5zM602 186q0 310 -182 310q-180 0 -180 -310q0 -153 45 -238t135 -85q91 0 136.5 84.5t45.5 238.5z" />
    <glyph glyph-name="uni2081" unicode="&#x2081;" horiz-adv-x="722" 
d="M96 -246v123h215v606h-205v123h343v-729h184v-123h-537z" />
    <glyph glyph-name="uni2082" unicode="&#x2082;" horiz-adv-x="755" 
d="M315 -123h359v-123h-602v31l303 326q71 74 101 125.5t30 109.5q0 64 -39.5 107t-101.5 43q-66 0 -106 -43.5t-40 -112.5l4 -66h-133q-8 31 -8 74q0 109 80 191t203 82q121 0 199.5 -74.5t78.5 -190.5q0 -82 -41.5 -151.5t-140.5 -173.5z" />
    <glyph glyph-name="uni2083" unicode="&#x2083;" horiz-adv-x="724" 
d="M643 29q0 -128 -89 -208.5t-218 -80.5q-100 0 -176.5 49.5t-120.5 134.5l94 68q77 -127 199 -127q75 0 123.5 45.5t48.5 118.5q0 72 -50.5 110.5t-144.5 38.5h-84v37l199 268h-326v123h527v-39l-205 -276q97 -20 160 -88.5t63 -173.5z" />
    <glyph glyph-name="uni2084" unicode="&#x2084;" horiz-adv-x="729" 
d="M696 16v-112h-114v-150h-125v150h-424v37l266 665h137l-237 -590h258v267h125v-267h114z" />
    <glyph glyph-name="uni2085" unicode="&#x2085;" horiz-adv-x="751" 
d="M670 33q0 -130 -91 -211.5t-223 -81.5q-100 0 -177 50t-120 134l95 68q74 -127 200 -127q78 0 127 44.5t49 117.5q0 74 -50 112.5t-146 38.5h-193v428h486v-123h-355v-198q65 10 101 10q131 0 214 -70t83 -192z" />
    <glyph glyph-name="uni2086" unicode="&#x2086;" horiz-adv-x="753" 
d="M676 33q0 -123 -88.5 -208t-212.5 -85q-123 0 -210 85t-87 212q0 68 24.5 121.5t90.5 146.5l210 301h160l-203 -293q32 4 39 4q109 0 193 -82.5t84 -201.5zM539 33q0 72 -47.5 122t-116.5 50t-115.5 -50t-46.5 -122q0 -73 46.5 -120.5t115.5 -47.5q72 0 118 47t46 121z
" />
    <glyph glyph-name="uni2087" unicode="&#x2087;" horiz-adv-x="667" 
d="M53 606h576v-39l-406 -813h-147l370 729h-393v123z" />
    <glyph glyph-name="uni2088" unicode="&#x2088;" horiz-adv-x="782" 
d="M696 -25q0 -105 -85 -170t-222 -65q-136 0 -219.5 64.5t-83.5 172.5q0 149 182 220q-143 73 -143 206q0 99 73.5 158.5t190.5 59.5q119 0 193.5 -59.5t74.5 -160.5q0 -131 -143 -204q182 -71 182 -222zM250 395q0 -47 32.5 -78t108.5 -63q75 32 108 63.5t33 77.5
q0 53 -39.5 85t-103.5 32q-61 0 -100 -32t-39 -85zM563 -18q0 57 -41 91.5t-133 67.5q-90 -33 -130 -67.5t-40 -91.5q0 -60 45.5 -96t124.5 -36q81 0 127.5 36t46.5 96z" />
    <glyph glyph-name="uni2089" unicode="&#x2089;" horiz-adv-x="753" 
d="M676 324q0 -68 -25 -121.5t-92 -147.5l-211 -301h-158l205 293q-36 -4 -41 -4q-109 0 -192.5 83t-83.5 202q0 123 88.5 208t212.5 85q123 0 210 -85t87 -212zM541 328q0 73 -46.5 120.5t-115.5 47.5q-72 0 -118 -47t-46 -121q0 -72 47.5 -122t116.5 -50t115.5 50
t46.5 122z" />
    <glyph glyph-name="uni208A" unicode="&#x208a;" horiz-adv-x="874" 
d="M373 -174v295h-287v117h287v294h129v-294h286v-117h-286v-295h-129z" />
    <glyph glyph-name="uni208B" unicode="&#x208b;" horiz-adv-x="874" 
d="M86 127v106h702v-106h-702z" />
    <glyph glyph-name="uni208C" unicode="&#x208c;" horiz-adv-x="874" 
d="M100 283v116h674v-116h-674zM100 -41v117h674v-117h-674z" />
    <glyph glyph-name="uni208D" unicode="&#x208d;" horiz-adv-x="522" 
d="M119 178q0 272 82.5 439.5t224.5 234.5l51 -82q-239 -152 -239 -592q0 -441 239 -590l-51 -84q-141 94 -223 248q-84 156 -84 426z" />
    <glyph glyph-name="uni208E" unicode="&#x208e;" horiz-adv-x="522" 
d="M94 -496l-51 84q240 150 240 590q0 439 -240 592l51 82q142 -67 224.5 -234.5t82.5 -439.5q0 -270 -83 -438.5t-224 -235.5z" />
    <glyph glyph-name="lira" unicode="&#x20a4;" horiz-adv-x="1083" 
d="M426 139h565v-139h-874v41q223 140 264 313h-244v140h246q-15 82 -61 170h-185v139h113q-51 111 -51 213q0 159 110 258.5t281 99.5q155 0 264.5 -87t153.5 -247l-142 -53q-76 240 -268 240q-108 0 -172 -67t-64 -169q0 -83 54 -188h393v-139h-320q47 -96 56 -170h264
v-140h-268q-21 -127 -115 -215z" />
    <glyph glyph-name="peseta" unicode="&#x20a7;" horiz-adv-x="1208" 
d="M1210 1001v-139h-170q-21 -155 -145 -250q-122 -94 -309 -94h-209v-518h-160v862h-168v139h168v351h369q187 0 310 -95.5t146 -255.5h168zM584 1208h-207v-209h497q-19 100 -93.5 154.5t-196.5 54.5zM874 864h-497v-202h207q121 0 195.5 52.5t94.5 149.5z" />
    <glyph glyph-name="Euro" unicode="&#x20ac;" horiz-adv-x="1394" 
d="M1180 291l114 -92q-73 -105 -192.5 -163.5t-267.5 -58.5q-223 0 -383 127q-158 128 -220 340h-221v140h195q-4 82 -4 92q0 14 4 84h-191v139h215q59 216 217 344q162 131 388 131q148 0 267.5 -58t192.5 -163l-114 -92q-121 166 -340 166q-159 0 -274 -87t-167 -241h598
l-32 -139h-594q-4 -70 -4 -84q0 -46 6 -92h538l-34 -140h-474q52 -150 165.5 -234.5t271.5 -84.5q219 0 340 166z" />
    <glyph glyph-name="uni20AE" unicode="&#x20ae;" horiz-adv-x="1189" 
d="M1151 1208h-477v-377l375 142v-150l-375 -141v-180l375 139v-149l-375 -142v-350h-160v301l-371 -141v151l371 140v182l-371 -139v149l371 139v426h-475v144h1112v-144z" />
    <glyph glyph-name="uni20B4" unicode="&#x20b4;" horiz-adv-x="1110" 
d="M907 887h160v-131h-1018v131h678q57 57 57 139q0 91 -64.5 146t-170.5 55q-174 0 -293 -166l-113 84q62 109 169.5 169t240.5 60q173 0 284 -96.5t111 -247.5q0 -81 -41 -143zM45 455v131h1022v-131h-731q-29 -47 -29 -107q0 -100 70 -161.5t186 -61.5q111 0 208.5 58.5
t166.5 166.5l117 -82q-73 -135 -206 -213t-288 -78q-184 0 -302 104.5t-118 266.5q0 48 17 107h-113z" />
    <glyph glyph-name="uni20B8" unicode="&#x20b8;" horiz-adv-x="1189" 
d="M39 1208v144h1112v-144h-1112zM514 0v889h-475v143h1112v-143h-477v-889h-160z" />
    <glyph glyph-name="uni20B9" unicode="&#x20b9;" horiz-adv-x="1050" 
d="M899 1352v-140h-244q67 -67 84 -165h160v-140h-156q-17 -156 -131 -247.5t-297 -92.5l584 -567h-201l-585 567v140h186q243 0 279 200h-469v140h460q-23 80 -92 122.5t-178 42.5h-186v140h786z" />
    <glyph glyph-name="uni20BA" unicode="&#x20ba;" horiz-adv-x="1060" 
d="M989 461q0 -223 -177.5 -353.5t-483.5 -130.5h-78v512l-199 -92v150l199 92v180l-199 -90v152l199 90v381h160v-322l385 176v-149l-385 -176v-181l385 177v-150l-385 -176v-424q196 15 315 109q121 95 121 237q0 46 -10 121h135q18 -64 18 -133z" />
    <glyph glyph-name="uni20BD" unicode="&#x20bd;" horiz-adv-x="1179" 
d="M217 0v274h-168v140h168v190h-168v139h168v609h455q188 0 299 -105q112 -100 112 -270q0 -167 -112 -270q-115 -103 -299 -103h-295v-190h543v-140h-543v-274h-160zM377 743h291q122 0 191 63t69 169q0 107 -69.5 172t-190.5 65h-291v-469z" />
    <glyph glyph-name="uni20BF" unicode="&#x20bf;" horiz-adv-x="1189" 
d="M805 76v-269h-148v256h-172v-256h-145v256h-154v1227h154v246h145v-246h162h10v246h148v-272q91 -35 141.5 -111t50.5 -176q0 -162 -131 -248q103 -38 159 -119.5t56 -193.5q0 -129 -74 -220t-202 -120zM633 1153h-297v-373h297q100 0 155.5 49.5t55.5 141.5
q0 88 -54 135t-157 47zM924 420q0 108 -64.5 166.5t-183.5 58.5h-340v-446h340q119 0 183.5 57.5t64.5 163.5z" />
    <glyph glyph-name="uni2113" unicode="&#x2113;" horiz-adv-x="864" 
d="M584 121q60 0 180 20v-133q-105 -31 -205 -31q-167 0 -256.5 93.5t-89.5 271.5v31q-25 -18 -111 -90l-84 118q127 103 195 164v602q0 197 81 294.5t226 97.5q132 0 204.5 -76.5t72.5 -227.5q0 -364 -428 -763v-138q0 -233 215 -233zM369 1176v-484q145 151 215.5 283.5
t70.5 269.5q0 178 -129 178q-157 0 -157 -247z" />
    <glyph glyph-name="uni2116" unicode="&#x2116;" horiz-adv-x="2306" 
d="M1104 336v1016h160v-1375h-58l-860 1037v-1014h-160v1374h58zM1534 815q0 138 97 234t237 96q139 0 237.5 -96.5t98.5 -233.5t-98.5 -233.5t-237.5 -96.5q-140 0 -237 96t-97 234zM1665 815q0 -91 57.5 -151t145.5 -60t146.5 60t58.5 151q0 92 -58.5 152.5t-146.5 60.5
t-145.5 -60.5t-57.5 -152.5zM1542 215v115h651v-115h-651z" />
    <glyph glyph-name="uni2117" unicode="&#x2117;" horiz-adv-x="1599" 
d="M98 676q-4 189 93.5 352t260.5 256t347 90q138 2 268.5 -53t226.5 -148.5t153 -224t54 -272.5q3 -142 -54 -273t-153 -224.5t-226.5 -148.5t-268.5 -53q-138 -2 -268.5 53t-226.5 148.5t-153 224.5t-53 273zM1378 676q3 163 -76.5 299.5t-213.5 212.5t-289 74
q-116 1 -223 -43.5t-186 -122t-125 -188t-44 -232.5q-2 -122 44 -232.5t125 -188t186 -122t223 -43.5q154 -2 287.5 74t213.5 212.5t78 299.5zM553 307v723h313q121 0 195 -66.5t74 -172.5t-75 -172t-194 -66h-178v-246h-135zM690 668h176q62 0 97.5 34t35.5 89
q0 56 -35.5 89t-97.5 33h-176v-245z" />
    <glyph glyph-name="trademark" unicode="&#x2122;" horiz-adv-x="1945" 
d="M948 432v934h49l385 -520l387 520h46v-934h-138v602l-272 -366h-47l-271 366v-602h-139zM342 432v795h-315v125h766v-125h-316v-795h-135z" />
    <glyph glyph-name="uni2126" unicode="&#x2126;" horiz-adv-x="1619" 
d="M1180 143h311v-143h-551v143q406 189 406 553q0 228 -153 379.5t-384 151.5q-232 0 -383.5 -150t-151.5 -379q0 -360 406 -555v-143h-551v143h307q-327 217 -327 559q-3 184 90 340t255.5 245.5t354.5 86.5q190 3 353 -87t257.5 -246.5t91.5 -338.5q0 -169 -81.5 -305
t-249.5 -254z" />
    <glyph glyph-name="estimated" unicode="&#x212e;" horiz-adv-x="1628" 
d="M1497 670h-1114v-414q75 -102 190 -157.5t261 -55.5q156 0 293.5 65.5t230.5 178.5l49 -43q-101 -124 -251 -194t-322 -70q-147 -2 -280 52.5t-228.5 147.5t-150.5 221t-52 267q-3 142 55 274t154.5 226.5t226.5 150.5t266 53q122 2 245 -42.5t221 -121.5t158 -190.5
t56 -237.5q0 -66 -8 -110zM383 1094v-361h862v391q-74 88 -179 135.5t-232 47.5q-141 0 -258 -56t-193 -157z" />
    <glyph glyph-name="uni2150" unicode="&#x2150;" horiz-adv-x="1875" 
d="M96 500v123h215v606h-205v123h343v-729h184v-123h-537zM508 0l774 1352h141l-774 -1352h-141zM1262 852h575v-39l-405 -813h-148l371 729h-393v123z" />
    <glyph glyph-name="uni2151" unicode="&#x2151;" horiz-adv-x="1900" 
d="M96 500v123h215v606h-205v123h343v-729h184v-123h-537zM508 0l774 1352h141l-774 -1352h-141zM1823 569q0 -68 -24.5 -120.5t-92.5 -147.5l-211 -301h-158l205 293q-36 -4 -41 -4q-109 0 -192.5 82.5t-83.5 201.5q0 123 88.5 208t212.5 85q123 0 210 -85t87 -212z
M1688 573q0 73 -46.5 120.5t-115.5 47.5q-72 0 -118 -47t-46 -121q0 -72 47.5 -122t116.5 -50t115.5 50t46.5 122z" />
    <glyph glyph-name="uni2152" unicode="&#x2152;" horiz-adv-x="2768" 
d="M96 500v123h215v606h-205v123h343v-729h184v-123h-537zM508 0l774 1352h141l-774 -1352h-141zM1305 0v123h215v606h-205v123h342v-729h184v-123h-536zM2032 434q0 200 82 316t237 116q156 0 237 -115.5t81 -316.5q0 -205 -81.5 -326.5t-236.5 -121.5q-154 0 -236.5 122.5
t-82.5 325.5zM2533 432q0 309 -182 309q-180 0 -180 -309q0 -153 45 -238t135 -85q91 0 136.5 84.5t45.5 238.5z" />
    <glyph glyph-name="uni2153" unicode="&#x2153;" horiz-adv-x="1933" 
d="M96 500v123h215v606h-205v123h343v-729h184v-123h-537zM508 0l774 1352h141l-774 -1352h-141zM1851 274q0 -128 -89 -208t-218 -80q-100 0 -176.5 49.5t-120.5 134.5l94 68q77 -127 199 -127q76 0 124 45t48 118q0 72 -50 111t-144 39h-84v37l198 268h-325v123h526v-39
l-205 -276q96 -20 159.5 -89t63.5 -174z" />
    <glyph glyph-name="uni2154" unicode="&#x2154;" horiz-adv-x="1966" 
d="M315 623h359v-123h-602v30l303 326q70 74 100.5 125.5t30.5 110.5q0 64 -39.5 106.5t-101.5 42.5q-66 0 -106 -43.5t-40 -112.5q0 -4 0.5 -12.5t1.5 -24t2 -28.5h-133q-8 31 -8 74q0 109 80 190.5t203 81.5q122 0 200 -74.5t78 -189.5q0 -82 -41.5 -152t-140.5 -174z
M541 0l774 1352h141l-774 -1352h-141zM1884 274q0 -128 -89 -208t-218 -80q-100 0 -176.5 49.5t-120.5 134.5l94 68q77 -127 199 -127q76 0 124 45t48 118q0 72 -50.5 111t-144.5 39h-84v37l199 268h-326v123h527v-39l-205 -276q96 -20 159.5 -89t63.5 -174z" />
    <glyph glyph-name="uni2155" unicode="&#x2155;" horiz-adv-x="1943" 
d="M96 500v123h215v606h-205v123h343v-729h184v-123h-537zM508 0l774 1352h141l-774 -1352h-141zM1862 279q0 -130 -91 -211.5t-223 -81.5q-100 0 -177 50t-120 134l95 68q74 -127 200 -127q79 0 127.5 44t48.5 117q0 74 -50 113t-146 39h-193v428h486v-123h-355v-199
q72 11 101 11q131 0 214 -70t83 -192z" />
    <glyph glyph-name="uni2156" unicode="&#x2156;" horiz-adv-x="1976" 
d="M315 623h359v-123h-602v30l303 326q70 74 100.5 125.5t30.5 110.5q0 64 -39.5 106.5t-101.5 42.5q-66 0 -106 -43.5t-40 -112.5q0 -4 0.5 -12.5t1.5 -24t2 -28.5h-133q-8 31 -8 74q0 109 80 190.5t203 81.5q122 0 200 -74.5t78 -189.5q0 -82 -41.5 -152t-140.5 -174z
M541 0l774 1352h141l-774 -1352h-141zM1894 279q0 -131 -90.5 -212t-222.5 -81q-100 0 -177 50t-120 134l94 68q74 -127 201 -127q79 0 127.5 44t48.5 117q0 74 -50 113t-146 39h-193v428h485v-123h-354v-199q71 11 100 11q131 0 214 -70t83 -192z" />
    <glyph glyph-name="uni2157" unicode="&#x2157;" horiz-adv-x="1873" 
d="M643 774q0 -128 -89 -208.5t-218 -80.5q-99 0 -176 50t-121 135l94 67q77 -127 199 -127q75 0 123.5 45.5t48.5 118.5q0 72 -50.5 111t-144.5 39h-84v37l199 268h-326v123h527v-39l-205 -277q97 -20 160 -88.5t63 -173.5zM438 0l774 1352h142l-774 -1352h-142zM1792 279
q0 -131 -90.5 -212t-222.5 -81q-100 0 -177 50t-120 134l94 68q74 -127 201 -127q79 0 127.5 44t48.5 117q0 74 -50.5 113t-146.5 39h-192v428h485v-123h-354v-199q71 11 100 11q131 0 214 -70t83 -192z" />
    <glyph glyph-name="uni2158" unicode="&#x2158;" horiz-adv-x="1972" 
d="M696 762v-113h-114v-149h-125v149h-424v37l266 666h137l-237 -590h258v266h125v-266h114zM535 0l774 1352h141l-774 -1352h-141zM1890 279q0 -131 -90.5 -212t-222.5 -81q-100 0 -177 50t-120 134l94 68q74 -127 201 -127q79 0 127.5 44t48.5 117q0 74 -50.5 113
t-146.5 39h-192v428h485v-123h-354v-199q72 11 100 11q131 0 214 -70t83 -192z" />
    <glyph glyph-name="uni2159" unicode="&#x2159;" horiz-adv-x="1798" 
d="M96 500v123h215v606h-205v123h343v-729h184v-123h-537zM508 0l774 1352h141l-774 -1352h-141zM1720 279q0 -123 -88.5 -208t-212.5 -85q-123 0 -210 85t-87 212q0 68 24.5 121.5t90.5 146.5l211 301h160l-203 -293q32 4 39 4q109 0 192.5 -82.5t83.5 -201.5zM1583 279
q0 72 -47.5 122t-116.5 50t-115.5 -50t-46.5 -122q0 -73 46.5 -120.5t115.5 -47.5q72 0 118 47t46 121z" />
    <glyph glyph-name="uni215A" unicode="&#x215a;" horiz-adv-x="1755" 
d="M670 778q0 -130 -91 -211.5t-223 -81.5q-100 0 -177 50t-120 135l95 67q74 -127 200 -127q78 0 127 44.5t49 117.5q0 74 -50 113t-146 39h-193v428h486v-123h-355v-199q65 10 101 10q131 0 214 -70t83 -192zM465 0l774 1352h141l-774 -1352h-141zM1677 279
q0 -123 -88.5 -208t-212.5 -85q-123 0 -210 85t-87 212q0 68 24.5 121.5t90.5 146.5l211 301h160l-203 -293q32 4 39 4q109 0 192.5 -82.5t83.5 -201.5zM1540 279q0 72 -47.5 122t-116.5 50t-115.5 -50t-46.5 -122q0 -73 46.5 -120.5t115.5 -47.5q72 0 118 47t46 121z" />
    <glyph glyph-name="oneeighth" unicode="&#x215b;" horiz-adv-x="1898" 
d="M96 500v123h215v606h-205v123h343v-729h184v-123h-537zM508 0l774 1352h141l-774 -1352h-141zM1812 221q0 -105 -85 -170t-222 -65q-136 0 -219.5 64.5t-83.5 172.5q0 148 182 219q-143 73 -143 207q0 99 73.5 158t190.5 59q119 0 194 -59t75 -160q0 -131 -144 -205
q182 -71 182 -221zM1366 641q0 -47 32.5 -78t108.5 -63q75 32 108.5 63.5t33.5 77.5q0 53 -40 85t-104 32q-61 0 -100 -32t-39 -85zM1679 227q0 57 -41 92t-133 68q-90 -33 -130 -68t-40 -92q0 -60 45.5 -95.5t124.5 -35.5q81 0 127.5 35.5t46.5 95.5z" />
    <glyph glyph-name="threeeighths" unicode="&#x215c;" horiz-adv-x="1828" 
d="M643 774q0 -128 -89 -208.5t-218 -80.5q-99 0 -176 50t-121 135l94 67q77 -127 199 -127q75 0 123.5 45.5t48.5 118.5q0 72 -50.5 111t-144.5 39h-84v37l199 268h-326v123h527v-39l-205 -277q97 -20 160 -88.5t63 -173.5zM438 0l774 1352h142l-774 -1352h-142zM1743 221
q0 -105 -85 -170t-222 -65q-136 0 -219.5 64.5t-83.5 172.5q0 148 182 219q-144 74 -144 207q0 99 74 158t191 59q119 0 193.5 -59t74.5 -160q0 -132 -143 -205q182 -71 182 -221zM1296 641q0 -47 33 -77.5t109 -63.5q75 32 108 63.5t33 77.5q0 53 -39.5 85t-103.5 32
q-61 0 -100.5 -32t-39.5 -85zM1610 227q0 57 -41 92t-133 68q-90 -33 -130 -68t-40 -92q0 -60 45.5 -95.5t124.5 -35.5q81 0 127.5 35.5t46.5 95.5z" />
    <glyph glyph-name="fiveeighths" unicode="&#x215d;" horiz-adv-x="1855" 
d="M670 778q0 -130 -91 -211.5t-223 -81.5q-100 0 -177 50t-120 135l95 67q74 -127 200 -127q78 0 127 44.5t49 117.5q0 74 -50 113t-146 39h-193v428h486v-123h-355v-199q65 10 101 10q131 0 214 -70t83 -192zM465 0l774 1352h141l-774 -1352h-141zM1769 221
q0 -105 -85 -170t-222 -65q-136 0 -219.5 64.5t-83.5 172.5q0 148 182 219q-143 73 -143 207q0 99 73.5 158t190.5 59q119 0 194 -59t75 -160q0 -131 -144 -205q182 -71 182 -221zM1323 641q0 -47 32.5 -78t108.5 -63q75 32 108.5 63.5t33.5 77.5q0 53 -40 85t-104 32
q-61 0 -100 -32t-39 -85zM1636 227q0 57 -41 92t-133 68q-90 -33 -130 -68t-40 -92q0 -60 45.5 -95.5t124.5 -35.5q81 0 127.5 35.5t46.5 95.5z" />
    <glyph glyph-name="seveneighths" unicode="&#x215e;" horiz-adv-x="1642" 
d="M53 1352h576v-39l-406 -813h-147l370 729h-393v123zM252 0l774 1352h141l-774 -1352h-141zM1556 221q0 -105 -85 -170t-222 -65q-136 0 -219.5 64.5t-83.5 172.5q0 148 182 219q-143 73 -143 207q0 99 73.5 158t190.5 59q119 0 194 -59t75 -160q0 -131 -144 -205
q182 -71 182 -221zM1110 641q0 -47 32.5 -78t108.5 -63q75 32 108.5 63.5t33.5 77.5q0 53 -40 85t-104 32q-61 0 -100 -32t-39 -85zM1423 227q0 57 -41 92t-133 68q-90 -33 -130 -68t-40 -92q0 -60 45.5 -95.5t124.5 -35.5q81 0 127.5 35.5t46.5 95.5z" />
    <glyph glyph-name="arrowleft" unicode="&#x2190;" horiz-adv-x="1331" 
d="M1223 575h-848l397 -397l-94 -94l-543 543v37l543 540l94 -92l-397 -397h848v-140z" />
    <glyph glyph-name="arrowup" unicode="&#x2191;" horiz-adv-x="1331" 
d="M1225 649l-95 -94l-391 387v-850h-145v852l-393 -389l-95 94l541 539h37z" />
    <glyph glyph-name="arrowright" unicode="&#x2192;" horiz-adv-x="1331" 
d="M653 1204l543 -540v-37l-543 -543l-92 94l397 400l-849 -3v140h847l-395 397z" />
    <glyph glyph-name="arrowdown" unicode="&#x2193;" horiz-adv-x="1331" 
d="M1130 735l95 -94l-541 -541h-37l-541 541l95 94l393 -391v854h145v-852z" />
    <glyph glyph-name="arrowboth" unicode="&#x2194;" horiz-adv-x="1978" 
d="M1300 1204l543 -540v-37l-543 -543l-94 94l398 397h-1229l397 -397l-94 -94l-543 543v37l543 540l94 -92l-397 -397h1229l-398 397z" />
    <glyph glyph-name="arrowupdn" unicode="&#x2195;" horiz-adv-x="1331" 
d="M739 115l371 370l94 -94l-520 -520h-37l-520 520l94 94l373 -372v1126l-373 -373l-94 95l520 520h37l520 -520l-94 -95l-371 371v-1122z" />
    <glyph glyph-name="uni2196" unicode="&#x2196;" horiz-adv-x="1331" 
d="M573 813l568 -567l-101 -99l-657 658v-574h-143v791l26 27h783v-138h-576z" />
    <glyph glyph-name="uni2197" unicode="&#x2197;" horiz-adv-x="1331" 
d="M1065 1049l27 -27v-791h-144v572l-92 -90l-565 -566l-101 99l568 567l100 98h-575v138h782z" />
    <glyph glyph-name="uni2198" unicode="&#x2198;" horiz-adv-x="1331" 
d="M948 1018h144v-789l-27 -26h-782v135h575l-668 668l101 98l565 -565l92 -90v569z" />
    <glyph glyph-name="uni2199" unicode="&#x2199;" horiz-adv-x="1331" 
d="M473 338h576v-135h-783l-26 26v789h143v-572l657 658l101 -98z" />
    <glyph glyph-name="partialdiff" unicode="&#x2202;" horiz-adv-x="1216" 
d="M1079 752q0 -222 -70 -398.5t-199.5 -277.5t-295.5 -101q-178 0 -299 110t-121 298q0 194 135.5 316t368.5 122q149 0 320 -43q-12 453 -322 453q-90 0 -161 -39t-132 -119l-106 86q61 101 166 158t237 57q224 0 351.5 -160.5t127.5 -461.5zM913 645q-166 39 -307 39
q-171 0 -260.5 -82t-89.5 -213q0 -122 75 -198t193 -76q160 0 264 143q104 142 125 387z" />
    <glyph glyph-name="uni2206" unicode="&#x2206;" horiz-adv-x="1357" 
d="M709 1374l567 -1327v-47h-1194v47l567 1327h60zM1065 143l-387 916l-385 -916h772z" />
    <glyph glyph-name="product" unicode="&#x220f;" horiz-adv-x="1417" 
d="M186 -248v1600h1045v-1600h-160v1456h-725v-1456h-160z" />
    <glyph glyph-name="summation" unicode="&#x2211;" horiz-adv-x="1175" 
d="M379 -104h715v-144h-961v43l483 776l-483 738v43h936v-144h-684l401 -612v-43z" />
    <glyph glyph-name="minus" unicode="&#x2212;" 
d="M115 575v140h915v-140h-915z" />
    <glyph glyph-name="uni2219" unicode="&#x2219;" horiz-adv-x="573" 
d="M158 643q0 55 37.5 92t91.5 37t91.5 -37t37.5 -92t-37.5 -92t-91.5 -37t-91.5 37t-37.5 92z" />
    <glyph glyph-name="radical" unicode="&#x221a;" horiz-adv-x="1501" 
d="M1313 1536h174l-1051 -1808h-59v690h-322v141h475v-371z" />
    <glyph glyph-name="infinity" unicode="&#x221e;" horiz-adv-x="1683" 
d="M1618 641q0 -144 -103.5 -244t-259.5 -100q-120 0 -215 57.5t-200 177.5q-106 -119 -201 -177t-213 -58q-156 0 -257 99.5t-101 244.5q0 144 101.5 245t260.5 101q119 0 216 -57t196 -172q98 115 194 172t215 57q159 0 263 -101t104 -245zM745 645q-88 104 -155.5 150.5
t-147.5 46.5q-95 0 -155 -54.5t-60 -144.5q0 -91 60 -146t155 -55q78 0 146.5 49t156.5 154zM1456 643q0 90 -61 144.5t-156 54.5q-78 0 -145 -45.5t-158 -149.5q94 -109 161 -157t144 -48q95 0 155 55t60 146z" />
    <glyph glyph-name="integral" unicode="&#x222b;" horiz-adv-x="669" 
d="M10 -248v131l101 -4q103 0 159 62t56 188q0 70 -19 197q-10 82 -51 344q-74 446 -74 575q0 180 91.5 273.5t254.5 93.5q72 0 134 -15v-131l-101 4q-102 0 -158.5 -60t-56.5 -185q0 -61 14 -170l48 -320q33 -211 57 -399q20 -134 20 -232q0 -181 -90 -273.5t-252 -92.5
q-76 0 -133 14z" />
    <glyph glyph-name="approxequal" unicode="&#x2248;" 
d="M647 729l-192 117q-89 53 -125 53q-37 0 -58.5 -25.5t-21.5 -66.5v-59h-129l-2 75q0 93 54 156t140 63q84 0 172 -55l193 -117q47 -28 73.5 -39.5t53.5 -11.5q36 0 57 25.5t21 64.5v60h129q1 -15 2 -33t1.5 -28t0.5 -15q0 -94 -55 -155.5t-144 -61.5q-81 0 -170 53z
M647 293l-192 117q-89 53 -125 53q-37 0 -58.5 -25.5t-21.5 -66.5v-60h-129l-2 76q0 93 54 156t140 63q84 0 172 -55l193 -117q47 -28 73.5 -39.5t53.5 -11.5q36 0 57 25.5t21 64.5v59h129q1 -15 2 -33t1.5 -27.5t0.5 -14.5q0 -94 -55 -155.5t-144 -61.5q-81 0 -170 53z" />
    <glyph glyph-name="notequal" unicode="&#x2260;" 
d="M1012 786h-273l-180 -284h453v-140h-539l-143 -227h-148l144 227h-191v140h279l178 284h-457v142h547l137 219h146l-138 -219h185v-142z" />
    <glyph glyph-name="lessequal" unicode="&#x2264;" 
d="M1004 1079v-149l-601 -225l601 -226v-149l-898 352v45zM127 0v139h877v-139h-877z" />
    <glyph glyph-name="greaterequal" unicode="&#x2265;" 
d="M143 1079l899 -352v-45l-899 -352v149l600 226l-600 225v149zM143 0v139h877v-139h-877z" />
    <glyph glyph-name="uni24EA" unicode="&#x24ea;" horiz-adv-x="2002" 
d="M119 676q-3 175 68 339.5t190.5 284.5t283.5 191.5t338 67.5q174 4 339 -67.5t285 -191.5t191.5 -285t67.5 -339q4 -174 -67.5 -339t-191.5 -285t-285 -191.5t-339 -67.5q-174 -4 -338 67.5t-283.5 191.5t-190.5 284.5t-68 339.5zM1755 676q2 122 -36 238t-109 209.5
t-165 164.5t-209.5 108.5t-236.5 35.5q-151 3 -291 -57t-241.5 -162t-161.5 -243.5t-57 -293.5q-3 -153 57 -294.5t161.5 -243t241.5 -161.5t291 -57q151 -3 292 57t243.5 161.5t163 243t57.5 294.5zM657 682q0 216 88 341.5t254 125.5q168 0 258.5 -126t90.5 -341
q0 -212 -88 -346q-88 -135 -261 -135t-258 135q-84 137 -84 346zM1208 682q0 344 -209 344q-204 0 -204 -344q0 -172 50.5 -265t153.5 -93q104 0 156.5 93.5t52.5 264.5z" />
    <glyph glyph-name="uni24FF" unicode="&#x24ff;" horiz-adv-x="2002" 
d="M119 676q-3 175 68 339.5t190.5 284.5t283.5 191.5t338 67.5q174 4 339 -67.5t285 -191.5t191.5 -285t67.5 -339q4 -174 -67.5 -339t-191.5 -285t-285 -191.5t-339 -67.5q-174 -4 -338 67.5t-283.5 191.5t-190.5 284.5t-68 339.5zM1350 682q0 216 -90.5 341.5
t-260.5 125.5q-168 0 -257 -125.5t-89 -341.5q0 -210 86 -346q85 -135 260 -135t263 135q88 134 88 346zM803 682q0 336 196 336q201 0 201 -336q0 -168 -50 -259t-151 -91q-196 0 -196 350z" />
    <glyph glyph-name="filledbox" unicode="&#x25a0;" horiz-adv-x="1495" 
d="M184 113v1126h1127v-1126h-1127z" />
    <glyph glyph-name="uni25A1" unicode="&#x25a1;" horiz-adv-x="1495" 
d="M184 113v1126h1127v-1126h-1127zM344 258h807v836h-807v-836z" />
    <glyph glyph-name="uni25AA" unicode="&#x25aa;" horiz-adv-x="1085" 
d="M152 111v778h780v-778h-780z" />
    <glyph glyph-name="uni25AB" unicode="&#x25ab;" horiz-adv-x="1085" 
d="M152 111v778h780v-778h-780zM303 250h477v500h-477v-500z" />
    <glyph glyph-name="triagup" unicode="&#x25b2;" horiz-adv-x="1495" 
d="M57 113l-14 26l690 1213h31l688 -1213l-14 -26h-1381z" />
    <glyph glyph-name="uni25B3" unicode="&#x25b3;" horiz-adv-x="1495" 
d="M764 1352l688 -1213l-14 -26h-1381l-14 26l690 1213h31zM1200 272l-452 795l-453 -795h905z" />
    <glyph glyph-name="uni25B4" unicode="&#x25b4;" horiz-adv-x="1085" 
d="M68 111l-15 26l475 832h31l473 -832l-14 -26h-950z" />
    <glyph glyph-name="uni25B5" unicode="&#x25b5;" horiz-adv-x="1085" 
d="M559 969l473 -832l-14 -26h-950l-15 26l475 832h31zM805 244l-262 463l-262 -463h524z" />
    <glyph glyph-name="uni25B6" unicode="&#x25b6;" horiz-adv-x="1495" 
d="M272 -23l-26 15v1368l26 14l1063 -684v-31z" />
    <glyph glyph-name="uni25B7" unicode="&#x25b7;" horiz-adv-x="1495" 
d="M272 1374l1063 -684v-31l-1063 -682l-26 15v1368zM1073 674l-667 430v-856z" />
    <glyph glyph-name="uni25B8" unicode="&#x25b8;" horiz-adv-x="1085" 
d="M252 18l-27 15v936l27 14l729 -467v-31z" />
    <glyph glyph-name="uni25B9" unicode="&#x25b9;" horiz-adv-x="1085" 
d="M252 983l729 -467v-31l-729 -467l-27 15v936zM743 502l-372 235v-473z" />
    <glyph glyph-name="triagrt" unicode="&#x25ba;" horiz-adv-x="1968" 
d="M231 -23l-26 15v1368l26 14l1696 -684v-31z" />
    <glyph glyph-name="uni25BB" unicode="&#x25bb;" horiz-adv-x="1968" 
d="M231 1374l1696 -684v-31l-1696 -682l-26 15v1368zM1554 676l-1189 479v-958z" />
    <glyph glyph-name="triagdn" unicode="&#x25bc;" horiz-adv-x="1495" 
d="M57 1239h1381l14 -27l-688 -1212h-31l-690 1212z" />
    <glyph glyph-name="uni25BD" unicode="&#x25bd;" horiz-adv-x="1495" 
d="M1438 1239l14 -27l-688 -1212h-31l-690 1212l14 27h1381zM1200 1079h-905l453 -794z" />
    <glyph glyph-name="uni25BE" unicode="&#x25be;" horiz-adv-x="1085" 
d="M528 31l-475 831l15 27h950l14 -27l-473 -831h-31z" />
    <glyph glyph-name="uni25BF" unicode="&#x25bf;" horiz-adv-x="1085" 
d="M1018 889l14 -27l-473 -831h-31l-475 831l15 27h950zM805 754h-524l262 -463z" />
    <glyph glyph-name="uni25C0" unicode="&#x25c0;" horiz-adv-x="1495" 
d="M1223 -23l-1063 682v31l1063 684l26 -14v-1368z" />
    </font>
</defs>
</svg>
