<?xml version="1.0" standalone="no"?>
<!DOCTYPE svg PUBLIC "-//W3C//DTD SVG 1.1//EN" "http://www.w3.org/Graphics/SVG/1.1/DTD/svg11.dtd" >
<svg xmlns="http://www.w3.org/2000/svg" xmlns:xlink="http://www.w3.org/1999/xlink" version="1.1">
<metadata>
Created by FontForge 20170731 at Mon Dec 21 18:11:32 2020
 By Aleksey,,,
Copyright (c) 2015, 2018 by Jakob Runge, under exclusive license to TypeMates. All rights reserved.
</metadata>
<defs>
<font id="CeraPro-MediumItalic" horiz-adv-x="1146" >
  <font-face 
    font-family="Cera Pro"
    font-weight="500"
    font-style="italic"
    font-stretch="normal"
    units-per-em="2048"
    panose-1="0 0 6 0 0 0 0 0 0 0"
    ascent="1655"
    descent="-393"
    x-height="1006"
    cap-height="1352"
    bbox="-885 -498 2769.07 2048"
    underline-thickness="155"
    underline-position="-359"
    slope="-10"
    unicode-range="U+0020-FB02"
  />
<missing-glyph horiz-adv-x="1454" 
d="M322 1352h1114l-238 -1352h-1114zM1067 129l190 1083h-811z" />
    <glyph glyph-name="fi" unicode="fi" horiz-adv-x="1218" 
d="M532 1196l-32 -190h233l-33 -187h-235l-158 -893q-29 -156 -121.5 -236.5t-244.5 -80.5q-90 0 -181 31l29 176q65 -15 119 -15q86 0 132 42t60 128l150 848h-144l33 187h144l41 233q29 156 123 238t247 82q87 0 178 -31l-28 -176q-73 12 -119 12q-85 0 -132.5 -40.5
t-60.5 -127.5zM762 0l178 1006h215l-178 -1006h-215zM969 1380q0 60 42.5 102t102.5 42q62 0 105 -42t43 -102t-43 -100.5t-105 -40.5q-60 0 -102.5 40.5t-42.5 100.5z" />
    <glyph glyph-name="fl" unicode="fl" horiz-adv-x="1218" 
d="M532 1196l-32 -190h233l-33 -187h-235l-158 -893q-29 -156 -121.5 -236.5t-244.5 -80.5q-90 0 -181 31l29 176q65 -15 119 -15q86 0 132 42t60 128l150 848h-144l33 187h144l41 233q29 156 123 238t247 82q87 0 178 -31l-28 -176q-73 12 -119 12q-85 0 -132.5 -40.5
t-60.5 -127.5zM762 0l270 1536h215l-270 -1536h-215z" />
    <glyph glyph-name=".notdef" horiz-adv-x="1454" 
d="M322 1352h1114l-238 -1352h-1114zM1067 129l190 1083h-811z" />
    <glyph glyph-name=".null" horiz-adv-x="0" 
 />
    <glyph glyph-name="nonmarkingreturn" horiz-adv-x="682" 
 />
    <glyph glyph-name="space" unicode=" " horiz-adv-x="573" 
 />
    <glyph glyph-name="exclam" unicode="!" horiz-adv-x="667" 
d="M238 461l114 891h262l-198 -891h-178zM111 135q0 69 45.5 114.5t113.5 45.5t114 -45.5t46 -114.5q0 -67 -46 -112.5t-114 -45.5t-113.5 45.5t-45.5 112.5z" />
    <glyph glyph-name="quotedbl" unicode="&#x22;" horiz-adv-x="1026" 
d="M238 803l114 549h250l-192 -549h-172zM668 803l114 549h250l-192 -549h-172z" />
    <glyph glyph-name="numbersign" unicode="#" horiz-adv-x="1198" 
d="M1210 836h-196l-56 -320h199l-33 -184h-198l-60 -332h-178l57 332h-348l-57 -332h-180l59 332h-194l32 184h195l55 320h-194l30 184h197l59 332h179l-58 -332h348l58 332h180l-59 -332h196zM430 510h348l58 332h-349z" />
    <glyph glyph-name="dollar" unicode="$" horiz-adv-x="1099" 
d="M961 414q0 -148 -108.5 -254t-272.5 -115l-41 -240h-199l43 263q-203 64 -315 274l163 100q125 -204 318 -204q88 0 141 41.5t53 113.5q0 51 -34 91.5t-115 82.5l-125 70q-236 122 -236 315q0 145 103 240q108 97 268 106l41 236h199l-45 -258q146 -52 239 -211
l-164 -107q-50 76 -109 112t-136 36q-81 0 -129.5 -39t-48.5 -102q0 -47 31 -84t106 -78l131 -72q242 -122 242 -317z" />
    <glyph glyph-name="percent" unicode="%" horiz-adv-x="1681" 
d="M197 1032q0 139 101.5 239.5t246.5 100.5q136 0 228.5 -92.5t92.5 -226.5q0 -141 -102.5 -242.5t-245.5 -101.5q-136 0 -228.5 94.5t-92.5 228.5zM248 0l1073 1352h184l-1077 -1352h-180zM700 1049q0 76 -44 124t-115 48q-78 0 -128.5 -52.5t-50.5 -134.5
q0 -75 46 -123.5t118 -48.5q75 0 124.5 53t49.5 134zM881 301q0 140 103 241t245 101q136 0 229.5 -92.5t93.5 -228.5q0 -139 -103.5 -240.5t-246.5 -101.5q-134 0 -227.5 94t-93.5 227zM1384 317q0 76 -44 124t-115 48q-78 0 -127 -52t-49 -132q0 -78 45 -126t118 -48
q75 0 123.5 52t48.5 134z" />
    <glyph glyph-name="ampersand" unicode="&#x26;" horiz-adv-x="1331" 
d="M1225 485q-138 -160 -211 -233l164 -252h-240l-76 115q-182 -138 -368 -138q-181 0 -300.5 101.5t-119.5 255.5q0 121 83.5 221.5t276.5 216.5q-88 143 -88 266q0 143 101 239.5t251 96.5q137 0 222.5 -76t85.5 -200q0 -104 -69.5 -193t-225.5 -186l192 -297
q154 172 236 270l149 -133q-38 -43 -63 -74zM553 1044q0 -88 63 -180q100 62 143.5 112t43.5 105q0 49 -30.5 77t-84.5 28q-63 0 -99 -38t-36 -104zM754 281l-222 340q-139 -89 -188 -144q-47 -56 -47 -125q0 -78 57.5 -130t145.5 -52q116 0 254 111z" />
    <glyph glyph-name="quotesingle" unicode="'" horiz-adv-x="595" 
d="M238 803l114 549h250l-192 -549h-172z" />
    <glyph glyph-name="parenleft" unicode="(" horiz-adv-x="722" 
d="M158 399q-3 252 76 486.5t219 399.5t311 222l63 -141q-141 -67 -248.5 -210t-166 -340.5t-58.5 -420.5q0 -189 50.5 -320t156.5 -222l-106 -123q-146 94 -221.5 264.5t-75.5 404.5z" />
    <glyph glyph-name="parenright" unicode=")" horiz-adv-x="720" 
d="M2 -270l-63 139q141 67 248.5 210.5t166 341t58.5 419.5q0 189 -50.5 320t-156.5 222l106 125q146 -93 221.5 -265t75.5 -406q3 -252 -76 -487t-219 -399.5t-311 -219.5z" />
    <glyph glyph-name="asterisk" unicode="*" horiz-adv-x="897" 
d="M944 1225l-211 -101l162 -163l-82 -99l-190 131l-62 -223l-123 23l19 231l-228 -57l-45 118l211 101l-164 166l82 96l195 -133l61 225l125 -22l-18 -232l221 57z" />
    <glyph glyph-name="plus" unicode="+" 
d="M416 178l67 379h-368l32 186h369l68 375h207l-66 -375h360l-32 -186h-361l-67 -379h-209z" />
    <glyph glyph-name="comma" unicode="," horiz-adv-x="573" 
d="M8 -365l121 582h250l-197 -582h-174z" />
    <glyph glyph-name="hyphen" unicode="-" horiz-adv-x="696" 
d="M115 559l32 182h494l-33 -182h-493z" />
    <glyph glyph-name="period" unicode="." horiz-adv-x="573" 
d="M66 135q0 69 45.5 114.5t113.5 45.5t113 -45.5t45 -114.5q0 -67 -45.5 -112.5t-112.5 -45.5q-68 0 -113.5 45.5t-45.5 112.5z" />
    <glyph glyph-name="slash" unicode="/" horiz-adv-x="1312" 
d="M-121 -248l1385 1845h233l-1386 -1845h-232z" />
    <glyph glyph-name="zero" unicode="0" horiz-adv-x="1280" 
d="M141 496q0 183 62 387q65 203 205 346q142 145 364 145q211 0 321.5 -136.5t110.5 -379.5q0 -188 -63 -389q-62 -205 -205 -348q-141 -144 -363 -144q-208 0 -320 138.5t-112 380.5zM985 856q0 163 -64.5 241.5t-175.5 78.5q-139 0 -225 -115q-84 -113 -123 -273
q-35 -158 -35 -288q0 -165 64 -244.5t174 -79.5q138 0 223 117q87 115 125 274q37 154 37 289z" />
    <glyph glyph-name="one" unicode="1" horiz-adv-x="800" 
d="M674 1352h76l-238 -1352h-217l192 1112l-286 -63l-21 192z" />
    <glyph glyph-name="two" unicode="2" horiz-adv-x="1171" 
d="M719 406l-264 -218h553l-31 -188h-969l8 51l580 496q142 122 207 217.5t65 196.5q0 99 -56.5 157t-154.5 58q-110 0 -179.5 -81.5t-69.5 -211.5q0 -42 2 -52h-222q-2 10 -2 60q0 207 137 345t343 138q189 0 307.5 -111t118.5 -288q0 -143 -86 -272t-287 -297z" />
    <glyph glyph-name="three" unicode="3" horiz-adv-x="1112" 
d="M1126 1352l-12 -60l-399 -450q128 -41 205 -146t77 -239t-67.5 -244t-185 -173t-259.5 -63q-172 0 -296 86.5t-179 245.5l172 92q54 -117 127.5 -172t177.5 -55q125 0 206 76t81 194q0 110 -77 172t-214 62h-121l11 59l370 420h-489l35 195h837z" />
    <glyph glyph-name="four" unicode="4" horiz-adv-x="1150" 
d="M1102 422l-33 -186h-186l-41 -236h-217l41 236h-674l10 61l600 1055h234l-533 -930h395l74 416h215l-72 -416h187z" />
    <glyph glyph-name="five" unicode="5" horiz-adv-x="1144" 
d="M1090 1157h-560l-55 -309q73 12 129 12q185 0 306.5 -109t121.5 -286q0 -204 -146.5 -346t-371.5 -142q-178 0 -302.5 86.5t-180.5 245.5l170 92q99 -227 313 -227q130 0 212.5 76.5t82.5 195.5q0 109 -75 168.5t-212 59.5h-286l118 678h770z" />
    <glyph glyph-name="six" unicode="6" horiz-adv-x="1140" 
d="M1042 463q3 -127 -66.5 -241t-187.5 -181t-249 -64q-194 0 -326.5 129t-132.5 320q0 111 49 205q52 103 186 258l392 463h272l-397 -463q8 2 43 2q174 0 295.5 -124.5t121.5 -303.5zM825 459q0 112 -68.5 182t-178.5 70q-121 0 -201 -80t-80 -201q0 -113 70 -184.5
t180 -71.5q119 0 198 82q80 83 80 203z" />
    <glyph glyph-name="seven" unicode="7" horiz-adv-x="1050" 
d="M225 1352h926l-10 -60l-873 -1292h-243l794 1159h-629z" />
    <glyph glyph-name="eight" unicode="8" horiz-adv-x="1191" 
d="M1067 375q0 -166 -139.5 -280.5t-345.5 -114.5q-222 0 -363 101.5t-141 258.5q0 136 96 236.5t268 144.5q-88 60 -130 128t-42 152q0 161 124 267t313 106q191 0 309 -92q117 -91 117 -244q0 -242 -295 -354q229 -122 229 -309zM479 1006q0 -60 37 -104.5t137 -106.5
q143 45 206 97.5t63 129.5q0 75 -59.5 121.5t-157.5 46.5q-101 0 -163.5 -50t-62.5 -134zM850 373q0 68 -50.5 119t-183.5 118q-167 -43 -243 -102t-76 -146q0 -92 73 -145t201 -53q125 0 202 57.5t77 151.5z" />
    <glyph glyph-name="nine" unicode="9" horiz-adv-x="1140" 
d="M1126 926q0 -111 -49 -205q-52 -99 -186 -258l-391 -463h-273l398 463q-8 -2 -43 -2q-173 0 -294.5 125t-121.5 303q-3 127 66.5 241t187 180.5t248.5 63.5q194 0 326 -128.5t132 -319.5zM909 922q0 113 -69 184.5t-178 71.5q-119 0 -201 -82q-80 -83 -80 -203
q0 -112 69.5 -182t180.5 -70q118 0 198 80t80 201z" />
    <glyph glyph-name="colon" unicode=":" horiz-adv-x="573" 
d="M193 860q0 69 45.5 114.5t113.5 45.5t113 -45.5t45 -114.5q0 -68 -45 -113t-113 -45t-113.5 45.5t-45.5 112.5zM66 135q0 69 45.5 114.5t113.5 45.5t113 -45.5t45 -114.5q0 -67 -45.5 -112.5t-112.5 -45.5q-68 0 -113.5 45.5t-45.5 112.5z" />
    <glyph glyph-name="semicolon" unicode=";" horiz-adv-x="573" 
d="M193 860q0 69 45.5 114.5t113.5 45.5t113 -45.5t45 -114.5q0 -68 -45 -113t-113 -45t-113.5 45.5t-45.5 112.5zM8 -365l121 582h250l-197 -582h-174z" />
    <glyph glyph-name="less" unicode="&#x3c;" 
d="M1118 1085l-35 -204l-608 -240l524 -242l-32 -180l-854 402l10 61z" />
    <glyph glyph-name="equal" unicode="=" 
d="M174 774l33 187h899l-33 -187h-899zM98 340l31 186h899l-31 -186h-899z" />
    <glyph glyph-name="greater" unicode="&#x3e;" 
d="M238 1083l852 -401l-11 -61l-993 -402l35 203l608 240l-522 243z" />
    <glyph glyph-name="question" unicode="?" horiz-adv-x="917" 
d="M516 793q110 85 152 133q41 50 41 112q0 65 -40.5 102.5t-107.5 37.5q-127 0 -217 -158l-162 98q66 125 169 190.5t233 65.5q149 0 250 -84q98 -82 98 -227q0 -73 -29.5 -135t-78 -111.5t-134.5 -116.5q-89 -73 -125 -114q-37 -43 -53 -123h-184q5 102 45.5 176.5
t142.5 153.5zM229 135q0 69 46 114.5t114 45.5q67 0 112.5 -46t45.5 -114q0 -67 -45.5 -112.5t-112.5 -45.5q-68 0 -114 45.5t-46 112.5z" />
    <glyph glyph-name="at" unicode="@" horiz-adv-x="1927" 
d="M1849 629q0 -260 -162 -413t-440 -153h-119l17 95q-102 -111 -271 -111q-160 0 -266 115.5t-106 290.5q0 130 60 239t163.5 171.5t226.5 62.5q98 0 177 -39.5t122 -108.5l25 129h182l-119 -671q154 5 242 108.5t88 282.5q0 254 -169 403.5t-456 149.5q-158 2 -301 -55
t-245.5 -156t-161.5 -236.5t-57 -290.5q-3 -174 85.5 -318.5t246 -226.5t347.5 -79q113 0 218 24l20 -155q-106 -41 -264 -41q-173 -3 -329.5 58t-269 166.5t-177.5 252.5t-62 309q-4 185 72 357t205 296.5t306 198t367 70.5q172 2 322.5 -53t257 -151t167 -231.5
t58.5 -289.5zM1202 522q0 100 -61 159.5t-164 59.5q-112 0 -189 -77q-75 -75 -75 -195q0 -106 62.5 -172t160.5 -66q109 0 187.5 85.5t78.5 205.5z" />
    <glyph glyph-name="A" unicode="A" horiz-adv-x="1355" 
d="M1006 0l-58 225h-602l-135 -225h-246l836 1374h73l355 -1374h-223zM901 412l-125 555l-319 -555h444z" />
    <glyph glyph-name="B" unicode="B" horiz-adv-x="1263" 
d="M1163 403q0 -177 -134 -290t-347 -113h-598l238 1352h432q172 0 276.5 -93t104.5 -247q0 -193 -158 -297q88 -44 137 -126t49 -186zM719 1163h-217l-66 -366h252q103 0 164 54t61 146q0 78 -51 122t-143 44zM944 410q0 94 -58 147t-161 53h-322l-73 -420h348
q123 0 194.5 58.5t71.5 161.5z" />
    <glyph glyph-name="C" unicode="C" horiz-adv-x="1468" 
d="M125 627q-2 118 37 232.5t111.5 207.5t168 163.5t212 108t237.5 35.5q189 0 337 -89t230 -253l-178 -108q-135 252 -403 252q-144 0 -265.5 -72t-191.5 -196.5t-70 -272.5q0 -201 126 -330t323 -129q249 0 426 213l151 -123q-106 -137 -262 -213t-332 -76
q-137 -2 -259.5 48t-210.5 137t-138.5 208.5t-48.5 256.5z" />
    <glyph glyph-name="D" unicode="D" horiz-adv-x="1425" 
d="M84 0l238 1352h362q197 0 352.5 -79t242.5 -222t87 -324q3 -207 -101.5 -374.5t-290.5 -261t-415 -91.5h-475zM336 195h237q250 0 409 146t159 374q0 199 -129 319q-127 121 -344 121h-164z" />
    <glyph glyph-name="E" unicode="E" horiz-adv-x="1167" 
d="M84 0l238 1352h888l-34 -195h-672l-62 -346h504l-33 -188h-503l-74 -428h694l-33 -195h-913z" />
    <glyph glyph-name="F" unicode="F" horiz-adv-x="1083" 
d="M84 0l238 1352h868l-35 -195h-651l-72 -403h537l-33 -197h-537l-98 -557h-217z" />
    <glyph glyph-name="G" unicode="G" horiz-adv-x="1533" 
d="M125 627q-2 118 37 232.5t111.5 207.5t168 163.5t212 108t237.5 35.5q179 0 322 -80.5t231 -230.5l-166 -123q-137 236 -399 236q-146 0 -267.5 -72t-191.5 -196.5t-70 -272.5q0 -203 125.5 -332t327.5 -129q111 0 212 45t179 129l31 174h-416l35 193h633l-74 -422
q-100 -147 -266 -231.5t-355 -84.5q-137 -2 -259.5 48t-210.5 137t-138.5 208.5t-48.5 256.5z" />
    <glyph glyph-name="H" unicode="H" horiz-adv-x="1456" 
d="M84 0l238 1352h217l-93 -539h680l93 539h217l-238 -1352h-217l109 618h-680l-109 -618h-217z" />
    <glyph glyph-name="I" unicode="I" horiz-adv-x="557" 
d="M84 0l238 1352h217l-238 -1352h-217z" />
    <glyph glyph-name="J" unicode="J" horiz-adv-x="782" 
d="M-41 16l33 185q131 -23 178 -23q87 0 135.5 42.5t65.5 133.5l176 998h217l-182 -1035q-29 -167 -127 -253.5t-258 -86.5q-125 0 -238 39z" />
    <glyph glyph-name="K" unicode="K" horiz-adv-x="1331" 
d="M322 1352h217l-238 -1352h-217zM1382 1352l-682 -654l506 -698h-250l-522 719l662 633h286z" />
    <glyph glyph-name="L" unicode="L" horiz-adv-x="1056" 
d="M84 0l238 1352h217l-203 -1157h618l-34 -195h-836z" />
    <glyph glyph-name="M" unicode="M" horiz-adv-x="1624" 
d="M1536 1374h74l-242 -1374h-217l145 829l-456 -489h-74l-311 532l-154 -872h-217l242 1374h75l433 -756z" />
    <glyph glyph-name="N" unicode="N" horiz-adv-x="1456" 
d="M1219 1352h217l-242 -1375h-74l-655 955l-164 -932h-217l242 1374h75l656 -952z" />
    <glyph glyph-name="O" unicode="O" horiz-adv-x="1597" 
d="M125 627q-3 149 59 288.5t166 240.5t246 161t291 57q185 0 334 -85t233 -233.5t84 -330.5q4 -148 -58.5 -287.5t-167 -241t-246 -162t-288.5 -57.5q-140 0 -261.5 50t-207.5 136.5t-135 206.5t-49 257zM1315 717q0 199 -125.5 329t-319.5 130q-140 3 -262 -70.5
t-192.5 -199t-67.5 -269.5q0 -200 125 -330.5t318 -130.5q140 -3 262 71t193 200t69 270z" />
    <glyph glyph-name="P" unicode="P" horiz-adv-x="1204" 
d="M84 0l238 1352h442q207 0 325.5 -103.5t118.5 -283.5q0 -198 -145.5 -320.5t-380.5 -122.5h-289l-92 -522h-217zM428 715h285q128 0 200 63.5t72 175.5q0 98 -59.5 151.5t-169.5 53.5h-250z" />
    <glyph glyph-name="Q" unicode="Q" horiz-adv-x="1597" 
d="M1982 -244l-28 -170q-81 -20 -193 -20q-257 0 -467.5 113.5t-335.5 318.5q-94 -21 -180 -21q-181 -3 -332 82.5t-237.5 236.5t-83.5 331q-3 148 58.5 287.5t164.5 241t245.5 161.5t293.5 57q181 3 331.5 -82.5t236.5 -235.5t83 -331q0 -207 -106 -379t-283 -272
q118 -168 287 -245t424 -77q52 0 122 4zM791 176q140 -3 262 71t192.5 200t67.5 270q0 201 -124.5 330t-318.5 129q-140 3 -262 -70.5t-192.5 -199t-67.5 -269.5q0 -200 125 -330.5t318 -130.5z" />
    <glyph glyph-name="R" unicode="R" horiz-adv-x="1292" 
d="M864 547l318 -547h-238l-311 522h-240l-92 -522h-217l238 1352h442q205 0 324.5 -102t119.5 -279q0 -155 -92 -268t-252 -156zM506 1159l-78 -444h285q127 0 199.5 64t72.5 175q0 98 -59.5 151.5t-169.5 53.5h-250z" />
    <glyph glyph-name="S" unicode="S" horiz-adv-x="1142" 
d="M37 307l166 105q142 -238 364 -238q103 0 165.5 50.5t62.5 135.5q0 62 -41 109.5t-131 95.5l-144 78q-254 140 -254 352q0 163 126.5 271t316.5 108q293 0 438 -258l-166 -104q-60 86 -127.5 126t-155.5 40q-98 0 -154.5 -46t-56.5 -124q0 -59 35 -100.5t123 -92.5
l146 -80q136 -74 201 -160t65 -194q0 -174 -129.5 -289t-325.5 -115q-167 0 -302.5 85t-221.5 245z" />
    <glyph glyph-name="T" unicode="T" horiz-adv-x="1202" 
d="M406 0l204 1157h-454l34 195h1127l-35 -195h-455l-204 -1157h-217z" />
    <glyph glyph-name="U" unicode="U" horiz-adv-x="1419" 
d="M160 455q0 59 12 129l135 768h217l-137 -774q-10 -72 -10 -107q0 -129 88 -212t225 -83q136 0 235 87.5t124 232.5l149 856h217l-153 -873q-40 -228 -199 -366q-157 -136 -383 -136q-230 0 -375 133.5t-145 344.5z" />
    <glyph glyph-name="V" unicode="V" horiz-adv-x="1355" 
d="M1206 1352h252l-837 -1375h-74l-352 1375h227l229 -932z" />
    <glyph glyph-name="W" unicode="W" horiz-adv-x="2138" 
d="M1966 1352h246l-768 -1375h-72l-229 959l-580 -959h-71l-287 1375h225l178 -914l568 936h73l221 -928z" />
    <glyph glyph-name="X" unicode="X" horiz-adv-x="1230" 
d="M1313 1352l-535 -682l328 -670h-232l-247 510l-406 -510h-266l573 711l-307 641h232l225 -486l369 486h266z" />
    <glyph glyph-name="Y" unicode="Y" horiz-adv-x="1269" 
d="M1352 1352l-611 -813l-94 -539h-217l96 549l-325 803h221l242 -592l436 592h252z" />
    <glyph glyph-name="Z" unicode="Z" horiz-adv-x="1204" 
d="M1292 1352l-12 -60l-934 -1097h744l-33 -195h-1090l10 59l932 1098h-649l33 195h999z" />
    <glyph glyph-name="bracketleft" unicode="[" horiz-adv-x="722" 
d="M66 -268l309 1761h428l-33 -180h-233l-246 -1397h233l-30 -184h-428z" />
    <glyph glyph-name="backslash" unicode="\" horiz-adv-x="1318" 
d="M973 -248l-768 1845h203l770 -1845h-205z" />
    <glyph glyph-name="bracketright" unicode="]" horiz-adv-x="722" 
d="M-37 -268l31 180h233l248 1399h-235l32 182h428l-309 -1761h-428z" />
    <glyph glyph-name="asciicircum" unicode="^" horiz-adv-x="1071" 
d="M127 573l526 799h74l248 -799h-199l-137 459l-299 -459h-213z" />
    <glyph glyph-name="underscore" unicode="_" horiz-adv-x="1024" 
d="M-61 -317l30 174h862l-30 -174h-862z" />
    <glyph glyph-name="grave" unicode="`" horiz-adv-x="1024" 
d="M649 1163l-123 396l13 38h241l21 -434h-152z" />
    <glyph glyph-name="a" unicode="a" horiz-adv-x="1288" 
d="M1006 1006h217l-176 -1006h-203l20 119q-62 -68 -148.5 -105t-185.5 -37q-191 0 -317.5 135.5t-126.5 338.5q-2 156 70.5 290t198.5 212t274 75q115 0 206.5 -43.5t145.5 -122.5zM924 549q0 128 -77 205t-204 77q-139 0 -237.5 -105t-98.5 -255q0 -131 80 -215t207 -84
q140 0 235 108.5t95 268.5z" />
    <glyph glyph-name="b" unicode="b" horiz-adv-x="1288" 
d="M1204 543q2 -114 -40.5 -219.5t-115 -182t-172.5 -121.5t-208 -43q-116 0 -209.5 46.5t-145.5 126.5l-26 -150h-215l268 1536h215l-113 -637q60 62 143 95.5t175 33.5q192 0 318 -137t126 -348zM983 524q0 137 -80 222t-209 85q-137 0 -233 -107.5t-96 -262.5
q0 -127 80.5 -208t205.5 -81q138 0 235 103t97 249z" />
    <glyph glyph-name="c" unicode="c" horiz-adv-x="1142" 
d="M88 471q-2 112 43 216t121 179.5t181.5 119.5t219.5 42q142 0 255 -66.5t173 -183.5l-161 -108q-102 164 -275 164q-141 0 -239.5 -102t-98.5 -251q0 -135 84 -222t213 -87q167 0 277 137l139 -125q-157 -207 -428 -207q-217 0 -360.5 140.5t-143.5 353.5z" />
    <glyph glyph-name="d" unicode="d" horiz-adv-x="1288" 
d="M1102 1536h215l-270 -1536h-199l22 123q-60 -70 -148 -108t-190 -38q-192 0 -318 136.5t-126 343.5q-2 117 40 223.5t114.5 183.5t173 121.5t209.5 42.5q115 0 208 -45.5t148 -126.5zM926 541q0 129 -79 209.5t-204 80.5q-140 0 -237 -103.5t-97 -252.5q0 -135 79.5 -219
t207.5 -84q137 0 233.5 106.5t96.5 262.5z" />
    <glyph glyph-name="e" unicode="e" horiz-adv-x="1150" 
d="M1049 432h-746q17 -128 98 -197t215 -69q152 0 295 108l93 -145q-166 -152 -408 -152q-220 0 -364 139.5t-144 354.5q-2 111 42.5 214.5t119 179.5t177.5 120.5t212 42.5q195 0 317.5 -124t122.5 -322q0 -80 -30 -150zM315 598h551q-2 117 -65.5 182.5t-175.5 65.5
t-196.5 -67.5t-113.5 -180.5z" />
    <glyph glyph-name="f" unicode="f" horiz-adv-x="661" 
d="M532 1196l-32 -190h233l-33 -187h-235l-158 -893q-29 -156 -121.5 -236.5t-244.5 -80.5q-90 0 -181 31l29 176q65 -15 119 -15q86 0 132 42t60 128l150 848h-144l33 187h144l41 233q29 156 123 238t247 82q87 0 178 -31l-28 -176q-73 12 -119 12q-85 0 -132.5 -40.5
t-60.5 -127.5z" />
    <glyph glyph-name="g" unicode="g" horiz-adv-x="1290" 
d="M1008 1006h215l-164 -945q-37 -211 -182.5 -331.5t-364.5 -120.5q-148 0 -276.5 59.5t-219.5 169.5l136 137q147 -170 360 -170q135 0 223.5 69.5t108.5 193.5l12 65q-128 -113 -319 -113q-194 0 -322.5 126.5t-128.5 316.5q-3 152 71 283.5t201 208t273 73.5
q117 0 209 -44t143 -124zM930 555q0 124 -80 203.5t-205 79.5q-142 0 -239 -102t-97 -251q0 -125 78 -201.5t207 -76.5q143 0 239.5 99.5t96.5 248.5z" />
    <glyph glyph-name="h" unicode="h" horiz-adv-x="1177" 
d="M1065 694q0 -26 -12 -112l-103 -582h-217l103 580q10 52 10 75q0 85 -52 134t-143 49q-99 0 -168 -57.5t-86 -155.5l-110 -625h-215l268 1536h215l-104 -606q113 98 270 98q154 0 249 -92.5t95 -241.5z" />
    <glyph glyph-name="i" unicode="i" horiz-adv-x="526" 
d="M70 0l178 1006h215l-178 -1006h-215zM276 1380q0 60 43 102t103 42q61 0 104 -42t43 -102t-42.5 -100.5t-104.5 -40.5q-60 0 -103 40.5t-43 100.5z" />
    <glyph glyph-name="j" unicode="j" horiz-adv-x="528" 
d="M-264 -360l31 176q79 -11 110 -11q83 0 129.5 37.5t59.5 120.5l182 1043h217l-191 -1078q-29 -158 -122.5 -238.5t-241.5 -80.5q-95 0 -174 31zM274 1380q0 60 43 102t103 42q61 0 104 -42t43 -102t-42.5 -100.5t-104.5 -40.5q-60 0 -103 40.5t-43 100.5z" />
    <glyph glyph-name="k" unicode="k" horiz-adv-x="1087" 
d="M340 1536h215l-270 -1536h-215zM1126 1006l-487 -465l344 -541h-240l-350 559l459 447h274z" />
    <glyph glyph-name="l" unicode="l" horiz-adv-x="526" 
d="M70 0l270 1536h215l-270 -1536h-215z" />
    <glyph glyph-name="m" unicode="m" horiz-adv-x="1808" 
d="M1694 694q0 -32 -13 -112l-102 -582h-215l102 580q2 15 5 34t4.5 28t1.5 13q0 86 -51 134.5t-138 48.5q-90 0 -159 -57.5t-87 -155.5l-108 -625h-217l104 580q8 56 8 75q0 86 -49.5 134.5t-136.5 48.5q-92 0 -160.5 -57.5t-85.5 -155.5l-110 -625h-215l176 1006h198
l-16 -93q121 115 287 115q98 0 173 -40t116 -114q64 73 153 113.5t191 40.5q157 0 250.5 -92t93.5 -242z" />
    <glyph glyph-name="n" unicode="n" horiz-adv-x="1177" 
d="M1065 694q0 -36 -12 -112l-103 -582h-217l103 575q10 62 10 80q0 85 -53 134t-142 49q-96 0 -166.5 -57.5t-87.5 -155.5l-110 -625h-215l176 1006h198l-16 -93q121 115 291 115q153 0 248.5 -93t95.5 -241z" />
    <glyph glyph-name="o" unicode="o" horiz-adv-x="1245" 
d="M90 477q-2 109 43.5 212t121.5 177.5t180.5 119t215.5 42.5q142 0 259 -65.5t184 -181t67 -255.5q2 -109 -43.5 -211.5t-123 -177t-183 -118.5t-217.5 -42q-216 0 -360 143.5t-144 356.5zM940 524q0 132 -84 219q-82 88 -213 88q-138 0 -235 -103t-97 -249
q0 -135 81 -220t210 -85q141 0 239.5 101.5t98.5 248.5z" />
    <glyph glyph-name="p" unicode="p" horiz-adv-x="1288" 
d="M1204 545q2 -154 -70 -286t-197 -208.5t-271 -73.5q-116 0 -209.5 46t-147.5 129l-90 -521h-215l244 1375h198l-22 -123q60 69 147 107t189 38q192 0 318 -138t126 -345zM983 524q0 136 -80.5 221.5t-208.5 85.5q-137 0 -233 -108t-96 -264q0 -125 81 -206t205 -81
q138 0 235 103t97 249z" />
    <glyph glyph-name="q" unicode="q" horiz-adv-x="1288" 
d="M1010 1006h215l-244 -1375h-215l86 471q-60 -60 -143 -92.5t-177 -32.5q-192 0 -318 137.5t-126 344.5q-3 154 69.5 286.5t198 209t271.5 73.5q117 0 210.5 -46t145.5 -126zM926 555q0 121 -80 198.5t-203 77.5q-140 0 -237 -103.5t-97 -252.5q0 -135 79.5 -219
t207.5 -84q136 0 233 112.5t97 270.5z" />
    <glyph glyph-name="r" unicode="r" horiz-adv-x="768" 
d="M821 997l-35 -186q-49 8 -98 8q-122 0 -203.5 -69.5t-101.5 -192.5l-98 -557h-215l178 1006h198l-18 -105q114 117 281 117q59 0 112 -21z" />
    <glyph glyph-name="s" unicode="s" horiz-adv-x="933" 
d="M29 199l143 125q72 -88 133.5 -125t136.5 -37t120.5 29.5t45.5 78.5q0 41 -26 67.5t-101 61.5l-92 43q-121 54 -175 122t-54 167q0 134 97 215.5t257 81.5q237 0 356 -174l-135 -123q-90 113 -227 113q-66 0 -100.5 -26.5t-34.5 -76.5q0 -38 24.5 -65.5t89.5 -59.5
l86 -41q132 -63 189 -128t57 -160q0 -136 -106 -223t-271 -87q-134 0 -242 58t-171 164z" />
    <glyph glyph-name="t" unicode="t" horiz-adv-x="813" 
d="M479 819l-84 -463q-6 -30 -6 -51q0 -75 53.5 -107t163.5 -32q8 0 90 4l-32 -182q-75 -11 -119 -11q-173 0 -273 73t-100 220q0 20 10 88l80 461h-162l31 187h164l47 264h217l-47 -264h301l-33 -187h-301z" />
    <glyph glyph-name="u" unicode="u" horiz-adv-x="1165" 
d="M129 358q0 26 10 91l97 557h215l-103 -584q-4 -24 -4 -53q0 -86 58 -140.5t149 -54.5q92 0 156 55t81 148l109 629h215l-111 -633q-32 -183 -156 -289.5t-304 -106.5q-181 0 -296.5 107t-115.5 274z" />
    <glyph glyph-name="v" unicode="v" horiz-adv-x="1120" 
d="M913 1006h244l-665 -1029h-76l-303 1029h217l178 -662z" />
    <glyph glyph-name="w" unicode="w" horiz-adv-x="1744" 
d="M1544 1006h240l-627 -1029h-74l-190 670l-438 -670h-76l-266 1029h219l149 -666l430 686h76l187 -672z" />
    <glyph glyph-name="x" unicode="x" horiz-adv-x="1048" 
d="M1085 1006l-434 -500l283 -506h-238l-190 360l-305 -360h-258l460 524l-258 482h240l164 -332l276 332h260z" />
    <glyph glyph-name="y" unicode="y" horiz-adv-x="1173" 
d="M895 1006h215l-172 -977q-32 -194 -162.5 -307t-320.5 -113q-136 0 -256.5 60.5t-194.5 168.5l133 139q76 -89 152 -130.5t166 -41.5q109 0 178.5 60t89.5 172l14 76q-115 -95 -268 -95q-154 0 -249 91.5t-95 240.5q0 38 12 109l96 547h216l-99 -545q-8 -47 -8 -72
q0 -85 53 -133.5t144 -48.5q94 0 164.5 57.5t87.5 153.5z" />
    <glyph glyph-name="z" unicode="z" horiz-adv-x="944" 
d="M983 1006l-10 -62l-649 -758h522l-33 -186h-854l10 59l649 760h-468l30 187h803z" />
    <glyph glyph-name="braceleft" unicode="{" horiz-adv-x="825" 
d="M768 1493h141l-30 -180h-109q-97 0 -138.5 -56t-41.5 -186v-199q0 -128 -40 -189.5t-136 -78.5q108 -24 108 -127q0 -71 -61 -233q-34 -91 -48 -139t-14 -87q0 -106 125 -106h109l-31 -180h-143q-122 0 -192 62t-70 171q0 102 71 279q54 139 54 190q0 43 -24.5 61.5
t-78.5 18.5h-125l33 186h129q80 0 111.5 38.5t31.5 135.5v216q0 403 369 403z" />
    <glyph glyph-name="bar" unicode="|" horiz-adv-x="679" 
d="M283 -248v1845h180v-1845h-180z" />
    <glyph glyph-name="braceright" unicode="}" horiz-adv-x="827" 
d="M649 702h125l-33 -186h-129q-80 0 -111.5 -39t-31.5 -137v-201q0 -407 -369 -407h-141l31 180h108q98 0 139.5 56t41.5 190v188q0 130 42 192.5t140 75.5q-115 24 -115 131q0 40 14 89.5t48 146.5q35 99 48 144t13 83q0 105 -125 105h-108l30 180h146q121 0 190.5 -62.5
t69.5 -168.5q0 -100 -72 -285q-53 -139 -53 -195q0 -42 24 -61t78 -19z" />
    <glyph glyph-name="asciitilde" unicode="~" 
d="M653 498l-164 108q-77 53 -118 53q-72 0 -86 -127h-170q7 158 71.5 245t169.5 87q91 0 191 -69l164 -109q43 -31 67.5 -42t52.5 -11q37 0 56.5 30.5t27.5 96.5h170q-7 -158 -71.5 -245t-169.5 -87q-90 0 -191 70z" />
    <glyph glyph-name="uni00A0" unicode="&#xa0;" horiz-adv-x="573" 
 />
    <glyph glyph-name="exclamdown" unicode="&#xa1;" horiz-adv-x="667" 
d="M240 870q0 67 45.5 112.5t113.5 45.5t114 -45.5t46 -112.5q0 -69 -46 -114t-114 -45t-113.5 45t-45.5 114zM53 -369l199 912h180l-117 -912h-262z" />
    <glyph glyph-name="cent" unicode="&#xa2;" horiz-adv-x="1140" 
d="M907 481l140 -119q-74 -103 -182.5 -159.5t-237.5 -57.5l-60 -340h-200l63 369q-150 51 -240 176.5t-90 288.5q0 213 146.5 371t363.5 180l62 344h198l-61 -356q100 -25 177.5 -86.5t121.5 -151.5l-160 -104q-105 161 -282 161q-145 0 -246 -101.5t-101 -248.5
q0 -135 85.5 -220t220.5 -85q85 0 158 36t124 103z" />
    <glyph glyph-name="sterling" unicode="&#xa3;" horiz-adv-x="1122" 
d="M446 186h527l-33 -186h-926l9 51q170 97 255 203t91 229h-254l32 187h193l-18 55q-27 81 -38.5 130t-11.5 101q0 180 125 299t314 119q183 0 294.5 -101.5t131.5 -287.5l-195 -49q-14 117 -71 178.5t-154 61.5q-100 0 -164 -70.5t-64 -179.5q0 -75 46 -185l24 -71h322
l-33 -187h-260q-4 -86 -41.5 -163t-100.5 -134z" />
    <glyph glyph-name="currency" unicode="&#xa4;" horiz-adv-x="1366" 
d="M1118 350l178 -203l-135 -124l-184 208q-130 -77 -281 -77q-178 0 -315 96l-229 -227l-123 135l225 223q-80 121 -80 268q0 196 127 350l-168 193l133 125l174 -199q127 80 283 80q184 0 319 -100l238 219l123 -135l-234 -217q76 -122 76 -263q0 -200 -127 -352z
M1024 692q0 133 -86 219q-82 88 -213 88q-137 0 -233.5 -99t-96.5 -241q0 -130 85.5 -218.5t211.5 -88.5q138 0 235 99t97 241z" />
    <glyph glyph-name="yen" unicode="&#xa5;" horiz-adv-x="1179" 
d="M1319 1352l-522 -598h333l-30 -183h-387l-27 -157h385l-31 -181h-387l-41 -233h-217l41 233h-381l31 181h383l27 157h-381l30 183h332l-311 598h227l254 -488l422 488h250z" />
    <glyph glyph-name="brokenbar" unicode="&#xa6;" horiz-adv-x="679" 
d="M283 983v614h180v-614h-180zM283 -248v615h180v-615h-180z" />
    <glyph glyph-name="section" unicode="&#xa7;" horiz-adv-x="1187" 
d="M1102 416q0 -112 -78 -195.5t-209 -114.5q4 -50 4 -53q0 -134 -104 -224.5t-260 -90.5q-125 0 -222.5 59.5t-144.5 165.5l145 109q37 -69 97 -107.5t129 -38.5q67 0 109 36t42 93q0 39 -26.5 79.5t-91.5 94.5l-164 140q-114 93 -165.5 173t-51.5 163q0 110 77.5 193
t208.5 114q-6 27 -6 53q0 135 104.5 225t262.5 90q124 0 220 -59.5t146 -165.5l-145 -108q-38 69 -97 107t-128 38t-110.5 -35t-41.5 -92q0 -41 26.5 -80t90.5 -94l166 -139q115 -97 166 -175.5t51 -160.5zM891 401q0 44 -30.5 88t-104.5 107l-178 154q-69 57 -121 127
q-62 -20 -98.5 -62.5t-36.5 -95.5q0 -45 30 -90t103 -107l178 -153q69 -57 121 -127q62 21 99.5 63.5t37.5 95.5z" />
    <glyph glyph-name="dieresis" unicode="&#xa8;" horiz-adv-x="1024" 
d="M289 1380q0 56 40.5 94.5t98.5 38.5t98.5 -38.5t40.5 -94.5q0 -54 -41 -93.5t-98 -39.5q-56 0 -97.5 39.5t-41.5 93.5zM770 1380q0 56 40.5 94.5t98.5 38.5t99 -38.5t41 -94.5q0 -54 -41.5 -93.5t-98.5 -39.5q-56 0 -97.5 39.5t-41.5 93.5z" />
    <glyph glyph-name="copyright" unicode="&#xa9;" horiz-adv-x="1619" 
d="M129 647q-3 141 58.5 276.5t163.5 235t240.5 159t282.5 56.5q136 2 263 -51t218.5 -143t145.5 -214.5t51 -258.5q3 -141 -58.5 -277t-163.5 -236t-240.5 -160t-282.5 -57q-136 -3 -263 50t-218.5 144t-145.5 216t-51 260zM1401 709q3 144 -68.5 266.5t-195 193
t-267.5 68.5q-116 2 -226 -46t-190 -128.5t-127.5 -190t-45.5 -225.5q0 -228 152 -380t380 -152q156 -3 293 78t217.5 219.5t77.5 296.5zM455 655q0 167 120.5 286.5t290.5 119.5q203 0 314 -174l-138 -99q-70 111 -184 111q-94 0 -157.5 -67.5t-63.5 -167.5
q0 -94 55.5 -152.5t143.5 -58.5q102 0 184 94l115 -111q-127 -143 -310 -143q-158 0 -264 103.5t-106 258.5z" />
    <glyph glyph-name="ordfeminine" unicode="&#xaa;" horiz-adv-x="858" 
d="M682 1139h174l-115 -639h-153l8 69q-75 -84 -199 -84q-117 0 -198 84q-78 87 -78 215q0 152 99.5 260.5t238.5 108.5q133 0 209 -96zM629 838q0 72 -43 116.5t-111 44.5q-78 0 -130 -57t-52 -139q0 -74 43.5 -119t116.5 -45q75 0 125.5 57t50.5 142z" />
    <glyph glyph-name="guillemotleft" unicode="&#xab;" horiz-adv-x="1124" 
d="M389 119l-315 407l12 60l442 407l125 -129l-338 -317l226 -314zM854 119l-315 407l12 60l442 407l125 -129l-338 -317l226 -314z" />
    <glyph glyph-name="logicalnot" unicode="&#xac;" 
d="M721 203l63 354h-669l32 186h879l-96 -540h-209z" />
    <glyph glyph-name="uni00AD" unicode="&#xad;" horiz-adv-x="696" 
d="M115 559l32 182h494l-33 -182h-493z" />
    <glyph glyph-name="registered" unicode="&#xae;" horiz-adv-x="1193" 
d="M1186 901q3 -140 -73 -266t-203.5 -201t-268.5 -72q-132 -3 -247.5 64.5t-183.5 183t-65 246.5q-3 104 41.5 204.5t119 174.5t176.5 118t208 42q136 0 250 -65.5t180 -179t66 -249.5zM1065 903q0 157 -110 267t-269 110q-173 0 -296.5 -124.5t-123.5 -297.5
q0 -163 108.5 -271t272.5 -108q170 0 294 125.5t124 298.5zM780 823l111 -186h-143l-97 162h-65l-29 -162h-131l90 514h201q75 0 125.5 -47t50.5 -119q0 -113 -113 -162zM627 1036l-23 -123h70q38 0 61 17.5t23 48.5q0 26 -17.5 41.5t-44.5 15.5h-69z" />
    <glyph glyph-name="overscore" unicode="&#xaf;" horiz-adv-x="1024" 
d="M358 1294l31 172h590l-31 -172h-590z" />
    <glyph glyph-name="degree" unicode="&#xb0;" horiz-adv-x="735" 
d="M156 1059q0 129 95.5 221t227.5 92q127 0 215 -86t88 -211q0 -128 -96 -221.5t-229 -93.5q-125 0 -213 87.5t-88 211.5zM625 1073q0 66 -41 108t-107 42q-69 0 -116.5 -46.5t-47.5 -115.5q0 -66 43 -109t109 -43q67 0 113.5 47.5t46.5 116.5z" />
    <glyph glyph-name="plusminus" unicode="&#xb1;" 
d="M440 332l56 309h-346l32 180h346l52 297h211l-54 -297h344l-32 -180h-344l-54 -309h-211zM37 0l31 180h899l-31 -180h-899z" />
    <glyph glyph-name="uni00B2" unicode="&#xb2;" horiz-adv-x="770" 
d="M565 989l-108 -90h303l-29 -154h-616l8 37l358 320q87 79 123.5 132.5t36.5 104.5q0 54 -31.5 85.5t-85.5 31.5q-61 0 -96 -43.5t-35 -118.5v-22h-170v31q0 135 86 221q88 88 221 88q127 0 205 -71.5t78 -188.5q0 -89 -55 -168q-52 -78 -193 -195z" />
    <glyph glyph-name="uni00B3" unicode="&#xb3;" horiz-adv-x="731" 
d="M829 1597l-8 -47l-235 -274q72 -26 115.5 -92t43.5 -146q0 -130 -94.5 -218.5t-232.5 -88.5q-115 0 -194.5 57t-110.5 160l133 72q31 -69 71.5 -101t100.5 -32q70 0 112.5 39t42.5 104q0 57 -40.5 88t-118.5 31h-97l9 45l217 250h-283l29 153h540z" />
    <glyph glyph-name="acute" unicode="&#xb4;" horiz-adv-x="1024" 
d="M412 1163l237 434h273l-7 -38l-331 -396h-172z" />
    <glyph glyph-name="uni00B5" unicode="&#xb5;" horiz-adv-x="1230" 
d="M1139 166l-33 -178q-50 -11 -92 -11q-75 0 -128.5 30.5t-78.5 86.5q-111 -117 -275 -117q-151 0 -235 101l-76 -447h-217l244 1375h215l-101 -578q-10 -58 -10 -72q0 -85 55 -136.5t146 -51.5q94 0 160.5 57.5t85.5 155.5l110 625h217l-120 -678q-11 -75 -11 -80
q0 -84 92 -84q42 0 52 2z" />
    <glyph glyph-name="paragraph" unicode="&#xb6;" horiz-adv-x="1384" 
d="M152 909q0 194 139.5 318.5t357.5 124.5h121v-887h-121q-218 0 -357.5 124.5t-139.5 319.5zM565 -369v185l49 -4q54 -7 82 -7q103 0 152 43.5t49 143.5v1360h217v-1381q0 -183 -96 -272.5t-277 -89.5q-77 0 -176 22z" />
    <glyph glyph-name="middot" unicode="&#xb7;" horiz-adv-x="573" 
d="M156 649q0 69 45.5 114.5t113.5 45.5t113 -45.5t45 -114.5q0 -67 -45 -112t-113 -45t-113.5 45t-45.5 112z" />
    <glyph glyph-name="cedilla" unicode="&#xb8;" horiz-adv-x="1024" 
d="M141 -360l25 145q88 -16 129 -16q75 0 114.5 39t39.5 114q0 58 -27 105l86 34q51 -32 80.5 -82.5t29.5 -107.5q0 -110 -87.5 -186t-213.5 -76q-88 0 -176 31z" />
    <glyph glyph-name="uni00B9" unicode="&#xb9;" horiz-adv-x="737" 
d="M135 745l29 154h209l96 545h-197l27 153h367l-123 -698h180l-27 -154h-561z" />
    <glyph glyph-name="ordmasculine" unicode="&#xba;" horiz-adv-x="813" 
d="M123 801q0 145 105.5 247.5t254.5 102.5q138 0 231 -90.5t93 -224.5q0 -143 -107.5 -247t-255.5 -104q-137 0 -229 91t-92 225zM633 834q0 72 -43.5 115.5t-112.5 43.5q-78 0 -130 -54t-52 -136q0 -72 43.5 -116t112.5 -44q78 0 130 54.5t52 136.5z" />
    <glyph glyph-name="guillemotright" unicode="&#xbb;" horiz-adv-x="1124" 
d="M616 119l-122 129l337 319l-227 314l154 112l313 -405l-10 -62zM154 119l-123 129l338 319l-228 314l154 112l313 -405l-10 -62z" />
    <glyph glyph-name="onequarter" unicode="&#xbc;" horiz-adv-x="1900" 
d="M92 500l29 153h209l96 545h-197l27 154h367l-123 -699h180l-27 -153h-561zM440 0l1010 1352h184l-1011 -1352h-183zM1837 287l-27 -146h-104l-25 -141h-159l24 141h-428l8 47l357 664h188l-307 -565h209l43 237h156l-41 -237h106z" />
    <glyph glyph-name="onehalf" unicode="&#xbd;" horiz-adv-x="1972" 
d="M92 500l29 153h209l96 545h-197l27 154h367l-123 -699h180l-27 -153h-561zM440 0l1010 1352h184l-1011 -1352h-183zM1636 244l-108 -90h303l-29 -154h-616l8 37l358 319q87 78 123.5 132.5t36.5 105.5q0 54 -31.5 85.5t-85.5 31.5q-61 0 -96 -43.5t-35 -118.5v-23h-170
v31q0 135 86 221q88 88 222 88q127 0 204.5 -71.5t77.5 -188.5q0 -89 -55 -168q-50 -76 -193 -194z" />
    <glyph glyph-name="threequarters" unicode="&#xbe;" horiz-adv-x="1822" 
d="M786 1352l-8 -47l-235 -275q72 -26 115.5 -91.5t43.5 -145.5q0 -130 -94.5 -219t-232.5 -89q-115 0 -194.5 57t-110.5 160l133 72q31 -69 71.5 -101t100.5 -32q70 0 112.5 39t42.5 104q0 57 -40.5 88t-118.5 31h-97l9 45l217 250h-283l29 154h540zM362 0l1010 1352h184
l-1011 -1352h-183zM1757 287l-26 -146h-105l-24 -141h-160l24 141h-428l9 47l356 664h188l-307 -565h209l43 237h156l-41 -237h106z" />
    <glyph glyph-name="questiondown" unicode="&#xbf;" horiz-adv-x="917" 
d="M371 868q0 68 46 114t113 46q68 0 114 -45.5t46 -114.5q0 -67 -46 -112t-114 -45t-113.5 45t-45.5 112zM-14 -82q0 100 51 174q57 83 190 187q87 70 125 119.5t54 123.5h184q-5 -104 -46 -180.5t-143 -155.5q-111 -85 -155 -139q-37 -46 -37 -106q0 -62 40 -99t107 -37
q126 0 217 158l162 -98q-66 -125 -168 -190.5t-231 -65.5q-158 0 -254 84.5t-96 224.5z" />
    <glyph glyph-name="Agrave" unicode="&#xc0;" horiz-adv-x="1355" 
d="M1006 0l-58 225h-602l-135 -225h-246l836 1374h73l355 -1374h-223zM901 412l-125 555l-319 -555h444zM770 1483l-190 342l6 39h245l97 -381h-158z" />
    <glyph glyph-name="Aacute" unicode="&#xc1;" horiz-adv-x="1355" 
d="M1006 0l-58 225h-602l-135 -225h-246l836 1374h73l355 -1374h-223zM901 412l-125 555l-319 -555h444zM760 1483l215 381h274l-6 -39l-317 -342h-166z" />
    <glyph glyph-name="Acircumflex" unicode="&#xc2;" horiz-adv-x="1355" 
d="M1006 0l-58 225h-602l-135 -225h-246l836 1374h73l355 -1374h-223zM901 412l-125 555l-319 -555h444zM1219 1483h-154l-168 192l-240 -192h-182l371 381h137z" />
    <glyph glyph-name="Atilde" unicode="&#xc3;" horiz-adv-x="1355" 
d="M1006 0l-58 225h-602l-135 -225h-246l836 1374h73l355 -1374h-223zM901 412l-125 555l-319 -555h444zM864 1559l-57 34q-53 35 -84 35q-60 0 -72 -104h-166q12 150 65.5 224.5t154.5 74.5q47 0 83 -13t84 -43l54 -34q56 -37 86 -37q32 0 47.5 24.5t23.5 81.5h166
q-21 -299 -221 -299q-46 0 -80.5 13t-83.5 43z" />
    <glyph glyph-name="Adieresis" unicode="&#xc4;" horiz-adv-x="1355" 
d="M1006 0l-58 225h-602l-135 -225h-246l836 1374h73l355 -1374h-223zM901 412l-125 555l-319 -555h444zM489 1663q0 55 42 94t98 39q57 0 98 -39t41 -94q0 -54 -41 -93.5t-98 -39.5q-56 0 -98 39.5t-42 93.5zM997 1661q0 55 41 95t97 40q60 0 99.5 -39t39.5 -96
q0 -54 -41 -93.5t-98 -39.5q-54 0 -96 39.5t-42 93.5z" />
    <glyph glyph-name="Aring" unicode="&#xc5;" horiz-adv-x="1355" 
d="M1006 0l-58 225h-602l-135 -225h-246l836 1374h73l355 -1374h-223zM901 412l-125 555l-319 -555h444zM637 1630q0 103 74 174q78 72 182 72q100 0 165.5 -63t65.5 -160q0 -105 -75 -174q-75 -72 -181 -72q-100 0 -165.5 63t-65.5 160zM975 1647q0 38 -25 63t-63 25
q-41 0 -70 -28t-29 -69q0 -38 25.5 -64t63.5 -26q41 0 69.5 29t28.5 70z" />
    <glyph glyph-name="AE" unicode="&#xc6;" horiz-adv-x="1716" 
d="M1722 1157h-641l-2 -346h416l-31 -188h-385l-4 -428h504l-35 -195h-686v227h-514l-156 -227h-256l932 1352h891zM866 1010l-397 -596h391z" />
    <glyph glyph-name="Ccedilla" unicode="&#xc7;" horiz-adv-x="1468" 
d="M125 627q-2 118 37 232.5t111.5 207.5t168 163.5t212 108t237.5 35.5q189 0 337 -89t230 -253l-178 -108q-135 252 -403 252q-144 0 -265.5 -72t-191.5 -196.5t-70 -272.5q0 -201 126 -330t323 -129q249 0 426 213l151 -123q-106 -137 -262 -213t-332 -76
q-137 -2 -259.5 48t-210.5 137t-138.5 208.5t-48.5 256.5zM389 -360l25 145q88 -16 129 -16q75 0 114 39t39 114q0 60 -26 105l86 34q51 -32 80.5 -82.5t29.5 -107.5q0 -110 -87.5 -186t-213.5 -76q-88 0 -176 31z" />
    <glyph glyph-name="Egrave" unicode="&#xc8;" horiz-adv-x="1167" 
d="M84 0l238 1352h888l-34 -195h-672l-62 -346h504l-33 -188h-503l-74 -428h694l-33 -195h-913zM700 1483l-190 342l6 39h246l96 -381h-158z" />
    <glyph glyph-name="Eacute" unicode="&#xc9;" horiz-adv-x="1167" 
d="M84 0l238 1352h888l-34 -195h-672l-62 -346h504l-33 -188h-503l-74 -428h694l-33 -195h-913zM690 1483l215 381h275l-6 -39l-318 -342h-166z" />
    <glyph glyph-name="Ecircumflex" unicode="&#xca;" horiz-adv-x="1167" 
d="M84 0l238 1352h888l-34 -195h-672l-62 -346h504l-33 -188h-503l-74 -428h694l-33 -195h-913zM1149 1483h-154l-168 192l-239 -192h-182l370 381h137z" />
    <glyph glyph-name="Edieresis" unicode="&#xcb;" horiz-adv-x="1167" 
d="M84 0l238 1352h888l-34 -195h-672l-62 -346h504l-33 -188h-503l-74 -428h694l-33 -195h-913zM420 1663q0 55 41.5 94t97.5 39q57 0 98 -39t41 -94q0 -54 -41 -93.5t-98 -39.5q-56 0 -97.5 39.5t-41.5 93.5zM928 1661q0 55 40.5 95t96.5 40q60 0 99.5 -39t39.5 -96
q0 -54 -41 -93.5t-98 -39.5q-54 0 -95.5 39.5t-41.5 93.5z" />
    <glyph glyph-name="Igrave" unicode="&#xcc;" horiz-adv-x="557" 
d="M84 0l238 1352h217l-238 -1352h-217zM375 1483l-191 342l6 39h246l96 -381h-157z" />
    <glyph glyph-name="Iacute" unicode="&#xcd;" horiz-adv-x="557" 
d="M84 0l238 1352h217l-238 -1352h-217zM365 1483l215 381h274l-6 -39l-318 -342h-165z" />
    <glyph glyph-name="Icircumflex" unicode="&#xce;" horiz-adv-x="557" 
d="M84 0l238 1352h217l-238 -1352h-217zM823 1483h-153l-168 192l-240 -192h-182l371 381h137z" />
    <glyph glyph-name="Idieresis" unicode="&#xcf;" horiz-adv-x="557" 
d="M84 0l238 1352h217l-238 -1352h-217zM94 1663q0 55 41.5 94t97.5 39q57 0 98.5 -39t41.5 -94q0 -54 -41.5 -93.5t-98.5 -39.5q-56 0 -97.5 39.5t-41.5 93.5zM602 1661q0 55 40.5 95t96.5 40q60 0 100 -39t40 -96q0 -54 -41.5 -93.5t-98.5 -39.5q-54 0 -95.5 39.5
t-41.5 93.5z" />
    <glyph glyph-name="Eth" unicode="&#xd0;" horiz-adv-x="1435" 
d="M1374 727q3 -207 -100.5 -374.5t-289.5 -261.5t-417 -91h-475l96 543h-190l33 184h188l111 625h362q146 2 273.5 -44.5t218 -129.5t141.5 -200t49 -251zM1149 715q0 199 -129 319q-127 121 -344 121h-164l-76 -428h240l-33 -184h-237l-62 -348h238q250 0 408.5 146
t158.5 374z" />
    <glyph glyph-name="Ntilde" unicode="&#xd1;" horiz-adv-x="1456" 
d="M1219 1352h217l-242 -1375h-74l-655 955l-164 -932h-217l242 1374h75l656 -952zM920 1559l-58 34q-53 35 -84 35q-59 0 -71 -104h-166q12 150 65 224.5t154 74.5q47 0 83.5 -13t84.5 -43l53 -34q56 -37 86 -37q32 0 48 24.5t24 81.5h166q-21 -299 -222 -299q-46 0 -80 13
t-83 43z" />
    <glyph glyph-name="Ograve" unicode="&#xd2;" horiz-adv-x="1597" 
d="M125 627q-3 149 59 288.5t166 240.5t246 161t291 57q185 0 334 -85t233 -233.5t84 -330.5q4 -148 -58.5 -287.5t-167 -241t-246 -162t-288.5 -57.5q-140 0 -261.5 50t-207.5 136.5t-135 206.5t-49 257zM1315 717q0 199 -125.5 329t-319.5 130q-140 3 -262 -70.5
t-192.5 -199t-67.5 -269.5q0 -200 125 -330.5t318 -130.5q140 -3 262 71t193 200t69 270zM889 1483l-191 342l7 39h245l97 -381h-158z" />
    <glyph glyph-name="Oacute" unicode="&#xd3;" horiz-adv-x="1597" 
d="M125 627q-3 149 59 288.5t166 240.5t246 161t291 57q185 0 334 -85t233 -233.5t84 -330.5q4 -148 -58.5 -287.5t-167 -241t-246 -162t-288.5 -57.5q-140 0 -261.5 50t-207.5 136.5t-135 206.5t-49 257zM1315 717q0 199 -125.5 329t-319.5 130q-140 3 -262 -70.5
t-192.5 -199t-67.5 -269.5q0 -200 125 -330.5t318 -130.5q140 -3 262 71t193 200t69 270zM877 1483l215 381h274l-6 -39l-318 -342h-165z" />
    <glyph glyph-name="Ocircumflex" unicode="&#xd4;" horiz-adv-x="1597" 
d="M125 627q-3 149 59 288.5t166 240.5t246 161t291 57q185 0 334 -85t233 -233.5t84 -330.5q4 -148 -58.5 -287.5t-167 -241t-246 -162t-288.5 -57.5q-140 0 -261.5 50t-207.5 136.5t-135 206.5t-49 257zM1315 717q0 199 -125.5 329t-319.5 130q-140 3 -262 -70.5
t-192.5 -199t-67.5 -269.5q0 -200 125 -330.5t318 -130.5q140 -3 262 71t193 200t69 270zM1337 1483h-153l-168 192l-240 -192h-182l371 381h137z" />
    <glyph glyph-name="Otilde" unicode="&#xd5;" horiz-adv-x="1597" 
d="M125 627q-3 149 59 288.5t166 240.5t246 161t291 57q185 0 334 -85t233 -233.5t84 -330.5q4 -148 -58.5 -287.5t-167 -241t-246 -162t-288.5 -57.5q-140 0 -261.5 50t-207.5 136.5t-135 206.5t-49 257zM1315 717q0 199 -125.5 329t-319.5 130q-140 3 -262 -70.5
t-192.5 -199t-67.5 -269.5q0 -200 125 -330.5t318 -130.5q140 -3 262 71t193 200t69 270zM983 1559l-57 34q-53 35 -84 35q-60 0 -72 -104h-166q12 150 65 224.5t154 74.5q47 0 83.5 -13t84.5 -43l53 -34q56 -37 86 -37q32 0 48 24.5t24 81.5h166q-21 -299 -221 -299
q-46 0 -80.5 13t-83.5 43z" />
    <glyph glyph-name="Odieresis" unicode="&#xd6;" horiz-adv-x="1597" 
d="M125 627q-3 149 59 288.5t166 240.5t246 161t291 57q185 0 334 -85t233 -233.5t84 -330.5q4 -148 -58.5 -287.5t-167 -241t-246 -162t-288.5 -57.5q-140 0 -261.5 50t-207.5 136.5t-135 206.5t-49 257zM1315 717q0 199 -125.5 329t-319.5 130q-140 3 -262 -70.5
t-192.5 -199t-67.5 -269.5q0 -200 125 -330.5t318 -130.5q140 -3 262 71t193 200t69 270zM608 1663q0 55 42 94t98 39q57 0 98 -39t41 -94q0 -54 -41 -93.5t-98 -39.5q-56 0 -98 39.5t-42 93.5zM1116 1661q0 55 40.5 95t96.5 40q60 0 100 -39t40 -96q0 -54 -41.5 -93.5
t-98.5 -39.5q-54 0 -95.5 39.5t-41.5 93.5z" />
    <glyph glyph-name="multiply" unicode="&#xd7;" 
d="M846 197l-260 325l-363 -291l-112 146l362 289l-260 327l145 113l260 -324l361 287l113 -141l-363 -289l260 -330z" />
    <glyph glyph-name="Oslash" unicode="&#xd8;" horiz-adv-x="1564" 
d="M1563 1268l-162 -156q119 -168 119 -387q4 -146 -57.5 -285t-165 -241.5t-245.5 -163.5t-292 -58q-234 0 -406 132l-161 -158l-127 133l161 156q-118 167 -118 387q-2 119 36 233t110 207t166 163.5t210 108t237 35.5q233 0 404 -129l164 156zM328 637q0 -135 59 -244
l733 705q-119 82 -268 82q-140 2 -262 -71.5t-193.5 -199.5t-68.5 -272zM1300 719q0 133 -59 242l-735 -707q119 -82 266 -82q106 -2 204.5 41.5t169.5 118t113 176.5t41 211z" />
    <glyph glyph-name="Ugrave" unicode="&#xd9;" horiz-adv-x="1419" 
d="M160 455q0 59 12 129l135 768h217l-137 -774q-10 -72 -10 -107q0 -129 88 -212t225 -83q136 0 235 87.5t124 232.5l149 856h217l-153 -873q-40 -228 -199 -366q-157 -136 -383 -136q-230 0 -375 133.5t-145 344.5zM807 1483l-191 342l7 39h245l97 -381h-158z" />
    <glyph glyph-name="Uacute" unicode="&#xda;" horiz-adv-x="1419" 
d="M160 455q0 59 12 129l135 768h217l-137 -774q-10 -72 -10 -107q0 -129 88 -212t225 -83q136 0 235 87.5t124 232.5l149 856h217l-153 -873q-40 -228 -199 -366q-157 -136 -383 -136q-230 0 -375 133.5t-145 344.5zM797 1483l215 381h274l-6 -39l-317 -342h-166z" />
    <glyph glyph-name="Ucircumflex" unicode="&#xdb;" horiz-adv-x="1419" 
d="M160 455q0 59 12 129l135 768h217l-137 -774q-10 -72 -10 -107q0 -129 88 -212t225 -83q136 0 235 87.5t124 232.5l149 856h217l-153 -873q-40 -228 -199 -366q-157 -136 -383 -136q-230 0 -375 133.5t-145 344.5zM1255 1483h-153l-168 192l-240 -192h-182l371 381h137z
" />
    <glyph glyph-name="Udieresis" unicode="&#xdc;" horiz-adv-x="1419" 
d="M160 455q0 59 12 129l135 768h217l-137 -774q-10 -72 -10 -107q0 -129 88 -212t225 -83q136 0 235 87.5t124 232.5l149 856h217l-153 -873q-40 -228 -199 -366q-157 -136 -383 -136q-230 0 -375 133.5t-145 344.5zM526 1663q0 55 42 94t98 39q57 0 98 -39t41 -94
q0 -54 -41 -93.5t-98 -39.5q-56 0 -98 39.5t-42 93.5zM1034 1661q0 55 40.5 95t96.5 40q60 0 100 -39t40 -96q0 -54 -41.5 -93.5t-98.5 -39.5q-54 0 -95.5 39.5t-41.5 93.5z" />
    <glyph glyph-name="Yacute" unicode="&#xdd;" horiz-adv-x="1269" 
d="M1352 1352l-611 -813l-94 -539h-217l96 549l-325 803h221l242 -592l436 592h252zM709 1483l215 381h274l-6 -39l-318 -342h-165z" />
    <glyph glyph-name="Thorn" unicode="&#xde;" horiz-adv-x="1193" 
d="M1157 735q0 -202 -145.5 -326t-380.5 -124h-281l-49 -285h-217l238 1352h217l-39 -224h213q204 0 324 -106.5t120 -286.5zM934 725q0 100 -59.5 155.5t-167.5 55.5h-242l-80 -459h277q124 0 198 67.5t74 180.5z" />
    <glyph glyph-name="germandbls" unicode="&#xdf;" horiz-adv-x="1296" 
d="M469 133l106 150q135 -117 267 -117q72 0 110.5 29.5t38.5 83.5q0 34 -16 53.5t-74 62.5l-51 39q-95 69 -133.5 119t-38.5 109q0 75 63 186l109 190q65 112 65 181q0 67 -46 105t-126 38q-105 0 -174 -67.5t-92 -194.5l-190 -1100h-215l196 1124q35 202 169 318.5
t331 116.5q161 0 265 -83.5t104 -213.5q0 -105 -72 -234l-111 -192q-57 -96 -57 -138q0 -32 21.5 -58t78.5 -65l43 -34q88 -64 127 -120.5t39 -129.5q0 -134 -106 -224t-264 -90q-214 0 -367 156z" />
    <glyph glyph-name="agrave" unicode="&#xe0;" horiz-adv-x="1288" 
d="M1006 1006h217l-176 -1006h-203l20 119q-62 -68 -148.5 -105t-185.5 -37q-191 0 -317.5 135.5t-126.5 338.5q-2 156 70.5 290t198.5 212t274 75q115 0 206.5 -43.5t145.5 -122.5zM924 549q0 128 -77 205t-204 77q-139 0 -237.5 -105t-98.5 -255q0 -131 80 -215t207 -84
q140 0 235 108.5t95 268.5zM571 1163l-122 396l12 38h241l21 -434h-152z" />
    <glyph glyph-name="aacute" unicode="&#xe1;" horiz-adv-x="1288" 
d="M1006 1006h217l-176 -1006h-203l20 119q-62 -68 -148.5 -105t-185.5 -37q-191 0 -317.5 135.5t-126.5 338.5q-2 156 70.5 290t198.5 212t274 75q115 0 206.5 -43.5t145.5 -122.5zM924 549q0 128 -77 205t-204 77q-139 0 -237.5 -105t-98.5 -255q0 -131 80 -215t207 -84
q140 0 235 108.5t95 268.5zM573 1163l238 434h272l-6 -38l-332 -396h-172z" />
    <glyph glyph-name="acircumflex" unicode="&#xe2;" horiz-adv-x="1288" 
d="M1006 1006h217l-176 -1006h-203l20 119q-62 -68 -148.5 -105t-185.5 -37q-191 0 -317.5 135.5t-126.5 338.5q-2 156 70.5 290t198.5 212t274 75q115 0 206.5 -43.5t145.5 -122.5zM924 549q0 128 -77 205t-204 77q-139 0 -237.5 -105t-98.5 -255q0 -131 80 -215t207 -84
q140 0 235 108.5t95 268.5zM1022 1163h-152l-141 230l-229 -230h-170l352 434h139z" />
    <glyph glyph-name="atilde" unicode="&#xe3;" horiz-adv-x="1288" 
d="M1006 1006h217l-176 -1006h-203l20 119q-62 -68 -148.5 -105t-185.5 -37q-191 0 -317.5 135.5t-126.5 338.5q-2 156 70.5 290t198.5 212t274 75q115 0 206.5 -43.5t145.5 -122.5zM924 549q0 128 -77 205t-204 77q-139 0 -237.5 -105t-98.5 -255q0 -131 80 -215t207 -84
q140 0 235 108.5t95 268.5zM715 1257l-53 41q-44 41 -78 41q-59 0 -74 -110h-166q12 145 67 224t152 79q77 0 148 -53l51 -41q46 -41 78 -41q61 0 73 110h168q-12 -146 -67.5 -225.5t-151.5 -79.5q-74 0 -147 55z" />
    <glyph glyph-name="adieresis" unicode="&#xe4;" horiz-adv-x="1288" 
d="M1006 1006h217l-176 -1006h-203l20 119q-62 -68 -148.5 -105t-185.5 -37q-191 0 -317.5 135.5t-126.5 338.5q-2 156 70.5 290t198.5 212t274 75q115 0 206.5 -43.5t145.5 -122.5zM924 549q0 128 -77 205t-204 77q-139 0 -237.5 -105t-98.5 -255q0 -131 80 -215t207 -84
q140 0 235 108.5t95 268.5zM338 1380q0 56 40.5 94.5t98.5 38.5t98.5 -38.5t40.5 -94.5q0 -54 -41 -93.5t-98 -39.5q-56 0 -97.5 39.5t-41.5 93.5zM819 1380q0 56 40.5 94.5t98.5 38.5t99 -38.5t41 -94.5q0 -54 -41.5 -93.5t-98.5 -39.5q-56 0 -97.5 39.5t-41.5 93.5z" />
    <glyph glyph-name="aring" unicode="&#xe5;" horiz-adv-x="1288" 
d="M1006 1006h217l-176 -1006h-203l20 119q-62 -68 -148.5 -105t-185.5 -37q-191 0 -317.5 135.5t-126.5 338.5q-2 156 70.5 290t198.5 212t274 75q115 0 206.5 -43.5t145.5 -122.5zM924 549q0 128 -77 205t-204 77q-139 0 -237.5 -105t-98.5 -255q0 -131 80 -215t207 -84
q140 0 235 108.5t95 268.5zM481 1360q0 103 74 174q78 72 182 72q100 0 165 -63.5t65 -160.5q0 -103 -74 -174t-180 -71q-99 0 -165.5 63.5t-66.5 159.5zM817 1376q0 39 -24 64.5t-62 25.5q-41 0 -69.5 -28.5t-28.5 -71.5q0 -38 25 -64t63 -26q41 0 68.5 28.5t27.5 71.5z
" />
    <glyph glyph-name="ae" unicode="&#xe6;" horiz-adv-x="1802" 
d="M1700 418h-744q17 -119 98.5 -185.5t211.5 -66.5q154 0 297 108l90 -145q-178 -152 -404 -152q-134 0 -241.5 55.5t-169.5 155.5q-68 -101 -181 -156t-254 -55q-167 0 -261.5 73.5t-94.5 203.5q0 149 111.5 234t308.5 85h289q6 35 6 86q0 85 -53.5 131t-151.5 46
q-74 0 -140.5 -28.5t-144.5 -94.5l-90 157q184 158 404 158q244 0 329 -168q74 80 173 124t208 44q189 0 311 -123.5t122 -314.5q0 -93 -29 -172zM963 573h555v27q0 115 -64.5 180.5t-177.5 65.5q-118 0 -203 -74.5t-110 -198.5zM719 360l10 58h-258q-99 0 -152 -37.5
t-53 -106.5q0 -62 46.5 -97.5t127.5 -35.5q106 0 184 61t95 158z" />
    <glyph glyph-name="ccedilla" unicode="&#xe7;" horiz-adv-x="1142" 
d="M88 471q-2 112 43 216t121 179.5t181.5 119.5t219.5 42q142 0 255 -66.5t173 -183.5l-161 -108q-102 164 -275 164q-141 0 -239.5 -102t-98.5 -251q0 -135 84 -222t213 -87q167 0 277 137l139 -125q-157 -207 -428 -207q-217 0 -360.5 140.5t-143.5 353.5zM213 -360
l25 145q88 -16 129 -16q75 0 114 39t39 114q0 60 -26 105l86 34q51 -32 80.5 -82.5t29.5 -107.5q0 -110 -87.5 -186t-213.5 -76q-88 0 -176 31z" />
    <glyph glyph-name="egrave" unicode="&#xe8;" horiz-adv-x="1150" 
d="M1049 432h-746q17 -128 98 -197t215 -69q152 0 295 108l93 -145q-166 -152 -408 -152q-220 0 -364 139.5t-144 354.5q-2 111 42.5 214.5t119 179.5t177.5 120.5t212 42.5q195 0 317.5 -124t122.5 -322q0 -80 -30 -150zM315 598h551q-2 117 -65.5 182.5t-175.5 65.5
t-196.5 -67.5t-113.5 -180.5zM559 1163l-123 396l13 38h241l21 -434h-152z" />
    <glyph glyph-name="eacute" unicode="&#xe9;" horiz-adv-x="1150" 
d="M1049 432h-746q17 -128 98 -197t215 -69q152 0 295 108l93 -145q-166 -152 -408 -152q-220 0 -364 139.5t-144 354.5q-2 111 42.5 214.5t119 179.5t177.5 120.5t212 42.5q195 0 317.5 -124t122.5 -322q0 -80 -30 -150zM315 598h551q-2 117 -65.5 182.5t-175.5 65.5
t-196.5 -67.5t-113.5 -180.5zM561 1163l238 434h272l-6 -38l-332 -396h-172z" />
    <glyph glyph-name="ecircumflex" unicode="&#xea;" horiz-adv-x="1150" 
d="M1049 432h-746q17 -128 98 -197t215 -69q152 0 295 108l93 -145q-166 -152 -408 -152q-220 0 -364 139.5t-144 354.5q-2 111 42.5 214.5t119 179.5t177.5 120.5t212 42.5q195 0 317.5 -124t122.5 -322q0 -80 -30 -150zM315 598h551q-2 117 -65.5 182.5t-175.5 65.5
t-196.5 -67.5t-113.5 -180.5zM1010 1163h-152l-141 230l-230 -230h-170l353 434h139z" />
    <glyph glyph-name="edieresis" unicode="&#xeb;" horiz-adv-x="1150" 
d="M1049 432h-746q17 -128 98 -197t215 -69q152 0 295 108l93 -145q-166 -152 -408 -152q-220 0 -364 139.5t-144 354.5q-2 111 42.5 214.5t119 179.5t177.5 120.5t212 42.5q195 0 317.5 -124t122.5 -322q0 -80 -30 -150zM315 598h551q-2 117 -65.5 182.5t-175.5 65.5
t-196.5 -67.5t-113.5 -180.5zM326 1380q0 56 40.5 94.5t98.5 38.5t98.5 -38.5t40.5 -94.5q0 -54 -41 -93.5t-98 -39.5q-56 0 -97.5 39.5t-41.5 93.5zM807 1380q0 56 40.5 94.5t98.5 38.5t98.5 -38.5t40.5 -94.5q0 -54 -41 -93.5t-98 -39.5q-56 0 -97.5 39.5t-41.5 93.5z" />
    <glyph glyph-name="igrave" unicode="&#xec;" horiz-adv-x="526" 
d="M70 0l178 1006h215l-178 -1006h-215zM303 1163l-125 396l6 38h252l25 -434h-158z" />
    <glyph glyph-name="iacute" unicode="&#xed;" horiz-adv-x="526" 
d="M70 0l178 1006h215l-178 -1006h-215zM301 1163l176 434h277l-6 -38l-279 -396h-168z" />
    <glyph glyph-name="icircumflex" unicode="&#xee;" horiz-adv-x="526" 
d="M70 0l178 1006h215l-178 -1006h-215zM717 1163h-152l-141 230l-229 -230h-170l352 434h139z" />
    <glyph glyph-name="idieresis" unicode="&#xef;" horiz-adv-x="526" 
d="M70 0l178 1006h215l-178 -1006h-215zM66 1382q0 55 40.5 94.5t96.5 39.5q60 0 99.5 -38.5t39.5 -95.5q0 -55 -41 -94t-98 -39q-56 0 -96.5 39t-40.5 94zM487 1382q0 55 42 94.5t98 39.5q57 0 97 -38.5t40 -95.5q0 -55 -40 -94t-97 -39q-56 0 -98 39t-42 94z" />
    <glyph glyph-name="eth" unicode="&#xf0;" horiz-adv-x="1161" 
d="M1069 483q3 -131 -69.5 -249.5t-195.5 -189t-261 -67.5q-198 0 -329.5 126.5t-131.5 318.5q-2 96 38.5 186t109 155.5t162.5 104.5t194 37q55 0 86 -8l-142 236l-311 -129l-59 159l280 115l-104 174l178 109l123 -201l330 135l59 -158l-299 -125l158 -258
q101 -161 141 -266q43 -104 43 -205zM850 469q0 109 -73 181.5t-183 72.5q-121 0 -207 -87t-86 -208q0 -112 71.5 -184t184.5 -72q121 0 207 87t86 210z" />
    <glyph glyph-name="ntilde" unicode="&#xf1;" horiz-adv-x="1177" 
d="M1065 694q0 -36 -12 -112l-103 -582h-217l103 575q10 62 10 80q0 85 -53 134t-142 49q-96 0 -166.5 -57.5t-87.5 -155.5l-110 -625h-215l176 1006h198l-16 -93q121 115 291 115q153 0 248.5 -93t95.5 -241zM737 1257l-53 41q-44 41 -78 41q-59 0 -74 -110h-165
q12 145 67 224t152 79q76 0 147 -53l51 -41q46 -41 78 -41q62 0 74 110h168q-12 -146 -67.5 -225.5t-151.5 -79.5q-75 0 -148 55z" />
    <glyph glyph-name="ograve" unicode="&#xf2;" horiz-adv-x="1245" 
d="M90 477q-2 109 43.5 212t121.5 177.5t180.5 119t215.5 42.5q142 0 259 -65.5t184 -181t67 -255.5q2 -109 -43.5 -211.5t-123 -177t-183 -118.5t-217.5 -42q-216 0 -360 143.5t-144 356.5zM940 524q0 132 -84 219q-82 88 -213 88q-138 0 -235 -103t-97 -249
q0 -135 81 -220t210 -85q141 0 239.5 101.5t98.5 248.5zM575 1163l-122 396l12 38h242l20 -434h-152z" />
    <glyph glyph-name="oacute" unicode="&#xf3;" horiz-adv-x="1245" 
d="M90 477q-2 109 43.5 212t121.5 177.5t180.5 119t215.5 42.5q142 0 259 -65.5t184 -181t67 -255.5q2 -109 -43.5 -211.5t-123 -177t-183 -118.5t-217.5 -42q-216 0 -360 143.5t-144 356.5zM940 524q0 132 -84 219q-82 88 -213 88q-138 0 -235 -103t-97 -249
q0 -135 81 -220t210 -85q141 0 239.5 101.5t98.5 248.5zM578 1163l237 434h272l-6 -38l-331 -396h-172z" />
    <glyph glyph-name="ocircumflex" unicode="&#xf4;" horiz-adv-x="1245" 
d="M90 477q-2 109 43.5 212t121.5 177.5t180.5 119t215.5 42.5q142 0 259 -65.5t184 -181t67 -255.5q2 -109 -43.5 -211.5t-123 -177t-183 -118.5t-217.5 -42q-216 0 -360 143.5t-144 356.5zM940 524q0 132 -84 219q-82 88 -213 88q-138 0 -235 -103t-97 -249
q0 -135 81 -220t210 -85q141 0 239.5 101.5t98.5 248.5zM1026 1163h-152l-141 230l-229 -230h-170l352 434h139z" />
    <glyph glyph-name="otilde" unicode="&#xf5;" horiz-adv-x="1245" 
d="M90 477q-2 109 43.5 212t121.5 177.5t180.5 119t215.5 42.5q142 0 259 -65.5t184 -181t67 -255.5q2 -109 -43.5 -211.5t-123 -177t-183 -118.5t-217.5 -42q-216 0 -360 143.5t-144 356.5zM940 524q0 132 -84 219q-82 88 -213 88q-138 0 -235 -103t-97 -249
q0 -135 81 -220t210 -85q141 0 239.5 101.5t98.5 248.5zM719 1257l-53 41q-44 41 -78 41q-59 0 -74 -110h-166q12 145 67 224t152 79q77 0 148 -53l51 -41q46 -41 78 -41q62 0 74 110h167q-12 -146 -67.5 -225.5t-151.5 -79.5q-74 0 -147 55z" />
    <glyph glyph-name="odieresis" unicode="&#xf6;" horiz-adv-x="1245" 
d="M90 477q-2 109 43.5 212t121.5 177.5t180.5 119t215.5 42.5q142 0 259 -65.5t184 -181t67 -255.5q2 -109 -43.5 -211.5t-123 -177t-183 -118.5t-217.5 -42q-216 0 -360 143.5t-144 356.5zM940 524q0 132 -84 219q-82 88 -213 88q-138 0 -235 -103t-97 -249
q0 -135 81 -220t210 -85q141 0 239.5 101.5t98.5 248.5zM342 1380q0 56 40.5 94.5t98.5 38.5t99 -38.5t41 -94.5q0 -54 -41.5 -93.5t-98.5 -39.5q-56 0 -97.5 39.5t-41.5 93.5zM823 1380q0 56 41 94.5t99 38.5t98.5 -38.5t40.5 -94.5q0 -54 -41 -93.5t-98 -39.5
q-56 0 -98 39.5t-42 93.5z" />
    <glyph glyph-name="divide" unicode="&#xf7;" 
d="M530 1022q0 57 40 95t98 38q60 0 100.5 -38t40.5 -95q0 -56 -40.5 -94.5t-100.5 -38.5q-57 0 -97.5 39t-40.5 94zM115 557l32 186h938l-32 -186h-938zM397 274q0 55 41.5 94.5t98.5 39.5q60 0 99.5 -38.5t39.5 -95.5t-39.5 -95t-99.5 -38q-57 0 -98.5 39t-41.5 94z" />
    <glyph glyph-name="oslash" unicode="&#xf8;" horiz-adv-x="1241" 
d="M1188 911l-119 -112q86 -121 86 -277q2 -108 -43.5 -209.5t-123 -175.5t-183 -118t-217.5 -42q-156 0 -287 84l-123 -118l-125 131l119 112q-88 125 -88 283q-2 86 26.5 169.5t82 151.5t123.5 120t156 80t175 26q163 0 297 -90l121 116zM297 473q0 -86 35 -151l475 456
q-71 47 -168 47q-140 0 -241 -103t-101 -249zM940 514q0 78 -33 145l-469 -452q71 -41 158 -41q143 0 243.5 101t100.5 247z" />
    <glyph glyph-name="ugrave" unicode="&#xf9;" horiz-adv-x="1165" 
d="M129 358q0 26 10 91l97 557h215l-103 -584q-4 -24 -4 -53q0 -86 58 -140.5t149 -54.5q92 0 156 55t81 148l109 629h215l-111 -633q-32 -183 -156 -289.5t-304 -106.5q-181 0 -296.5 107t-115.5 274zM586 1163l-123 396l12 38h242l20 -434h-151z" />
    <glyph glyph-name="uacute" unicode="&#xfa;" horiz-adv-x="1165" 
d="M129 358q0 26 10 91l97 557h215l-103 -584q-4 -24 -4 -53q0 -86 58 -140.5t149 -54.5q92 0 156 55t81 148l109 629h215l-111 -633q-32 -183 -156 -289.5t-304 -106.5q-181 0 -296.5 107t-115.5 274zM588 1163l237 434h273l-6 -38l-332 -396h-172z" />
    <glyph glyph-name="ucircumflex" unicode="&#xfb;" horiz-adv-x="1165" 
d="M129 358q0 26 10 91l97 557h215l-103 -584q-4 -24 -4 -53q0 -86 58 -140.5t149 -54.5q92 0 156 55t81 148l109 629h215l-111 -633q-32 -183 -156 -289.5t-304 -106.5q-181 0 -296.5 107t-115.5 274zM1038 1163h-151l-142 230l-229 -230h-170l352 434h140z" />
    <glyph glyph-name="udieresis" unicode="&#xfc;" horiz-adv-x="1165" 
d="M129 358q0 26 10 91l97 557h215l-103 -584q-4 -24 -4 -53q0 -86 58 -140.5t149 -54.5q92 0 156 55t81 148l109 629h215l-111 -633q-32 -183 -156 -289.5t-304 -106.5q-181 0 -296.5 107t-115.5 274zM354 1380q0 56 41 94.5t99 38.5t98.5 -38.5t40.5 -94.5
q0 -54 -41 -93.5t-98 -39.5q-56 0 -98 39.5t-42 93.5zM836 1380q0 56 40.5 94.5t98.5 38.5t98.5 -38.5t40.5 -94.5q0 -54 -41 -93.5t-98 -39.5q-56 0 -97.5 39.5t-41.5 93.5z" />
    <glyph glyph-name="yacute" unicode="&#xfd;" horiz-adv-x="1173" 
d="M895 1006h215l-172 -977q-32 -194 -162.5 -307t-320.5 -113q-136 0 -256.5 60.5t-194.5 168.5l133 139q76 -89 152 -130.5t166 -41.5q109 0 178.5 60t89.5 172l14 76q-115 -95 -268 -95q-154 0 -249 91.5t-95 240.5q0 38 12 109l96 547h216l-99 -545q-8 -47 -8 -72
q0 -85 53 -133.5t144 -48.5q94 0 164.5 57.5t87.5 153.5zM582 1163l237 434h273l-7 -38l-331 -396h-172z" />
    <glyph glyph-name="thorn" unicode="&#xfe;" horiz-adv-x="1288" 
d="M1204 547q3 -154 -69 -286.5t-197.5 -209.5t-271.5 -74q-116 0 -209.5 46t-147.5 129l-90 -521h-215l336 1905h215l-113 -633q125 125 318 125q192 0 318 -137t126 -344zM983 528q0 134 -81 218.5t-208 84.5q-137 0 -233 -107t-96 -261q0 -129 79.5 -210t206.5 -81
q138 0 235 103.5t97 252.5z" />
    <glyph glyph-name="ydieresis" unicode="&#xff;" horiz-adv-x="1173" 
d="M895 1006h215l-172 -977q-32 -194 -162.5 -307t-320.5 -113q-136 0 -256.5 60.5t-194.5 168.5l133 139q76 -89 152 -130.5t166 -41.5q109 0 178.5 60t89.5 172l14 76q-115 -95 -268 -95q-154 0 -249 91.5t-95 240.5q0 38 12 109l96 547h216l-99 -545q-8 -47 -8 -72
q0 -85 53 -133.5t144 -48.5q94 0 164.5 57.5t87.5 153.5zM346 1380q0 56 40.5 94.5t98.5 38.5t99 -38.5t41 -94.5q0 -54 -41.5 -93.5t-98.5 -39.5q-56 0 -97.5 39.5t-41.5 93.5zM827 1380q0 56 41 94.5t99 38.5t98.5 -38.5t40.5 -94.5q0 -54 -41 -93.5t-98 -39.5
q-56 0 -98 39.5t-42 93.5z" />
    <glyph glyph-name="Amacron" unicode="&#x100;" horiz-adv-x="1355" 
d="M1006 0l-58 225h-602l-135 -225h-246l836 1374h73l355 -1374h-223zM901 412l-125 555l-319 -555h444zM547 1561l31 174h630l-30 -174h-631z" />
    <glyph glyph-name="amacron" unicode="&#x101;" horiz-adv-x="1288" 
d="M1006 1006h217l-176 -1006h-203l20 119q-62 -68 -148.5 -105t-185.5 -37q-191 0 -317.5 135.5t-126.5 338.5q-2 156 70.5 290t198.5 212t274 75q115 0 206.5 -43.5t145.5 -122.5zM924 549q0 128 -77 205t-204 77q-139 0 -237.5 -105t-98.5 -255q0 -131 80 -215t207 -84
q140 0 235 108.5t95 268.5zM416 1294l30 172h590l-30 -172h-590z" />
    <glyph glyph-name="Abreve" unicode="&#x102;" horiz-adv-x="1355" 
d="M1006 0l-58 225h-602l-135 -225h-246l836 1374h73l355 -1374h-223zM901 412l-125 555l-319 -555h444zM575 1776q0 13 11 88h172q-8 -52 -8 -74q0 -68 39 -108t106 -40q69 0 114.5 45t57.5 125l8 52h172l-8 -52q-20 -152 -116 -241.5t-236 -89.5q-137 0 -224.5 82.5
t-87.5 212.5z" />
    <glyph glyph-name="abreve" unicode="&#x103;" horiz-adv-x="1288" 
d="M1006 1006h217l-176 -1006h-203l20 119q-62 -68 -148.5 -105t-185.5 -37q-191 0 -317.5 135.5t-126.5 338.5q-2 156 70.5 290t198.5 212t274 75q115 0 206.5 -43.5t145.5 -122.5zM924 549q0 128 -77 205t-204 77q-139 0 -237.5 -105t-98.5 -255q0 -131 80 -215t207 -84
q140 0 235 108.5t95 268.5zM399 1466q0 29 15 105h172q-13 -63 -13 -90q0 -67 40.5 -107.5t107.5 -40.5q68 0 113.5 44.5t58.5 125.5l10 68h172l-10 -68q-26 -154 -120.5 -243t-231.5 -89t-225.5 82.5t-88.5 212.5z" />
    <glyph glyph-name="Aogonek" unicode="&#x104;" horiz-adv-x="1355" 
d="M1006 0l-58 225h-602l-135 -225h-246l836 1374h73l355 -1374h-223zM901 412l-125 555l-319 -555h444zM788 -215q0 88 81.5 152t279.5 133l80 -70l-127 -63q-96 -50 -96 -107q0 -63 100 -63q4 0 14.5 0.5t30.5 1.5t37 2l-25 -148q-63 -14 -139 -14q-110 0 -173 47t-63 129
z" />
    <glyph glyph-name="aogonek" unicode="&#x105;" horiz-adv-x="1288" 
d="M1006 1006h217l-176 -1006h-203l20 119q-62 -68 -148.5 -105t-185.5 -37q-191 0 -317.5 135.5t-126.5 338.5q-2 156 70.5 290t198.5 212t274 75q115 0 206.5 -43.5t145.5 -122.5zM924 549q0 128 -77 205t-204 77q-139 0 -237.5 -105t-98.5 -255q0 -131 80 -215t207 -84
q140 0 235 108.5t95 268.5zM606 -215q0 88 81.5 152t279.5 133l80 -70l-127 -63q-97 -51 -97 -107q0 -63 101 -63q4 0 14.5 0.5t30.5 1.5t37 2l-25 -148q-63 -14 -139 -14q-110 0 -173 47t-63 129z" />
    <glyph glyph-name="Cacute" unicode="&#x106;" horiz-adv-x="1468" 
d="M125 627q-2 118 37 232.5t111.5 207.5t168 163.5t212 108t237.5 35.5q189 0 337 -89t230 -253l-178 -108q-135 252 -403 252q-144 0 -265.5 -72t-191.5 -196.5t-70 -272.5q0 -201 126 -330t323 -129q249 0 426 213l151 -123q-106 -137 -262 -213t-332 -76
q-137 -2 -259.5 48t-210.5 137t-138.5 208.5t-48.5 256.5zM887 1483l215 381h274l-6 -39l-317 -342h-166z" />
    <glyph glyph-name="cacute" unicode="&#x107;" horiz-adv-x="1142" 
d="M88 471q-2 112 43 216t121 179.5t181.5 119.5t219.5 42q142 0 255 -66.5t173 -183.5l-161 -108q-102 164 -275 164q-141 0 -239.5 -102t-98.5 -251q0 -135 84 -222t213 -87q167 0 277 137l139 -125q-157 -207 -428 -207q-217 0 -360.5 140.5t-143.5 353.5zM569 1163
l238 434h272l-6 -38l-332 -396h-172z" />
    <glyph glyph-name="Ccircumflex" unicode="&#x108;" horiz-adv-x="1468" 
d="M125 627q-2 118 37 232.5t111.5 207.5t168 163.5t212 108t237.5 35.5q189 0 337 -89t230 -253l-178 -108q-135 252 -403 252q-144 0 -265.5 -72t-191.5 -196.5t-70 -272.5q0 -201 126 -330t323 -129q249 0 426 213l151 -123q-106 -137 -262 -213t-332 -76
q-137 -2 -259.5 48t-210.5 137t-138.5 208.5t-48.5 256.5zM1346 1483h-154l-168 192l-240 -192h-182l371 381h137z" />
    <glyph glyph-name="ccircumflex" unicode="&#x109;" horiz-adv-x="1142" 
d="M88 471q-2 112 43 216t121 179.5t181.5 119.5t219.5 42q142 0 255 -66.5t173 -183.5l-161 -108q-102 164 -275 164q-141 0 -239.5 -102t-98.5 -251q0 -135 84 -222t213 -87q167 0 277 137l139 -125q-157 -207 -428 -207q-217 0 -360.5 140.5t-143.5 353.5zM1018 1163
h-152l-141 230l-229 -230h-170l352 434h139z" />
    <glyph glyph-name="Cdotaccent" unicode="&#x10a;" horiz-adv-x="1468" 
d="M125 627q-2 118 37 232.5t111.5 207.5t168 163.5t212 108t237.5 35.5q189 0 337 -89t230 -253l-178 -108q-135 252 -403 252q-144 0 -265.5 -72t-191.5 -196.5t-70 -272.5q0 -201 126 -330t323 -129q249 0 426 213l151 -123q-106 -137 -262 -213t-332 -76
q-137 -2 -259.5 48t-210.5 137t-138.5 208.5t-48.5 256.5zM862 1663q0 61 42 102t104 41t105.5 -41t43.5 -102q0 -60 -43.5 -100.5t-105.5 -40.5q-60 0 -103 40.5t-43 100.5z" />
    <glyph glyph-name="cdotaccent" unicode="&#x10b;" horiz-adv-x="1142" 
d="M88 471q-2 112 43 216t121 179.5t181.5 119.5t219.5 42q142 0 255 -66.5t173 -183.5l-161 -108q-102 164 -275 164q-141 0 -239.5 -102t-98.5 -251q0 -135 84 -222t213 -87q167 0 277 137l139 -125q-157 -207 -428 -207q-217 0 -360.5 140.5t-143.5 353.5zM575 1380
q0 60 43 102t103 42q61 0 104 -42t43 -102t-42.5 -100.5t-104.5 -40.5q-60 0 -103 40.5t-43 100.5z" />
    <glyph glyph-name="Ccaron" unicode="&#x10c;" horiz-adv-x="1468" 
d="M125 627q-2 118 37 232.5t111.5 207.5t168 163.5t212 108t237.5 35.5q189 0 337 -89t230 -253l-178 -108q-135 252 -403 252q-144 0 -265.5 -72t-191.5 -196.5t-70 -272.5q0 -201 126 -330t323 -129q249 0 426 213l151 -123q-106 -137 -262 -213t-332 -76
q-137 -2 -259.5 48t-210.5 137t-138.5 208.5t-48.5 256.5zM1233 1864h180l-369 -381h-139l-233 381h153l164 -195z" />
    <glyph glyph-name="ccaron" unicode="&#x10d;" horiz-adv-x="1142" 
d="M88 471q-2 112 43 216t121 179.5t181.5 119.5t219.5 42q142 0 255 -66.5t173 -183.5l-161 -108q-102 164 -275 164q-141 0 -239.5 -102t-98.5 -251q0 -135 84 -222t213 -87q167 0 277 137l139 -125q-157 -207 -428 -207q-217 0 -360.5 140.5t-143.5 353.5zM936 1597h168
l-352 -434h-140l-198 434h149l142 -225z" />
    <glyph glyph-name="Dcaron" unicode="&#x10e;" horiz-adv-x="1425" 
d="M84 0l238 1352h362q197 0 352.5 -79t242.5 -222t87 -324q3 -207 -101.5 -374.5t-290.5 -261t-415 -91.5h-475zM336 195h237q250 0 409 146t159 374q0 199 -129 319q-127 121 -344 121h-164zM1001 1864h181l-369 -381h-139l-234 381h154l164 -195z" />
    <glyph glyph-name="dcaron" unicode="&#x10f;" horiz-adv-x="1579" 
d="M1102 1536h215l-270 -1536h-199l22 123q-60 -70 -148 -108t-190 -38q-192 0 -318 136.5t-126 343.5q-2 117 40 223.5t114.5 183.5t173 121.5t209.5 42.5q115 0 208 -45.5t148 -126.5zM926 541q0 129 -79 209.5t-204 80.5q-140 0 -237 -103.5t-97 -252.5q0 -135 79.5 -219
t207.5 -84q137 0 233.5 106.5t96.5 262.5zM1442 1114l94 422h227l-166 -422h-155z" />
    <glyph glyph-name="Dcroat" unicode="&#x110;" horiz-adv-x="1435" 
d="M1374 727q3 -207 -100.5 -374.5t-289.5 -261.5t-417 -91h-475l96 543h-190l33 184h188l111 625h362q146 2 273.5 -44.5t218 -129.5t141.5 -200t49 -251zM1149 715q0 199 -129 319q-127 121 -344 121h-164l-76 -428h240l-33 -184h-237l-62 -348h238q250 0 408.5 146
t158.5 374z" />
    <glyph glyph-name="dslash" unicode="&#x111;" horiz-adv-x="1296" 
d="M1444 1337l-31 -176h-164l-205 -1161h-200l20 111q-128 -134 -329 -134q-197 0 -324 130.5t-127 332.5q-2 148 70.5 275t197.5 200t271 70q117 0 207.5 -46.5t140.5 -131.5l61 354h-432l31 176h432l35 199h217l-35 -199h164zM922 522q0 123 -79 200t-206 77
q-136 0 -233 -99t-97 -237q0 -135 78 -218t205 -83q136 0 234 105.5t98 254.5z" />
    <glyph glyph-name="Emacron" unicode="&#x112;" horiz-adv-x="1167" 
d="M84 0l238 1352h888l-34 -195h-672l-62 -346h504l-33 -188h-503l-74 -428h694l-33 -195h-913zM477 1561l31 174h631l-31 -174h-631z" />
    <glyph glyph-name="emacron" unicode="&#x113;" horiz-adv-x="1150" 
d="M1049 432h-746q17 -128 98 -197t215 -69q152 0 295 108l93 -145q-166 -152 -408 -152q-220 0 -364 139.5t-144 354.5q-2 111 42.5 214.5t119 179.5t177.5 120.5t212 42.5q195 0 317.5 -124t122.5 -322q0 -80 -30 -150zM315 598h551q-2 117 -65.5 182.5t-175.5 65.5
t-196.5 -67.5t-113.5 -180.5zM403 1294l31 172h590l-31 -172h-590z" />
    <glyph glyph-name="Ebreve" unicode="&#x114;" horiz-adv-x="1167" 
d="M84 0l238 1352h888l-34 -195h-672l-62 -346h504l-33 -188h-503l-74 -428h694l-33 -195h-913zM506 1776q0 20 10 88h172q-8 -52 -8 -74q0 -68 39 -108t106 -40q69 0 114.5 45t57.5 125l9 52h172l-9 -52q-20 -152 -116 -241.5t-236 -89.5q-137 0 -224 82.5t-87 212.5z" />
    <glyph glyph-name="ebreve" unicode="&#x115;" horiz-adv-x="1150" 
d="M1049 432h-746q17 -128 98 -197t215 -69q152 0 295 108l93 -145q-166 -152 -408 -152q-220 0 -364 139.5t-144 354.5q-2 111 42.5 214.5t119 179.5t177.5 120.5t212 42.5q195 0 317.5 -124t122.5 -322q0 -80 -30 -150zM315 598h551q-2 117 -65.5 182.5t-175.5 65.5
t-196.5 -67.5t-113.5 -180.5zM387 1466q0 34 14 105h172q-12 -59 -12 -90q0 -67 40.5 -107.5t107.5 -40.5q68 0 113.5 44.5t58.5 125.5l10 68h172l-10 -68q-26 -154 -121 -243t-232 -89t-225 82.5t-88 212.5z" />
    <glyph glyph-name="Edotaccent" unicode="&#x116;" horiz-adv-x="1167" 
d="M84 0l238 1352h888l-34 -195h-672l-62 -346h504l-33 -188h-503l-74 -428h694l-33 -195h-913zM664 1663q0 61 41.5 102t103.5 41t105.5 -41t43.5 -102q0 -60 -43.5 -100.5t-105.5 -40.5q-60 0 -102.5 40.5t-42.5 100.5z" />
    <glyph glyph-name="edotaccent" unicode="&#x117;" horiz-adv-x="1150" 
d="M1049 432h-746q17 -128 98 -197t215 -69q152 0 295 108l93 -145q-166 -152 -408 -152q-220 0 -364 139.5t-144 354.5q-2 111 42.5 214.5t119 179.5t177.5 120.5t212 42.5q195 0 317.5 -124t122.5 -322q0 -80 -30 -150zM315 598h551q-2 117 -65.5 182.5t-175.5 65.5
t-196.5 -67.5t-113.5 -180.5zM569 1380q0 60 43 102t103 42q61 0 104 -42t43 -102t-42.5 -100.5t-104.5 -40.5q-60 0 -103 40.5t-43 100.5z" />
    <glyph glyph-name="Eogonek" unicode="&#x118;" horiz-adv-x="1167" 
d="M84 0l238 1352h888l-34 -195h-672l-62 -346h504l-33 -188h-503l-74 -428h694l-33 -195h-913zM557 -215q0 88 81.5 152t279.5 133l79 -70l-127 -63q-96 -50 -96 -107q0 -63 100 -63q4 0 14.5 0.5t30.5 1.5t37 2l-24 -148q-63 -14 -139 -14q-110 0 -173 47t-63 129z" />
    <glyph glyph-name="eogonek" unicode="&#x119;" horiz-adv-x="1150" 
d="M1049 432h-746q17 -128 98 -197t215 -69q152 0 295 108l93 -145q-166 -152 -408 -152q-220 0 -364 139.5t-144 354.5q-2 111 42.5 214.5t119 179.5t177.5 120.5t212 42.5q195 0 317.5 -124t122.5 -322q0 -80 -30 -150zM315 598h551q-2 117 -65.5 182.5t-175.5 65.5
t-196.5 -67.5t-113.5 -180.5zM528 -215q0 163 318 344h158l-170 -164q-55 -55 -72 -80.5t-17 -54.5q0 -34 25 -48.5t76 -14.5q4 0 14.5 0.5t30.5 1.5t37 2l-25 -148q-63 -14 -139 -14q-110 0 -173 47t-63 129z" />
    <glyph glyph-name="Ecaron" unicode="&#x11a;" horiz-adv-x="1167" 
d="M84 0l238 1352h888l-34 -195h-672l-62 -346h504l-33 -188h-503l-74 -428h694l-33 -195h-913zM1034 1864h180l-368 -381h-139l-234 381h154l164 -195z" />
    <glyph glyph-name="ecaron" unicode="&#x11b;" horiz-adv-x="1150" 
d="M1049 432h-746q17 -128 98 -197t215 -69q152 0 295 108l93 -145q-166 -152 -408 -152q-220 0 -364 139.5t-144 354.5q-2 111 42.5 214.5t119 179.5t177.5 120.5t212 42.5q195 0 317.5 -124t122.5 -322q0 -80 -30 -150zM315 598h551q-2 117 -65.5 182.5t-175.5 65.5
t-196.5 -67.5t-113.5 -180.5zM928 1597h168l-353 -434h-139l-198 434h149l141 -225z" />
    <glyph glyph-name="Gcircumflex" unicode="&#x11c;" horiz-adv-x="1533" 
d="M125 627q-2 118 37 232.5t111.5 207.5t168 163.5t212 108t237.5 35.5q179 0 322 -80.5t231 -230.5l-166 -123q-137 236 -399 236q-146 0 -267.5 -72t-191.5 -196.5t-70 -272.5q0 -203 125.5 -332t327.5 -129q111 0 212 45t179 129l31 174h-416l35 193h633l-74 -422
q-100 -147 -266 -231.5t-355 -84.5q-137 -2 -259.5 48t-210.5 137t-138.5 208.5t-48.5 256.5zM1346 1483h-154l-168 192l-240 -192h-182l371 381h137z" />
    <glyph glyph-name="gcircumflex" unicode="&#x11d;" horiz-adv-x="1290" 
d="M1008 1006h215l-164 -945q-37 -211 -182.5 -331.5t-364.5 -120.5q-148 0 -276.5 59.5t-219.5 169.5l136 137q147 -170 360 -170q135 0 223.5 69.5t108.5 193.5l12 65q-128 -113 -319 -113q-194 0 -322.5 126.5t-128.5 316.5q-3 152 71 283.5t201 208t273 73.5
q117 0 209 -44t143 -124zM930 555q0 124 -80 203.5t-205 79.5q-142 0 -239 -102t-97 -251q0 -125 78 -201.5t207 -76.5q143 0 239.5 99.5t96.5 248.5zM1014 1163h-152l-141 230l-229 -230h-170l352 434h139z" />
    <glyph glyph-name="Gbreve" unicode="&#x11e;" horiz-adv-x="1533" 
d="M125 627q-2 118 37 232.5t111.5 207.5t168 163.5t212 108t237.5 35.5q179 0 322 -80.5t231 -230.5l-166 -123q-137 236 -399 236q-146 0 -267.5 -72t-191.5 -196.5t-70 -272.5q0 -203 125.5 -332t327.5 -129q111 0 212 45t179 129l31 174h-416l35 193h633l-74 -422
q-100 -147 -266 -231.5t-355 -84.5q-137 -2 -259.5 48t-210.5 137t-138.5 208.5t-48.5 256.5zM705 1776q0 20 10 88h172q-8 -52 -8 -74q0 -68 39 -108t106 -40q69 0 114.5 45t57.5 125l8 52h172l-8 -52q-20 -152 -116 -241.5t-236 -89.5q-137 0 -224 82.5t-87 212.5z" />
    <glyph glyph-name="gbreve" unicode="&#x11f;" horiz-adv-x="1290" 
d="M1008 1006h215l-164 -945q-37 -211 -182.5 -331.5t-364.5 -120.5q-148 0 -276.5 59.5t-219.5 169.5l136 137q147 -170 360 -170q135 0 223.5 69.5t108.5 193.5l12 65q-128 -113 -319 -113q-194 0 -322.5 126.5t-128.5 316.5q-3 152 71 283.5t201 208t273 73.5
q117 0 209 -44t143 -124zM930 555q0 124 -80 203.5t-205 79.5q-142 0 -239 -102t-97 -251q0 -125 78 -201.5t207 -76.5q143 0 239.5 99.5t96.5 248.5zM389 1466q0 34 14 105h172q-12 -59 -12 -90q0 -67 40.5 -107.5t107.5 -40.5q68 0 113.5 44.5t58.5 125.5l10 68h172
l-10 -68q-26 -154 -121 -243t-232 -89t-225 82.5t-88 212.5z" />
    <glyph glyph-name="Gdotaccent" unicode="&#x120;" horiz-adv-x="1533" 
d="M125 627q-2 118 37 232.5t111.5 207.5t168 163.5t212 108t237.5 35.5q179 0 322 -80.5t231 -230.5l-166 -123q-137 236 -399 236q-146 0 -267.5 -72t-191.5 -196.5t-70 -272.5q0 -203 125.5 -332t327.5 -129q111 0 212 45t179 129l31 174h-416l35 193h633l-74 -422
q-100 -147 -266 -231.5t-355 -84.5q-137 -2 -259.5 48t-210.5 137t-138.5 208.5t-48.5 256.5zM862 1663q0 61 42 102t104 41t105.5 -41t43.5 -102q0 -60 -43.5 -100.5t-105.5 -40.5q-60 0 -103 40.5t-43 100.5z" />
    <glyph glyph-name="gdotaccent" unicode="&#x121;" horiz-adv-x="1290" 
d="M1008 1006h215l-164 -945q-37 -211 -182.5 -331.5t-364.5 -120.5q-148 0 -276.5 59.5t-219.5 169.5l136 137q147 -170 360 -170q135 0 223.5 69.5t108.5 193.5l12 65q-128 -113 -319 -113q-194 0 -322.5 126.5t-128.5 316.5q-3 152 71 283.5t201 208t273 73.5
q117 0 209 -44t143 -124zM930 555q0 124 -80 203.5t-205 79.5q-142 0 -239 -102t-97 -251q0 -125 78 -201.5t207 -76.5q143 0 239.5 99.5t96.5 248.5zM571 1380q0 60 43 102t103 42q61 0 104 -42t43 -102t-42.5 -100.5t-104.5 -40.5q-60 0 -103 40.5t-43 100.5z" />
    <glyph glyph-name="uni0122" unicode="&#x122;" horiz-adv-x="1533" 
d="M125 627q-2 118 37 232.5t111.5 207.5t168 163.5t212 108t237.5 35.5q179 0 322 -80.5t231 -230.5l-166 -123q-137 236 -399 236q-146 0 -267.5 -72t-191.5 -196.5t-70 -272.5q0 -203 125.5 -332t327.5 -129q111 0 212 45t179 129l31 174h-416l35 193h633l-74 -422
q-100 -147 -266 -231.5t-355 -84.5q-137 -2 -259.5 48t-210.5 137t-138.5 208.5t-48.5 256.5zM522 -451l78 353h203l-115 -353h-166z" />
    <glyph glyph-name="uni0123" unicode="&#x123;" horiz-adv-x="1290" 
d="M1008 1006h215l-164 -945q-37 -211 -182.5 -331.5t-364.5 -120.5q-148 0 -276.5 59.5t-219.5 169.5l136 137q147 -170 360 -170q135 0 223.5 69.5t108.5 193.5l12 65q-128 -113 -319 -113q-194 0 -322.5 126.5t-128.5 316.5q-3 152 71 283.5t201 208t273 73.5
q117 0 209 -44t143 -124zM930 555q0 124 -80 203.5t-205 79.5q-142 0 -239 -102t-97 -251q0 -125 78 -201.5t207 -76.5q143 0 239.5 99.5t96.5 248.5zM565 1163l144 434h159l-94 -434h-209z" />
    <glyph glyph-name="Hcircumflex" unicode="&#x124;" horiz-adv-x="1456" 
d="M84 0l238 1352h217l-93 -539h680l93 539h217l-238 -1352h-217l109 618h-680l-109 -618h-217zM1272 1483h-154l-168 192l-239 -192h-183l371 381h137z" />
    <glyph glyph-name="hcircumflex" unicode="&#x125;" horiz-adv-x="1177" 
d="M1065 694q0 -26 -12 -112l-103 -582h-217l103 580q10 52 10 75q0 85 -52 134t-143 49q-99 0 -168 -57.5t-86 -155.5l-110 -625h-215l268 1536h215l-104 -606q113 98 270 98q154 0 249 -92.5t95 -241.5zM840 1667h-154l-168 193l-239 -193h-183l371 381h137z" />
    <glyph glyph-name="Hbar" unicode="&#x126;" horiz-adv-x="1488" 
d="M1606 1100l-33 -182h-197l-162 -918h-217l84 479h-680l-84 -479h-217l162 918h-199l33 182h197l45 252h217l-45 -252h680l45 252h217l-45 -252h199zM1114 670l45 248h-680l-45 -248h680z" />
    <glyph glyph-name="hbar" unicode="&#x127;" horiz-adv-x="1187" 
d="M1065 651q0 -53 -12 -112l-92 -539h-218l95 532q8 56 8 74q0 86 -52 133t-143 47q-96 0 -166.5 -56.5t-87.5 -154.5l-100 -575h-215l203 1157h-164l33 184h161l35 195h215l-35 -195h404l-33 -184h-401l-47 -270q110 98 268 98q155 0 249.5 -92t94.5 -242z" />
    <glyph glyph-name="Itilde" unicode="&#x128;" horiz-adv-x="557" 
d="M84 0l238 1352h217l-238 -1352h-217zM471 1559l-57 34q-53 35 -84 35q-60 0 -72 -104h-166q12 150 65 224.5t154 74.5q47 0 83.5 -13t84.5 -43l53 -34q56 -37 86 -37q32 0 48 24.5t24 81.5h166q-21 -299 -221 -299q-46 0 -80.5 13t-83.5 43z" />
    <glyph glyph-name="itilde" unicode="&#x129;" horiz-adv-x="526" 
d="M70 0l178 1006h215l-178 -1006h-215zM406 1268l-35 35q-36 36 -64 36q-30 0 -44.5 -26t-20.5 -84h-168q12 144 67 223.5t150 79.5q77 0 143 -66l33 -32q3 -3 8.5 -8t7.5 -6.5t6.5 -5.5t6.5 -5t5.5 -3.5t5.5 -3.5t5 -2t5.5 -1.5t6 -1t6.5 -0.5q28 0 42.5 25t25.5 85h164
q-12 -145 -65.5 -225t-147.5 -80q-71 0 -143 66z" />
    <glyph glyph-name="Imacron" unicode="&#x12a;" horiz-adv-x="557" 
d="M84 0l238 1352h217l-238 -1352h-217zM154 1561l30 174h631l-31 -174h-630z" />
    <glyph glyph-name="imacron" unicode="&#x12b;" horiz-adv-x="526" 
d="M70 0l178 1006h215l-178 -1006h-215zM162 1294l31 174h489l-33 -174h-487z" />
    <glyph glyph-name="Ibreve" unicode="&#x12c;" horiz-adv-x="557" 
d="M84 0l238 1352h217l-238 -1352h-217zM182 1776q0 13 11 88h172q-9 -58 -9 -74q0 -68 39.5 -108t106.5 -40q69 0 114.5 45t57.5 125l8 52h172l-8 -52q-20 -152 -116 -241.5t-236 -89.5q-137 0 -224.5 82.5t-87.5 212.5z" />
    <glyph glyph-name="ibreve" unicode="&#x12d;" horiz-adv-x="526" 
d="M70 0l178 1006h215l-178 -1006h-215zM94 1466q0 29 15 105h172q-13 -63 -13 -90q0 -67 40 -107.5t108 -40.5t113.5 44.5t58.5 125.5l10 68h172l-10 -68q-26 -154 -120.5 -243t-231.5 -89t-225.5 82.5t-88.5 212.5z" />
    <glyph glyph-name="Iogonek" unicode="&#x12e;" horiz-adv-x="557" 
d="M84 0l238 1352h217l-238 -1352h-217zM-139 -215q0 88 81 152t279 133l80 -70l-127 -63q-96 -50 -96 -107q0 -63 100 -63q4 0 14.5 0.5t30.5 1.5t37 2l-24 -148q-63 -14 -140 -14q-110 0 -172.5 47t-62.5 129z" />
    <glyph glyph-name="iogonek" unicode="&#x12f;" horiz-adv-x="526" 
d="M70 0l178 1006h215l-178 -1006h-215zM276 1380q0 60 43 102t103 42q61 0 104 -42t43 -102t-42.5 -100.5t-104.5 -40.5q-60 0 -103 40.5t-43 100.5zM-154 -215q0 88 81.5 152t279.5 133l80 -70l-127 -63q-97 -51 -97 -107q0 -63 101 -63q4 0 14.5 0.5t30.5 1.5t37 2
l-25 -148q-63 -14 -139 -14q-110 0 -173 47t-63 129z" />
    <glyph glyph-name="Idot" unicode="&#x130;" horiz-adv-x="557" 
d="M84 0l238 1352h217l-238 -1352h-217zM340 1663q0 61 41.5 102t103.5 41t106 -41t44 -102q0 -59 -44 -100t-106 -41q-60 0 -102.5 40.5t-42.5 100.5z" />
    <glyph glyph-name="dotlessi" unicode="&#x131;" horiz-adv-x="526" 
d="M70 0l178 1006h215l-178 -1006h-215z" />
    <glyph glyph-name="IJ" unicode="&#x132;" horiz-adv-x="1341" 
d="M84 0l238 1352h217l-238 -1352h-217zM516 16l33 185q131 -23 178 -23q87 0 135.5 42.5t65.5 133.5l176 998h217l-182 -1035q-29 -167 -127 -253.5t-258 -86.5q-125 0 -238 39z" />
    <glyph glyph-name="ij" unicode="&#x133;" horiz-adv-x="1056" 
d="M70 0l178 1006h215l-178 -1006h-215zM276 1380q0 60 43 102t103 42q61 0 104 -42t43 -102t-42.5 -100.5t-104.5 -40.5q-60 0 -103 40.5t-43 100.5zM262 -360l31 176q79 -11 110 -11q83 0 129.5 37.5t59.5 120.5l182 1043h217l-190 -1078q-29 -158 -123 -238.5t-242 -80.5
q-95 0 -174 31zM801 1380q0 60 42.5 102t102.5 42q62 0 105 -42t43 -102t-43 -100.5t-105 -40.5q-60 0 -102.5 40.5t-42.5 100.5z" />
    <glyph glyph-name="Jcircumflex" unicode="&#x134;" horiz-adv-x="782" 
d="M-41 16l33 185q131 -23 178 -23q87 0 135.5 42.5t65.5 133.5l176 998h217l-182 -1035q-29 -167 -127 -253.5t-258 -86.5q-125 0 -238 39zM1020 1483h-154l-168 192l-239 -192h-183l371 381h137z" />
    <glyph glyph-name="jcircumflex" unicode="&#x135;" horiz-adv-x="528" 
d="M-264 -360l31 176q79 -11 110 -11q83 0 129.5 37.5t59.5 120.5l182 1043h217l-191 -1078q-29 -158 -122.5 -238.5t-241.5 -80.5q-95 0 -174 31zM717 1163h-152l-141 230l-229 -230h-170l352 434h139z" />
    <glyph glyph-name="uni0136" unicode="&#x136;" horiz-adv-x="1331" 
d="M322 1352h217l-238 -1352h-217zM1382 1352l-682 -654l506 -698h-250l-522 719l662 633h286zM387 -451l78 353h203l-115 -353h-166z" />
    <glyph glyph-name="uni0137" unicode="&#x137;" horiz-adv-x="1087" 
d="M340 1536h215l-270 -1536h-215zM1126 1006l-487 -465l344 -541h-240l-350 559l459 447h274zM272 -451l78 353h203l-115 -353h-166z" />
    <glyph glyph-name="Lacute" unicode="&#x139;" horiz-adv-x="1056" 
d="M84 0l238 1352h217l-203 -1157h618l-34 -195h-836zM365 1483l215 381h274l-6 -39l-318 -342h-165z" />
    <glyph glyph-name="lacute" unicode="&#x13a;" horiz-adv-x="526" 
d="M70 0l270 1536h215l-270 -1536h-215zM383 1667l215 381h274l-6 -39l-317 -342h-166z" />
    <glyph glyph-name="uni013B" unicode="&#x13b;" horiz-adv-x="1056" 
d="M84 0l238 1352h217l-203 -1157h618l-34 -195h-836zM301 -451l78 353h203l-115 -353h-166z" />
    <glyph glyph-name="uni013C" unicode="&#x13c;" horiz-adv-x="526" 
d="M70 0l270 1536h215l-270 -1536h-215zM-14 -451l77 353h203l-114 -353h-166z" />
    <glyph glyph-name="Lcaron" unicode="&#x13d;" horiz-adv-x="1056" 
d="M84 0l238 1352h217l-203 -1157h618l-34 -195h-836zM778 930l94 422h228l-166 -422h-156z" />
    <glyph glyph-name="lcaron" unicode="&#x13e;" horiz-adv-x="806" 
d="M70 0l270 1536h215l-270 -1536h-215zM670 1114l94 422h227l-166 -422h-155z" />
    <glyph glyph-name="Ldot" unicode="&#x13f;" horiz-adv-x="1056" 
d="M84 0l238 1352h217l-203 -1157h618l-34 -195h-836zM694 764q0 69 46 114.5t114 45.5t113 -45.5t45 -114.5q0 -68 -45 -113t-113 -45t-114 45.5t-46 112.5z" />
    <glyph glyph-name="ldot" unicode="&#x140;" horiz-adv-x="741" 
d="M70 0l270 1536h215l-270 -1536h-215zM498 649q0 69 45.5 114.5t113.5 45.5t113 -45.5t45 -114.5q0 -67 -45 -112t-113 -45t-113.5 45t-45.5 112z" />
    <glyph glyph-name="Lslash" unicode="&#x141;" horiz-adv-x="1056" 
d="M336 195h618l-34 -195h-836l82 467l-164 -68l35 203l166 70l119 680h217l-105 -594l467 194l-35 -200l-467 -197z" />
    <glyph glyph-name="lslash" unicode="&#x142;" horiz-adv-x="555" 
d="M631 944l-37 -201l-186 -79l-117 -664h-215l102 578l-170 -72l35 201l170 71l133 758h215l-119 -674z" />
    <glyph glyph-name="Nacute" unicode="&#x143;" horiz-adv-x="1456" 
d="M1219 1352h217l-242 -1375h-74l-655 955l-164 -932h-217l242 1374h75l656 -952zM813 1483l215 381h275l-7 -39l-317 -342h-166z" />
    <glyph glyph-name="nacute" unicode="&#x144;" horiz-adv-x="1177" 
d="M1065 694q0 -36 -12 -112l-103 -582h-217l103 575q10 62 10 80q0 85 -53 134t-142 49q-96 0 -166.5 -57.5t-87.5 -155.5l-110 -625h-215l176 1006h198l-16 -93q121 115 291 115q153 0 248.5 -93t95.5 -241zM596 1163l238 434h272l-6 -38l-332 -396h-172z" />
    <glyph glyph-name="uni0145" unicode="&#x145;" horiz-adv-x="1456" 
d="M1219 1352h217l-242 -1375h-74l-655 955l-164 -932h-217l242 1374h75l656 -952zM449 -451l77 353h203l-115 -353h-165z" />
    <glyph glyph-name="uni0146" unicode="&#x146;" horiz-adv-x="1177" 
d="M1065 694q0 -36 -12 -112l-103 -582h-217l103 575q10 62 10 80q0 85 -53 134t-142 49q-96 0 -166.5 -57.5t-87.5 -155.5l-110 -625h-215l176 1006h198l-16 -93q121 115 291 115q153 0 248.5 -93t95.5 -241zM326 -451l77 353h203l-114 -353h-166z" />
    <glyph glyph-name="Ncaron" unicode="&#x147;" horiz-adv-x="1456" 
d="M1219 1352h217l-242 -1375h-74l-655 955l-164 -932h-217l242 1374h75l656 -952zM1159 1864h180l-368 -381h-140l-233 381h154l163 -195z" />
    <glyph glyph-name="ncaron" unicode="&#x148;" horiz-adv-x="1177" 
d="M1065 694q0 -36 -12 -112l-103 -582h-217l103 575q10 62 10 80q0 85 -53 134t-142 49q-96 0 -166.5 -57.5t-87.5 -155.5l-110 -625h-215l176 1006h198l-16 -93q121 115 291 115q153 0 248.5 -93t95.5 -241zM965 1597h168l-353 -434h-139l-199 434h150l141 -225z" />
    <glyph glyph-name="Eng" unicode="&#x14a;" horiz-adv-x="1456" 
d="M1217 1352h217l-248 -1426q-26 -155 -121 -236t-248 -81q-99 0 -178 31l33 182q64 -15 116 -15q159 0 185 156l14 78l-526 858l-158 -899h-217l240 1374h75l637 -1032z" />
    <glyph glyph-name="eng" unicode="&#x14b;" horiz-adv-x="1179" 
d="M1063 694q0 -26 -12 -112l-113 -652q-29 -159 -124 -240t-245 -81q-104 0 -174 33l31 176q67 -13 115 -13q84 0 128.5 37.5t57.5 126.5l109 611q8 52 8 75q0 85 -51.5 134t-141.5 49q-99 0 -170 -58.5t-84 -154.5l-110 -625h-215l176 1006h198l-16 -95q123 117 291 117
q154 0 248 -92.5t94 -241.5z" />
    <glyph glyph-name="Omacron" unicode="&#x14c;" horiz-adv-x="1597" 
d="M125 627q-3 149 59 288.5t166 240.5t246 161t291 57q185 0 334 -85t233 -233.5t84 -330.5q4 -148 -58.5 -287.5t-167 -241t-246 -162t-288.5 -57.5q-140 0 -261.5 50t-207.5 136.5t-135 206.5t-49 257zM1315 717q0 199 -125.5 329t-319.5 130q-140 3 -262 -70.5
t-192.5 -199t-67.5 -269.5q0 -200 125 -330.5t318 -130.5q140 -3 262 71t193 200t69 270zM666 1561l30 174h631l-31 -174h-630z" />
    <glyph glyph-name="omacron" unicode="&#x14d;" horiz-adv-x="1245" 
d="M90 477q-2 109 43.5 212t121.5 177.5t180.5 119t215.5 42.5q142 0 259 -65.5t184 -181t67 -255.5q2 -109 -43.5 -211.5t-123 -177t-183 -118.5t-217.5 -42q-216 0 -360 143.5t-144 356.5zM940 524q0 132 -84 219q-82 88 -213 88q-138 0 -235 -103t-97 -249
q0 -135 81 -220t210 -85q141 0 239.5 101.5t98.5 248.5zM420 1294l31 172h589l-30 -172h-590z" />
    <glyph glyph-name="Obreve" unicode="&#x14e;" horiz-adv-x="1597" 
d="M125 627q-3 149 59 288.5t166 240.5t246 161t291 57q185 0 334 -85t233 -233.5t84 -330.5q4 -148 -58.5 -287.5t-167 -241t-246 -162t-288.5 -57.5q-140 0 -261.5 50t-207.5 136.5t-135 206.5t-49 257zM1315 717q0 199 -125.5 329t-319.5 130q-140 3 -262 -70.5
t-192.5 -199t-67.5 -269.5q0 -200 125 -330.5t318 -130.5q140 -3 262 71t193 200t69 270zM694 1776q0 13 11 88h172q-9 -59 -9 -74q0 -68 39.5 -108t106.5 -40q69 0 114.5 45t57.5 125l8 52h172l-8 -52q-20 -152 -116 -241.5t-236 -89.5q-137 0 -224.5 82.5t-87.5 212.5z
" />
    <glyph glyph-name="obreve" unicode="&#x14f;" horiz-adv-x="1245" 
d="M90 477q-2 109 43.5 212t121.5 177.5t180.5 119t215.5 42.5q142 0 259 -65.5t184 -181t67 -255.5q2 -109 -43.5 -211.5t-123 -177t-183 -118.5t-217.5 -42q-216 0 -360 143.5t-144 356.5zM940 524q0 132 -84 219q-82 88 -213 88q-138 0 -235 -103t-97 -249
q0 -135 81 -220t210 -85q141 0 239.5 101.5t98.5 248.5zM403 1466q0 29 15 105h172q-12 -59 -12 -90q0 -68 40 -108t107 -40q68 0 113.5 44.5t58.5 125.5l10 68h172l-10 -68q-26 -154 -120.5 -243t-231.5 -89t-225.5 82.5t-88.5 212.5z" />
    <glyph glyph-name="Ohungarumlaut" unicode="&#x150;" horiz-adv-x="1597" 
d="M125 627q-3 149 59 288.5t166 240.5t246 161t291 57q185 0 334 -85t233 -233.5t84 -330.5q4 -148 -58.5 -287.5t-167 -241t-246 -162t-288.5 -57.5q-140 0 -261.5 50t-207.5 136.5t-135 206.5t-49 257zM1315 717q0 199 -125.5 329t-319.5 130q-140 3 -262 -70.5
t-192.5 -199t-67.5 -269.5q0 -200 125 -330.5t318 -130.5q140 -3 262 71t193 200t69 270zM633 1483l229 381h240l-4 -39l-305 -342h-160zM1087 1483l230 381h242l-7 -39l-305 -342h-160z" />
    <glyph glyph-name="ohungarumlaut" unicode="&#x151;" horiz-adv-x="1245" 
d="M90 477q-2 109 43.5 212t121.5 177.5t180.5 119t215.5 42.5q142 0 259 -65.5t184 -181t67 -255.5q2 -109 -43.5 -211.5t-123 -177t-183 -118.5t-217.5 -42q-216 0 -360 143.5t-144 356.5zM940 524q0 132 -84 219q-82 88 -213 88q-138 0 -235 -103t-97 -249
q0 -135 81 -220t210 -85q141 0 239.5 101.5t98.5 248.5zM395 1163l238 434h239l-6 -38l-309 -396h-162zM821 1163l236 434h241l-6 -38l-309 -396h-162z" />
    <glyph glyph-name="OE" unicode="&#x152;" horiz-adv-x="2283" 
d="M2290 1157h-670l-59 -348h503l-32 -184h-504l-76 -430h694l-35 -195h-890l34 197q-87 -105 -216.5 -162.5t-286.5 -57.5q-129 -2 -246 47t-201.5 134.5t-133 204.5t-46.5 251q-3 152 57 294t162 245t242 163.5t291 57.5q172 0 310 -71t206 -193l43 242h888zM1319 739
q0 192 -122.5 314.5t-315.5 122.5q-146 0 -268.5 -72t-193.5 -196.5t-71 -272.5q0 -201 126.5 -330t324.5 -129q144 0 263.5 74t188 203.5t68.5 285.5z" />
    <glyph glyph-name="oe" unicode="&#x153;" horiz-adv-x="1964" 
d="M1864 430h-748q17 -125 98.5 -194.5t215.5 -69.5q150 0 296 108l91 -145q-178 -152 -404 -152q-132 0 -240 59.5t-172 164.5q-73 -104 -183.5 -164t-237.5 -60q-207 0 -348.5 144t-141.5 356q-3 145 71.5 273.5t202.5 204.5t273 73q126 0 229.5 -61t167.5 -168
q75 106 185.5 166.5t236.5 60.5q192 0 314 -122.5t122 -317.5q0 -67 -28 -156zM1128 596h551v2q0 113 -64.5 179.5t-176.5 66.5q-110 0 -194.5 -67.5t-115.5 -180.5zM915 522q0 133 -79 221t-203 88q-136 0 -229 -103t-93 -253q0 -130 78 -217q81 -84 201 -84
q136 0 230.5 102.5t94.5 245.5z" />
    <glyph glyph-name="Racute" unicode="&#x154;" horiz-adv-x="1292" 
d="M864 547l318 -547h-238l-311 522h-240l-92 -522h-217l238 1352h442q205 0 324.5 -102t119.5 -279q0 -155 -92 -268t-252 -156zM506 1159l-78 -444h285q127 0 199.5 64t72.5 175q0 98 -59.5 151.5t-169.5 53.5h-250zM629 1483l215 381h274l-6 -39l-317 -342h-166z" />
    <glyph glyph-name="racute" unicode="&#x155;" horiz-adv-x="768" 
d="M821 997l-35 -186q-49 8 -98 8q-122 0 -203.5 -69.5t-101.5 -192.5l-98 -557h-215l178 1006h198l-18 -105q114 117 281 117q59 0 112 -21zM401 1163l238 434h272l-6 -38l-332 -396h-172z" />
    <glyph glyph-name="uni0156" unicode="&#x156;" horiz-adv-x="1292" 
d="M864 547l318 -547h-238l-311 522h-240l-92 -522h-217l238 1352h442q205 0 324.5 -102t119.5 -279q0 -155 -92 -268t-252 -156zM506 1159l-78 -444h285q127 0 199.5 64t72.5 175q0 98 -59.5 151.5t-169.5 53.5h-250zM379 -451l78 353h202l-114 -353h-166z" />
    <glyph glyph-name="uni0157" unicode="&#x157;" horiz-adv-x="768" 
d="M821 997l-35 -186q-49 8 -98 8q-122 0 -203.5 -69.5t-101.5 -192.5l-98 -557h-215l178 1006h198l-18 -105q114 117 281 117q59 0 112 -21zM-14 -451l77 353h203l-114 -353h-166z" />
    <glyph glyph-name="Rcaron" unicode="&#x158;" horiz-adv-x="1292" 
d="M864 547l318 -547h-238l-311 522h-240l-92 -522h-217l238 1352h442q205 0 324.5 -102t119.5 -279q0 -155 -92 -268t-252 -156zM506 1159l-78 -444h285q127 0 199.5 64t72.5 175q0 98 -59.5 151.5t-169.5 53.5h-250zM975 1864h180l-369 -381h-139l-233 381h153l164 -195z
" />
    <glyph glyph-name="rcaron" unicode="&#x159;" horiz-adv-x="768" 
d="M821 997l-35 -186q-49 8 -98 8q-122 0 -203.5 -69.5t-101.5 -192.5l-98 -557h-215l178 1006h198l-18 -105q114 117 281 117q59 0 112 -21zM768 1597h168l-352 -434h-140l-198 434h149l142 -225z" />
    <glyph glyph-name="Sacute" unicode="&#x15a;" horiz-adv-x="1142" 
d="M37 307l166 105q142 -238 364 -238q103 0 165.5 50.5t62.5 135.5q0 62 -41 109.5t-131 95.5l-144 78q-254 140 -254 352q0 163 126.5 271t316.5 108q293 0 438 -258l-166 -104q-60 86 -127.5 126t-155.5 40q-98 0 -154.5 -46t-56.5 -124q0 -59 35 -100.5t123 -92.5
l146 -80q136 -74 201 -160t65 -194q0 -174 -129.5 -289t-325.5 -115q-167 0 -302.5 85t-221.5 245zM637 1483l215 381h274l-6 -39l-317 -342h-166z" />
    <glyph glyph-name="sacute" unicode="&#x15b;" horiz-adv-x="933" 
d="M29 199l143 125q72 -88 133.5 -125t136.5 -37t120.5 29.5t45.5 78.5q0 41 -26 67.5t-101 61.5l-92 43q-121 54 -175 122t-54 167q0 134 97 215.5t257 81.5q237 0 356 -174l-135 -123q-90 113 -227 113q-66 0 -100.5 -26.5t-34.5 -76.5q0 -38 24.5 -65.5t89.5 -59.5
l86 -41q132 -63 189 -128t57 -160q0 -136 -106 -223t-271 -87q-134 0 -242 58t-171 164zM440 1163l238 434h272l-6 -38l-332 -396h-172z" />
    <glyph glyph-name="Scircumflex" unicode="&#x15c;" horiz-adv-x="1142" 
d="M37 307l166 105q142 -238 364 -238q103 0 165.5 50.5t62.5 135.5q0 62 -41 109.5t-131 95.5l-144 78q-254 140 -254 352q0 163 126.5 271t316.5 108q293 0 438 -258l-166 -104q-60 86 -127.5 126t-155.5 40q-98 0 -154.5 -46t-56.5 -124q0 -59 35 -100.5t123 -92.5
l146 -80q136 -74 201 -160t65 -194q0 -174 -129.5 -289t-325.5 -115q-167 0 -302.5 85t-221.5 245zM1096 1483h-154l-168 192l-239 -192h-183l371 381h137z" />
    <glyph glyph-name="scircumflex" unicode="&#x15d;" horiz-adv-x="933" 
d="M29 199l143 125q72 -88 133.5 -125t136.5 -37t120.5 29.5t45.5 78.5q0 41 -26 67.5t-101 61.5l-92 43q-121 54 -175 122t-54 167q0 134 97 215.5t257 81.5q237 0 356 -174l-135 -123q-90 113 -227 113q-66 0 -100.5 -26.5t-34.5 -76.5q0 -38 24.5 -65.5t89.5 -59.5
l86 -41q132 -63 189 -128t57 -160q0 -136 -106 -223t-271 -87q-134 0 -242 58t-171 164zM889 1163h-152l-141 230l-229 -230h-170l352 434h139z" />
    <glyph glyph-name="Scedilla" unicode="&#x15e;" horiz-adv-x="1142" 
d="M37 307l166 105q142 -238 364 -238q103 0 165.5 50.5t62.5 135.5q0 62 -41 109.5t-131 95.5l-144 78q-254 140 -254 352q0 163 126.5 271t316.5 108q293 0 438 -258l-166 -104q-60 86 -127.5 126t-155.5 40q-98 0 -154.5 -46t-56.5 -124q0 -59 35 -100.5t123 -92.5
l146 -80q136 -74 201 -160t65 -194q0 -174 -129.5 -289t-325.5 -115q-167 0 -302.5 85t-221.5 245zM150 -360l24 145q88 -16 129 -16q75 0 114.5 39t39.5 114q0 58 -27 105l86 34q51 -33 81 -83t30 -107q0 -110 -87.5 -186t-213.5 -76q-88 0 -176 31z" />
    <glyph glyph-name="scedilla" unicode="&#x15f;" horiz-adv-x="933" 
d="M29 199l143 125q72 -88 133.5 -125t136.5 -37t120.5 29.5t45.5 78.5q0 41 -26 67.5t-101 61.5l-92 43q-121 54 -175 122t-54 167q0 134 97 215.5t257 81.5q237 0 356 -174l-135 -123q-90 113 -227 113q-66 0 -100.5 -26.5t-34.5 -76.5q0 -38 24.5 -65.5t89.5 -59.5
l86 -41q132 -63 189 -128t57 -160q0 -136 -106 -223t-271 -87q-134 0 -242 58t-171 164zM100 -360l25 145q88 -16 129 -16q75 0 114.5 39t39.5 114q0 58 -27 105l86 34q51 -33 81 -83t30 -107q0 -110 -88 -186t-214 -76q-88 0 -176 31z" />
    <glyph glyph-name="Scaron" unicode="&#x160;" horiz-adv-x="1142" 
d="M37 307l166 105q142 -238 364 -238q103 0 165.5 50.5t62.5 135.5q0 62 -41 109.5t-131 95.5l-144 78q-254 140 -254 352q0 163 126.5 271t316.5 108q293 0 438 -258l-166 -104q-60 86 -127.5 126t-155.5 40q-98 0 -154.5 -46t-56.5 -124q0 -59 35 -100.5t123 -92.5
l146 -80q136 -74 201 -160t65 -194q0 -174 -129.5 -289t-325.5 -115q-167 0 -302.5 85t-221.5 245zM983 1864h180l-368 -381h-140l-233 381h153l164 -195z" />
    <glyph glyph-name="scaron" unicode="&#x161;" horiz-adv-x="933" 
d="M29 199l143 125q72 -88 133.5 -125t136.5 -37t120.5 29.5t45.5 78.5q0 41 -26 67.5t-101 61.5l-92 43q-121 54 -175 122t-54 167q0 134 97 215.5t257 81.5q237 0 356 -174l-135 -123q-90 113 -227 113q-66 0 -100.5 -26.5t-34.5 -76.5q0 -38 24.5 -65.5t89.5 -59.5
l86 -41q132 -63 189 -128t57 -160q0 -136 -106 -223t-271 -87q-134 0 -242 58t-171 164zM807 1597h168l-352 -434h-140l-198 434h149l141 -225z" />
    <glyph glyph-name="uni0162" unicode="&#x162;" horiz-adv-x="1202" 
d="M406 0l204 1157h-454l34 195h1127l-35 -195h-455l-204 -1157h-217zM188 -360l25 145q88 -16 129 -16q75 0 114.5 39t39.5 114q0 58 -27 105l86 34q51 -33 81 -83t30 -107q0 -110 -87.5 -186t-213.5 -76q-89 0 -177 31z" />
    <glyph glyph-name="uni0163" unicode="&#x163;" horiz-adv-x="813" 
d="M479 819l-84 -463q-6 -30 -6 -51q0 -75 53.5 -107t163.5 -32q8 0 90 4l-32 -182q-75 -11 -119 -11q-173 0 -273 73t-100 220q0 20 10 88l80 461h-162l31 187h164l47 264h217l-47 -264h301l-33 -187h-301zM55 -360l25 145q88 -16 129 -16q75 0 114 39t39 114q0 60 -26 105
l86 34q51 -32 80.5 -82.5t29.5 -107.5q0 -110 -87.5 -186t-213.5 -76q-88 0 -176 31z" />
    <glyph glyph-name="Tcaron" unicode="&#x164;" horiz-adv-x="1202" 
d="M406 0l204 1157h-454l34 195h1127l-35 -195h-455l-204 -1157h-217zM1032 1864h180l-368 -381h-139l-234 381h154l163 -195z" />
    <glyph glyph-name="tcaron" unicode="&#x165;" horiz-adv-x="813" 
d="M479 819l-84 -463q-6 -30 -6 -51q0 -75 53.5 -107t163.5 -32q8 0 90 4l-32 -182q-75 -11 -119 -11q-173 0 -273 73t-100 220q0 20 10 88l80 461h-162l31 187h164l47 264h217l-47 -264h301l-33 -187h-301zM713 1114l94 422h227l-166 -422h-155z" />
    <glyph glyph-name="Tbar" unicode="&#x166;" horiz-adv-x="1202" 
d="M1282 1157h-455l-84 -475h379l-32 -182h-379l-88 -500h-217l88 500h-381l32 182h381l84 475h-454l34 195h1127z" />
    <glyph glyph-name="tbar" unicode="&#x167;" horiz-adv-x="845" 
d="M803 829h-303l-37 -215h301l-31 -178h-303l-14 -80q-6 -24 -6 -51q0 -77 54.5 -108t168.5 -31q2 0 84 4l-33 -182q-75 -11 -119 -11q-155 0 -266 66q-106 66 -106 227q0 20 10 88l14 78h-164l31 178h164l37 215h-162l31 177h161l47 264h218l-48 -264h302z" />
    <glyph glyph-name="Utilde" unicode="&#x168;" horiz-adv-x="1419" 
d="M160 455q0 59 12 129l135 768h217l-137 -774q-10 -72 -10 -107q0 -129 88 -212t225 -83q136 0 235 87.5t124 232.5l149 856h217l-153 -873q-40 -228 -199 -366q-157 -136 -383 -136q-230 0 -375 133.5t-145 344.5zM901 1559l-57 34q-53 35 -84 35q-60 0 -72 -104h-166
q12 150 65 224.5t154 74.5q47 0 83.5 -13t84.5 -43l54 -34q56 -37 86 -37q32 0 47.5 24.5t23.5 81.5h166q-21 -299 -221 -299q-46 0 -80.5 13t-83.5 43z" />
    <glyph glyph-name="utilde" unicode="&#x169;" horiz-adv-x="1165" 
d="M129 358q0 26 10 91l97 557h215l-103 -584q-4 -24 -4 -53q0 -86 58 -140.5t149 -54.5q92 0 156 55t81 148l109 629h215l-111 -633q-32 -183 -156 -289.5t-304 -106.5q-181 0 -296.5 107t-115.5 274zM729 1257l-53 41q-44 41 -78 41q-59 0 -74 -110h-166q12 145 67.5 224
t152.5 79q76 0 147 -53l51 -41q46 -41 78 -41q62 0 74 110h168q-12 -146 -67.5 -225.5t-151.5 -79.5q-75 0 -148 55z" />
    <glyph glyph-name="Umacron" unicode="&#x16a;" horiz-adv-x="1419" 
d="M160 455q0 59 12 129l135 768h217l-137 -774q-10 -72 -10 -107q0 -129 88 -212t225 -83q136 0 235 87.5t124 232.5l149 856h217l-153 -873q-40 -228 -199 -366q-157 -136 -383 -136q-230 0 -375 133.5t-145 344.5zM584 1561l30 174h631l-31 -174h-630z" />
    <glyph glyph-name="umacron" unicode="&#x16b;" horiz-adv-x="1165" 
d="M129 358q0 26 10 91l97 557h215l-103 -584q-4 -24 -4 -53q0 -86 58 -140.5t149 -54.5q92 0 156 55t81 148l109 629h215l-111 -633q-32 -183 -156 -289.5t-304 -106.5q-181 0 -296.5 107t-115.5 274zM430 1294l31 172h590l-31 -172h-590z" />
    <glyph glyph-name="Ubreve" unicode="&#x16c;" horiz-adv-x="1419" 
d="M160 455q0 59 12 129l135 768h217l-137 -774q-10 -72 -10 -107q0 -129 88 -212t225 -83q136 0 235 87.5t124 232.5l149 856h217l-153 -873q-40 -228 -199 -366q-157 -136 -383 -136q-230 0 -375 133.5t-145 344.5zM612 1776q0 13 11 88h172q-9 -58 -9 -74
q0 -68 39.5 -108t106.5 -40q69 0 114.5 45t57.5 125l8 52h172l-8 -52q-20 -152 -116 -241.5t-236 -89.5q-137 0 -224.5 82.5t-87.5 212.5z" />
    <glyph glyph-name="ubreve" unicode="&#x16d;" horiz-adv-x="1165" 
d="M129 358q0 26 10 91l97 557h215l-103 -584q-4 -24 -4 -53q0 -86 58 -140.5t149 -54.5q92 0 156 55t81 148l109 629h215l-111 -633q-32 -183 -156 -289.5t-304 -106.5q-181 0 -296.5 107t-115.5 274zM416 1466q0 34 14 105h172q-12 -59 -12 -90q0 -68 40 -108t107 -40
q68 0 113.5 44.5t58.5 125.5l11 68h172l-11 -68q-26 -154 -120.5 -243t-231.5 -89t-225 82.5t-88 212.5z" />
    <glyph glyph-name="Uring" unicode="&#x16e;" horiz-adv-x="1419" 
d="M160 455q0 59 12 129l135 768h217l-137 -774q-10 -72 -10 -107q0 -129 88 -212t225 -83q136 0 235 87.5t124 232.5l149 856h217l-153 -873q-40 -228 -199 -366q-157 -136 -383 -136q-230 0 -375 133.5t-145 344.5zM674 1630q0 103 74 174q78 72 182 72q100 0 165.5 -63
t65.5 -160q0 -104 -76 -174q-75 -72 -180 -72q-100 0 -165.5 63t-65.5 160zM1012 1647q0 38 -25 63t-63 25q-41 0 -70 -28t-29 -69q0 -38 25 -64t63 -26q41 0 70 29t29 70z" />
    <glyph glyph-name="uring" unicode="&#x16f;" horiz-adv-x="1165" 
d="M129 358q0 26 10 91l97 557h215l-103 -584q-4 -24 -4 -53q0 -86 58 -140.5t149 -54.5q92 0 156 55t81 148l109 629h215l-111 -633q-32 -183 -156 -289.5t-304 -106.5q-181 0 -296.5 107t-115.5 274zM498 1360q0 104 73 174q78 72 183 72q100 0 164.5 -63.5t64.5 -160.5
q0 -103 -74 -174t-180 -71q-99 0 -165 63.5t-66 159.5zM834 1376q0 39 -24 64.5t-62 25.5q-42 0 -70.5 -29t-28.5 -71q0 -38 25 -64t63 -26q41 0 69 28.5t28 71.5z" />
    <glyph glyph-name="Uhungarumlaut" unicode="&#x170;" horiz-adv-x="1419" 
d="M160 455q0 59 12 129l135 768h217l-137 -774q-10 -72 -10 -107q0 -129 88 -212t225 -83q136 0 235 87.5t124 232.5l149 856h217l-153 -873q-40 -228 -199 -366q-157 -136 -383 -136q-230 0 -375 133.5t-145 344.5zM553 1483l229 381h240l-4 -39l-305 -342h-160z
M1008 1483l229 381h242l-6 -39l-306 -342h-159z" />
    <glyph glyph-name="uhungarumlaut" unicode="&#x171;" horiz-adv-x="1165" 
d="M129 358q0 26 10 91l97 557h215l-103 -584q-4 -24 -4 -53q0 -86 58 -140.5t149 -54.5q92 0 156 55t81 148l109 629h215l-111 -633q-32 -183 -156 -289.5t-304 -106.5q-181 0 -296.5 107t-115.5 274zM408 1163l237 434h240l-6 -38l-310 -396h-161zM834 1163l235 434h242
l-6 -38l-310 -396h-161z" />
    <glyph glyph-name="Uogonek" unicode="&#x172;" horiz-adv-x="1419" 
d="M160 455q0 59 12 129l135 768h217l-137 -774q-10 -72 -10 -107q0 -129 88 -212t225 -83q136 0 235 87.5t124 232.5l149 856h217l-153 -873q-40 -228 -199 -366q-157 -136 -383 -136q-230 0 -375 133.5t-145 344.5zM608 -215q0 163 318 344h157l-170 -164q-54 -54 -71 -80
t-17 -55q0 -34 25 -48.5t76 -14.5q4 0 14.5 0.5t30.5 1.5t37 2l-25 -148q-63 -14 -139 -14q-110 0 -173 47t-63 129z" />
    <glyph glyph-name="uogonek" unicode="&#x173;" horiz-adv-x="1167" 
d="M897 1006h215l-108 -633q-11 -53 -18.5 -81t-23 -63t-33 -57t-52 -55t-77 -65t-110.5 -79q-76 -52 -103.5 -82t-27.5 -61q0 -35 25 -49t80 -14q3 0 13 0.5t29 1.5t39 2l-26 -148q-60 -14 -137 -14q-113 0 -175.5 46.5t-62.5 131.5q0 60 32.5 104.5t110.5 88.5
q-162 17 -259 119t-97 257q0 46 8 93l97 557h215l-103 -584l-4 -53q0 -87 58.5 -141t150.5 -54q88 0 154.5 55.5t83.5 147.5z" />
    <glyph glyph-name="Wcircumflex" unicode="&#x174;" horiz-adv-x="2138" 
d="M1966 1352h246l-768 -1375h-72l-229 959l-580 -959h-71l-287 1375h225l178 -914l568 936h73l221 -928zM1616 1483h-154l-168 192l-239 -192h-183l371 381h137z" />
    <glyph glyph-name="wcircumflex" unicode="&#x175;" horiz-adv-x="1744" 
d="M1544 1006h240l-627 -1029h-74l-190 670l-438 -670h-76l-266 1029h219l149 -666l430 686h76l187 -672zM1311 1163h-152l-141 230l-230 -230h-170l353 434h139z" />
    <glyph glyph-name="Ycircumflex" unicode="&#x176;" horiz-adv-x="1269" 
d="M1352 1352l-611 -813l-94 -539h-217l96 549l-325 803h221l242 -592l436 592h252zM1167 1483h-153l-168 192l-240 -192h-182l371 381h137z" />
    <glyph glyph-name="ycircumflex" unicode="&#x177;" horiz-adv-x="1173" 
d="M895 1006h215l-172 -977q-32 -194 -162.5 -307t-320.5 -113q-136 0 -256.5 60.5t-194.5 168.5l133 139q76 -89 152 -130.5t166 -41.5q109 0 178.5 60t89.5 172l14 76q-115 -95 -268 -95q-154 0 -249 91.5t-95 240.5q0 38 12 109l96 547h216l-99 -545q-8 -47 -8 -72
q0 -85 53 -133.5t144 -48.5q94 0 164.5 57.5t87.5 153.5zM1030 1163h-151l-142 230l-229 -230h-170l352 434h139z" />
    <glyph glyph-name="Ydieresis" unicode="&#x178;" horiz-adv-x="1269" 
d="M1352 1352l-611 -813l-94 -539h-217l96 549l-325 803h221l242 -592l436 592h252zM438 1663q0 55 42 94t98 39q57 0 98 -39t41 -94q0 -54 -41 -93.5t-98 -39.5q-56 0 -98 39.5t-42 93.5zM946 1661q0 55 40.5 95t96.5 40q60 0 100 -39t40 -96q0 -54 -41.5 -93.5
t-98.5 -39.5q-54 0 -95.5 39.5t-41.5 93.5z" />
    <glyph glyph-name="Zacute" unicode="&#x179;" horiz-adv-x="1204" 
d="M1292 1352l-12 -60l-934 -1097h744l-33 -195h-1090l10 59l932 1098h-649l33 195h999zM696 1483l215 381h275l-6 -39l-318 -342h-166z" />
    <glyph glyph-name="zacute" unicode="&#x17a;" horiz-adv-x="944" 
d="M983 1006l-10 -62l-649 -758h522l-33 -186h-854l10 59l649 760h-468l30 187h803zM485 1163l238 434h272l-6 -38l-332 -396h-172z" />
    <glyph glyph-name="Zdotaccent" unicode="&#x17b;" horiz-adv-x="1204" 
d="M1292 1352l-12 -60l-934 -1097h744l-33 -195h-1090l10 59l932 1098h-649l33 195h999zM672 1663q0 61 41.5 102t103.5 41t106 -41t44 -102q0 -59 -44 -100t-106 -41q-60 0 -102.5 40.5t-42.5 100.5z" />
    <glyph glyph-name="zdotaccent" unicode="&#x17c;" horiz-adv-x="944" 
d="M983 1006l-10 -62l-649 -758h522l-33 -186h-854l10 59l649 760h-468l30 187h803zM494 1380q0 60 42.5 102t102.5 42q61 0 104 -42t43 -102t-42.5 -100.5t-104.5 -40.5q-60 0 -102.5 40.5t-42.5 100.5z" />
    <glyph glyph-name="Zcaron" unicode="&#x17d;" horiz-adv-x="1204" 
d="M1292 1352l-12 -60l-934 -1097h744l-33 -195h-1090l10 59l932 1098h-649l33 195h999zM1042 1864h181l-369 -381h-139l-234 381h154l164 -195z" />
    <glyph glyph-name="zcaron" unicode="&#x17e;" horiz-adv-x="944" 
d="M983 1006l-10 -62l-649 -758h522l-33 -186h-854l10 59l649 760h-468l30 187h803zM854 1597h168l-352 -434h-140l-198 434h149l142 -225z" />
    <glyph glyph-name="uni018F" unicode="&#x18f;" horiz-adv-x="1507" 
d="M1448 737q3 -151 -55.5 -292.5t-157 -244t-233 -163t-277.5 -57.5q-271 0 -440.5 160t-169.5 417q0 89 24 191h1084q-6 188 -128.5 308t-306.5 120q-122 0 -231.5 -52t-189.5 -147l-138 131q104 129 252.5 197.5t321.5 68.5q132 2 252.5 -47.5t207 -135.5t137 -205
t48.5 -249zM1202 559h-866v-18q0 -164 107.5 -263.5t285.5 -99.5q169 0 297 104t176 277z" />
    <glyph glyph-name="florin" unicode="&#x192;" horiz-adv-x="915" 
d="M1063 1346l-33 -175q-55 9 -106 9q-85 0 -133 -36t-74 -120l-60 -201h203l-35 -184h-225l-178 -596q-94 -315 -385 -315q-91 0 -164 28l31 174q73 -8 110 -8q82 0 129.5 36.5t73.5 121.5l168 559h-154l33 184h176l72 236q94 315 385 315q87 0 166 -28z" />
    <glyph glyph-name="uni01D4" unicode="&#x1d4;" horiz-adv-x="1165" 
d="M129 358q0 26 10 91l97 557h215l-103 -584q-4 -24 -4 -53q0 -86 58 -140.5t149 -54.5q92 0 156 55t81 148l109 629h215l-111 -633q-32 -183 -156 -289.5t-304 -106.5q-181 0 -296.5 107t-115.5 274zM956 1597h168l-352 -434h-139l-199 434h150l141 -225z" />
    <glyph glyph-name="AEacute" unicode="&#x1fc;" horiz-adv-x="1716" 
d="M1722 1157h-641l-2 -346h416l-31 -188h-385l-4 -428h504l-35 -195h-686v227h-514l-156 -227h-256l932 1352h891zM866 1010l-397 -596h391zM924 1483l215 381h274l-6 -39l-317 -342h-166z" />
    <glyph glyph-name="aeacute" unicode="&#x1fd;" horiz-adv-x="1802" 
d="M1700 418h-744q17 -119 98.5 -185.5t211.5 -66.5q154 0 297 108l90 -145q-178 -152 -404 -152q-134 0 -241.5 55.5t-169.5 155.5q-68 -101 -181 -156t-254 -55q-167 0 -261.5 73.5t-94.5 203.5q0 149 111.5 234t308.5 85h289q6 35 6 86q0 85 -53.5 131t-151.5 46
q-74 0 -140.5 -28.5t-144.5 -94.5l-90 157q184 158 404 158q244 0 329 -168q74 80 173 124t208 44q189 0 311 -123.5t122 -314.5q0 -93 -29 -172zM963 573h555v27q0 115 -64.5 180.5t-177.5 65.5q-118 0 -203 -74.5t-110 -198.5zM719 360l10 58h-258q-99 0 -152 -37.5
t-53 -106.5q0 -62 46.5 -97.5t127.5 -35.5q106 0 184 61t95 158zM860 1163l238 434h272l-6 -38l-332 -396h-172z" />
    <glyph glyph-name="Oslashacute" unicode="&#x1fe;" horiz-adv-x="1564" 
d="M1563 1268l-162 -156q119 -168 119 -387q4 -146 -57.5 -285t-165 -241.5t-245.5 -163.5t-292 -58q-234 0 -406 132l-161 -158l-127 133l161 156q-118 167 -118 387q-2 119 36 233t110 207t166 163.5t210 108t237 35.5q233 0 404 -129l164 156zM328 637q0 -135 59 -244
l733 705q-119 82 -268 82q-140 2 -262 -71.5t-193.5 -199.5t-68.5 -272zM1300 719q0 133 -59 242l-735 -707q119 -82 266 -82q106 -2 204.5 41.5t169.5 118t113 176.5t41 211zM860 1483l215 381h275l-7 -39l-317 -342h-166z" />
    <glyph glyph-name="oslashacute" unicode="&#x1ff;" horiz-adv-x="1241" 
d="M1188 911l-119 -112q86 -121 86 -277q2 -108 -43.5 -209.5t-123 -175.5t-183 -118t-217.5 -42q-156 0 -287 84l-123 -118l-125 131l119 112q-88 125 -88 283q-2 86 26.5 169.5t82 151.5t123.5 120t156 80t175 26q163 0 297 -90l121 116zM297 473q0 -86 35 -151l475 456
q-71 47 -168 47q-140 0 -241 -103t-101 -249zM940 514q0 78 -33 145l-469 -452q71 -41 158 -41q143 0 243.5 101t100.5 247zM618 1163l238 434h272l-6 -38l-331 -396h-173z" />
    <glyph glyph-name="uni0218" unicode="&#x218;" horiz-adv-x="1142" 
d="M37 307l166 105q142 -238 364 -238q103 0 165.5 50.5t62.5 135.5q0 62 -41 109.5t-131 95.5l-144 78q-254 140 -254 352q0 163 126.5 271t316.5 108q293 0 438 -258l-166 -104q-60 86 -127.5 126t-155.5 40q-98 0 -154.5 -46t-56.5 -124q0 -59 35 -100.5t123 -92.5
l146 -80q136 -74 201 -160t65 -194q0 -174 -129.5 -289t-325.5 -115q-167 0 -302.5 85t-221.5 245zM283 -451l77 353h203l-114 -353h-166z" />
    <glyph glyph-name="uni0219" unicode="&#x219;" horiz-adv-x="933" 
d="M29 199l143 125q72 -88 133.5 -125t136.5 -37t120.5 29.5t45.5 78.5q0 41 -26 67.5t-101 61.5l-92 43q-121 54 -175 122t-54 167q0 134 97 215.5t257 81.5q237 0 356 -174l-135 -123q-90 113 -227 113q-66 0 -100.5 -26.5t-34.5 -76.5q0 -38 24.5 -65.5t89.5 -59.5
l86 -41q132 -63 189 -128t57 -160q0 -136 -106 -223t-271 -87q-134 0 -242 58t-171 164zM233 -451l78 353h203l-115 -353h-166z" />
    <glyph glyph-name="uni021A" unicode="&#x21a;" horiz-adv-x="1202" 
d="M406 0l204 1157h-454l34 195h1127l-35 -195h-455l-204 -1157h-217zM322 -451l77 353h203l-115 -353h-165z" />
    <glyph glyph-name="uni021B" unicode="&#x21b;" horiz-adv-x="813" 
d="M479 819l-84 -463q-6 -30 -6 -51q0 -75 53.5 -107t163.5 -32q8 0 90 4l-32 -182q-75 -11 -119 -11q-173 0 -273 73t-100 220q0 20 10 88l80 461h-162l31 187h164l47 264h217l-47 -264h301l-33 -187h-301zM188 -451l78 353h203l-115 -353h-166z" />
    <glyph glyph-name="uni0237" unicode="&#x237;" horiz-adv-x="528" 
d="M-264 -360l31 176q79 -11 110 -11q83 0 129.5 37.5t59.5 120.5l182 1043h217l-191 -1078q-29 -158 -122.5 -238.5t-241.5 -80.5q-95 0 -174 31z" />
    <glyph glyph-name="uni0259" unicode="&#x259;" horiz-adv-x="1148" 
d="M1065 532q2 -111 -41.5 -214.5t-118 -178.5t-177.5 -119.5t-214 -42.5q-192 0 -316 118t-124 302q0 80 28 166h748q-11 131 -89.5 203t-211.5 72q-154 0 -293 -107l-92 143q181 154 405 154q217 0 356.5 -139.5t139.5 -356.5zM836 397h-551v-10q0 -104 66.5 -166.5
t176.5 -62.5t193 64.5t115 174.5z" />
    <glyph glyph-name="circumflex" unicode="&#x2c6;" horiz-adv-x="1024" 
d="M977 1163h-152l-141 230l-229 -230h-170l352 434h139z" />
    <glyph glyph-name="caron" unicode="&#x2c7;" horiz-adv-x="1024" 
d="M885 1597h168l-353 -434h-139l-199 434h150l141 -225z" />
    <glyph glyph-name="breve" unicode="&#x2d8;" horiz-adv-x="1024" 
d="M356 1466q0 29 15 105h172q-13 -63 -13 -90q0 -67 40 -107.5t108 -40.5t113.5 44.5t58.5 125.5l10 68h172l-10 -68q-26 -154 -120.5 -243t-231.5 -89t-225.5 82.5t-88.5 212.5z" />
    <glyph glyph-name="dotaccent" unicode="&#x2d9;" horiz-adv-x="1024" 
d="M522 1380q0 60 43 102t103 42q61 0 104 -42t43 -102t-42.5 -100.5t-104.5 -40.5q-60 0 -103 40.5t-43 100.5z" />
    <glyph glyph-name="ring" unicode="&#x2da;" horiz-adv-x="1024" 
d="M422 1360q0 103 74 174q78 72 182 72q100 0 164.5 -63.5t64.5 -160.5q0 -104 -73 -174q-74 -71 -181 -71q-99 0 -165 63.5t-66 159.5zM758 1376q0 39 -24 64.5t-62 25.5q-42 0 -70.5 -29t-28.5 -71q0 -38 25.5 -64t63.5 -26q41 0 68.5 28.5t27.5 71.5z" />
    <glyph glyph-name="ogonek" unicode="&#x2db;" horiz-adv-x="1024" 
d="M188 -215q0 88 81.5 152t279.5 133l80 -70l-127 -63q-96 -50 -96 -107q0 -63 100 -63q4 0 14.5 0.5t30.5 1.5t37 2l-25 -148q-63 -14 -139 -14q-110 0 -173 47t-63 129z" />
    <glyph glyph-name="tilde" unicode="&#x2dc;" horiz-adv-x="1024" 
d="M668 1257l-54 41q-44 41 -77 41q-59 0 -74 -110h-166q12 145 67 224t152 79q77 0 148 -53l51 -41q46 -41 78 -41q61 0 73 110h168q-12 -146 -67.5 -225.5t-151.5 -79.5q-74 0 -147 55z" />
    <glyph glyph-name="hungarumlaut" unicode="&#x2dd;" horiz-adv-x="1024" 
d="M217 1163l238 434h239l-6 -38l-309 -396h-162zM643 1163l236 434h241l-6 -38l-309 -396h-162z" />
    <glyph glyph-name="gravecomb" unicode="&#x300;" horiz-adv-x="0" 
d="M-375 1163l-123 396l13 38h241l21 -434h-152z" />
    <glyph glyph-name="acutecomb" unicode="&#x301;" horiz-adv-x="0" 
d="M-612 1163l237 434h273l-7 -38l-331 -396h-172z" />
    <glyph glyph-name="uni0302" unicode="&#x302;" horiz-adv-x="0" 
d="M-49 1163h-152l-141 230l-229 -230h-170l352 434h139z" />
    <glyph glyph-name="tildecomb" unicode="&#x303;" horiz-adv-x="0" 
d="M-356 1257l-54 41q-44 41 -77 41q-59 0 -74 -110h-166q12 145 67 224t152 79q77 0 148 -53l51 -41q46 -41 78 -41q61 0 73 110h168q-12 -146 -67.5 -225.5t-151.5 -79.5q-74 0 -147 55z" />
    <glyph glyph-name="uni0304" unicode="&#x304;" horiz-adv-x="0" 
d="M-668 1294l31 172h590l-31 -172h-590z" />
    <glyph glyph-name="uni0306" unicode="&#x306;" horiz-adv-x="0" 
d="M-670 1466q0 29 15 105h172q-13 -63 -13 -90q0 -67 40 -107.5t108 -40.5t113.5 44.5t58.5 125.5l10 68h172l-10 -68q-26 -154 -120.5 -243t-231.5 -89t-225.5 82.5t-88.5 212.5z" />
    <glyph glyph-name="uni0307" unicode="&#x307;" horiz-adv-x="0" 
d="M-504 1380q0 60 43 102t103 42q61 0 104 -42t43 -102t-42.5 -100.5t-104.5 -40.5q-60 0 -103 40.5t-43 100.5z" />
    <glyph glyph-name="uni0308" unicode="&#x308;" horiz-adv-x="0" 
d="M-737 1380q0 56 40.5 94.5t98.5 38.5t98.5 -38.5t40.5 -94.5q0 -54 -41 -93.5t-98 -39.5q-56 0 -97.5 39.5t-41.5 93.5zM-256 1380q0 56 40.5 94.5t98.5 38.5t99 -38.5t41 -94.5q0 -54 -41.5 -93.5t-98.5 -39.5q-56 0 -97.5 39.5t-41.5 93.5z" />
    <glyph glyph-name="uni030A" unicode="&#x30a;" horiz-adv-x="0" 
d="M-602 1360q0 104 76 174q75 72 180 72q100 0 164.5 -63.5t64.5 -160.5q0 -104 -73 -174q-74 -71 -181 -71q-99 0 -165 63.5t-66 159.5zM-266 1376q0 39 -24 64.5t-62 25.5q-42 0 -70.5 -29t-28.5 -71q0 -38 25.5 -64t63.5 -26q41 0 68.5 28.5t27.5 71.5z" />
    <glyph glyph-name="uni030B" unicode="&#x30b;" horiz-adv-x="0" 
d="M-809 1163l238 434h239l-6 -38l-309 -396h-162zM-383 1163l236 434h241l-6 -38l-309 -396h-162z" />
    <glyph glyph-name="uni030C" unicode="&#x30c;" horiz-adv-x="0" 
d="M-141 1597h168l-353 -434h-139l-199 434h150l141 -225z" />
    <glyph glyph-name="uni0326" unicode="&#x326;" horiz-adv-x="0" 
d="M-791 -451l78 353h203l-115 -353h-166z" />
    <glyph glyph-name="uni0327" unicode="&#x327;" horiz-adv-x="0" 
d="M-885 -360l25 145q88 -16 129 -16q75 0 114 39t39 114q0 60 -26 105l86 34q51 -32 80.5 -82.5t29.5 -107.5q0 -110 -87.5 -186t-213.5 -76q-88 0 -176 31z" />
    <glyph glyph-name="uni0328" unicode="&#x328;" horiz-adv-x="0" 
d="M-838 -215q0 88 81.5 152t279.5 133l80 -70l-127 -63q-97 -51 -97 -107q0 -63 101 -63q4 0 14.5 0.5t30.5 1.5t37 2l-25 -148q-63 -14 -139 -14q-110 0 -173 47t-63 129z" />
    <glyph glyph-name="tonos" unicode="&#x384;" horiz-adv-x="1024" 
d="M467 1163l143 434h256l-10 -38l-225 -396h-164z" />
    <glyph glyph-name="dieresistonos" unicode="&#x385;" horiz-adv-x="1024" 
d="M487 1163l142 434h254l-11 -38l-227 -396h-158zM211 1380q0 56 41.5 94.5t97.5 38.5q58 0 98.5 -38.5t40.5 -94.5q0 -54 -41 -93.5t-98 -39.5q-56 0 -97.5 39.5t-41.5 93.5zM848 1380q0 56 40.5 94.5t98.5 38.5t98.5 -38.5t40.5 -94.5q0 -54 -41 -93.5t-98 -39.5
q-56 0 -97.5 39.5t-41.5 93.5z" />
    <glyph glyph-name="Alphatonos" unicode="&#x386;" horiz-adv-x="1355" 
d="M1006 0l-58 225h-602l-135 -225h-246l836 1374h73l355 -1374h-223zM901 412l-125 555l-319 -555h444zM96 930l94 422h228l-166 -422h-156z" />
    <glyph glyph-name="anoteleia" unicode="&#x387;" horiz-adv-x="573" 
d="M156 649q0 69 45.5 114.5t113.5 45.5t113 -45.5t45 -114.5q0 -67 -45 -112t-113 -45t-113.5 45t-45.5 112z" />
    <glyph glyph-name="Epsilontonos" unicode="&#x388;" horiz-adv-x="1167" 
d="M84 0l238 1352h888l-34 -195h-672l-62 -346h504l-33 -188h-503l-74 -428h694l-33 -195h-913zM-170 930l94 422h228l-166 -422h-156z" />
    <glyph glyph-name="Etatonos" unicode="&#x389;" horiz-adv-x="1456" 
d="M84 0l238 1352h217l-93 -539h680l93 539h217l-238 -1352h-217l109 618h-680l-109 -618h-217zM-168 930l94 422h228l-166 -422h-156z" />
    <glyph glyph-name="Iotatonos" unicode="&#x38a;" horiz-adv-x="557" 
d="M84 0l238 1352h217l-238 -1352h-217zM-170 930l94 422h228l-166 -422h-156z" />
    <glyph glyph-name="Omicrontonos" unicode="&#x38c;" horiz-adv-x="1597" 
d="M125 627q-3 149 59 288.5t166 240.5t246 161t291 57q185 0 334 -85t233 -233.5t84 -330.5q4 -148 -58.5 -287.5t-167 -241t-246 -162t-288.5 -57.5q-140 0 -261.5 50t-207.5 136.5t-135 206.5t-49 257zM1315 717q0 199 -125.5 329t-319.5 130q-140 3 -262 -70.5
t-192.5 -199t-67.5 -269.5q0 -200 125 -330.5t318 -130.5q140 -3 262 71t193 200t69 270zM-84 930l94 422h228l-166 -422h-156z" />
    <glyph glyph-name="Upsilontonos" unicode="&#x38e;" horiz-adv-x="1269" 
d="M1352 1352l-611 -813l-94 -539h-217l96 549l-325 803h221l242 -592l436 592h252zM-219 928l94 422h227l-165 -422h-156z" />
    <glyph glyph-name="Omegatonos" unicode="&#x38f;" horiz-adv-x="1617" 
d="M1235 195h240l-33 -195h-582l33 197q214 85 327 223.5t113 316.5q0 193 -129.5 316t-333.5 123q-218 0 -366 -150t-148 -371q0 -141 75 -258t214 -200l-35 -197h-544l34 195h269q-111 93 -173.5 216t-62.5 253q-2 107 33 212.5t102 195.5t155.5 159t202.5 107t236 36
q194 3 355.5 -79.5t253 -227.5t88.5 -319q0 -168 -83 -311t-241 -242zM-63 930l94 422h227l-166 -422h-155z" />
    <glyph glyph-name="iotadieresistonos" unicode="&#x390;" horiz-adv-x="634" 
d="M111 229q0 49 12 107l119 670h217l-117 -652q-8 -41 -8 -75q0 -107 129 -107q55 0 96 8l-31 -182q-58 -21 -122 -21q-137 0 -216 67t-79 185zM272 1163l142 434h254l-11 -38l-227 -396h-158zM-4 1380q0 56 41.5 94.5t97.5 38.5q58 0 98.5 -38.5t40.5 -94.5
q0 -54 -41 -93.5t-98 -39.5q-56 0 -97.5 39.5t-41.5 93.5zM633 1380q0 56 40.5 94.5t98.5 38.5t98.5 -38.5t40.5 -94.5q0 -54 -41 -93.5t-98 -39.5q-56 0 -97.5 39.5t-41.5 93.5z" />
    <glyph glyph-name="Alpha" unicode="&#x391;" horiz-adv-x="1355" 
d="M1006 0l-58 225h-602l-135 -225h-246l836 1374h73l355 -1374h-223zM901 412l-125 555l-319 -555h444z" />
    <glyph glyph-name="Beta" unicode="&#x392;" horiz-adv-x="1263" 
d="M1163 403q0 -177 -134 -290t-347 -113h-598l238 1352h432q172 0 276.5 -93t104.5 -247q0 -193 -158 -297q88 -44 137 -126t49 -186zM719 1163h-217l-66 -366h252q103 0 164 54t61 146q0 78 -51 122t-143 44zM944 410q0 94 -58 147t-161 53h-322l-73 -420h348
q123 0 194.5 58.5t71.5 161.5z" />
    <glyph glyph-name="Gamma" unicode="&#x393;" horiz-adv-x="1056" 
d="M84 0l238 1352h835l-33 -195h-620l-203 -1157h-217z" />
    <glyph glyph-name="uni0394" unicode="&#x394;" horiz-adv-x="1355" 
d="M874 1374l338 -1315l-10 -59h-1212l10 59l799 1315h75zM954 195l-184 749l-446 -749h630z" />
    <glyph glyph-name="Epsilon" unicode="&#x395;" horiz-adv-x="1167" 
d="M84 0l238 1352h888l-34 -195h-672l-62 -346h504l-33 -188h-503l-74 -428h694l-33 -195h-913z" />
    <glyph glyph-name="Zeta" unicode="&#x396;" horiz-adv-x="1204" 
d="M1292 1352l-12 -60l-934 -1097h744l-33 -195h-1090l10 59l932 1098h-649l33 195h999z" />
    <glyph glyph-name="Eta" unicode="&#x397;" horiz-adv-x="1456" 
d="M84 0l238 1352h217l-93 -539h680l93 539h217l-238 -1352h-217l109 618h-680l-109 -618h-217z" />
    <glyph glyph-name="Theta" unicode="&#x398;" horiz-adv-x="1597" 
d="M125 627q-3 148 58.5 287.5t164.5 241t245.5 161.5t293.5 57q181 3 331.5 -82.5t236.5 -235.5t83 -331q4 -146 -57.5 -285t-165 -241.5t-245.5 -163.5t-292 -58q-181 -3 -332 82.5t-237.5 236.5t-83.5 331zM1313 719q0 200 -125 328.5t-318 128.5q-142 0 -262.5 -72
t-190 -196.5t-69.5 -272.5q0 -199 125 -329t318 -130q103 -2 200.5 41.5t168.5 117.5t113 175t40 209zM510 580l31 186h610l-29 -186h-612z" />
    <glyph glyph-name="Iota" unicode="&#x399;" horiz-adv-x="557" 
d="M84 0l238 1352h217l-238 -1352h-217z" />
    <glyph glyph-name="Kappa" unicode="&#x39a;" horiz-adv-x="1331" 
d="M322 1352h217l-238 -1352h-217zM1382 1352l-682 -654l506 -698h-250l-522 719l662 633h286z" />
    <glyph glyph-name="Lambda" unicode="&#x39b;" horiz-adv-x="1355" 
d="M1229 0h-225l-236 950l-559 -950h-244l834 1374h75z" />
    <glyph glyph-name="Mu" unicode="&#x39c;" horiz-adv-x="1624" 
d="M1536 1374h74l-242 -1374h-217l145 829l-456 -489h-74l-311 532l-154 -872h-217l242 1374h75l433 -756z" />
    <glyph glyph-name="Nu" unicode="&#x39d;" horiz-adv-x="1456" 
d="M1219 1352h217l-242 -1375h-74l-655 955l-164 -932h-217l242 1374h75l656 -952z" />
    <glyph glyph-name="Xi" unicode="&#x39e;" horiz-adv-x="1284" 
d="M203 1157l35 195h1110l-33 -195h-1112zM242 578l34 196h832l-35 -196h-831zM0 0l35 195h1110l-35 -195h-1110z" />
    <glyph glyph-name="Omicron" unicode="&#x39f;" horiz-adv-x="1597" 
d="M125 627q-3 149 59 288.5t166 240.5t246 161t291 57q185 0 334 -85t233 -233.5t84 -330.5q4 -148 -58.5 -287.5t-167 -241t-246 -162t-288.5 -57.5q-140 0 -261.5 50t-207.5 136.5t-135 206.5t-49 257zM1315 717q0 199 -125.5 329t-319.5 130q-140 3 -262 -70.5
t-192.5 -199t-67.5 -269.5q0 -200 125 -330.5t318 -130.5q140 -3 262 71t193 200t69 270z" />
    <glyph glyph-name="Pi" unicode="&#x3a0;" horiz-adv-x="1404" 
d="M84 0l238 1352h1062l-237 -1352h-217l205 1157h-631l-203 -1157h-217z" />
    <glyph glyph-name="Rho" unicode="&#x3a1;" horiz-adv-x="1204" 
d="M84 0l238 1352h442q207 0 325.5 -103.5t118.5 -283.5q0 -198 -145.5 -320.5t-380.5 -122.5h-289l-92 -522h-217zM428 715h285q128 0 200 63.5t72 175.5q0 98 -59.5 151.5t-169.5 53.5h-250z" />
    <glyph glyph-name="Sigma" unicode="&#x3a3;" horiz-adv-x="1173" 
d="M1214 1352l-32 -195h-617l258 -442l-8 -43l-401 -477h622l-35 -195h-983l9 55l551 664l-332 577l10 56h958z" />
    <glyph glyph-name="Tau" unicode="&#x3a4;" horiz-adv-x="1202" 
d="M406 0l204 1157h-454l34 195h1127l-35 -195h-455l-204 -1157h-217z" />
    <glyph glyph-name="Upsilon" unicode="&#x3a5;" horiz-adv-x="1269" 
d="M1352 1352l-611 -813l-94 -539h-217l96 549l-325 803h221l242 -592l436 592h252z" />
    <glyph glyph-name="Phi" unicode="&#x3a6;" horiz-adv-x="1720" 
d="M649 -84l23 131q-241 15 -395 174t-154 389q0 203 96 361t272 246t404 88l23 129h217l-23 -129q240 -15 394.5 -176t154.5 -390q0 -204 -96.5 -361t-272 -244t-403.5 -89l-23 -129h-217zM705 236l157 878q-232 0 -377 -136t-145 -355q0 -163 104 -273.5t261 -113.5z
M1444 729q0 165 -102 273.5t-263 111.5l-155 -878q231 0 375.5 136t144.5 357z" />
    <glyph glyph-name="Chi" unicode="&#x3a7;" horiz-adv-x="1230" 
d="M1313 1352l-535 -682l328 -670h-232l-247 510l-406 -510h-266l573 711l-307 641h232l225 -486l369 486h266z" />
    <glyph glyph-name="Psi" unicode="&#x3a8;" horiz-adv-x="1583" 
d="M598 0l53 305q-207 21 -334 154q-124 133 -124 340q0 44 10 119l78 434h217l-78 -441q-8 -36 -8 -98q0 -137 75 -222.5t199 -86.5l148 848h217l-148 -848q333 -3 406 397l80 451h217l-82 -463q-54 -293 -210 -431.5t-446 -152.5l-53 -305h-217z" />
    <glyph glyph-name="uni03A9" unicode="&#x3a9;" horiz-adv-x="1617" 
d="M1235 195h240l-33 -195h-582l33 197q214 85 327 223.5t113 316.5q0 193 -129.5 316t-333.5 123q-218 0 -366 -150t-148 -371q0 -141 75 -258t214 -200l-35 -197h-544l34 195h269q-111 93 -173.5 216t-62.5 253q-2 107 33 212.5t102 195.5t155.5 159t202.5 107t236 36
q194 3 355.5 -79.5t253 -227.5t88.5 -319q0 -168 -83 -311t-241 -242z" />
    <glyph glyph-name="Iotadieresis" unicode="&#x3aa;" horiz-adv-x="557" 
d="M84 0l238 1352h217l-238 -1352h-217zM94 1663q0 55 41.5 94t97.5 39q57 0 98.5 -39t41.5 -94q0 -54 -41.5 -93.5t-98.5 -39.5q-56 0 -97.5 39.5t-41.5 93.5zM602 1661q0 55 40.5 95t96.5 40q60 0 100 -39t40 -96q0 -54 -41.5 -93.5t-98.5 -39.5q-54 0 -95.5 39.5
t-41.5 93.5z" />
    <glyph glyph-name="Upsilondieresis" unicode="&#x3ab;" horiz-adv-x="1269" 
d="M1352 1352l-611 -813l-94 -539h-217l96 549l-325 803h221l242 -592l436 592h252zM428 1663q0 55 41.5 94t97.5 39q57 0 98.5 -39t41.5 -94q0 -54 -41.5 -93.5t-98.5 -39.5q-56 0 -97.5 39.5t-41.5 93.5zM936 1661q0 55 40.5 95t96.5 40q60 0 99.5 -39t39.5 -96
q0 -54 -41 -93.5t-98 -39.5q-54 0 -95.5 39.5t-41.5 93.5z" />
    <glyph glyph-name="alphatonos" unicode="&#x3ac;" horiz-adv-x="1329" 
d="M1184 164q43 0 53 2l-33 -178q-50 -11 -94 -11q-168 0 -217 144q-132 -144 -348 -144q-200 0 -329.5 135t-129.5 343q-2 117 40.5 224t115 184t173.5 122t210 43q122 0 220 -51t148 -139q24 116 39 170h207q-37 -150 -61 -269q-13 -64 -41 -215l-33 -190q-12 -65 -12 -86
q0 -84 92 -84zM924 541q0 130 -78 210t-203 80q-139 0 -237.5 -103.5t-98.5 -252.5q0 -134 80 -218.5t207 -84.5q137 0 233.5 108t96.5 261zM604 1163l144 434h256l-11 -38l-225 -396h-164z" />
    <glyph glyph-name="epsilontonos" unicode="&#x3ad;" horiz-adv-x="1042" 
d="M815 279l105 -144q-72 -73 -190.5 -115.5t-252.5 -42.5q-188 0 -299.5 76.5t-111.5 204.5q0 94 58.5 162.5t162.5 99.5q-97 79 -97 211q0 134 114.5 215.5t303.5 81.5q131 0 234.5 -45t163.5 -129l-132 -123q-37 51 -110 80t-164 29q-94 0 -145.5 -34t-51.5 -95
q0 -54 39 -83.5t107 -29.5h186l-26 -170h-222q-94 0 -149 -36.5t-55 -98.5q0 -60 56.5 -93.5t156.5 -33.5q99 0 174.5 26.5t144.5 86.5zM530 1163l144 434h256l-10 -38l-226 -396h-164z" />
    <glyph glyph-name="etatonos" unicode="&#x3ae;" horiz-adv-x="1220" 
d="M1106 694q0 -36 -12 -112l-168 -951h-217l168 940q10 52 10 86q0 85 -52 133t-143 48q-98 0 -166 -56t-86 -157l-112 -625h-215l118 670q11 64 11 80q0 44 -25 67t-70 23l-51 -2l31 178q45 10 92 10q79 0 134.5 -32.5t80.5 -92.5q133 127 320 127q160 0 256 -92t96 -242z
M643 1163l143 434h256l-10 -38l-225 -396h-164z" />
    <glyph glyph-name="iotatonos" unicode="&#x3af;" horiz-adv-x="634" 
d="M111 229q0 49 12 107l119 670h217l-117 -652q-8 -41 -8 -75q0 -107 129 -107q55 0 96 8l-31 -182q-58 -21 -122 -21q-137 0 -216 67t-79 185zM270 1163l144 434h256l-11 -38l-225 -396h-164z" />
    <glyph glyph-name="upsilondieresistonos" unicode="&#x3b0;" horiz-adv-x="1165" 
d="M129 358q0 26 10 91l97 557h215l-103 -584q-4 -24 -4 -53q0 -86 58 -140.5t149 -54.5q92 0 156 55t81 148l109 629h215l-111 -633q-32 -183 -156 -289.5t-304 -106.5q-181 0 -296.5 107t-115.5 274zM567 1163l142 434h254l-11 -38l-227 -396h-158zM291 1380
q0 56 41.5 94.5t97.5 38.5q58 0 98.5 -38.5t40.5 -94.5q0 -54 -41 -93.5t-98 -39.5q-56 0 -97.5 39.5t-41.5 93.5zM928 1380q0 56 40.5 94.5t98.5 38.5t98.5 -38.5t40.5 -94.5q0 -54 -41 -93.5t-98 -39.5q-56 0 -97.5 39.5t-41.5 93.5z" />
    <glyph glyph-name="alpha" unicode="&#x3b1;" horiz-adv-x="1329" 
d="M1184 164q43 0 53 2l-33 -178q-50 -11 -94 -11q-168 0 -217 144q-132 -144 -348 -144q-200 0 -329.5 135t-129.5 343q-2 117 40.5 224t115 184t173.5 122t210 43q122 0 220 -51t148 -139q24 116 39 170h207q-37 -150 -61 -269q-13 -64 -41 -215l-33 -190q-12 -65 -12 -86
q0 -84 92 -84zM924 541q0 130 -78 210t-203 80q-139 0 -237.5 -103.5t-98.5 -252.5q0 -134 80 -218.5t207 -84.5q137 0 233.5 108t96.5 261z" />
    <glyph glyph-name="beta" unicode="&#x3b2;" horiz-adv-x="1257" 
d="M1165 481q0 -219 -145 -361.5t-365 -142.5q-218 0 -356.5 132t-138.5 342q0 47 12 118l88 516q38 221 176.5 345t349.5 124q183 0 296.5 -97t113.5 -255q0 -211 -223 -364q92 -66 142 -158.5t50 -198.5zM473 1081l-53 -295q217 78 336 139.5t170 121.5t51 135
q0 78 -59.5 127t-153.5 49q-117 0 -192.5 -71.5t-98.5 -205.5zM948 477q0 75 -38.5 143t-110.5 119q-152 -74 -416 -161l-4 -19q-8 -47 -8 -90q0 -130 79.5 -214.5t202.5 -84.5q131 0 213 85.5t82 221.5z" />
    <glyph glyph-name="gamma" unicode="&#x3b3;" horiz-adv-x="1112" 
d="M1149 1006l-576 -940l-75 -435h-215l75 435l-245 940h217l174 -719l405 719h240z" />
    <glyph glyph-name="delta" unicode="&#x3b4;" horiz-adv-x="1224" 
d="M1231 1536l-31 -199h-555l311 -389q100 -125 141.5 -220.5t41.5 -201.5q3 -145 -72.5 -273.5t-203 -203.5t-271.5 -72q-221 0 -361.5 135.5t-140.5 346.5q-2 111 41.5 213.5t118 177.5t178 118.5t215.5 41.5l-375 467l8 59h955zM918 524q0 134 -77 214.5t-204 80.5
q-146 0 -236 -100q-90 -101 -90 -256q0 -133 75.5 -211t203.5 -78q143 0 235.5 99t92.5 251z" />
    <glyph glyph-name="epsilon" unicode="&#x3b5;" horiz-adv-x="1042" 
d="M815 279l105 -144q-72 -73 -190.5 -115.5t-252.5 -42.5q-188 0 -299.5 76.5t-111.5 204.5q0 94 58.5 162.5t162.5 99.5q-97 79 -97 211q0 134 114.5 215.5t303.5 81.5q131 0 234.5 -45t163.5 -129l-132 -123q-37 51 -110 80t-164 29q-94 0 -145.5 -34t-51.5 -95
q0 -54 39 -83.5t107 -29.5h186l-26 -170h-222q-94 0 -149 -36.5t-55 -98.5q0 -60 56.5 -93.5t156.5 -33.5q99 0 174.5 26.5t144.5 86.5z" />
    <glyph glyph-name="zeta" unicode="&#x3b6;" horiz-adv-x="1001" 
d="M1075 1477l-553 -678q-119 -147 -174 -244q-44 -83 -41 -168q0 -148 203 -197l102 -26q112 -26 179 -101.5t67 -175.5q0 -116 -96 -256h-213q86 127 86 224q0 55 -34 87.5t-109 51.5l-101 24q-142 35 -223.5 129t-81.5 224q3 121 56.5 222t226.5 316l348 428h-469l31 199
h804z" />
    <glyph glyph-name="eta" unicode="&#x3b7;" horiz-adv-x="1220" 
d="M1106 694q0 -36 -12 -112l-168 -951h-217l168 940q10 52 10 86q0 85 -52 133t-143 48q-98 0 -166 -56t-86 -157l-112 -625h-215l118 670q11 64 11 80q0 44 -25 67t-70 23l-51 -2l31 178q45 10 92 10q79 0 134.5 -32.5t80.5 -92.5q133 127 320 127q160 0 256 -92t96 -242z
" />
    <glyph glyph-name="theta" unicode="&#x3b8;" horiz-adv-x="1288" 
d="M1262 1010q2 -217 -48.5 -410.5t-139.5 -331t-213.5 -216t-264.5 -75.5q-216 0 -344.5 137.5t-128.5 368.5q0 109 24 226h213q-20 -123 -20 -207q0 -160 65.5 -244t188.5 -84q127 0 229.5 106.5t159.5 294.5q-647 102 -647 521q0 201 133 332t336 131q223 0 340 -140.5
t117 -408.5zM1026 766q16 128 16 240q0 183 -60 269.5t-187 86.5q-109 0 -175.5 -71t-66.5 -187q0 -276 473 -338z" />
    <glyph glyph-name="iota" unicode="&#x3b9;" horiz-adv-x="634" 
d="M111 229q0 49 12 107l119 670h217l-117 -652q-8 -41 -8 -75q0 -107 129 -107q55 0 96 8l-31 -182q-58 -21 -122 -21q-137 0 -216 67t-79 185z" />
    <glyph glyph-name="kappa" unicode="&#x3ba;" horiz-adv-x="1087" 
d="M248 1006h215l-178 -1006h-215zM1126 1006l-489 -482l346 -524h-244l-348 543l461 463h274z" />
    <glyph glyph-name="lambda" unicode="&#x3bb;" 
d="M1026 176h41l-31 -176q-32 -14 -98 -14q-80 0 -134.5 57t-74.5 162l-106 538l-435 -743h-235l612 1024l-28 162q-34 178 -179 178q-22 0 -88 -4l33 182q63 17 119 17q119 0 204 -81t111 -221l195 -989q10 -49 32.5 -70.5t61.5 -21.5z" />
    <glyph glyph-name="uni03BC" unicode="&#x3bc;" horiz-adv-x="1230" 
d="M1139 166l-33 -178q-50 -11 -92 -11q-75 0 -128.5 30.5t-78.5 86.5q-111 -117 -275 -117q-151 0 -235 101l-76 -447h-217l244 1375h215l-101 -578q-10 -58 -10 -72q0 -85 55 -136.5t146 -51.5q94 0 160.5 57.5t85.5 155.5l110 625h217l-120 -678q-11 -75 -11 -80
q0 -84 92 -84q42 0 52 2z" />
    <glyph glyph-name="nu" unicode="&#x3bd;" horiz-adv-x="1120" 
d="M913 1006h244l-665 -1029h-76l-303 1029h217l178 -662z" />
    <glyph glyph-name="xi" unicode="&#x3be;" horiz-adv-x="980" 
d="M502 1087q0 -92 59.5 -149t153.5 -57h203l-31 -187h-279q-123 0 -212 -84t-89 -200q0 -188 217 -228l84 -14q114 -20 177 -89.5t63 -170.5q0 -126 -98 -277h-213q84 134 84 222q0 57 -29 89t-92 42l-92 16q-153 26 -241.5 131.5t-88.5 261.5q0 147 89.5 261.5
t242.5 164.5q-125 82 -125 238q0 86 40.5 158t114.5 122h-186l35 199h819l-35 -199h-307q-115 0 -189.5 -71.5t-74.5 -178.5z" />
    <glyph glyph-name="omicron" unicode="&#x3bf;" horiz-adv-x="1245" 
d="M90 477q-2 109 43.5 212t121.5 177.5t180.5 119t215.5 42.5q142 0 259 -65.5t184 -181t67 -255.5q2 -109 -43.5 -211.5t-123 -177t-183 -118.5t-217.5 -42q-216 0 -360 143.5t-144 356.5zM940 524q0 132 -84 219q-82 88 -213 88q-138 0 -235 -103t-97 -249
q0 -135 81 -220t210 -85q141 0 239.5 101.5t98.5 248.5z" />
    <glyph glyph-name="pi" unicode="&#x3c0;" horiz-adv-x="1198" 
d="M88 0l143 809h-143l35 199h1130l-34 -199h-146l-143 -809h-215l145 809h-411l-146 -809h-215z" />
    <glyph glyph-name="rho" unicode="&#x3c1;" horiz-adv-x="1259" 
d="M1176 547q2 -154 -68.5 -286.5t-192.5 -209.5t-264 -74q-114 0 -205.5 46t-146.5 127l-92 -519h-215l155 887q43 241 183.5 375.5t349.5 134.5q219 0 357.5 -135t138.5 -346zM954 526q0 136 -77.5 220.5t-202.5 84.5q-136 0 -228 -103.5t-92 -258.5q0 -131 78.5 -213
t202.5 -82q134 0 226.5 101.5t92.5 250.5z" />
    <glyph glyph-name="uni03C2" unicode="&#x3c2;" horiz-adv-x="1081" 
d="M659 -162q0 105 -127 146l-98 30q-344 111 -344 455q0 158 73 286t200 199.5t282 71.5q147 0 262 -67t172 -183l-161 -106q-106 161 -281 161q-143 0 -236 -96q-92 -95 -92 -254q0 -117 62 -185.5t209 -115.5l71 -20q236 -76 236 -264q0 -118 -94 -265h-213
q79 119 79 207z" />
    <glyph glyph-name="sigma" unicode="&#x3c3;" horiz-adv-x="1288" 
d="M1343 1006l-34 -201h-289q123 -114 123 -297q2 -105 -43 -204t-121.5 -171t-181.5 -115t-217 -41q-212 0 -352 140t-140 352q0 237 164.5 387t423.5 150h667zM922 520q0 135 -77.5 215t-205.5 80q-141 0 -235.5 -97.5t-94.5 -244.5q0 -134 78 -216.5t205 -82.5
q140 0 235 99.5t95 246.5z" />
    <glyph glyph-name="tau" unicode="&#x3c4;" horiz-adv-x="995" 
d="M610 805l-73 -420q-7 -40 -7 -63q0 -78 54.5 -115t167.5 -37q22 0 120 4l-30 -182q-80 -15 -158 -15q-177 0 -274 81t-97 227q0 47 9 100l73 420h-315l37 201h903l-37 -201h-373z" />
    <glyph glyph-name="upsilon" unicode="&#x3c5;" horiz-adv-x="1165" 
d="M129 358q0 26 10 91l97 557h215l-103 -584q-4 -24 -4 -53q0 -86 58 -140.5t149 -54.5q92 0 156 55t81 148l109 629h215l-111 -633q-32 -183 -156 -289.5t-304 -106.5q-181 0 -296.5 107t-115.5 274z" />
    <glyph glyph-name="phi" unicode="&#x3c6;" horiz-adv-x="1550" 
d="M793 -23l-60 -346h-215l62 346q-222 3 -359 131.5t-137 331.5q0 228 142.5 390t375.5 196l31 -190q-154 -35 -241 -135.5t-87 -241.5q0 -128 85.5 -209t221.5 -82l88 496q31 178 127.5 271t249.5 93q176 0 287 -119t111 -311q0 -269 -192 -445t-490 -176zM1253 586
q0 117 -48.5 180t-139.5 63q-66 0 -101.5 -41t-52.5 -135l-84 -485q185 0 305.5 118.5t120.5 299.5z" />
    <glyph glyph-name="chi" unicode="&#x3c7;" horiz-adv-x="1081" 
d="M860 -190q48 0 58 2l-33 -181q-43 -16 -97 -16q-157 0 -221 184l-114 330l-353 -498h-252l519 707l-134 405q-18 45 -44 65.5t-70 20.5h-56l31 179q53 16 105 16q86 0 136 -41.5t81 -138.5l104 -324l334 486h252l-504 -695l148 -415q17 -47 42 -66.5t68 -19.5z" />
    <glyph glyph-name="psi" unicode="&#x3c8;" horiz-adv-x="1579" 
d="M537 -369l61 346q-201 0 -330 120t-129 306q0 53 8 97l89 506h213l-84 -494q-9 -40 -9 -80q0 -119 74 -189.5t201 -70.5l205 1180h215l-205 -1180q158 0 255 88.5t128 261.5l84 484h213l-86 -502q-48 -266 -201 -396.5t-426 -130.5l-61 -346h-215z" />
    <glyph glyph-name="omega" unicode="&#x3c9;" horiz-adv-x="1622" 
d="M1538 563q0 -257 -126.5 -421.5t-324.5 -164.5q-99 0 -180 41t-129 113q-113 -154 -309 -154q-179 0 -283 119t-104 326q0 236 129 399q129 164 346 207l31 -184q-137 -44 -212 -153.5t-75 -264.5q0 -252 178 -252q84 0 139.5 59t75.5 170l47 277h205l-43 -244
q-6 -38 -6 -78q0 -88 46 -136t132 -48q106 0 174 102t68 265q0 124 -38 197.5t-124 111.5l94 178q289 -91 289 -465z" />
    <glyph glyph-name="iotadieresis" unicode="&#x3ca;" horiz-adv-x="634" 
d="M111 229q0 49 12 107l119 670h217l-117 -652q-8 -41 -8 -75q0 -107 129 -107q55 0 96 8l-31 -182q-58 -21 -122 -21q-137 0 -216 67t-79 185zM61 1382q0 55 41 94.5t97 39.5q60 0 99.5 -38.5t39.5 -95.5q0 -55 -41 -94t-98 -39q-56 0 -97 39t-41 94zM483 1382
q0 55 42 94.5t98 39.5q57 0 97 -38.5t40 -95.5q0 -55 -40 -94t-97 -39q-56 0 -98 39t-42 94z" />
    <glyph glyph-name="upsilondieresis" unicode="&#x3cb;" horiz-adv-x="1165" 
d="M129 358q0 26 10 91l97 557h215l-103 -584q-4 -24 -4 -53q0 -86 58 -140.5t149 -54.5q92 0 156 55t81 148l109 629h215l-111 -633q-32 -183 -156 -289.5t-304 -106.5q-181 0 -296.5 107t-115.5 274zM324 1380q0 56 40.5 94.5t98.5 38.5t98.5 -38.5t40.5 -94.5
q0 -54 -41 -93.5t-98 -39.5q-56 0 -97.5 39.5t-41.5 93.5zM805 1380q0 56 40.5 94.5t98.5 38.5t98.5 -38.5t40.5 -94.5q0 -54 -41 -93.5t-98 -39.5q-56 0 -97.5 39.5t-41.5 93.5z" />
    <glyph glyph-name="omicrontonos" unicode="&#x3cc;" horiz-adv-x="1245" 
d="M90 477q-2 109 43.5 212t121.5 177.5t180.5 119t215.5 42.5q142 0 259 -65.5t184 -181t67 -255.5q2 -109 -43.5 -211.5t-123 -177t-183 -118.5t-217.5 -42q-216 0 -360 143.5t-144 356.5zM940 524q0 132 -84 219q-82 88 -213 88q-138 0 -235 -103t-97 -249
q0 -135 81 -220t210 -85q141 0 239.5 101.5t98.5 248.5zM586 1163l143 434h256l-10 -38l-225 -396h-164z" />
    <glyph glyph-name="upsilontonos" unicode="&#x3cd;" horiz-adv-x="1165" 
d="M129 358q0 26 10 91l97 557h215l-103 -584q-4 -24 -4 -53q0 -86 58 -140.5t149 -54.5q92 0 156 55t81 148l109 629h215l-111 -633q-32 -183 -156 -289.5t-304 -106.5q-181 0 -296.5 107t-115.5 274zM565 1163l144 434h256l-11 -38l-225 -396h-164z" />
    <glyph glyph-name="omegatonos" unicode="&#x3ce;" horiz-adv-x="1622" 
d="M1538 563q0 -257 -126.5 -421.5t-324.5 -164.5q-99 0 -180 41t-129 113q-113 -154 -309 -154q-179 0 -283 119t-104 326q0 236 129 399q129 164 346 207l31 -184q-137 -44 -212 -153.5t-75 -264.5q0 -252 178 -252q84 0 139.5 59t75.5 170l47 277h205l-43 -244
q-6 -38 -6 -78q0 -88 46 -136t132 -48q106 0 174 102t68 265q0 124 -38 197.5t-124 111.5l94 178q289 -91 289 -465zM823 1163l144 434h256l-11 -38l-225 -396h-164z" />
    <glyph glyph-name="uni0400" unicode="&#x400;" horiz-adv-x="1167" 
d="M84 0l238 1352h888l-34 -195h-672l-62 -346h504l-33 -188h-503l-74 -428h694l-33 -195h-913zM700 1483l-190 342l6 39h246l96 -381h-158z" />
    <glyph glyph-name="uni0401" unicode="&#x401;" horiz-adv-x="1167" 
d="M84 0l238 1352h888l-34 -195h-672l-62 -346h504l-33 -188h-503l-74 -428h694l-33 -195h-913zM420 1663q0 55 41.5 94t97.5 39q57 0 98 -39t41 -94q0 -54 -41 -93.5t-98 -39.5q-56 0 -97.5 39.5t-41.5 93.5zM928 1661q0 55 40.5 95t96.5 40q60 0 99.5 -39t39.5 -96
q0 -54 -41 -93.5t-98 -39.5q-54 0 -95.5 39.5t-41.5 93.5z" />
    <glyph glyph-name="uni0402" unicode="&#x402;" horiz-adv-x="1519" 
d="M883 -29l-9 193q149 10 233.5 79t84.5 179q0 207 -240 207q-166 0 -276 -49l-103 -580h-217l205 1157h-405l34 195h1096l-35 -195h-473l-67 -385q119 49 284 49q188 0 307 -105t119 -272q0 -199 -146 -328.5t-392 -144.5z" />
    <glyph glyph-name="uni0403" unicode="&#x403;" horiz-adv-x="1056" 
d="M84 0l238 1352h837l-33 -195h-622l-203 -1157h-217zM639 1483l215 381h274l-6 -39l-317 -342h-166z" />
    <glyph glyph-name="uni0404" unicode="&#x404;" horiz-adv-x="1468" 
d="M1225 389l151 -123q-106 -137 -262 -213t-332 -76q-137 -2 -259.5 48t-210.5 137t-138.5 208.5t-48.5 256.5q-2 118 37 232.5t111.5 207.5t168 163.5t212 108t237.5 35.5q189 0 337 -89t230 -253l-178 -108q-135 252 -403 252q-184 0 -322 -111q-140 -110 -186 -283h673
l-32 -190h-658q12 -184 137 -300t310 -116q249 0 426 213z" />
    <glyph glyph-name="uni0405" unicode="&#x405;" horiz-adv-x="1142" 
d="M37 307l166 105q142 -238 364 -238q103 0 165.5 50.5t62.5 135.5q0 62 -41 109.5t-131 95.5l-144 78q-254 140 -254 352q0 163 126.5 271t316.5 108q293 0 438 -258l-166 -104q-60 86 -127.5 126t-155.5 40q-98 0 -154.5 -46t-56.5 -124q0 -59 35 -100.5t123 -92.5
l146 -80q136 -74 201 -160t65 -194q0 -174 -129.5 -289t-325.5 -115q-167 0 -302.5 85t-221.5 245z" />
    <glyph glyph-name="uni0406" unicode="&#x406;" horiz-adv-x="557" 
d="M84 0l238 1352h217l-238 -1352h-217z" />
    <glyph glyph-name="uni0407" unicode="&#x407;" horiz-adv-x="557" 
d="M84 0l238 1352h217l-238 -1352h-217zM94 1663q0 55 41.5 94t97.5 39q57 0 98.5 -39t41.5 -94q0 -54 -41.5 -93.5t-98.5 -39.5q-56 0 -97.5 39.5t-41.5 93.5zM602 1661q0 55 40.5 95t96.5 40q60 0 100 -39t40 -96q0 -54 -41.5 -93.5t-98.5 -39.5q-54 0 -95.5 39.5
t-41.5 93.5z" />
    <glyph glyph-name="uni0408" unicode="&#x408;" horiz-adv-x="782" 
d="M-41 16l33 185q131 -23 178 -23q87 0 135.5 42.5t65.5 133.5l176 998h217l-182 -1035q-29 -167 -127 -253.5t-258 -86.5q-125 0 -238 39z" />
    <glyph glyph-name="uni0409" unicode="&#x409;" horiz-adv-x="1966" 
d="M1868 444q0 -202 -148 -323t-393 -121h-500l203 1157h-416l-4 -22q-90 -463 -172 -713q-80 -244 -178 -342q-96 -96 -248 -96q-63 0 -100 16l33 186q16 -4 61 -4q94 0 160 97q66 96 115 286q49 182 122 565l41 222h838l-86 -496h215q214 0 335.5 -110t121.5 -302z
M1647 432q0 113 -62 172.5t-180 59.5h-244l-82 -471h281q135 0 211 63.5t76 175.5z" />
    <glyph glyph-name="uni040A" unicode="&#x40a;" horiz-adv-x="2002" 
d="M84 0l238 1352h217l-90 -506h565l90 506h217l-90 -506h217q211 0 335 -104.5t124 -284.5q0 -203 -150 -330t-391 -127h-500l113 653h-563l-115 -653h-217zM1116 193h283q131 0 209 67t78 182q0 100 -63.5 155.5t-180.5 55.5h-244z" />
    <glyph glyph-name="uni040B" unicode="&#x40b;" horiz-adv-x="1617" 
d="M1425 416q0 -48 -10 -113l-55 -303h-217l51 285q10 68 10 98q0 240 -270 240q-128 0 -258 -48l-103 -575h-217l205 1157h-405l34 195h1096l-35 -195h-473l-67 -385q131 49 272 49q204 0 323 -108t119 -297z" />
    <glyph glyph-name="uni040C" unicode="&#x40c;" horiz-adv-x="1331" 
d="M322 1352h217l-238 -1352h-217zM1382 1352l-682 -654l506 -698h-250l-522 719l662 633h286zM752 1483l215 381h274l-6 -39l-317 -342h-166z" />
    <glyph glyph-name="uni040D" unicode="&#x40d;" horiz-adv-x="1470" 
d="M1380 1374h76l-242 -1374h-217l162 936l-1003 -959h-76l242 1375h217l-166 -938zM831 1483l-190 342l6 39h246l96 -381h-158z" />
    <glyph glyph-name="uni040E" unicode="&#x40e;" horiz-adv-x="1296" 
d="M1157 1352h248l-662 -1096q-91 -150 -190.5 -213t-245.5 -63q-87 0 -143 20l33 190q55 -10 104 -10q85 0 133 28.5t98 106.5l-315 1037h229l236 -805zM512 1776q0 20 10 88h176q-1 -4 -5.5 -34.5t-4.5 -39.5q0 -72 38.5 -113t104.5 -41q69 0 113 45t57 131l9 52h174
l-8 -52q-23 -153 -118.5 -242t-236.5 -89q-137 0 -223 82.5t-86 212.5z" />
    <glyph glyph-name="uni040F" unicode="&#x40f;" horiz-adv-x="1429" 
d="M1411 1352l-237 -1352h-439l-51 -289h-213l53 289h-440l238 1352h217l-203 -1157h653l205 1157h217z" />
    <glyph glyph-name="uni0410" unicode="&#x410;" horiz-adv-x="1355" 
d="M1006 0l-58 225h-602l-135 -225h-246l836 1374h73l355 -1374h-223zM901 412l-125 555l-319 -555h444z" />
    <glyph glyph-name="uni0411" unicode="&#x411;" horiz-adv-x="1218" 
d="M84 0l238 1352h849l-34 -195h-631l-62 -346h258q192 0 306 -104.5t114 -282.5q0 -195 -136 -309.5t-368 -114.5h-534zM336 188h307q124 0 193 59t69 165q0 100 -56.5 156.5t-156.5 56.5h-280z" />
    <glyph glyph-name="uni0412" unicode="&#x412;" horiz-adv-x="1263" 
d="M1163 403q0 -177 -134 -290t-347 -113h-598l238 1352h432q172 0 276.5 -93t104.5 -247q0 -193 -158 -297q88 -44 137 -126t49 -186zM719 1163h-217l-66 -366h252q103 0 164 54t61 146q0 78 -51 122t-143 44zM944 410q0 94 -58 147t-161 53h-322l-73 -420h348
q123 0 194.5 58.5t71.5 161.5z" />
    <glyph glyph-name="uni0413" unicode="&#x413;" horiz-adv-x="1056" 
d="M84 0l238 1352h837l-33 -195h-622l-203 -1157h-217z" />
    <glyph glyph-name="uni0414" unicode="&#x414;" horiz-adv-x="1427" 
d="M1350 1352l-203 -1157h172l-86 -484h-217l51 289h-911l-52 -289h-217l84 484h109q113 91 199 321.5t159 642.5l33 193h879zM315 195h615l170 962h-461q-66 -376 -144 -608t-180 -354z" />
    <glyph glyph-name="uni0415" unicode="&#x415;" horiz-adv-x="1167" 
d="M84 0l238 1352h888l-34 -195h-672l-62 -346h504l-33 -188h-503l-74 -428h694l-33 -195h-913z" />
    <glyph glyph-name="uni0416" unicode="&#x416;" horiz-adv-x="1994" 
d="M489 1352l437 -633l-688 -719h-283l715 737l-430 615h249zM1040 1352h217l-237 -1352h-217zM2058 1352l-649 -652l461 -700h-250l-467 719l621 633h284z" />
    <glyph glyph-name="uni0417" unicode="&#x417;" horiz-adv-x="1198" 
d="M1092 430q0 -200 -145.5 -326.5t-375.5 -126.5q-183 0 -318.5 86t-201.5 244l170 101q56 -111 147 -171.5t207 -60.5q136 0 217.5 66t81.5 176q0 88 -59.5 141t-157.5 53h-186l33 183h143q123 0 194.5 55t71.5 149q0 82 -57.5 129.5t-157.5 47.5q-97 0 -175.5 -39
t-151.5 -121l-140 123q180 235 496 235q180 0 293 -97t113 -251q0 -103 -52 -187t-145 -134q74 -45 115 -116.5t41 -158.5z" />
    <glyph glyph-name="uni0418" unicode="&#x418;" horiz-adv-x="1470" 
d="M1380 1374h76l-242 -1374h-217l162 936l-1003 -959h-76l242 1375h217l-166 -938z" />
    <glyph glyph-name="uni0419" unicode="&#x419;" horiz-adv-x="1470" 
d="M1380 1374h76l-242 -1374h-217l162 936l-1003 -959h-76l242 1375h217l-166 -938zM614 1776q0 13 11 88h176q-1 -4 -5.5 -34.5t-4.5 -39.5q0 -72 38.5 -113t104.5 -41q69 0 113 45t57 131l8 52h174l-8 -52q-23 -153 -118 -242t-236 -89q-137 0 -223.5 82.5t-86.5 212.5z
" />
    <glyph glyph-name="uni041A" unicode="&#x41a;" horiz-adv-x="1331" 
d="M322 1352h217l-238 -1352h-217zM1382 1352l-682 -654l506 -698h-250l-522 719l662 633h286z" />
    <glyph glyph-name="uni041B" unicode="&#x41b;" horiz-adv-x="1355" 
d="M446 1352h891l-237 -1352h-217l204 1157h-471l-4 -22q-90 -464 -168 -703q-78 -241 -178.5 -344.5t-255.5 -103.5q-55 0 -98 16l33 186q12 -4 61 -4q92 0 156 99q69 105 119 297q53 191 122 552z" />
    <glyph glyph-name="uni041C" unicode="&#x41c;" horiz-adv-x="1624" 
d="M1536 1374h74l-242 -1374h-217l145 829l-456 -489h-74l-311 532l-154 -872h-217l242 1374h75l433 -756z" />
    <glyph glyph-name="uni041D" unicode="&#x41d;" horiz-adv-x="1456" 
d="M84 0l238 1352h217l-95 -539h680l95 539h217l-238 -1352h-217l111 618h-682l-109 -618h-217z" />
    <glyph glyph-name="uni041E" unicode="&#x41e;" horiz-adv-x="1597" 
d="M125 627q-3 149 59 288.5t166 240.5t246 161t291 57q185 0 334 -85t233 -233.5t84 -330.5q4 -148 -58.5 -287.5t-167 -241t-246 -162t-288.5 -57.5q-140 0 -261.5 50t-207.5 136.5t-135 206.5t-49 257zM1315 717q0 199 -125.5 329t-319.5 130q-140 3 -262 -70.5
t-192.5 -199t-67.5 -269.5q0 -200 125 -330.5t318 -130.5q140 -3 262 71t193 200t69 270z" />
    <glyph glyph-name="uni041F" unicode="&#x41f;" horiz-adv-x="1435" 
d="M84 0l238 1352h1093l-237 -1352h-217l204 1157h-659l-205 -1157h-217z" />
    <glyph glyph-name="uni0420" unicode="&#x420;" horiz-adv-x="1204" 
d="M84 0l238 1352h442q207 0 325.5 -103.5t118.5 -283.5q0 -198 -145.5 -320.5t-380.5 -122.5h-289l-92 -522h-217zM428 715h285q128 0 200 63.5t72 175.5q0 98 -59.5 151.5t-169.5 53.5h-250z" />
    <glyph glyph-name="uni0421" unicode="&#x421;" horiz-adv-x="1468" 
d="M125 627q-2 118 37 232.5t111.5 207.5t168 163.5t212 108t237.5 35.5q189 0 337 -89t230 -253l-178 -108q-135 252 -403 252q-144 0 -265.5 -72t-191.5 -196.5t-70 -272.5q0 -201 126 -330t323 -129q249 0 426 213l151 -123q-106 -137 -262 -213t-332 -76
q-137 -2 -259.5 48t-210.5 137t-138.5 208.5t-48.5 256.5z" />
    <glyph glyph-name="uni0422" unicode="&#x422;" horiz-adv-x="1202" 
d="M406 0l204 1157h-454l34 195h1127l-35 -195h-455l-204 -1157h-217z" />
    <glyph glyph-name="uni0423" unicode="&#x423;" horiz-adv-x="1296" 
d="M1157 1352h248l-662 -1096q-91 -150 -190.5 -213t-245.5 -63q-87 0 -143 20l33 190q55 -10 104 -10q85 0 133 28.5t98 106.5l-315 1037h229l236 -805z" />
    <glyph glyph-name="uni0424" unicode="&#x424;" horiz-adv-x="1693" 
d="M645 -41l31 172q-111 -2 -213.5 38t-176.5 108t-117.5 163.5t-41.5 198.5q0 268 198.5 434t516.5 166h30l27 154h217l-26 -154q148 3 274.5 -66t199.5 -188.5t70 -257.5q0 -174 -89.5 -310.5t-252.5 -212t-372 -75.5h-27l-31 -170h-217zM711 319l129 730h-23
q-209 0 -340 -111.5t-131 -286.5q0 -149 100.5 -240.5t264.5 -91.5zM928 319h18q210 0 340.5 109.5t130.5 286.5q0 149 -100.5 241.5t-261.5 92.5z" />
    <glyph glyph-name="uni0425" unicode="&#x425;" horiz-adv-x="1230" 
d="M1313 1352l-535 -682l328 -670h-232l-247 510l-406 -510h-266l573 711l-307 641h232l225 -486l369 486h266z" />
    <glyph glyph-name="uni0426" unicode="&#x426;" horiz-adv-x="1488" 
d="M1081 -289l52 289h-1049l238 1352h217l-203 -1157h653l205 1157h217l-205 -1157h172l-86 -484h-211z" />
    <glyph glyph-name="uni0427" unicode="&#x427;" horiz-adv-x="1335" 
d="M1100 1352h217l-238 -1352h-217l92 522q-132 -51 -280 -51q-223 0 -352 114.5t-129 311.5q0 67 14 147l53 308h217l-51 -297q-14 -66 -14 -127q0 -127 77 -192.5t226 -65.5q157 0 272 47z" />
    <glyph glyph-name="uni0428" unicode="&#x428;" horiz-adv-x="1998" 
d="M84 0l238 1352h217l-203 -1157h504l202 1157h218l-203 -1157h504l202 1157h217l-237 -1352h-1659z" />
    <glyph glyph-name="uni0429" unicode="&#x429;" horiz-adv-x="2058" 
d="M1653 -289l51 289h-1620l238 1352h217l-203 -1157h504l202 1157h218l-203 -1157h504l202 1157h217l-202 -1157h172l-86 -484h-211z" />
    <glyph glyph-name="uni042A" unicode="&#x42a;" horiz-adv-x="1394" 
d="M254 0l205 1157h-309l34 195h525l-88 -496h217q213 0 334.5 -111t121.5 -303q0 -201 -147.5 -321.5t-392.5 -120.5h-500zM506 193h280q135 0 211 63.5t76 175.5q0 113 -62 172.5t-180 59.5h-243z" />
    <glyph glyph-name="uni042B" unicode="&#x42b;" horiz-adv-x="1728" 
d="M84 0l238 1352h217l-86 -496h215q214 0 335 -109t121 -301q0 -204 -147 -325t-393 -121h-500zM336 193h280q137 0 212 63t75 180q0 111 -61 169.5t-178 58.5h-246zM1255 0l238 1352h217l-237 -1352h-218z" />
    <glyph glyph-name="uni042C" unicode="&#x42c;" horiz-adv-x="1222" 
d="M84 0l238 1352h217l-86 -496h215q214 0 335 -109t121 -301q0 -204 -147 -325t-393 -121h-500zM336 193h280q137 0 212 63t75 180q0 111 -61 169.5t-178 58.5h-246z" />
    <glyph glyph-name="uni042D" unicode="&#x42d;" horiz-adv-x="1468" 
d="M1407 725q4 -148 -57.5 -287.5t-165.5 -241t-247 -162t-294 -57.5q-191 0 -339.5 89t-227.5 253l176 109q135 -252 403 -252q188 0 331 116.5t183 297.5h-591l34 188h568q-18 178 -142 287q-120 111 -303 111q-252 0 -426 -213l-153 122q109 139 263 214t333 75
q183 2 334.5 -82.5t237.5 -234.5t83 -332z" />
    <glyph glyph-name="uni042E" unicode="&#x42e;" horiz-adv-x="2033" 
d="M1974 725q3 -148 -57 -287.5t-161 -241t-239 -162t-284 -57.5q-177 0 -320.5 83t-226 230t-84.5 328h-192l-109 -618h-217l238 1352h217l-95 -539h181q58 240 261 402t451 159q176 3 324 -82.5t232 -236t81 -330.5zM1751 717q0 201 -121 330t-309 129q-135 3 -253 -70.5
t-186.5 -199t-66.5 -269.5q0 -203 120.5 -332t309.5 -129q100 -2 194.5 41.5t163.5 116.5t109.5 174t38.5 209z" />
    <glyph glyph-name="uni042F" unicode="&#x42f;" horiz-adv-x="1286" 
d="M799 1352h469l-238 -1352h-217l84 477h-184q-44 0 -54 2l-405 -479h-250l447 530q-103 51 -158 142.5t-55 210.5q0 208 154.5 338.5t406.5 130.5zM930 670l88 489h-252q-144 0 -224.5 -71.5t-80.5 -190.5q0 -107 67 -167t193 -60h209z" />
    <glyph glyph-name="uni0430" unicode="&#x430;" horiz-adv-x="1288" 
d="M1006 1006h217l-176 -1006h-203l20 119q-62 -68 -148.5 -105t-185.5 -37q-191 0 -317.5 135.5t-126.5 338.5q-2 156 70.5 290t198.5 212t274 75q115 0 206.5 -43.5t145.5 -122.5zM924 549q0 128 -77 205t-204 77q-139 0 -237.5 -105t-98.5 -255q0 -131 80 -215t207 -84
q140 0 235 108.5t95 268.5z" />
    <glyph glyph-name="uni0431" unicode="&#x431;" horiz-adv-x="1265" 
d="M379 842q60 75 151.5 117t196.5 42q198 0 325.5 -131t127.5 -338q2 -114 -41.5 -217t-118.5 -177t-179 -116.5t-218 -41.5q-216 0 -354 133t-138 340q0 112 47 358q34 170 85 283t139 193t211 125t307 73q164 23 223 35q62 12 137 39l-35 -201q-79 -26 -129 -35
q-77 -14 -213 -31q-131 -16 -217.5 -45t-148 -83t-97 -130t-61.5 -192zM344 469q0 -129 80 -212t205 -83q138 0 232.5 97t94.5 239q0 129 -81 213t-205 84q-136 0 -231 -98.5t-95 -239.5z" />
    <glyph glyph-name="uni0432" unicode="&#x432;" horiz-adv-x="1054" 
d="M948 324q0 -155 -126.5 -251t-329.5 -96q-198 0 -307 106.5t-109 301.5q0 74 26 221q37 204 162 313t326 109q170 0 269 -72t99 -196q0 -165 -170 -236q160 -59 160 -200zM315 608q0 -4 -2 -6h213q106 0 162.5 36t56.5 103q0 111 -167 111q-114 0 -177 -59t-86 -185z
M737 313q0 60 -58 92.5t-167 32.5h-225q-2 -12 -2 -49q0 -113 57.5 -174t165.5 -61q106 0 167.5 43t61.5 116z" />
    <glyph glyph-name="uni0433" unicode="&#x433;" horiz-adv-x="931" 
d="M43 258q0 108 85 191.5t245 134.5l119 39q75 25 106 53t31 69q0 47 -36 72t-104 25q-126 0 -239 -88l-88 153q154 121 342 121q156 0 247 -74.5t91 -203.5q0 -108 -76.5 -185t-235.5 -131l-118 -41q-82 -26 -119 -57t-37 -74q0 -47 41 -73.5t115 -26.5q144 0 295 131
l102 -150q-166 -166 -397 -166q-170 0 -269.5 76t-99.5 205z" />
    <glyph glyph-name="uni0434" unicode="&#x434;" horiz-adv-x="1236" 
d="M1143 649q0 -313 -148 -492.5t-405 -179.5q-222 0 -363 136t-141 350q-2 106 39.5 204.5t111.5 169.5t167 113t200 41q197 0 314 -123q-37 251 -151.5 365.5t-328.5 114.5q-51 0 -155 -11l32 197q71 14 140 14q688 0 688 -899zM909 504q0 131 -78.5 212t-205.5 81
q-136 0 -227 -95.5t-91 -238.5q0 -130 76 -209.5t201 -79.5q139 0 232 95t93 235z" />
    <glyph glyph-name="uni0435" unicode="&#x435;" horiz-adv-x="1150" 
d="M1049 432h-746q17 -128 98 -197t215 -69q152 0 295 108l93 -145q-166 -152 -408 -152q-220 0 -364 139.5t-144 354.5q-2 111 42.5 214.5t119 179.5t177.5 120.5t212 42.5q195 0 317.5 -124t122.5 -322q0 -80 -30 -150zM315 598h551q-2 117 -65.5 182.5t-175.5 65.5
t-196.5 -67.5t-113.5 -180.5z" />
    <glyph glyph-name="uni0436" unicode="&#x436;" horiz-adv-x="1638" 
d="M408 1006l305 -478l-504 -528h-277l531 547l-301 459h246zM803 1006h215l-176 -1006h-215zM1661 1006l-473 -492l346 -514h-246l-350 528l442 478h281z" />
    <glyph glyph-name="uni0437" unicode="&#x437;" horiz-adv-x="954" 
d="M815 303q0 -149 -109 -237.5t-294 -88.5q-260 0 -408 183l143 137q123 -129 273 -129q182 0 182 143q0 127 -178 127h-113l33 172h115q84 0 129 31t45 88q0 49 -41 79t-109 30q-140 0 -247 -113l-113 133q153 170 381 170q158 0 251 -73.5t93 -198.5q0 -166 -156 -242
q60 -32 91.5 -87t31.5 -124z" />
    <glyph glyph-name="uni0438" unicode="&#x438;" horiz-adv-x="1177" 
d="M897 1006h215l-176 -1006h-199l17 92q-121 -115 -291 -115q-154 0 -248 92.5t-94 241.5q0 41 12 111l103 584h215l-103 -576q-10 -65 -10 -80q0 -85 52.5 -133.5t141.5 -48.5q96 0 167 57.5t89 155.5z" />
    <glyph glyph-name="uni0439" unicode="&#x439;" horiz-adv-x="1177" 
d="M897 1006h215l-176 -1006h-199l17 92q-121 -115 -291 -115q-154 0 -248 92.5t-94 241.5q0 41 12 111l103 584h215l-103 -576q-10 -65 -10 -80q0 -85 52.5 -133.5t141.5 -48.5q96 0 167 57.5t89 155.5zM414 1466q0 34 14 105h174q-10 -72 -10 -90q0 -73 38.5 -114.5
t104.5 -41.5q68 0 111.5 46t56.5 132l12 68h175l-11 -68q-26 -154 -121.5 -243t-234.5 -89q-137 0 -223 82.5t-86 212.5z" />
    <glyph glyph-name="uni043A" unicode="&#x43a;" horiz-adv-x="1087" 
d="M248 1006h215l-178 -1006h-215zM1126 1006l-489 -482l346 -524h-244l-348 543l461 463h274z" />
    <glyph glyph-name="uni043B" unicode="&#x43b;" horiz-adv-x="1140" 
d="M-45 -2l33 180q6 -2 37 -2q87 0 136 84.5t99 312.5q44 202 105 293q66 97 137 117q81 23 200 23h369l-176 -1006h-215l143 823h-104q-46 -2 -74 -6t-55.5 -16.5t-43.5 -31.5t-34 -55.5t-31.5 -82.5t-31.5 -119q-34 -154 -70 -252.5t-84.5 -161.5t-108 -88.5t-143.5 -25.5
q-50 0 -88 14z" />
    <glyph glyph-name="uni043C" unicode="&#x43c;" horiz-adv-x="1413" 
d="M1276 1028h72l-181 -1028h-215l101 563l-344 -336h-76l-240 365l-104 -592h-217l182 1028h74l372 -555z" />
    <glyph glyph-name="uni043D" unicode="&#x43d;" horiz-adv-x="1183" 
d="M74 0l176 1006h215l-68 -385h437l67 385h215l-176 -1006h-215l76 436h-436l-76 -436h-215z" />
    <glyph glyph-name="uni043E" unicode="&#x43e;" horiz-adv-x="1245" 
d="M90 477q-2 109 43.5 212t121.5 177.5t180.5 119t215.5 42.5q142 0 259 -65.5t184 -181t67 -255.5q2 -109 -43.5 -211.5t-123 -177t-183 -118.5t-217.5 -42q-216 0 -360 143.5t-144 356.5zM940 524q0 132 -84 219q-82 88 -213 88q-138 0 -235 -103t-97 -249
q0 -135 81 -220t210 -85q141 0 239.5 101.5t98.5 248.5z" />
    <glyph glyph-name="uni043F" unicode="&#x43f;" horiz-adv-x="1177" 
d="M1065 694q0 -36 -12 -112l-103 -582h-217l103 575q10 62 10 80q0 85 -53 134t-142 49q-96 0 -166.5 -57.5t-87.5 -155.5l-110 -625h-215l176 1006h198l-16 -93q121 115 291 115q153 0 248.5 -93t95.5 -241z" />
    <glyph glyph-name="uni0440" unicode="&#x440;" horiz-adv-x="1288" 
d="M1204 545q2 -154 -70 -286t-197 -208.5t-271 -73.5q-116 0 -209.5 46t-147.5 129l-90 -521h-215l244 1375h198l-22 -123q60 69 147 107t189 38q192 0 318 -138t126 -345zM983 524q0 136 -80.5 221.5t-208.5 85.5q-137 0 -233 -108t-96 -264q0 -125 81 -206t205 -81
q138 0 235 103t97 249z" />
    <glyph glyph-name="uni0441" unicode="&#x441;" horiz-adv-x="1142" 
d="M88 471q-2 112 43 216t121 179.5t181.5 119.5t219.5 42q142 0 255 -66.5t173 -183.5l-161 -108q-102 164 -275 164q-141 0 -239.5 -102t-98.5 -251q0 -135 84 -222t213 -87q167 0 277 137l139 -125q-157 -207 -428 -207q-217 0 -360.5 140.5t-143.5 353.5z" />
    <glyph glyph-name="uni0442" unicode="&#x442;" horiz-adv-x="1808" 
d="M1694 694q0 -32 -13 -112l-102 -582h-215l102 580q2 15 5 34t4.5 28t1.5 13q0 86 -51 134.5t-138 48.5q-90 0 -159 -57.5t-87 -155.5l-108 -625h-217l104 580q8 56 8 75q0 86 -49.5 134.5t-136.5 48.5q-92 0 -160.5 -57.5t-85.5 -155.5l-110 -625h-215l176 1006h198
l-16 -93q121 115 287 115q98 0 173 -40t116 -114q64 73 153 113.5t191 40.5q157 0 250.5 -92t93.5 -242z" />
    <glyph glyph-name="uni0443" unicode="&#x443;" horiz-adv-x="1173" 
d="M895 1006h215l-172 -977q-32 -194 -162.5 -307t-320.5 -113q-136 0 -256.5 60.5t-194.5 168.5l133 139q76 -89 152 -130.5t166 -41.5q109 0 178.5 60t89.5 172l14 76q-115 -95 -268 -95q-154 0 -249 91.5t-95 240.5q0 38 12 109l96 547h216l-99 -545q-8 -47 -8 -72
q0 -85 53 -133.5t144 -48.5q94 0 164.5 57.5t87.5 153.5z" />
    <glyph glyph-name="uni0444" unicode="&#x444;" horiz-adv-x="1527" 
d="M1444 543q0 -253 -180 -409.5t-471 -156.5h-11l-59 -346h-217l61 349q-213 12 -347 147.5t-134 335.5q0 253 181 409t474 156h9l90 508h215l-90 -510q212 -12 345.5 -146.5t133.5 -336.5zM602 164l119 678h-6q-190 0 -301 -99.5t-111 -269.5q0 -139 79.5 -221t219.5 -88z
M1227 532q0 140 -79 223t-218 87l-117 -678h6q189 0 298.5 99t109.5 269z" />
    <glyph glyph-name="uni0445" unicode="&#x445;" horiz-adv-x="1048" 
d="M1085 1006l-434 -500l283 -506h-238l-190 360l-305 -360h-258l460 524l-258 482h240l164 -332l276 332h260z" />
    <glyph glyph-name="uni0446" unicode="&#x446;" horiz-adv-x="1267" 
d="M1081 178h60l-82 -467h-203l51 293q-79 24 -116 94q-127 -121 -322 -121q-158 0 -253 92t-95 242q0 41 12 111l103 584h215l-103 -576q-10 -65 -10 -80q0 -85 51.5 -133.5t142.5 -48.5q102 0 169.5 57t86.5 156l109 625h215l-121 -691q-1 -10 -2 -21t-1.5 -17t-0.5 -9
q0 -42 25.5 -66t68.5 -24z" />
    <glyph glyph-name="uni0447" unicode="&#x447;" horiz-adv-x="1079" 
d="M807 1006h217l-178 -1006h-215l65 371q-98 -37 -209 -37q-166 0 -260 94t-94 258q0 39 10 107l37 213h215l-35 -207q-10 -62 -10 -86q0 -88 49.5 -136.5t139.5 -48.5q97 0 190 35z" />
    <glyph glyph-name="uni0448" unicode="&#x448;" horiz-adv-x="1810" 
d="M1528 1006h215l-176 -1004h-199l16 92q-120 -117 -286 -117q-98 0 -174 40t-117 114q-62 -73 -151.5 -113.5t-192.5 -40.5q-155 0 -248.5 92t-93.5 242q0 43 12 113l103 582h215l-103 -580q-10 -52 -10 -76q0 -84 49.5 -132t136.5 -48q93 0 161 57t87 156l109 623h215
l-103 -580q-8 -47 -8 -76q0 -86 49.5 -133t136.5 -47q94 0 161.5 57.5t84.5 155.5z" />
    <glyph glyph-name="uni0449" unicode="&#x449;" horiz-adv-x="1896" 
d="M1712 178h57l-79 -467h-203l51 295q-82 21 -117 92q-127 -121 -307 -121q-105 0 -183.5 40t-121.5 114q-63 -74 -153 -114t-193 -40q-154 0 -248 92.5t-94 241.5q0 55 12 111l103 584h215l-103 -576q-10 -65 -10 -80q0 -85 50 -133.5t136 -48.5q96 0 162.5 57t85.5 156
l109 625h215l-103 -580q-8 -55 -8 -76q0 -86 49.5 -134t136.5 -48q94 0 161.5 57.5t84.5 155.5l111 625h215l-121 -691q-1 -10 -2 -21t-1.5 -17t-0.5 -9q0 -44 24.5 -67t69.5 -23z" />
    <glyph glyph-name="uni044A" unicode="&#x44a;" horiz-adv-x="1198" 
d="M1085 358q0 -171 -120.5 -276t-317.5 -105q-188 0 -295.5 91.5t-107.5 250.5q0 37 10 99l72 405h-234l33 183h448l-53 -304h160q192 0 298.5 -90t106.5 -254zM864 346q0 82 -56.5 126t-160.5 44h-162l-20 -117q-6 -43 -6 -65q0 -170 188 -170q100 0 158.5 49t58.5 133z
" />
    <glyph glyph-name="uni044B" unicode="&#x44b;" horiz-adv-x="1470" 
d="M961 358q0 -169 -118.5 -275t-310.5 -106q-186 0 -292.5 91t-106.5 251q0 37 10 99l105 588h215l-53 -304h145q192 0 299 -90t107 -254zM1198 1006h217l-178 -1006h-215zM739 346q0 82 -56.5 126t-160.5 44h-145l-21 -110q-8 -36 -8 -72q0 -170 189 -170q94 0 148 48.5
t54 133.5z" />
    <glyph glyph-name="uni044C" unicode="&#x44c;" horiz-adv-x="1087" 
d="M975 358q0 -171 -120.5 -276t-317.5 -105q-186 0 -295 91t-109 251q0 37 10 99l105 588h215l-53 -304h159q192 0 299 -90t107 -254zM754 346q0 82 -56.5 126t-160.5 44h-162l-21 -117q-6 -43 -6 -65q0 -170 189 -170q100 0 158.5 49t58.5 133z" />
    <glyph glyph-name="uni044D" unicode="&#x44d;" horiz-adv-x="1142" 
d="M1057 530q1 -111 -44 -214t-121.5 -178t-181.5 -119t-218 -42q-141 0 -255 66.5t-174 183.5l158 105q108 -164 281 -164q118 0 208 71.5t119 188.5h-419l28 166h398q-20 111 -99.5 176.5t-195.5 65.5q-163 0 -279 -140l-135 119q75 102 185 156.5t241 54.5
q216 0 360 -142t144 -354z" />
    <glyph glyph-name="uni044E" unicode="&#x44e;" horiz-adv-x="1646" 
d="M1563 526q3 -146 -73 -274t-205 -203t-275 -72q-195 0 -330 125t-154 320h-164l-73 -422h-217l178 1006h215l-72 -398h146q43 182 191.5 301t338.5 119q138 0 251.5 -65.5t178 -180.5t64.5 -256zM1343 522q0 135 -80 222t-204 87q-136 0 -231 -103t-95 -251
q0 -133 80 -218t205 -85q139 0 232 99.5t93 248.5z" />
    <glyph glyph-name="uni044F" unicode="&#x44f;" horiz-adv-x="1103" 
d="M612 1006h424l-178 -1006h-215l59 338h-141l-321 -338h-254l362 377q-84 38 -131 107.5t-47 156.5q0 164 121 264.5t321 100.5zM733 518l55 299h-190q-100 0 -154.5 -43t-54.5 -121q0 -63 47 -99t129 -36h168z" />
    <glyph glyph-name="uni0450" unicode="&#x450;" horiz-adv-x="1150" 
d="M1049 432h-746q17 -128 98 -197t215 -69q152 0 295 108l93 -145q-166 -152 -408 -152q-220 0 -364 139.5t-144 354.5q-2 111 42.5 214.5t119 179.5t177.5 120.5t212 42.5q195 0 317.5 -124t122.5 -322q0 -80 -30 -150zM315 598h551q-2 117 -65.5 182.5t-175.5 65.5
t-196.5 -67.5t-113.5 -180.5zM559 1163l-123 396l13 38h241l21 -434h-152z" />
    <glyph glyph-name="uni0451" unicode="&#x451;" horiz-adv-x="1150" 
d="M1049 432h-746q17 -128 98 -197t215 -69q152 0 295 108l93 -145q-166 -152 -408 -152q-220 0 -364 139.5t-144 354.5q-2 111 42.5 214.5t119 179.5t177.5 120.5t212 42.5q195 0 317.5 -124t122.5 -322q0 -80 -30 -150zM315 598h551q-2 117 -65.5 182.5t-175.5 65.5
t-196.5 -67.5t-113.5 -180.5zM326 1380q0 56 40.5 94.5t98.5 38.5t98.5 -38.5t40.5 -94.5q0 -54 -41 -93.5t-98 -39.5q-56 0 -97.5 39.5t-41.5 93.5zM807 1380q0 56 40.5 94.5t98.5 38.5t98.5 -38.5t40.5 -94.5q0 -54 -41 -93.5t-98 -39.5q-56 0 -97.5 39.5t-41.5 93.5z" />
    <glyph glyph-name="uni0452" unicode="&#x452;" horiz-adv-x="1189" 
d="M1067 651q0 -39 -12 -112l-107 -605q-31 -160 -125 -242.5t-243 -82.5q-107 0 -177 33l31 176q70 -13 115 -13q85 0 130 39t58 125l103 568q8 47 8 73q0 86 -52 134.5t-143 48.5q-97 0 -166 -57.5t-88 -155.5l-102 -580h-215l205 1157h-166l33 184h165l35 195h215
l-34 -195h399l-33 -184h-399l-47 -270q116 96 268 96q155 0 249.5 -92t94.5 -240z" />
    <glyph glyph-name="uni0453" unicode="&#x453;" horiz-adv-x="931" 
d="M43 258q0 108 85 191.5t245 134.5l119 39q75 25 106 53t31 69q0 47 -36 72t-104 25q-126 0 -239 -88l-88 153q154 121 342 121q156 0 247 -74.5t91 -203.5q0 -108 -76.5 -185t-235.5 -131l-118 -41q-82 -26 -119 -57t-37 -74q0 -47 41 -73.5t115 -26.5q144 0 295 131
l102 -150q-166 -166 -397 -166q-170 0 -269.5 76t-99.5 205zM422 1163l237 434h273l-6 -38l-332 -396h-172z" />
    <glyph glyph-name="uni0454" unicode="&#x454;" horiz-adv-x="1148" 
d="M885 307l135 -117q-75 -103 -185.5 -158t-240.5 -55q-219 0 -362.5 140.5t-143.5 355.5q-2 111 43.5 214.5t122 178.5t182 119.5t217.5 42.5q142 0 255 -66.5t173 -183.5l-157 -106q-105 166 -279 166q-114 0 -200.5 -66t-122.5 -176h415l-28 -168h-400
q14 -119 94 -189.5t201 -70.5q163 0 281 139z" />
    <glyph glyph-name="uni0455" unicode="&#x455;" horiz-adv-x="933" 
d="M29 199l143 125q72 -88 133.5 -125t136.5 -37t120.5 29.5t45.5 78.5q0 41 -26 67.5t-101 61.5l-92 43q-121 54 -175 122t-54 167q0 134 97 215.5t257 81.5q237 0 356 -174l-135 -123q-90 113 -227 113q-66 0 -100.5 -26.5t-34.5 -76.5q0 -38 24.5 -65.5t89.5 -59.5
l86 -41q132 -63 189 -128t57 -160q0 -136 -106 -223t-271 -87q-134 0 -242 58t-171 164z" />
    <glyph glyph-name="uni0456" unicode="&#x456;" horiz-adv-x="526" 
d="M70 0l178 1006h215l-178 -1006h-215zM276 1380q0 60 43 102t103 42q61 0 104 -42t43 -102t-42.5 -100.5t-104.5 -40.5q-60 0 -103 40.5t-43 100.5z" />
    <glyph glyph-name="uni0457" unicode="&#x457;" horiz-adv-x="526" 
d="M154 1362q0 69 38 115.5t95 46.5q47 0 78.5 -34.5t31.5 -88.5q0 -69 -37.5 -115.5t-93.5 -46.5q-50 0 -81 34t-31 89zM422 1362q0 69 38 115.5t95 46.5q48 0 79.5 -34.5t31.5 -88.5q0 -69 -37.5 -115.5t-93.5 -46.5q-50 0 -81.5 34t-31.5 89zM66 0l178 1006h215
l-176 -1006h-217z" />
    <glyph glyph-name="uni0458" unicode="&#x458;" horiz-adv-x="528" 
d="M-264 -360l31 176q79 -11 110 -11q83 0 129.5 37.5t59.5 120.5l182 1043h217l-191 -1078q-29 -158 -122.5 -238.5t-241.5 -80.5q-95 0 -174 31zM274 1380q0 60 43 102t103 42q61 0 104 -42t43 -102t-42.5 -100.5t-104.5 -40.5q-60 0 -103 40.5t-43 100.5z" />
    <glyph glyph-name="uni0459" unicode="&#x459;" horiz-adv-x="1683" 
d="M1569 358q0 -170 -121 -276q-120 -105 -318 -105q-185 0 -294 91t-109 251q0 37 10 99l72 405h-72q-111 0 -164 -30q-49 -28 -71 -86q-20 -53 -51 -195q-50 -212 -100.5 -320.5t-120.5 -154t-187 -49.5q-44 0 -88 12l33 182q21 -6 53 -6q79 0 124.5 91t94.5 306
q40 170 76 246q83 187 383 187h338l-53 -304h161q192 0 298 -90t106 -254zM1350 346q0 81 -57.5 125.5t-162.5 44.5h-159l-21 -110q-8 -36 -8 -72q0 -170 191 -170q100 0 158.5 49t58.5 133z" />
    <glyph glyph-name="uni045A" unicode="&#x45a;" horiz-adv-x="1693" 
d="M1577 336q0 -164 -117.5 -261.5t-314.5 -97.5q-188 0 -299 91.5t-111 253.5q0 39 8 96l11 59h-381l-84 -477h-215l176 1006h215l-62 -344h383l62 344h217l-61 -344h172q190 0 295.5 -86t105.5 -240zM1356 324q0 74 -54.5 113.5t-158.5 39.5h-172l-15 -78q-6 -27 -6 -65
q0 -170 195 -170q100 0 155.5 42.5t55.5 117.5z" />
    <glyph glyph-name="uni045B" unicode="&#x45b;" horiz-adv-x="1187" 
d="M1065 651q0 -53 -12 -112l-92 -539h-218l95 532q8 56 8 74q0 86 -52 133t-143 47q-96 0 -166.5 -56.5t-87.5 -154.5l-100 -575h-215l203 1157h-164l33 184h161l35 195h215l-35 -195h404l-33 -184h-401l-47 -270q110 98 268 98q155 0 249.5 -92t94.5 -242z" />
    <glyph glyph-name="uni045C" unicode="&#x45c;" horiz-adv-x="1087" 
d="M248 1006h215l-178 -1006h-215zM1126 1006l-489 -482l346 -524h-244l-348 543l461 463h274zM549 1163l237 434h273l-6 -38l-332 -396h-172z" />
    <glyph glyph-name="uni045D" unicode="&#x45d;" horiz-adv-x="1177" 
d="M897 1006h215l-176 -1006h-199l17 92q-121 -115 -291 -115q-154 0 -248 92.5t-94 241.5q0 41 12 111l103 584h215l-103 -576q-10 -65 -10 -80q0 -85 52.5 -133.5t141.5 -48.5q96 0 167 57.5t89 155.5zM590 1163l-123 396l12 38h242l20 -434h-151z" />
    <glyph glyph-name="uni045E" unicode="&#x45e;" horiz-adv-x="1173" 
d="M895 1006h215l-172 -977q-32 -194 -162.5 -307t-320.5 -113q-136 0 -256.5 60.5t-194.5 168.5l133 139q76 -89 152 -130.5t166 -41.5q109 0 178.5 60t89.5 172l14 76q-115 -95 -268 -95q-154 0 -249 91.5t-95 240.5q0 38 12 109l96 547h216l-99 -545q-8 -47 -8 -72
q0 -85 53 -133.5t144 -48.5q94 0 164.5 57.5t87.5 153.5zM403 1466q0 29 15 105h174q-10 -72 -10 -90q0 -73 38.5 -114.5t104.5 -41.5q68 0 111.5 46t56.5 132l12 68h174l-10 -68q-26 -154 -121.5 -243t-234.5 -89q-137 0 -223.5 82.5t-86.5 212.5z" />
    <glyph glyph-name="uni045F" unicode="&#x45f;" horiz-adv-x="1177" 
d="M897 1006h215l-176 -1006h-199l17 92q-121 -115 -291 -115q-154 0 -248 92.5t-94 241.5q0 41 12 111l103 584h215l-103 -580q-10 -58 -10 -76q0 -85 52.5 -133.5t141.5 -48.5q96 0 167 57.5t89 155.5zM340 -451l66 353h202l-63 -353h-205z" />
    <glyph glyph-name="uni0462" unicode="&#x462;" horiz-adv-x="1382" 
d="M248 0l174 1008h-299l31 180h301l32 176h218l-33 -176h387l-33 -180h-387l-35 -209h252q197 0 311.5 -95.5t114.5 -259.5q0 -202 -147.5 -323t-395.5 -121h-491zM498 193h274q133 0 209 62.5t76 168.5q0 87 -61.5 135.5t-170.5 48.5h-254z" />
    <glyph glyph-name="uni0463" unicode="&#x463;" horiz-adv-x="1732" 
d="M1618 358q0 -170 -121 -276q-120 -105 -317 -105q-186 0 -295 91t-109 251q0 37 10 99l29 157q10 58 10 80q0 86 -48.5 134.5t-133.5 48.5q-94 0 -161.5 -57.5t-84.5 -155.5l-110 -625h-215l176 1006h198l-16 -93q121 115 285 115q145 0 234.5 -89.5t94.5 -236.5h170
q192 0 298 -90t106 -254zM1399 346q0 82 -57 126t-162 44h-160l-23 -117q-6 -43 -6 -65q0 -170 191 -170q100 0 158.5 49t58.5 133z" />
    <glyph glyph-name="uni0472" unicode="&#x472;" horiz-adv-x="1597" 
d="M1538 725q3 -149 -59 -289t-165.5 -241t-245 -161t-290.5 -57q-140 0 -261.5 50t-207.5 136.5t-135 206.5t-49 257q-3 149 58.5 288.5t165 240.5t245.5 161t293 57q185 0 334 -85t233 -233.5t84 -330.5zM360 758q146 61 269 61q84 0 221 -41q76 -23 123 -33t102 -10
q109 0 234 49q-21 174 -142 283t-297 109q-185 0 -327.5 -118.5t-182.5 -299.5zM1300 596q-137 -55 -258 -55q-39 0 -78.5 6t-64 12.5t-88.5 24.5q-79 23 -122.5 32t-94.5 9q-114 0 -242 -52q21 -176 140 -286q120 -111 299 -111q183 0 326 119.5t183 300.5z" />
    <glyph glyph-name="uni0473" unicode="&#x473;" horiz-adv-x="1245" 
d="M1161 526q2 -109 -43.5 -211.5t-123 -177t-183 -118.5t-217.5 -42q-216 0 -360 143.5t-144 356.5q-2 109 43.5 212t121.5 177.5t180.5 119t215.5 42.5q142 0 259 -65.5t184 -181t67 -255.5zM322 592q68 26 143 26q60 0 166 -28q98 -31 166 -31q73 0 143 27
q-19 113 -100 182.5t-197 69.5q-112 0 -200.5 -68.5t-120.5 -177.5zM934 430q-85 -29 -150 -29q-72 0 -170 31q-9 2 -28.5 7t-26.5 6.5t-21.5 5t-22 5t-19 3t-21 2t-20.5 0.5q-75 0 -148 -27q14 -122 94 -194t201 -72t212 72t120 190z" />
    <glyph glyph-name="uni0474" unicode="&#x474;" horiz-adv-x="1400" 
d="M1546 1350l-30 -187q-38 6 -68 6q-58 0 -97.5 -27.5t-78.5 -92.5l-649 -1072h-76l-352 1375h233l225 -930l432 727q68 115 150 167t188 52q65 0 123 -18z" />
    <glyph glyph-name="uni0475" unicode="&#x475;" horiz-adv-x="1107" 
d="M1202 1006l-31 -179h-53q-80 0 -139 -92l-487 -758h-76l-303 1029h217l178 -660l297 483q111 191 293 191q63 0 104 -14z" />
    <glyph glyph-name="uni0490" unicode="&#x490;" horiz-adv-x="1011" 
d="M84 0l238 1352h579l51 288h213l-86 -483h-575l-203 -1157h-217z" />
    <glyph glyph-name="uni0491" unicode="&#x491;" horiz-adv-x="913" 
d="M72 0l180 1006h498l49 278h209l-80 -465h-494l-145 -819h-217z" />
    <glyph glyph-name="uni0492" unicode="&#x492;" horiz-adv-x="1071" 
d="M1143 1157h-606l-78 -436h334l-33 -182h-332l-96 -539h-217l94 539h-180l32 182h181l110 631h824z" />
    <glyph glyph-name="uni0493" unicode="&#x493;" horiz-adv-x="890" 
d="M924 819h-494l-45 -258h270l-30 -182h-273l-67 -379h-215l67 379h-157l30 182h160l78 445h708z" />
    <glyph glyph-name="uni0496" unicode="&#x496;" horiz-adv-x="1996" 
d="M489 1352l437 -633l-688 -719h-283l713 729l-428 623h249zM1040 1352h217l-237 -1352h-217zM1409 700l326 -505h207l-84 -484h-211l51 289h-84l-461 719l621 633h284z" />
    <glyph glyph-name="uni0497" unicode="&#x497;" horiz-adv-x="1728" 
d="M422 1006l301 -467l-506 -539h-274l532 555l-299 451h246zM811 1006h217l-178 -1006h-215zM1198 522l221 -338h183l-82 -473h-203l51 289h-72l-348 539l434 467h281z" />
    <glyph glyph-name="uni0498" unicode="&#x498;" horiz-adv-x="1198" 
d="M1092 430q0 -200 -145.5 -326.5t-375.5 -126.5q-183 0 -318.5 86t-201.5 244l170 101q56 -111 147 -171.5t207 -60.5q136 0 217.5 66t81.5 176q0 88 -59.5 141t-157.5 53h-186l33 183h143q123 0 194.5 55t71.5 149q0 82 -57.5 129.5t-157.5 47.5q-97 0 -175.5 -39
t-151.5 -121l-140 123q180 235 496 235q180 0 293 -97t113 -251q0 -103 -52 -187t-145 -134q74 -45 115 -116.5t41 -158.5zM215 -360l25 145q88 -16 129 -16q75 0 114 39t39 114q0 60 -26 105l86 34q51 -32 80.5 -82.5t29.5 -107.5q0 -110 -87.5 -186t-213.5 -76
q-88 0 -176 31z" />
    <glyph glyph-name="uni0499" unicode="&#x499;" horiz-adv-x="954" 
d="M815 303q0 -149 -109 -237.5t-294 -88.5q-260 0 -408 183l143 137q123 -129 273 -129q182 0 182 143q0 127 -178 127h-113l33 172h115q84 0 129 31t45 88q0 49 -41 79t-109 30q-140 0 -247 -113l-113 133q153 170 381 170q158 0 251 -73.5t93 -198.5q0 -166 -156 -242
q60 -32 91.5 -87t31.5 -124zM43 -360l25 145q88 -16 129 -16q75 0 114 39t39 114q0 60 -26 105l86 34q51 -32 80.5 -82.5t29.5 -107.5q0 -110 -87.5 -186t-213.5 -76q-88 0 -176 31z" />
    <glyph glyph-name="uni049A" unicode="&#x49a;" horiz-adv-x="1329" 
d="M322 1352h217l-238 -1352h-217zM698 702l365 -507h211l-84 -484h-211l51 289h-80l-516 719l662 633h284z" />
    <glyph glyph-name="uni049B" unicode="&#x49b;" horiz-adv-x="1175" 
d="M250 1006h213l-176 -1006h-215zM641 522l225 -338h185l-84 -473h-201l51 289h-76l-350 539l445 467h280z" />
    <glyph glyph-name="uni04A0" unicode="&#x4a0;" horiz-adv-x="1673" 
d="M186 1352h697l-238 -1352h-217l203 1157h-479zM1724 1352l-682 -654l506 -698h-254l-518 719l662 633h286z" />
    <glyph glyph-name="uni04A1" unicode="&#x4a1;" horiz-adv-x="1267" 
d="M49 1006h584l-178 -1006h-215l145 821h-369zM1280 1006l-473 -474l346 -532h-242l-350 547l445 459h274z" />
    <glyph glyph-name="uni04A2" unicode="&#x4a2;" horiz-adv-x="1513" 
d="M1108 -289l51 289h-178l111 618h-682l-109 -618h-217l238 1352h217l-95 -539h680l95 539h217l-203 -1157h172l-86 -484h-211z" />
    <glyph glyph-name="uni04A3" unicode="&#x4a3;" horiz-adv-x="1255" 
d="M844 -289l51 289h-172l76 436h-432l-78 -436h-215l176 1006h215l-66 -385h432l66 385h217l-145 -824h159l-81 -471h-203z" />
    <glyph glyph-name="uni04AA" unicode="&#x4aa;" horiz-adv-x="1468" 
d="M125 627q-2 118 37 232.5t111.5 207.5t168 163.5t212 108t237.5 35.5q189 0 337 -89t230 -253l-178 -108q-135 252 -403 252q-144 0 -265.5 -72t-191.5 -196.5t-70 -272.5q0 -201 126 -330t323 -129q249 0 426 213l151 -123q-106 -137 -262 -213t-332 -76
q-137 -2 -259.5 48t-210.5 137t-138.5 208.5t-48.5 256.5zM389 -360l25 145q88 -16 129 -16q75 0 114 39t39 114q0 60 -26 105l86 34q51 -32 80.5 -82.5t29.5 -107.5q0 -110 -87.5 -186t-213.5 -76q-88 0 -176 31z" />
    <glyph glyph-name="uni04AB" unicode="&#x4ab;" horiz-adv-x="1142" 
d="M88 471q-2 112 43 216t121 179.5t181.5 119.5t219.5 42q142 0 255 -66.5t173 -183.5l-161 -108q-102 164 -275 164q-141 0 -239.5 -102t-98.5 -251q0 -135 84 -222t213 -87q167 0 277 137l139 -125q-157 -207 -428 -207q-217 0 -360.5 140.5t-143.5 353.5zM213 -360
l25 145q88 -16 129 -16q75 0 114 39t39 114q0 60 -26 105l86 34q51 -32 80.5 -82.5t29.5 -107.5q0 -110 -87.5 -186t-213.5 -76q-88 0 -176 31z" />
    <glyph glyph-name="uni04AE" unicode="&#x4ae;" horiz-adv-x="1269" 
d="M1352 1352l-611 -813l-94 -539h-217l96 549l-325 803h221l242 -592l436 592h252z" />
    <glyph glyph-name="uni04AF" unicode="&#x4af;" 
d="M1188 1006l-594 -1012l-64 -363h-215l64 365l-236 1010h219l158 -797l426 797h242z" />
    <glyph glyph-name="uni04B0" unicode="&#x4b0;" horiz-adv-x="1296" 
d="M1376 1352l-602 -801h295l-33 -182h-299l-65 -369h-217l65 369h-303l33 182h301l-328 801h226l239 -590l436 590h252z" />
    <glyph glyph-name="uni04B1" unicode="&#x4b1;" 
d="M1188 1006l-590 -1006h256l-31 -180h-260l-33 -189h-215l33 189h-260l31 180h260l-236 1006h219l158 -797l426 797h242z" />
    <glyph glyph-name="uni04B2" unicode="&#x4b2;" horiz-adv-x="1253" 
d="M778 670l232 -475h188l-86 -484h-213l51 289h-76l-247 510l-406 -510h-266l573 711l-307 641h232l225 -486l369 486h266z" />
    <glyph glyph-name="uni04B3" unicode="&#x4b3;" horiz-adv-x="1130" 
d="M651 506l180 -320h175l-84 -475h-203l51 289h-74l-190 362l-305 -362h-258l460 524l-258 482h240l166 -334l274 334h260z" />
    <glyph glyph-name="uni04B6" unicode="&#x4b6;" horiz-adv-x="1394" 
d="M1317 1352l-203 -1157h170l-84 -484h-211l51 289h-178l92 522q-132 -51 -280 -51q-221 0 -351 115t-130 311q0 67 14 147l53 308h217l-51 -297q-14 -66 -14 -127q0 -127 77 -192.5t226 -65.5q157 0 272 47l113 635h217z" />
    <glyph glyph-name="uni04B7" unicode="&#x4b7;" horiz-adv-x="1171" 
d="M879 186h165l-81 -475h-203l51 289h-180l65 371q-98 -37 -207 -37q-166 0 -261 93.5t-95 258.5q0 42 10 107l37 213h215l-37 -213q-8 -39 -8 -80q0 -91 48.5 -138t140.5 -47q96 0 192 35l78 443h215z" />
    <glyph glyph-name="uni04BA" unicode="&#x4ba;" horiz-adv-x="1335" 
d="M1208 455q0 -68 -14 -148l-53 -307h-217l51 297q14 66 14 127q0 127 -77 192.5t-226 65.5q-157 0 -272 -47l-113 -635h-217l238 1352h217l-93 -523q134 52 281 52q223 0 352 -114.5t129 -311.5z" />
    <glyph glyph-name="uni04BB" unicode="&#x4bb;" horiz-adv-x="1177" 
d="M1065 694q0 -26 -12 -112l-103 -582h-217l103 580q10 52 10 75q0 85 -52 134t-143 49q-99 0 -168 -57.5t-86 -155.5l-110 -625h-215l268 1536h215l-104 -606q113 98 270 98q154 0 249 -92.5t95 -241.5z" />
    <glyph glyph-name="uni04C0" unicode="&#x4c0;" horiz-adv-x="557" 
d="M84 0l238 1352h217l-238 -1352h-217z" />
    <glyph glyph-name="uni04C1" unicode="&#x4c1;" horiz-adv-x="1994" 
d="M489 1352l437 -633l-688 -719h-283l715 737l-430 615h249zM1040 1352h217l-237 -1352h-217zM2058 1352l-649 -652l461 -700h-250l-467 719l621 633h284zM877 1776q0 20 10 88h176q-1 -4 -5.5 -34.5t-4.5 -39.5q0 -72 38.5 -113t104.5 -41q69 0 113 45t57 131l8 52h174
l-8 -52q-23 -153 -118 -242t-236 -89q-137 0 -223 82.5t-86 212.5z" />
    <glyph glyph-name="uni04C2" unicode="&#x4c2;" horiz-adv-x="1638" 
d="M408 1006l305 -478l-504 -528h-277l531 547l-301 459h246zM803 1006h215l-176 -1006h-215zM1661 1006l-473 -492l346 -514h-246l-350 528l442 478h281zM647 1466q0 29 15 105h174q-11 -79 -11 -90q0 -73 39 -114.5t105 -41.5q68 0 111.5 46t56.5 132l12 68h174l-10 -68
q-26 -154 -122 -243t-235 -89q-137 0 -223 82.5t-86 212.5z" />
    <glyph glyph-name="uni04CF" unicode="&#x4cf;" horiz-adv-x="522" 
d="M72 0l270 1536h217l-270 -1536h-217z" />
    <glyph glyph-name="uni04D0" unicode="&#x4d0;" horiz-adv-x="1355" 
d="M1006 0l-58 225h-602l-135 -225h-246l836 1374h73l355 -1374h-223zM901 412l-125 555l-319 -555h444zM553 1776q0 20 10 88h176q0 -4 -5 -34.5t-5 -39.5q0 -72 38.5 -113t104.5 -41q69 0 113 45t57 131l9 52h174l-8 -52q-23 -153 -118.5 -242t-236.5 -89
q-137 0 -223 82.5t-86 212.5z" />
    <glyph glyph-name="uni04D1" unicode="&#x4d1;" horiz-adv-x="1288" 
d="M1006 1006h217l-176 -1006h-203l20 119q-62 -68 -148.5 -105t-185.5 -37q-191 0 -317.5 135.5t-126.5 338.5q-2 156 70.5 290t198.5 212t274 75q115 0 206.5 -43.5t145.5 -122.5zM924 549q0 128 -77 205t-204 77q-139 0 -237.5 -105t-98.5 -255q0 -131 80 -215t207 -84
q140 0 235 108.5t95 268.5zM395 1466q0 29 15 105h174q-11 -79 -11 -90q0 -73 39 -114.5t105 -41.5q68 0 111.5 46t56.5 132l12 68h174l-10 -68q-26 -154 -121.5 -243t-234.5 -89q-137 0 -223.5 82.5t-86.5 212.5z" />
    <glyph glyph-name="uni04D4" unicode="&#x4d4;" horiz-adv-x="1716" 
d="M1722 1157h-641l-2 -346h416l-31 -188h-385l-4 -428h504l-35 -195h-686v227h-514l-156 -227h-256l932 1352h891zM866 1010l-397 -596h391z" />
    <glyph glyph-name="uni04D5" unicode="&#x4d5;" horiz-adv-x="1802" 
d="M1700 418h-744q17 -119 98.5 -185.5t211.5 -66.5q154 0 297 108l90 -145q-178 -152 -404 -152q-134 0 -241.5 55.5t-169.5 155.5q-68 -101 -181 -156t-254 -55q-167 0 -261.5 73.5t-94.5 203.5q0 149 111.5 234t308.5 85h289q6 35 6 86q0 85 -53.5 131t-151.5 46
q-74 0 -140.5 -28.5t-144.5 -94.5l-90 157q184 158 404 158q244 0 329 -168q74 80 173 124t208 44q189 0 311 -123.5t122 -314.5q0 -93 -29 -172zM963 573h555v27q0 115 -64.5 180.5t-177.5 65.5q-118 0 -203 -74.5t-110 -198.5zM719 360l10 58h-258q-99 0 -152 -37.5
t-53 -106.5q0 -62 46.5 -97.5t127.5 -35.5q106 0 184 61t95 158z" />
    <glyph glyph-name="uni04D6" unicode="&#x4d6;" horiz-adv-x="1167" 
d="M84 0l238 1352h888l-34 -195h-672l-62 -346h504l-33 -188h-503l-74 -428h694l-33 -195h-913zM494 1776q0 20 10 88h176q-1 -4 -5.5 -34.5t-4.5 -39.5q0 -72 38.5 -113t104.5 -41q69 0 113 45t57 131l8 52h174l-8 -52q-23 -153 -118 -242t-236 -89q-137 0 -223 82.5
t-86 212.5z" />
    <glyph glyph-name="uni04D7" unicode="&#x4d7;" horiz-adv-x="1150" 
d="M1049 432h-746q17 -128 98 -197t215 -69q152 0 295 108l93 -145q-166 -152 -408 -152q-220 0 -364 139.5t-144 354.5q-2 111 42.5 214.5t119 179.5t177.5 120.5t212 42.5q195 0 317.5 -124t122.5 -322q0 -80 -30 -150zM315 598h551q-2 117 -65.5 182.5t-175.5 65.5
t-196.5 -67.5t-113.5 -180.5zM385 1466q0 34 14 105h174q-10 -72 -10 -90q0 -73 39 -114.5t105 -41.5q67 0 110 46t57 132l13 68h174l-10 -68q-26 -154 -122 -243t-235 -89q-137 0 -223 82.5t-86 212.5z" />
    <glyph glyph-name="uni04D8" unicode="&#x4d8;" horiz-adv-x="1507" 
d="M1448 737q3 -151 -55.5 -292.5t-157 -244t-233 -163t-277.5 -57.5q-271 0 -440.5 160t-169.5 417q0 89 24 191h1084q-6 188 -128.5 308t-306.5 120q-122 0 -231.5 -52t-189.5 -147l-138 131q104 129 252.5 197.5t321.5 68.5q132 2 252.5 -47.5t207 -135.5t137 -205
t48.5 -249zM1202 559h-866v-18q0 -164 107.5 -263.5t285.5 -99.5q169 0 297 104t176 277z" />
    <glyph glyph-name="uni04D9" unicode="&#x4d9;" horiz-adv-x="1148" 
d="M1065 532q2 -111 -41.5 -214.5t-118 -178.5t-177.5 -119.5t-214 -42.5q-192 0 -316 118t-124 302q0 80 28 166h748q-11 131 -89.5 203t-211.5 72q-154 0 -293 -107l-92 143q181 154 405 154q217 0 356.5 -139.5t139.5 -356.5zM836 397h-551v-10q0 -104 66.5 -166.5
t176.5 -62.5t193 64.5t115 174.5z" />
    <glyph glyph-name="uni04E2" unicode="&#x4e2;" horiz-adv-x="1470" 
d="M1380 1374h76l-242 -1374h-217l162 936l-1003 -959h-76l242 1375h217l-166 -938zM610 1561l31 174h631l-31 -174h-631z" />
    <glyph glyph-name="uni04E3" unicode="&#x4e3;" horiz-adv-x="1177" 
d="M897 1006h215l-176 -1006h-199l17 92q-121 -115 -291 -115q-154 0 -248 92.5t-94 241.5q0 41 12 111l103 584h215l-103 -576q-10 -65 -10 -80q0 -85 52.5 -133.5t141.5 -48.5q96 0 167 57.5t89 155.5zM434 1294l31 172h590l-31 -172h-590z" />
    <glyph glyph-name="uni04E6" unicode="&#x4e6;" horiz-adv-x="1597" 
d="M125 627q-3 149 59 288.5t166 240.5t246 161t291 57q185 0 334 -85t233 -233.5t84 -330.5q4 -148 -58.5 -287.5t-167 -241t-246 -162t-288.5 -57.5q-140 0 -261.5 50t-207.5 136.5t-135 206.5t-49 257zM1315 717q0 199 -125.5 329t-319.5 130q-140 3 -262 -70.5
t-192.5 -199t-67.5 -269.5q0 -200 125 -330.5t318 -130.5q140 -3 262 71t193 200t69 270zM614 1663q0 55 42 94t98 39q57 0 98 -39t41 -94q0 -54 -41 -93.5t-98 -39.5q-56 0 -98 39.5t-42 93.5zM1122 1661q0 55 41 95t97 40q60 0 99.5 -39t39.5 -96q0 -54 -41 -93.5
t-98 -39.5q-54 0 -96 39.5t-42 93.5z" />
    <glyph glyph-name="uni04E7" unicode="&#x4e7;" horiz-adv-x="1245" 
d="M90 477q-2 109 43.5 212t121.5 177.5t180.5 119t215.5 42.5q142 0 259 -65.5t184 -181t67 -255.5q2 -109 -43.5 -211.5t-123 -177t-183 -118.5t-217.5 -42q-216 0 -360 143.5t-144 356.5zM940 524q0 132 -84 219q-82 88 -213 88q-138 0 -235 -103t-97 -249
q0 -135 81 -220t210 -85q141 0 239.5 101.5t98.5 248.5zM342 1380q0 56 40.5 94.5t98.5 38.5t99 -38.5t41 -94.5q0 -54 -41.5 -93.5t-98.5 -39.5q-56 0 -97.5 39.5t-41.5 93.5zM823 1380q0 56 41 94.5t99 38.5t98.5 -38.5t40.5 -94.5q0 -54 -41 -93.5t-98 -39.5
q-56 0 -98 39.5t-42 93.5z" />
    <glyph glyph-name="uni04E8" unicode="&#x4e8;" horiz-adv-x="1597" 
d="M1538 725q3 -149 -59 -289t-165.5 -241t-245 -161t-290.5 -57q-140 0 -261.5 50t-207.5 136.5t-135 206.5t-49 257q-3 149 58.5 288.5t165 240.5t245.5 161t293 57q185 0 334 -85t233 -233.5t84 -330.5zM369 786h942q-21 172 -144 283q-121 109 -297 109
q-179 0 -317 -111q-137 -107 -184 -281zM1303 598h-953q12 -186 134 -305t307 -119t330 121t182 303z" />
    <glyph glyph-name="uni04E9" unicode="&#x4e9;" horiz-adv-x="1245" 
d="M1161 526q2 -109 -43.5 -211.5t-123 -177t-183 -118.5t-217.5 -42q-216 0 -360 143.5t-144 356.5q-2 109 43.5 212t121.5 177.5t180.5 119t215.5 42.5q142 0 259 -65.5t184 -181t67 -255.5zM319 588h619q-19 113 -99.5 181.5t-195.5 68.5q-114 0 -202.5 -69.5
t-121.5 -180.5zM930 420h-621q17 -115 96.5 -183.5t196.5 -68.5q118 0 207.5 69.5t120.5 182.5z" />
    <glyph glyph-name="uni04EE" unicode="&#x4ee;" horiz-adv-x="1296" 
d="M1157 1352h248l-662 -1096q-91 -150 -190.5 -213t-245.5 -63q-87 0 -143 20l33 190q55 -10 104 -10q85 0 133 28.5t98 106.5l-315 1037h229l236 -805zM506 1561l31 174h630l-30 -174h-631z" />
    <glyph glyph-name="uni04EF" unicode="&#x4ef;" horiz-adv-x="1173" 
d="M895 1006h215l-172 -977q-32 -194 -162.5 -307t-320.5 -113q-136 0 -256.5 60.5t-194.5 168.5l133 139q76 -89 152 -130.5t166 -41.5q109 0 178.5 60t89.5 172l14 76q-115 -95 -268 -95q-154 0 -249 91.5t-95 240.5q0 38 12 109l96 547h216l-99 -545q-8 -47 -8 -72
q0 -85 53 -133.5t144 -48.5q94 0 164.5 57.5t87.5 153.5zM444 1294l31 172h590l-31 -172h-590z" />
    <glyph glyph-name="uni04F2" unicode="&#x4f2;" horiz-adv-x="1296" 
d="M1157 1352h248l-662 -1096q-91 -150 -190.5 -213t-245.5 -63q-87 0 -143 20l33 190q55 -10 104 -10q85 0 133 28.5t98 106.5l-315 1037h229l236 -805zM475 1483l230 381h239l-4 -39l-305 -342h-160zM930 1483l229 381h242l-6 -39l-305 -342h-160z" />
    <glyph glyph-name="uni04F3" unicode="&#x4f3;" horiz-adv-x="1173" 
d="M895 1006h215l-172 -977q-32 -194 -162.5 -307t-320.5 -113q-136 0 -256.5 60.5t-194.5 168.5l133 139q76 -89 152 -130.5t166 -41.5q109 0 178.5 60t89.5 172l14 76q-115 -95 -268 -95q-154 0 -249 91.5t-95 240.5q0 38 12 109l96 547h216l-99 -545q-8 -47 -8 -72
q0 -85 53 -133.5t144 -48.5q94 0 164.5 57.5t87.5 153.5zM422 1163l237 434h240l-6 -38l-309 -396h-162zM848 1163l235 434h242l-6 -38l-309 -396h-162z" />
    <glyph glyph-name="Wgrave" unicode="&#x1e80;" horiz-adv-x="2138" 
d="M1966 1352h246l-768 -1375h-72l-229 959l-580 -959h-71l-287 1375h225l178 -914l568 936h73l221 -928zM1167 1483l-190 342l6 39h246l96 -381h-158z" />
    <glyph glyph-name="wgrave" unicode="&#x1e81;" horiz-adv-x="1744" 
d="M1544 1006h240l-627 -1029h-74l-190 670l-438 -670h-76l-266 1029h219l149 -666l430 686h76l187 -672zM858 1163l-123 396l13 38h241l21 -434h-152z" />
    <glyph glyph-name="Wacute" unicode="&#x1e82;" horiz-adv-x="2138" 
d="M1966 1352h246l-768 -1375h-72l-229 959l-580 -959h-71l-287 1375h225l178 -914l568 936h73l221 -928zM1155 1483l215 381h275l-7 -39l-317 -342h-166z" />
    <glyph glyph-name="wacute" unicode="&#x1e83;" horiz-adv-x="1744" 
d="M1544 1006h240l-627 -1029h-74l-190 670l-438 -670h-76l-266 1029h219l149 -666l430 686h76l187 -672zM862 1163l238 434h272l-6 -38l-332 -396h-172z" />
    <glyph glyph-name="Wdieresis" unicode="&#x1e84;" horiz-adv-x="2138" 
d="M1966 1352h246l-768 -1375h-72l-229 959l-580 -959h-71l-287 1375h225l178 -914l568 936h73l221 -928zM887 1663q0 55 41.5 94t97.5 39q57 0 98 -39t41 -94q0 -54 -41 -93.5t-98 -39.5q-56 0 -97.5 39.5t-41.5 93.5zM1395 1661q0 55 40.5 95t96.5 40q60 0 99.5 -39
t39.5 -96q0 -54 -41 -93.5t-98 -39.5q-54 0 -95.5 39.5t-41.5 93.5z" />
    <glyph glyph-name="wdieresis" unicode="&#x1e85;" horiz-adv-x="1744" 
d="M1544 1006h240l-627 -1029h-74l-190 670l-438 -670h-76l-266 1029h219l149 -666l430 686h76l187 -672zM627 1380q0 56 40.5 94.5t98.5 38.5t98.5 -38.5t40.5 -94.5q0 -54 -41 -93.5t-98 -39.5q-56 0 -97.5 39.5t-41.5 93.5zM1108 1380q0 56 40.5 94.5t98.5 38.5
t98.5 -38.5t40.5 -94.5q0 -54 -41 -93.5t-98 -39.5q-56 0 -97.5 39.5t-41.5 93.5z" />
    <glyph glyph-name="uni1E9E" unicode="&#x1e9e;" horiz-adv-x="1476" 
d="M1432 1352l-11 -60l-338 -454q130 -41 208.5 -148t78.5 -244q0 -196 -138.5 -332.5t-338.5 -136.5q-116 0 -219 49.5t-178 141.5l131 145q125 -137 262 -137q112 0 186 74t74 182q0 113 -78 178.5t-213 65.5h-96l6 57l313 424h-577l-203 -1157h-217l238 1352h1110z" />
    <glyph glyph-name="Ygrave" unicode="&#x1ef2;" horiz-adv-x="1269" 
d="M1352 1352l-611 -813l-94 -539h-217l96 549l-325 803h221l242 -592l436 592h252zM719 1483l-191 342l7 39h245l97 -381h-158z" />
    <glyph glyph-name="ygrave" unicode="&#x1ef3;" horiz-adv-x="1173" 
d="M895 1006h215l-172 -977q-32 -194 -162.5 -307t-320.5 -113q-136 0 -256.5 60.5t-194.5 168.5l133 139q76 -89 152 -130.5t166 -41.5q109 0 178.5 60t89.5 172l14 76q-115 -95 -268 -95q-154 0 -249 91.5t-95 240.5q0 38 12 109l96 547h216l-99 -545q-8 -47 -8 -72
q0 -85 53 -133.5t144 -48.5q94 0 164.5 57.5t87.5 153.5zM580 1163l-123 396l12 38h242l20 -434h-151z" />
    <glyph glyph-name="uni2009" unicode="&#x2009;" horiz-adv-x="286" 
 />
    <glyph glyph-name="endash" unicode="&#x2013;" horiz-adv-x="1024" 
d="M92 559l33 182h862l-33 -182h-862z" />
    <glyph glyph-name="emdash" unicode="&#x2014;" horiz-adv-x="2048" 
d="M115 559l35 182h1843l-35 -182h-1843z" />
    <glyph glyph-name="uni2015" unicode="&#x2015;" horiz-adv-x="2048" 
d="M115 559l35 182h1843l-35 -182h-1843z" />
    <glyph glyph-name="quoteleft" unicode="&#x2018;" horiz-adv-x="595" 
d="M201 803l194 549h170l-114 -549h-250z" />
    <glyph glyph-name="quoteright" unicode="&#x2019;" horiz-adv-x="595" 
d="M238 803l114 549h250l-192 -549h-172z" />
    <glyph glyph-name="quotesinglbase" unicode="&#x201a;" horiz-adv-x="595" 
d="M37 -330l115 547h251l-194 -547h-172z" />
    <glyph glyph-name="quotedblleft" unicode="&#x201c;" horiz-adv-x="1028" 
d="M201 803l194 549h170l-114 -549h-250zM631 803l194 549h170l-114 -549h-250z" />
    <glyph glyph-name="quotedblright" unicode="&#x201d;" horiz-adv-x="1028" 
d="M238 803l114 549h250l-192 -549h-172zM668 803l114 549h250l-192 -549h-172z" />
    <glyph glyph-name="quotedblbase" unicode="&#x201e;" horiz-adv-x="1026" 
d="M37 -330l115 547h251l-194 -547h-172zM467 -330l115 547h252l-195 -547h-172z" />
    <glyph glyph-name="dagger" unicode="&#x2020;" horiz-adv-x="960" 
d="M389 588l86 479h-260l33 184h258l49 285h215l-49 -285h258l-31 -184h-258l-86 -479h-215z" />
    <glyph glyph-name="daggerdbl" unicode="&#x2021;" horiz-adv-x="956" 
d="M362 446l41 226h-258l31 184h258l49 272h-258l31 185h258l41 223h215l-39 -223h258l-33 -185h-258l-47 -272h258l-32 -184h-261l-38 -226h-216z" />
    <glyph glyph-name="bullet" unicode="&#x2022;" horiz-adv-x="823" 
d="M121 551q0 125 90 210t213 85q122 0 210.5 -85t88.5 -210q0 -124 -88.5 -208.5t-210.5 -84.5t-212.5 85t-90.5 208z" />
    <glyph glyph-name="ellipsis" unicode="&#x2026;" horiz-adv-x="1609" 
d="M586 135q0 69 45.5 114.5t113.5 45.5t113 -45.5t45 -114.5q0 -67 -45.5 -112.5t-112.5 -45.5q-68 0 -113.5 45.5t-45.5 112.5zM66 135q0 69 45.5 114.5t113.5 45.5t113 -45.5t45 -114.5q0 -67 -45.5 -112.5t-112.5 -45.5q-68 0 -113.5 45.5t-45.5 112.5zM1102 135
q0 69 46 114.5t114 45.5t112.5 -45.5t44.5 -114.5q0 -68 -45 -113t-112 -45q-68 0 -114 45.5t-46 112.5z" />
    <glyph glyph-name="perthousand" unicode="&#x2030;" horiz-adv-x="2469" 
d="M197 1032q0 139 101.5 239.5t246.5 100.5q136 0 228.5 -92.5t92.5 -226.5q0 -141 -102.5 -242.5t-245.5 -101.5q-136 0 -228.5 94.5t-92.5 228.5zM248 0l1073 1352h184l-1077 -1352h-180zM700 1049q0 76 -44 124t-115 48q-78 0 -128.5 -52.5t-50.5 -134.5
q0 -75 46 -123.5t118 -48.5q75 0 124.5 53t49.5 134zM881 301q0 140 103 241t245 101q136 0 229.5 -92.5t93.5 -228.5q0 -139 -103.5 -240.5t-246.5 -101.5q-134 0 -227.5 94t-93.5 227zM1671 303q0 138 102 239t244 101q137 0 230.5 -92.5t93.5 -226.5
q0 -141 -102.5 -242.5t-245.5 -101.5q-136 0 -229 94.5t-93 228.5zM2175 319q0 76 -44.5 124.5t-115.5 48.5q-78 0 -128 -52.5t-50 -134.5q0 -75 46 -123.5t118 -48.5q75 0 124.5 52.5t49.5 133.5zM1384 317q0 76 -44 124t-115 48q-78 0 -127 -52t-49 -132q0 -78 45 -126
t118 -48q75 0 123.5 52t48.5 134z" />
    <glyph glyph-name="minute" unicode="&#x2032;" horiz-adv-x="548" 
d="M190 782l175 570h253l-260 -570h-168z" />
    <glyph glyph-name="second" unicode="&#x2033;" horiz-adv-x="976" 
d="M190 782l175 570h253l-260 -570h-168zM621 782l174 570h254l-261 -570h-167z" />
    <glyph glyph-name="guilsinglleft" unicode="&#x2039;" horiz-adv-x="659" 
d="M389 119l-315 407l12 60l442 407l125 -129l-338 -317l226 -314z" />
    <glyph glyph-name="guilsinglright" unicode="&#x203a;" horiz-adv-x="661" 
d="M154 119l-123 129l338 319l-228 314l154 112l313 -405l-10 -62z" />
    <glyph glyph-name="fraction" unicode="&#x2044;" horiz-adv-x="534" 
d="M-297 0l1010 1352h184l-1012 -1352h-182z" />
    <glyph glyph-name="uni2070" unicode="&#x2070;" horiz-adv-x="851" 
d="M203 1059q-1 70 13 144t46 149t78 133t116.5 93.5t155.5 33.5q137 0 207 -84.5t70 -239.5q1 -71 -13 -146t-46 -150t-77.5 -133t-115.5 -94t-154 -34q-137 0 -208.5 86.5t-71.5 241.5zM717 1282q0 88 -34 131t-93 43q-45 2 -82.5 -24t-61 -67.5t-40 -95.5t-23 -105
t-6.5 -99q0 -90 33.5 -134t93.5 -44q54 -2 98 38.5t68 104t36 129t11 123.5z" />
    <glyph glyph-name="uni2074" unicode="&#x2074;" horiz-adv-x="751" 
d="M817 1032l-26 -145h-105l-24 -142h-160l24 142h-428l8 47l357 663h188l-307 -565h209l43 238h156l-41 -238h106z" />
    <glyph glyph-name="uni2075" unicode="&#x2075;" horiz-adv-x="753" 
d="M805 1444h-338l-27 -154q62 4 66 4q116 0 190 -70.5t74 -179.5q0 -134 -95 -223.5t-237 -89.5q-115 0 -197 57t-114 160l135 72q56 -133 180 -133q69 0 113.5 40t44.5 103q0 57 -41 88t-119 31h-188l80 448h502z" />
    <glyph glyph-name="uni2076" unicode="&#x2076;" horiz-adv-x="753" 
d="M780 1047q0 -129 -95.5 -221.5t-227.5 -92.5q-129 0 -211 82q-84 84 -84 209q0 83 33 139q42 72 110 150l244 284h217l-236 -274q108 -3 177 -84q73 -79 73 -192zM610 1040q0 61 -36 99.5t-93 38.5q-63 0 -106 -44.5t-43 -107.5q0 -60 38 -98.5t95 -38.5q63 0 104 42.5
t41 108.5z" />
    <glyph glyph-name="uni2077" unicode="&#x2077;" horiz-adv-x="684" 
d="M250 1597h590l-9 -47l-514 -805h-198l456 699h-352z" />
    <glyph glyph-name="uni2078" unicode="&#x2078;" horiz-adv-x="782" 
d="M791 989q0 -108 -89 -182q-90 -72 -219 -72q-141 0 -231 64.5t-90 167.5q0 86 56 148.5t155 88.5q-92 68 -92 168q0 105 78.5 172.5t201.5 67.5q124 0 199.5 -59t75.5 -156q0 -152 -170 -226q125 -70 125 -182zM438 1372q0 -31 18.5 -53t73.5 -59q80 26 114 54t34 66
q0 43 -34 71t-85 28q-53 0 -87 -31t-34 -76zM623 987q0 37 -24.5 64.5t-90.5 64.5q-97 -25 -136.5 -55.5t-39.5 -79.5q0 -51 37.5 -81t103.5 -30q68 0 109 31.5t41 85.5z" />
    <glyph glyph-name="uni2079" unicode="&#x2079;" horiz-adv-x="755" 
d="M831 1319q0 -83 -32 -137q-32 -55 -111 -152l-244 -285h-217l236 275q-105 3 -180 84q-72 81 -72 192q0 129 96 221.5t230 92.5q127 0 211 -84q83 -83 83 -207zM662 1317q0 60 -38.5 98.5t-95.5 38.5q-63 0 -104 -42.5t-41 -108.5q0 -62 34.5 -99t94.5 -37q62 0 106 43.5
t44 106.5z" />
    <glyph glyph-name="uni207A" unicode="&#x207a;" horiz-adv-x="874" 
d="M387 813l51 285h-276l26 149h277l49 285h166l-51 -285h276l-26 -149h-277l-49 -285h-166z" />
    <glyph glyph-name="uni207B" unicode="&#x207b;" horiz-adv-x="874" 
d="M186 1102l25 139h717l-25 -139h-717z" />
    <glyph glyph-name="uni207C" unicode="&#x207c;" horiz-adv-x="874" 
d="M229 1264l27 147h688l-26 -147h-689zM170 934l27 149h688l-27 -149h-688z" />
    <glyph glyph-name="uni207D" unicode="&#x207d;" horiz-adv-x="546" 
d="M221 1010q0 192 59.5 367t165.5 299.5t238 170.5l47 -106q-167 -81 -266 -281q-96 -200 -96 -450q0 -289 157 -422l-77 -92q-112 72 -170 203.5t-58 310.5z" />
    <glyph glyph-name="uni207E" unicode="&#x207e;" horiz-adv-x="546" 
d="M104 498l-47 106q166 82 265 279q98 197 98 452q0 290 -160 422l80 92q110 -72 168.5 -204t58.5 -310q0 -192 -59.5 -367t-165.5 -299.5t-238 -170.5z" />
    <glyph glyph-name="uni2080" unicode="&#x2080;" horiz-adv-x="851" 
d="M29 68q-1 70 13 144t46 149t78 133t116.5 93.5t155.5 33.5q137 0 207 -84.5t70 -239.5q1 -71 -13 -146t-46 -150t-77.5 -133t-115.5 -94t-154 -34q-137 0 -208.5 86.5t-71.5 241.5zM543 291q0 88 -34 131t-93 43q-45 2 -82.5 -24t-61 -67.5t-40 -95.5t-23 -105t-6.5 -99
q0 -90 33.5 -134t93.5 -44q54 -2 98 38.5t68 104t36 129t11 123.5z" />
    <glyph glyph-name="uni2081" unicode="&#x2081;" horiz-adv-x="737" 
d="M-39 -246l29 154h209l96 545h-197l27 153h367l-123 -698h180l-27 -154h-561z" />
    <glyph glyph-name="uni2082" unicode="&#x2082;" horiz-adv-x="770" 
d="M391 -2l-108 -90h303l-29 -154h-616l8 37l358 320q87 79 123.5 132.5t36.5 104.5q0 54 -31.5 85.5t-85.5 31.5q-61 0 -96 -43.5t-35 -118.5v-22h-170v30q0 135 86 221q89 89 221 89q127 0 205 -72t78 -189q0 -88 -55 -167q-52 -78 -193 -195z" />
    <glyph glyph-name="uni2083" unicode="&#x2083;" horiz-adv-x="731" 
d="M655 606l-8 -47l-235 -274q72 -26 115.5 -92t43.5 -146q0 -130 -94.5 -218.5t-232.5 -88.5q-115 0 -194.5 57t-110.5 160l133 72q31 -69 71.5 -101t100.5 -32q70 0 112.5 39t42.5 104q0 57 -40.5 88t-118.5 31h-97l9 45l217 250h-283l29 153h540z" />
    <glyph glyph-name="uni2084" unicode="&#x2084;" horiz-adv-x="751" 
d="M643 41l-27 -145h-104l-25 -142h-159l24 142h-428l8 47l357 663h188l-307 -565h209l43 238h156l-41 -238h106z" />
    <glyph glyph-name="uni2085" unicode="&#x2085;" horiz-adv-x="753" 
d="M631 453h-338l-27 -154q62 4 66 4q116 0 190 -70.5t74 -179.5q0 -134 -95 -223.5t-237 -89.5q-115 0 -197 57t-114 160l135 72q56 -133 180 -133q69 0 113.5 40t44.5 103q0 57 -41 88t-119 31h-188l80 448h501z" />
    <glyph glyph-name="uni2086" unicode="&#x2086;" horiz-adv-x="753" 
d="M606 55q0 -129 -95.5 -221t-227.5 -92q-127 0 -211 84t-84 207q0 85 32 139q40 68 111 150l244 284h217l-236 -274q107 -3 176 -84q74 -80 74 -193zM436 49q0 61 -36 99t-93 38q-63 0 -106 -44t-43 -107q0 -60 38 -98.5t95 -38.5q63 0 104 42.5t41 108.5z" />
    <glyph glyph-name="uni2087" unicode="&#x2087;" horiz-adv-x="684" 
d="M76 606h590l-9 -47l-514 -805h-198l456 699h-352z" />
    <glyph glyph-name="uni2088" unicode="&#x2088;" horiz-adv-x="782" 
d="M616 -2q0 -110 -88 -180q-89 -74 -219 -74q-141 0 -231 64.5t-90 166.5q0 86 56 149t155 89q-93 69 -93 168q0 104 79 172t202 68q124 0 199.5 -59t75.5 -156q0 -152 -170 -226q124 -69 124 -182zM264 381q0 -31 18.5 -53.5t73.5 -59.5q79 26 113.5 54.5t34.5 66.5
q0 43 -34 70.5t-85 27.5q-53 0 -87 -30.5t-34 -75.5zM449 -4q0 37 -24.5 64.5t-90.5 64.5q-97 -25 -136.5 -55.5t-39.5 -79.5q0 -51 37.5 -81t103.5 -30q68 0 109 31.5t41 85.5z" />
    <glyph glyph-name="uni2089" unicode="&#x2089;" horiz-adv-x="755" 
d="M657 328q0 -84 -32 -138q-30 -51 -111 -151l-244 -285h-217l236 275q-105 3 -180 84q-72 81 -72 192q0 129 95.5 221t229.5 92q128 0 211 -83q84 -84 84 -207zM487 326q0 60 -38 98.5t-95 38.5q-63 0 -104 -43t-41 -109q0 -62 34.5 -98.5t94.5 -36.5q62 0 105.5 43.5
t43.5 106.5z" />
    <glyph glyph-name="uni208A" unicode="&#x208a;" horiz-adv-x="876" 
d="M213 -180l51 284h-276l26 150h277l49 285h166l-51 -285h276l-26 -150h-277l-49 -284h-166z" />
    <glyph glyph-name="uni208B" unicode="&#x208b;" horiz-adv-x="874" 
d="M10 109l25 139h717l-25 -139h-717z" />
    <glyph glyph-name="uni208C" unicode="&#x208c;" horiz-adv-x="876" 
d="M55 270l27 148h688l-27 -148h-688zM-4 -59l27 149h688l-27 -149h-688z" />
    <glyph glyph-name="uni208D" unicode="&#x208d;" horiz-adv-x="546" 
d="M47 16q0 192 59.5 367.5t165.5 300t238 170.5l47 -106q-167 -81 -266 -281q-96 -200 -96 -451q0 -289 157 -422l-78 -92q-112 72 -169.5 203t-57.5 311z" />
    <glyph glyph-name="uni208E" unicode="&#x208e;" horiz-adv-x="544" 
d="M-72 -496l-47 107q166 82 264 280q99 197 99 451q0 290 -160 422l80 92q110 -72 168.5 -204t58.5 -310q0 -192 -59.5 -367.5t-165.5 -300t-238 -170.5z" />
    <glyph glyph-name="lira" unicode="&#x20a4;" horiz-adv-x="1122" 
d="M442 180h531l-31 -180h-928l9 51q242 138 313 297h-240l27 164h246q-3 55 -25 143h-194l28 164h115q-21 71 -21 137q0 180 125 298t314 118q183 0 294.5 -101t131.5 -286l-193 -45q-14 113 -71.5 173.5t-153.5 60.5q-100 0 -165 -70t-65 -178q0 -44 17 -107h373l-27 -164
h-289q25 -77 25 -143h237l-28 -164h-238q-40 -100 -117 -168z" />
    <glyph glyph-name="peseta" unicode="&#x20a7;" horiz-adv-x="1245" 
d="M1333 987l-30 -180h-160q-43 -167 -193 -265t-370 -98h-166l-78 -444h-217l141 807h-162l31 180h164l63 365h314q209 0 336.5 -98t146.5 -267h180zM664 1165h-123l-33 -186h426q-35 186 -270 186zM924 815h-443l-32 -184h163q122 0 202 48.5t110 135.5z" />
    <glyph glyph-name="Euro" unicode="&#x20ac;" horiz-adv-x="1388" 
d="M1126 313l138 -125q-78 -102 -198 -157.5t-263 -55.5q-218 0 -371 123q-153 125 -199 330h-233l29 170h186q0 76 12 147h-168l29 170h184q84 211 250 332q168 125 383 125q165 0 291 -63.5t199 -184.5l-158 -112q-51 75 -138 117t-192 42q-123 0 -227 -68t-168 -188h559
l-74 -170h-544q-15 -65 -15 -145v-2h490l-74 -170h-389q42 -118 135 -185t219 -67q182 0 307 137z" />
    <glyph glyph-name="uni20AE" unicode="&#x20ae;" horiz-adv-x="1200" 
d="M1282 1157h-455l-53 -305l375 119l-35 -191l-375 -118l-26 -156l377 121l-35 -191l-377 -123l-55 -313h-217l45 252l-371 -115l33 191l370 118l29 154l-371 -119l33 193l371 119l65 364h-454l34 195h1127z" />
    <glyph glyph-name="uni20B4" unicode="&#x20b4;" horiz-adv-x="1110" 
d="M1012 905h137l-27 -162h-1044l26 162h689q38 49 38 113q0 78 -54 119t-140 41q-133 0 -268 -111l-93 154q82 74 184 113.5t210 39.5q166 0 276 -90q109 -89 109 -237q0 -78 -43 -142zM23 436l26 162h1047l-29 -162h-729q-19 -40 -19 -84q0 -86 59.5 -132t166.5 -46
q167 0 352 141l88 -155q-222 -183 -465 -183q-188 0 -305 95.5t-117 255.5q0 56 21 108h-96z" />
    <glyph glyph-name="uni20B8" unicode="&#x20b8;" horiz-adv-x="1200" 
d="M156 1157l34 195h1127l-35 -195h-1126zM406 0l141 797h-455l35 196h1126l-34 -196h-455l-141 -797h-217z" />
    <glyph glyph-name="uni20B9" unicode="&#x20b9;" horiz-adv-x="1075" 
d="M1044 1184h-264q54 -67 66 -148h170l-31 -170h-145q-35 -141 -157 -233t-294 -109l447 -524h-263l-450 522l33 174h168q116 0 191 44t101 126h-432l31 170h406q-43 144 -252 144h-129l30 172h803z" />
    <glyph glyph-name="uni20BA" unicode="&#x20ba;" horiz-adv-x="1081" 
d="M1006 459q0 -226 -170 -354t-471 -128q-90 0 -226 17l82 465l-198 -84l32 190l199 84l27 154l-199 -84l35 190l196 84l64 359h219l-47 -271l395 168l-33 -190l-397 -168l-27 -156l396 170l-33 -190l-395 -168l-68 -379h35q198 0 291 90t94 285h192q7 -79 7 -84z" />
    <glyph glyph-name="uni20BD" unicode="&#x20bd;" horiz-adv-x="1206" 
d="M119 0l43 244h-164l33 180h164l28 158h-166l33 186h164l102 584h432q190 0 300 -96.5t110 -262.5q0 -184 -134.5 -297.5t-350.5 -113.5h-273l-28 -158h528l-31 -180h-530l-43 -244h-217zM471 768h260q115 0 180.5 57.5t65.5 157.5q0 88 -53.5 135t-155.5 47h-225z" />
    <glyph glyph-name="uni20BF" unicode="&#x20bf;" horiz-adv-x="1187" 
d="M1071 430q0 -134 -87.5 -229.5t-235.5 -124.5l-50 -271h-176l47 261h-151l-45 -261h-176l45 261h-146l215 1222h144l43 246h176l-43 -246h110q31 0 41 -2l43 248h176l-53 -299q137 -86 137 -256q0 -92 -42.5 -164t-120.5 -113q72 -43 110.5 -113.5t38.5 -158.5zM887 967
q0 145 -176 145h-236l-57 -326h266q92 0 147.5 49.5t55.5 131.5zM872 436q0 85 -52 131.5t-146 46.5h-285l-65 -374h307q113 0 177 52t64 144z" />
    <glyph glyph-name="uni2113" unicode="&#x2113;" horiz-adv-x="940" 
d="M610 170q66 0 172 14l-30 -182q-103 -25 -191 -25q-174 0 -269 78t-95 224q0 41 8 88l-127 -72l-74 172q96 55 242 145l94 545q70 402 391 402q137 0 208 -72t71 -211q0 -386 -572 -787l-16 -94q-8 -36 -8 -76q0 -149 196 -149zM553 1149l-68 -391q332 270 332 497
q0 63 -23.5 92t-74.5 29q-66 0 -106 -54.5t-60 -172.5z" />
    <glyph glyph-name="uni2116" unicode="&#x2116;" horiz-adv-x="2295" 
d="M1057 422l162 930h217l-242 -1375h-74l-655 955l-164 -932h-217l242 1374h75zM1585 799q0 146 106 249t255 103q138 0 230.5 -89.5t92.5 -223.5q0 -146 -107 -249.5t-255 -103.5q-137 0 -229.5 90.5t-92.5 223.5zM1755 805q0 -73 44.5 -120.5t113.5 -47.5q78 0 132 55.5
t54 136.5q0 73 -45.5 121.5t-114.5 48.5q-78 0 -131 -56t-53 -138zM1491 193l25 145h659l-25 -145h-659z" />
    <glyph glyph-name="uni2117" unicode="&#x2117;" horiz-adv-x="1619" 
d="M129 647q-3 141 58.5 276.5t163.5 235t240.5 159t282.5 56.5q136 2 263 -51t218.5 -143t145.5 -214.5t51 -258.5q3 -141 -58.5 -277t-163.5 -236t-240.5 -160t-282.5 -57q-136 -3 -263 50t-218.5 144t-145.5 216t-51 260zM1401 709q3 144 -68.5 266.5t-195 193
t-267.5 68.5q-116 2 -226 -46t-190 -128.5t-127.5 -190t-45.5 -225.5q0 -228 152 -380t380 -152q156 -3 293 78t217.5 219.5t77.5 296.5zM530 311l127 721h267q121 0 191.5 -61.5t70.5 -167.5q0 -117 -87 -189.5t-227 -72.5h-141l-41 -230h-160zM758 680h133q62 0 96.5 29.5
t34.5 83.5q0 100 -111 100h-116z" />
    <glyph glyph-name="trademark" unicode="&#x2122;" horiz-adv-x="1964" 
d="M1937 1366h62l-164 -934h-184l88 496l-283 -295h-61l-185 313l-90 -514h-184l160 934h65l295 -500zM178 1352h774l-28 -166h-297l-131 -754h-185l133 754h-297z" />
    <glyph glyph-name="uni2126" unicode="&#x2126;" horiz-adv-x="1617" 
d="M1235 195h240l-33 -195h-582l33 197q214 85 327 223.5t113 316.5q0 193 -129.5 316t-333.5 123q-218 0 -366 -150t-148 -371q0 -141 75 -258t214 -200l-35 -197h-544l34 195h269q-111 93 -173.5 216t-62.5 253q-2 107 33 212.5t102 195.5t155.5 159t202.5 107t236 36
q194 3 355.5 -79.5t253 -227.5t88.5 -319q0 -168 -83 -311t-241 -242z" />
    <glyph glyph-name="estimated" unicode="&#x212e;" horiz-adv-x="1628" 
d="M1518 670h-1115v-410q75 -102 190 -157.5t261 -55.5q156 0 292.5 65t229.5 177l51 -45q-101 -124 -251 -194t-322 -70q-147 -2 -280 52.5t-228.5 147.5t-150.5 221t-52 267q-3 142 55 274t155 226.5t227 150.5t266 53q122 2 245 -42.5t221 -121.5t158 -190.5t56 -237.5
q0 -66 -8 -110zM403 1090v-353h863v383q-74 88 -179.5 135.5t-232.5 47.5q-141 0 -258 -56t-193 -157z" />
    <glyph glyph-name="uni2150" unicode="&#x2150;" horiz-adv-x="1957" 
d="M92 500l29 153h209l96 545h-197l27 154h367l-123 -699h180l-27 -153h-561zM440 0l1010 1352h184l-1011 -1352h-183zM1393 852h589l-8 -47l-514 -805h-198l456 698h-352z" />
    <glyph glyph-name="uni2151" unicode="&#x2151;" horiz-adv-x="1966" 
d="M92 500l29 153h209l96 545h-197l27 154h367l-123 -699h180l-27 -153h-561zM440 0l1010 1352h184l-1011 -1352h-183zM1913 573q0 -81 -33 -137q-30 -51 -111 -151l-243 -285h-217l235 274q-105 3 -180 84q-72 81 -72 193q0 129 96 221t230 92q127 0 211 -84t84 -207z
M1743 571q0 60 -38 99t-95 39q-63 0 -104.5 -43t-41.5 -109q0 -62 34.5 -98.5t94.5 -36.5q62 0 106 43t44 106z" />
    <glyph glyph-name="uni2152" unicode="&#x2152;" horiz-adv-x="2863" 
d="M92 500l29 153h209l96 545h-197l27 154h367l-123 -699h180l-27 -153h-561zM440 0l1010 1352h184l-1011 -1352h-183zM1278 0l29 154h209l96 544h-197l27 154h366l-122 -698h180l-27 -154h-561zM2083 313q-1 70 13 144t46 149t78 133t116.5 93.5t155.5 33.5q137 0 207 -84
t70 -239q1 -71 -13 -146t-46 -150t-77.5 -133t-115.5 -94t-154 -34q-137 0 -208.5 86t-71.5 241zM2597 537q0 88 -34 131t-93 43q-56 2 -99.5 -37t-67 -101.5t-35 -127.5t-11.5 -126q0 -90 33.5 -134t93.5 -44q44 -2 81 25t61 70.5t41 98t24 106t6 96.5z" />
    <glyph glyph-name="uni2153" unicode="&#x2153;" horiz-adv-x="2002" 
d="M92 500l29 153h209l96 545h-197l27 154h367l-123 -699h180l-27 -153h-561zM440 0l1010 1352h184l-1011 -1352h-183zM1972 852l-8 -47l-235 -275q72 -26 115.5 -91.5t43.5 -145.5q0 -130 -94.5 -218.5t-232.5 -88.5q-115 0 -195 57t-111 160l134 71q31 -69 71.5 -101
t100.5 -32q69 0 112 39t43 105q0 57 -41 87.5t-119 30.5h-96l8 46l218 249h-283l29 154h540z" />
    <glyph glyph-name="uni2154" unicode="&#x2154;" horiz-adv-x="2035" 
d="M522 743l-108 -90h303l-29 -153h-616l8 37l358 319q87 78 123.5 132.5t36.5 105.5q0 54 -31.5 85t-85.5 31q-61 0 -96 -43t-35 -118v-23h-170v31q0 135 86 221q88 88 221 88q127 0 205 -71.5t78 -188.5q0 -89 -55 -168q-52 -78 -193 -195zM473 0l1010 1352h184
l-1012 -1352h-182zM2003 852l-8 -47l-236 -275q72 -26 116 -91.5t44 -145.5q0 -130 -95 -218.5t-233 -88.5q-115 0 -194.5 57t-110.5 160l133 71q31 -69 71.5 -101t100.5 -32q70 0 113 39.5t43 104.5q0 57 -41 87.5t-119 30.5h-96l8 46l217 249h-282l28 154h541z" />
    <glyph glyph-name="uni2155" unicode="&#x2155;" horiz-adv-x="2011" 
d="M92 500l29 153h209l96 545h-197l27 154h367l-123 -699h180l-27 -153h-561zM440 0l1010 1352h184l-1011 -1352h-183zM1931 698h-338l-26 -153q62 4 65 4q116 0 190 -70.5t74 -179.5q0 -134 -94.5 -223.5t-236.5 -89.5q-115 0 -197.5 57t-114.5 160l136 71
q56 -133 180 -133q69 0 113 40.5t44 103.5q0 57 -40.5 87.5t-118.5 30.5h-189l80 449h502z" />
    <glyph glyph-name="uni2156" unicode="&#x2156;" horiz-adv-x="2043" 
d="M522 743l-108 -90h303l-29 -153h-616l8 37l358 319q87 78 123.5 132.5t36.5 105.5q0 54 -31.5 85t-85.5 31q-61 0 -96 -43t-35 -118v-23h-170v31q0 135 86 221q88 88 221 88q127 0 205 -71.5t78 -188.5q0 -89 -55 -168q-52 -78 -193 -195zM473 0l1010 1352h184
l-1012 -1352h-182zM1962 698h-338l-27 -153q62 4 66 4q116 0 190 -70.5t74 -179.5q0 -134 -95 -223.5t-237 -89.5q-115 0 -197 57t-114 160l135 71q56 -133 180 -133q69 0 113.5 40.5t44.5 103.5q0 57 -41 87.5t-119 30.5h-188l80 449h502z" />
    </font>
</defs>
</svg>
