<?xml version="1.0" standalone="no"?>
<!DOCTYPE svg PUBLIC "-//W3C//DTD SVG 1.1//EN" "http://www.w3.org/Graphics/SVG/1.1/DTD/svg11.dtd" >
<svg xmlns="http://www.w3.org/2000/svg" xmlns:xlink="http://www.w3.org/1999/xlink" version="1.1">
<metadata>
Created by FontForge 20170731 at Mon Dec 21 18:11:34 2020
 By Aleksey,,,
Copyright (c) 2015, 2018 by Jakob Runge, under exclusive license to TypeMates. All rights reserved.
</metadata>
<defs>
<font id="CeraPro-Medium" horiz-adv-x="1146" >
  <font-face 
    font-family="Cera Pro"
    font-weight="500"
    font-stretch="normal"
    units-per-em="2048"
    panose-1="0 0 6 0 0 0 0 0 0 0"
    ascent="1655"
    descent="-393"
    x-height="1006"
    cap-height="1352"
    bbox="-940 -498 2738 2048"
    underline-thickness="155"
    underline-position="-359"
    unicode-range="U+0020-FB02"
  />
<missing-glyph horiz-adv-x="1454" 
d="M170 1352h1114v-1352h-1114v1352zM1130 131v1081h-811z" />
    <glyph glyph-name="fi" unicode="fi" horiz-adv-x="1218" 
d="M408 1190v-184h237v-187h-237v-819h-215v819h-144v187h144v202q0 174 94.5 262.5t263.5 88.5q77 0 139 -19v-182q-49 6 -86 6q-101 0 -148.5 -40t-47.5 -134zM846 0v1006h215v-1006h-215zM807 1380q0 60 43 102t104 42q60 0 103 -42t43 -102t-43 -100.5t-103 -40.5
q-62 0 -104.5 40.5t-42.5 100.5z" />
    <glyph glyph-name="fl" unicode="fl" horiz-adv-x="1218" 
d="M408 1190v-184h237v-187h-237v-819h-215v819h-144v187h144v202q0 174 94.5 262.5t263.5 88.5q77 0 139 -19v-182q-49 6 -86 6q-101 0 -148.5 -40t-47.5 -134zM846 0v1536h215v-1536h-215z" />
    <glyph glyph-name=".notdef" horiz-adv-x="1454" 
d="M170 1352h1114v-1352h-1114v1352zM1130 131v1081h-811z" />
    <glyph glyph-name=".null" horiz-adv-x="0" 
 />
    <glyph glyph-name="nonmarkingreturn" horiz-adv-x="682" 
 />
    <glyph glyph-name="space" unicode=" " horiz-adv-x="573" 
 />
    <glyph glyph-name="exclam" unicode="!" horiz-adv-x="667" 
d="M244 461l-41 891h258l-39 -891h-178zM174 135q0 69 46 114.5t114 45.5t113 -45.5t45 -114.5q0 -67 -45 -112.5t-113 -45.5t-114 45.5t-46 112.5z" />
    <glyph glyph-name="quotedbl" unicode="&#x22;" horiz-adv-x="1024" 
d="M182 803l19 549h248l-101 -549h-166zM612 803l19 549h248l-101 -549h-166z" />
    <glyph glyph-name="numbersign" unicode="#" horiz-adv-x="1257" 
d="M1200 836h-196l-43 -320h194v-184h-219l-45 -332h-178l45 332h-350l-46 -332h-178l45 332h-174v184h199l41 320h-193v184h217l46 332h182l-45 -332h346l45 332h180l-45 -332h172v-184zM432 510h348l45 332h-348z" />
    <glyph glyph-name="dollar" unicode="$" horiz-adv-x="1099" 
d="M647 49v-244h-198v248q-246 47 -375 277l149 110q133 -207 336 -207q95 0 155 43t60 115q0 59 -41.5 97.5t-140.5 82.5l-141 56q-297 116 -297 342q0 122 81 208t214 113v244h198v-240q204 -38 311 -227l-147 -111q-55 79 -115 115.5t-139 36.5q-82 0 -135 -35.5
t-53 -101.5q0 -58 37 -93.5t126 -74.5l152 -58q305 -116 305 -350q0 -139 -93.5 -230.5t-248.5 -115.5z" />
    <glyph glyph-name="percent" unicode="%" horiz-adv-x="1742" 
d="M125 1042q0 138 100.5 235t243.5 97q139 0 239.5 -97.5t100.5 -234.5q0 -140 -100.5 -236.5t-239.5 -96.5q-143 0 -243.5 96.5t-100.5 236.5zM395 0l774 1352h183l-777 -1352h-180zM639 1042q0 75 -49 128t-121 53q-73 0 -121.5 -51.5t-48.5 -129.5t47.5 -129t122.5 -51
q72 0 121 51t49 129zM936 311q0 140 99 237t241 97t242 -97t100 -237q0 -137 -101 -234t-241 -97q-141 0 -240.5 96.5t-99.5 234.5zM1446 311q0 78 -48 129.5t-120 51.5q-75 0 -122.5 -50.5t-47.5 -130.5q0 -78 47.5 -128t122.5 -50q72 0 120 51.5t48 126.5z" />
    <glyph glyph-name="ampersand" unicode="&#x26;" horiz-adv-x="1329" 
d="M1274 600l-60 -86q-116 -173 -172 -242l226 -272h-256l-105 127q-173 -150 -381 -150q-187 0 -307.5 102.5t-120.5 260.5q0 110 64 201q63 90 225 215q-131 167 -131 309q0 139 89 224t235 85q140 0 228.5 -80t88.5 -207q0 -94 -55 -180.5t-176 -179.5l243 -293
q8 11 23.5 34t46.5 68.5t57 84.5q25 41 66 98zM457 1063q0 -43 21.5 -87t74.5 -112q79 62 111 108t32 99q0 54 -31.5 84.5t-86.5 30.5q-58 0 -89.5 -32t-31.5 -91zM778 283l-270 327q-113 -88 -152 -139q-37 -49 -37 -111q0 -82 61 -135t157 -53q124 0 241 111z" />
    <glyph glyph-name="quotesingle" unicode="'" horiz-adv-x="595" 
d="M182 803l19 549h248l-101 -549h-166z" />
    <glyph glyph-name="parenleft" unicode="(" horiz-adv-x="714" 
d="M150 618q0 372 118 586q121 218 303 303l88 -135q-140 -93 -225 -270q-86 -177 -86 -484q0 -548 311 -751l-88 -135q-182 85 -303 303q-118 214 -118 583z" />
    <glyph glyph-name="parenright" unicode=")" horiz-adv-x="714" 
d="M145 -268l-90 135q312 203 312 751q0 307 -86 484q-84 176 -226 270l90 135q182 -86 299 -303q119 -216 119 -586q0 -367 -119 -583q-117 -217 -299 -303z" />
    <glyph glyph-name="asterisk" unicode="*" horiz-adv-x="897" 
d="M809 1290l-188 -135l188 -135l-64 -109l-210 97l-23 -232h-127l-23 232l-210 -97l-64 109l188 135l-188 135l64 111l210 -96l23 231h127l23 -231l210 96z" />
    <glyph glyph-name="plus" unicode="+" 
d="M473 178v379h-369v186h369v375h209v-375h360v-186h-360v-379h-209z" />
    <glyph glyph-name="comma" unicode="," horiz-adv-x="573" 
d="M158 -365l20 582h250l-96 -582h-174z" />
    <glyph glyph-name="hyphen" unicode="-" horiz-adv-x="704" 
d="M100 559v182h504v-182h-504z" />
    <glyph glyph-name="period" unicode="." horiz-adv-x="573" 
d="M127 135q0 67 47 113.5t115 46.5t112.5 -45.5t44.5 -114.5q0 -68 -45 -113t-112 -45q-68 0 -115 45.5t-47 112.5z" />
    <glyph glyph-name="slash" unicode="/" horiz-adv-x="1331" 
d="M10 -248l1071 1845h240l-1071 -1845h-240z" />
    <glyph glyph-name="zero" unicode="0" horiz-adv-x="1280" 
d="M125 688q0 310 131 496q132 190 385 190q254 0 383 -188q131 -186 131 -498q0 -152 -32 -280t-94 -225t-161.5 -151.5t-226.5 -54.5q-102 0 -186.5 35.5t-145 99.5t-102.5 153t-62 195.5t-20 227.5zM930 686q0 490 -289 490q-291 0 -291 -490q0 -245 72.5 -377.5
t218.5 -132.5t217.5 132.5t71.5 377.5z" />
    <glyph glyph-name="one" unicode="1" horiz-adv-x="798" 
d="M518 1352h76v-1352h-217v1096l-275 -88l-53 190z" />
    <glyph glyph-name="two" unicode="2" horiz-adv-x="1171" 
d="M492 188h571v-188h-969v49l481 518q117 124 166.5 206t49.5 165q0 104 -62 171t-164 67q-101 0 -165 -70t-64 -176q0 -37 10 -105h-219q-14 52 -14 117q0 112 55 210t160.5 160t238.5 62q193 0 321 -120.5t128 -299.5q0 -137 -74 -252q-64 -103 -213 -262z" />
    <glyph glyph-name="three" unicode="3" horiz-adv-x="1112" 
d="M1012 434q0 -100 -40 -186.5t-107.5 -145t-157.5 -92t-189 -33.5q-159 0 -282 79t-193 214l152 107q65 -99 141 -150t176 -51q122 0 199 70.5t77 185.5t-80.5 176.5t-230.5 61.5h-149v59l315 424h-504v199h842v-60l-328 -442q148 -24 254 -133q105 -108 105 -283z" />
    <glyph glyph-name="four" unicode="4" horiz-adv-x="1150" 
d="M1114 422v-186h-184v-236h-217v236h-676v59l432 1057h223l-383 -930h404v416h217v-416h184z" />
    <glyph glyph-name="five" unicode="5" horiz-adv-x="1144" 
d="M1044 436q0 -132 -68.5 -238.5t-181.5 -163.5t-247 -57q-163 0 -289 78t-197 213l152 109q132 -201 328 -201q123 0 201.5 70t78.5 186q0 115 -81 177.5t-230 62.5h-311v680h770v-195h-557v-317q79 18 172 18q92 0 174.5 -28t146.5 -80.5t101.5 -133.5t37.5 -180z" />
    <glyph glyph-name="six" unicode="6" horiz-adv-x="1138" 
d="M1049 444q0 -129 -66 -237t-176 -169t-238 -61q-127 -2 -237.5 59t-176.5 170.5t-63 239.5q0 74 23 148q25 74 57 125q28 45 104 155l338 478h256l-325 -461q27 6 59 6q117 0 219 -59t164 -164t62 -230zM834 444q0 113 -78 191t-187 78q-110 0 -188 -78q-76 -76 -76 -191
q0 -116 76 -192t188 -76q111 0 187 76q78 78 78 192z" />
    <glyph glyph-name="seven" unicode="7" horiz-adv-x="1050" 
d="M74 1352h927v-60l-653 -1292h-235l596 1157h-635v195z" />
    <glyph glyph-name="eight" unicode="8" horiz-adv-x="1193" 
d="M1087 352q0 -169 -135.5 -272t-353.5 -103q-220 0 -357 103t-137 272q0 243 293 350q-114 62 -171.5 141t-57.5 185q0 165 121 254q124 92 309 92q184 0 305 -92q121 -89 121 -254q0 -204 -229 -326q292 -108 292 -350zM375 1020q0 -71 50 -118.5t171 -100.5
q120 52 170.5 99.5t50.5 119.5q0 81 -60.5 128.5t-158.5 47.5q-100 0 -161.5 -47.5t-61.5 -128.5zM868 360q0 88 -63.5 141.5t-208.5 106.5q-142 -50 -207 -105.5t-65 -142.5q0 -93 72.5 -147.5t201.5 -54.5t199.5 54t70.5 148z" />
    <glyph glyph-name="nine" unicode="9" horiz-adv-x="1138" 
d="M1049 905q0 -76 -25 -149q-19 -60 -57 -125q-32 -52 -105 -154l-336 -477h-258l326 461q-27 -6 -59 -6q-115 0 -216.5 59t-164 163.5t-62.5 229.5q0 129 65.5 237t175.5 169t238 61q95 1 183.5 -35t154 -98t104 -150.5t36.5 -185.5zM834 907q0 115 -76 191
q-78 78 -187 78q-112 0 -190 -78q-76 -76 -76 -191q0 -116 76 -192t190 -76q109 0 187 78q76 76 76 190z" />
    <glyph glyph-name="colon" unicode=":" horiz-adv-x="573" 
d="M127 860q0 67 47 113.5t115 46.5t112.5 -45.5t44.5 -114.5q0 -68 -45 -113t-112 -45q-68 0 -115 45.5t-47 112.5zM127 135q0 67 47 113.5t115 46.5t112.5 -45.5t44.5 -114.5q0 -68 -45 -113t-112 -45q-68 0 -115 45.5t-47 112.5z" />
    <glyph glyph-name="semicolon" unicode=";" horiz-adv-x="573" 
d="M127 860q0 67 47 113.5t115 46.5t112.5 -45.5t44.5 -114.5q0 -68 -45 -113t-112 -45q-68 0 -115 45.5t-47 112.5zM158 -365l20 582h250l-96 -582h-174z" />
    <glyph glyph-name="less" unicode="&#x3c;" 
d="M1014 1083v-194l-563 -238l563 -237v-195l-922 402v61z" />
    <glyph glyph-name="equal" unicode="=" 
d="M125 774v187h899v-187h-899zM125 340v186h899v-186h-899z" />
    <glyph glyph-name="greater" unicode="&#x3e;" 
d="M133 1083l924 -401v-61l-924 -402v195l563 237l-563 238v194z" />
    <glyph glyph-name="question" unicode="?" horiz-adv-x="917" 
d="M311 555q0 60 38.5 115t123.5 127q84 76 112.5 117t28.5 96q0 71 -47.5 118.5t-117.5 47.5q-68 0 -119 -45.5t-80 -131.5l-180 78q43 142 144.5 219.5t242.5 77.5q159 0 270 -99t111 -249q0 -88 -43.5 -160t-139.5 -157q-87 -76 -116 -113.5t-29 -79.5q0 -24 8 -55h-184
q-23 54 -23 94zM274 135q0 67 46 113.5t114 46.5t114 -45.5t46 -114.5q0 -67 -46 -112.5t-114 -45.5t-114 45.5t-46 112.5z" />
    <glyph glyph-name="at" unicode="@" horiz-adv-x="1918" 
d="M1831 582q0 -248 -154 -381q-151 -133 -401 -133h-76v116q-44 -67 -121 -103t-170 -36q-175 0 -292 125.5t-117 314.5q0 190 116.5 315.5t294.5 125.5q88 0 162.5 -32.5t118.5 -92.5v106h188v-663q127 11 198 97t71 241q0 260 -184 430t-476 170q-201 3 -366.5 -85.5
t-259.5 -246.5t-91 -350q-3 -194 90 -352.5t254.5 -246.5t354.5 -85q129 0 256 39l35 -156q-140 -55 -312 -55q-172 -3 -332 63.5t-277.5 180.5t-186.5 274t-66 334q-3 180 68 341t192.5 275t288 179.5t348.5 62.5q173 3 332 -59t272 -167t179 -248.5t63 -297.5zM1180 487
q0 120 -64.5 187t-165.5 67q-104 0 -172.5 -71t-68.5 -185q0 -112 68 -183t171 -71q98 0 165 68t67 188z" />
    <glyph glyph-name="A" unicode="A" horiz-adv-x="1355" 
d="M1077 0l-96 225h-608l-97 -225h-231l596 1374h74l596 -1374h-234zM903 412l-225 559l-227 -559h452z" />
    <glyph glyph-name="B" unicode="B" horiz-adv-x="1265" 
d="M1188 393q0 -172 -121 -282.5t-317 -110.5h-580v1352h473q181 0 293.5 -101.5t112.5 -259.5t-113 -254q119 -38 185.5 -129t66.5 -215zM623 1161h-240v-364h240q99 0 153.5 49t54.5 135q0 85 -54.5 132.5t-153.5 47.5zM969 399q0 97 -63 154t-175 57h-348v-420h348
q112 0 175 56t63 153z" />
    <glyph glyph-name="C" unicode="C" horiz-adv-x="1468" 
d="M88 676q-3 142 54 272.5t153.5 224.5t229 148.5t274.5 52.5q184 0 337 -83.5t242 -227.5l-164 -121q-150 234 -413 234q-136 0 -248 -64.5t-176 -179.5t-64 -256t64 -256t176 -179.5t248 -64.5q263 0 413 234l164 -121q-88 -145 -240.5 -228.5t-338.5 -83.5
q-142 -2 -274.5 53t-229 148.5t-153.5 224.5t-54 273z" />
    <glyph glyph-name="D" unicode="D" horiz-adv-x="1417" 
d="M170 0v1352h424q330 0 532.5 -187t202.5 -487q0 -146 -53.5 -271.5t-148.5 -215t-233 -140.5t-300 -51h-424zM387 195h205q233 0 373.5 134.5t140.5 348.5q0 216 -139.5 346.5t-374.5 130.5h-205v-960z" />
    <glyph glyph-name="E" unicode="E" horiz-adv-x="1165" 
d="M170 0v1352h889v-195h-672v-346h506v-188h-506v-428h696v-195h-913z" />
    <glyph glyph-name="F" unicode="F" horiz-adv-x="1083" 
d="M170 0v1352h868v-195h-651v-403h537v-197h-537v-557h-217z" />
    <glyph glyph-name="G" unicode="G" horiz-adv-x="1527" 
d="M88 676q-3 142 53.5 272.5t153 224.5t229.5 148.5t277 52.5q175 0 318 -73t241 -209l-158 -129q-151 213 -403 213q-213 0 -349.5 -141.5t-136.5 -356.5q0 -218 140.5 -362t357.5 -144q132 0 235.5 53.5t167.5 151.5v145h-415v193h633v-381q-92 -163 -260.5 -260
t-370.5 -97q-145 -2 -278 53t-229 149t-152 224.5t-54 272.5z" />
    <glyph glyph-name="H" unicode="H" horiz-adv-x="1456" 
d="M170 0v1352h217v-539h680v539h217v-1352h-217v618h-680v-618h-217z" />
    <glyph glyph-name="I" unicode="I" horiz-adv-x="557" 
d="M170 0v1352h217v-1352h-217z" />
    <glyph glyph-name="J" unicode="J" horiz-adv-x="780" 
d="M43 0v186q102 -10 139 -10q109 0 160 41t51 141v994h217v-1016q0 -177 -99 -268t-282 -91q-78 0 -186 23z" />
    <glyph glyph-name="K" unicode="K" horiz-adv-x="1333" 
d="M170 0v1352h217v-1352h-217zM666 719l622 -719h-268l-627 719l568 633h266z" />
    <glyph glyph-name="L" unicode="L" horiz-adv-x="1054" 
d="M170 0v1352h217v-1157h619v-195h-836z" />
    <glyph glyph-name="M" unicode="M" horiz-adv-x="1624" 
d="M1380 1374h74v-1374h-217v848l-387 -508h-74l-389 510v-850h-217v1374h76l567 -756z" />
    <glyph glyph-name="N" unicode="N" horiz-adv-x="1456" 
d="M1067 1352h217v-1375h-74l-823 938v-915h-217v1374h76l821 -934v912z" />
    <glyph glyph-name="O" unicode="O" horiz-adv-x="1597" 
d="M88 676q-2 142 54.5 272.5t153 224.5t228 148.5t273.5 52.5q141 2 273 -53t229 -148.5t154 -224t54 -272.5q4 -189 -93.5 -352t-262.5 -256.5t-354 -90.5q-143 -2 -275 53t-228 148.5t-152.5 224.5t-53.5 273zM1284 678q0 212 -139 355t-346 143q-210 0 -348 -142
t-138 -356q0 -217 137.5 -359.5t348.5 -142.5q208 0 346.5 143t138.5 359z" />
    <glyph glyph-name="P" unicode="P" horiz-adv-x="1193" 
d="M170 0v1352h494q204 0 331 -115.5t127 -298.5q0 -182 -127.5 -299t-330.5 -117h-277v-522h-217zM387 715h272q114 0 177 60t63 161q0 102 -63 162.5t-177 60.5h-272v-444z" />
    <glyph glyph-name="Q" unicode="Q" horiz-adv-x="1597" 
d="M2146 -240v-172q-126 -22 -227 -22q-270 0 -493.5 115.5t-381.5 338.5q-116 -43 -247 -43q-143 -2 -275 53t-228 148.5t-152.5 224.5t-53.5 273q-2 142 54.5 272.5t153 224.5t228 148.5t273.5 52.5q141 2 273 -53t229 -148.5t154 -224t54 -272.5q0 -171 -75 -317.5
t-209 -243.5q140 -185 318.5 -274t412.5 -89q69 0 192 8zM799 176q207 0 346 142.5t139 357.5t-139 357.5t-348 142.5q-207 0 -345.5 -142t-138.5 -356q0 -217 137.5 -359.5t348.5 -142.5z" />
    <glyph glyph-name="R" unicode="R" horiz-adv-x="1292" 
d="M1268 0h-248l-385 522h-248v-522h-217v1352h494q204 0 331 -115.5t127 -298.5q0 -133 -69 -233.5t-191 -147.5zM387 1159v-444h272q111 0 175.5 60.5t64.5 160.5q0 101 -64.5 162t-175.5 61h-272z" />
    <glyph glyph-name="S" unicode="S" horiz-adv-x="1144" 
d="M74 270l153 117q72 -104 157.5 -159.5t197.5 -55.5q105 0 169 51t64 137q0 68 -43 109t-156 94l-149 70q-158 72 -236.5 159t-78.5 216q0 162 123.5 264t302.5 102q140 0 256 -65.5t180 -175.5l-152 -117q-111 164 -284 164q-89 0 -147 -43.5t-58 -120.5q5 -71 37.5 -102
t132.5 -82l6 -3t5.5 -3t6.5 -3l152 -69q169 -77 246 -166t77 -219q0 -175 -127.5 -283.5t-324.5 -108.5q-164 0 -297.5 77.5t-212.5 215.5z" />
    <glyph glyph-name="T" unicode="T" horiz-adv-x="1193" 
d="M487 0v1157h-454v195h1128v-195h-456v-1157h-218z" />
    <glyph glyph-name="U" unicode="U" horiz-adv-x="1421" 
d="M156 547v805h217v-820q0 -168 93.5 -262t246.5 -94q151 0 243.5 94t92.5 262v820h217v-805q0 -174 -72.5 -304.5t-197 -198t-283.5 -67.5q-247 0 -402 153.5t-155 416.5z" />
    <glyph glyph-name="V" unicode="V" horiz-adv-x="1355" 
d="M1067 1352h244l-596 -1375h-74l-596 1375h244l389 -940z" />
    <glyph glyph-name="W" unicode="W" horiz-adv-x="2152" 
d="M1841 1352h238l-527 -1375h-71l-404 959l-403 -959h-74l-526 1375h239l338 -914l387 936h76l389 -936z" />
    <glyph glyph-name="X" unicode="X" horiz-adv-x="1243" 
d="M1196 0h-248l-327 504l-326 -504h-250l457 690l-428 662h250l299 -478l295 478h247l-420 -662z" />
    <glyph glyph-name="Y" unicode="Y" horiz-adv-x="1269" 
d="M1210 1352l-467 -807v-545h-217v545l-467 807h242l334 -588l336 588h239z" />
    <glyph glyph-name="Z" unicode="Z" horiz-adv-x="1204" 
d="M389 195h754v-195h-1090v59l750 1098h-662v195h1000v-60z" />
    <glyph glyph-name="bracketleft" unicode="[" horiz-adv-x="716" 
d="M197 -268v1761h428v-180h-236v-1397h236v-184h-428z" />
    <glyph glyph-name="backslash" unicode="\" horiz-adv-x="1331" 
d="M1081 -248l-1071 1845h240l1071 -1845h-240z" />
    <glyph glyph-name="bracketright" unicode="]" horiz-adv-x="716" 
d="M90 -268v184h238v1397h-238v180h430v-1761h-430z" />
    <glyph glyph-name="asciicircum" unicode="^" horiz-adv-x="1073" 
d="M961 573h-213l-211 443l-211 -443h-213l387 799h73z" />
    <glyph glyph-name="underscore" unicode="_" horiz-adv-x="1032" 
d="M80 -317v174h872v-174h-872z" />
    <glyph glyph-name="grave" unicode="`" horiz-adv-x="1228" 
d="M666 1163l-265 396v38h263l161 -434h-159z" />
    <glyph glyph-name="a" unicode="a" horiz-adv-x="1097" 
d="M954 608v-608h-200v113q-114 -136 -322 -136q-158 0 -254 80t-96 211t100.5 209t270.5 78h284v66q0 104 -56 159.5t-159 55.5q-83 0 -148 -36.5t-130 -113.5l-125 127q74 107 182.5 161t241.5 54q189 0 300 -110t111 -310zM737 381v18h-258q-178 0 -178 -123
q0 -62 48.5 -97.5t127.5 -35.5q110 0 185 68t75 170z" />
    <glyph glyph-name="b" unicode="b" horiz-adv-x="1292" 
d="M1200 502q0 -223 -140.5 -374t-350.5 -151q-111 0 -203.5 42t-149.5 120v-139h-200v1536h215v-653q57 69 144.5 107t191.5 38q213 0 353 -150.5t140 -375.5zM979 504q0 143 -88 235t-219 92q-127 0 -215 -86t-88 -243q0 -156 88 -242t215 -86q131 0 219 93t88 237z" />
    <glyph glyph-name="c" unicode="c" horiz-adv-x="1130" 
d="M92 504q-2 106 40.5 204t115 168.5t172 111.5t205.5 40q138 0 247.5 -61.5t176.5 -171.5l-152 -119q-108 153 -270 153q-134 0 -225 -94t-91 -231q0 -138 90.5 -233t225.5 -95q158 0 270 152l152 -117q-68 -110 -178.5 -172t-245.5 -62q-146 0 -268.5 70t-193.5 191.5
t-71 265.5z" />
    <glyph glyph-name="d" unicode="d" horiz-adv-x="1292" 
d="M920 1536h217v-1536h-201v143q-56 -78 -148 -122t-204 -44q-211 0 -351.5 150.5t-140.5 374.5q-3 144 61.5 266.5t179 192.5t251.5 67q104 0 191.5 -38t144.5 -107v653zM924 502q0 155 -89 242t-214 87q-131 0 -220.5 -92t-89.5 -235q0 -144 88 -237t222 -93
q127 0 215 86t88 242z" />
    <glyph glyph-name="e" unicode="e" horiz-adv-x="1167" 
d="M1061 432h-750q20 -122 109 -193t219 -71q159 0 293 119l102 -148q-171 -162 -401 -162q-151 0 -275.5 69t-195 189.5t-70.5 266.5q-2 106 39 204.5t111.5 169.5t167.5 112.5t202 39.5q199 0 332 -132t133 -329q0 -60 -16 -135zM315 600h547q-1 112 -75 179t-183 67
q-106 0 -185 -67t-104 -179z" />
    <glyph glyph-name="f" unicode="f" horiz-adv-x="659" 
d="M408 1190v-184h237v-187h-237v-819h-215v819h-144v187h144v202q0 174 94.5 262.5t263.5 88.5q77 0 139 -19v-182q-49 6 -86 6q-101 0 -148.5 -40t-47.5 -134z" />
    <glyph glyph-name="g" unicode="g" horiz-adv-x="1298" 
d="M944 1006h199v-902q0 -235 -136 -365t-368 -130q-280 0 -483 190l118 150q91 -73 173.5 -108.5t179.5 -35.5q139 0 220 74.5t81 212.5v72q-57 -69 -146 -106.5t-194 -37.5q-211 0 -350.5 142.5t-139.5 361.5t140 361.5t350 142.5q115 0 207.5 -43.5t148.5 -122.5v144z
M930 526q0 148 -86 229t-217 81q-130 0 -219 -86t-89 -226t89 -229q89 -86 219 -86q125 0 213 82q90 84 90 235z" />
    <glyph glyph-name="h" unicode="h" horiz-adv-x="1177" 
d="M1034 629v-629h-215v598q0 105 -60 169t-159 64q-100 0 -164.5 -65.5t-64.5 -167.5v-598h-215v1536h215v-631q105 123 291 123q170 0 271 -109.5t101 -289.5z" />
    <glyph glyph-name="i" unicode="i" horiz-adv-x="526" 
d="M156 0v1006h215v-1006h-215zM117 1380q0 60 43 102t104 42q60 0 103 -42t43 -102t-43 -100.5t-103 -40.5q-62 0 -104.5 40.5t-42.5 100.5z" />
    <glyph glyph-name="j" unicode="j" horiz-adv-x="526" 
d="M-125 -373v183q58 -7 88 -7q99 0 146 41t47 133v1029h215v-1047q0 -173 -94 -261.5t-263 -88.5q-84 0 -139 18zM117 1380q0 60 43 102t104 42q60 0 103 -42t43 -102t-43 -100.5t-103 -40.5q-62 0 -104.5 40.5t-42.5 100.5z" />
    <glyph glyph-name="k" unicode="k" horiz-adv-x="1091" 
d="M156 0v1536h215v-1536h-215zM631 563l440 -563h-258l-436 565l393 441h266z" />
    <glyph glyph-name="l" unicode="l" horiz-adv-x="526" 
d="M156 0v1536h215v-1536h-215z" />
    <glyph glyph-name="m" unicode="m" horiz-adv-x="1808" 
d="M1665 629v-629h-217v598q0 106 -56.5 169.5t-152.5 63.5q-98 0 -159.5 -63t-61.5 -160v-608h-215v598q0 105 -57.5 169t-153.5 64q-98 0 -159.5 -64.5t-61.5 -168.5v-598h-215v1006h200v-95q114 117 291 117q103 0 181.5 -41.5t123.5 -116.5q56 73 146 115.5t194 42.5
q172 0 272.5 -109t100.5 -290z" />
    <glyph glyph-name="n" unicode="n" horiz-adv-x="1177" 
d="M1034 629v-629h-215v600q0 104 -60.5 169t-158.5 65q-100 0 -164.5 -65.5t-64.5 -168.5v-600h-215v1006h200v-99q115 121 301 121q175 0 276 -108.5t101 -290.5z" />
    <glyph glyph-name="o" unicode="o" horiz-adv-x="1247" 
d="M92 504q-2 106 40 204t114.5 168.5t171.5 111.5t205 40q108 2 207.5 -39.5t172 -113t114.5 -169t40 -202.5q3 -140 -69 -263t-196.5 -195t-268.5 -69q-106 -2 -205.5 40t-171 114t-114 170t-40.5 203zM936 502q0 139 -90 234t-221 95q-133 0 -223.5 -94.5t-90.5 -234.5
q0 -139 90 -232.5t222 -93.5q133 0 223 94.5t90 231.5z" />
    <glyph glyph-name="p" unicode="p" horiz-adv-x="1292" 
d="M1200 504q0 -226 -140 -376.5t-353 -150.5q-102 0 -188.5 38t-147.5 108v-492h-215v1375h200v-142q55 78 147.5 121t203.5 43q140 0 253 -68.5t176.5 -188.5t63.5 -267zM979 502q0 144 -87.5 236.5t-219.5 92.5q-127 0 -215 -85.5t-88 -241.5q0 -157 88 -243.5t215 -86.5
q131 0 219 92.5t88 235.5z" />
    <glyph glyph-name="q" unicode="q" horiz-adv-x="1292" 
d="M936 1006h201v-1375h-217v490q-57 -69 -144.5 -106.5t-191.5 -37.5q-212 0 -352 150.5t-140 376.5q0 147 63.5 267t176.5 188.5t252 68.5q112 0 204 -44t148 -122v144zM924 504q0 156 -88 241.5t-215 85.5q-134 0 -222 -93.5t-88 -235.5q0 -143 89.5 -235.5t220.5 -92.5
q125 0 214 87.5t89 242.5z" />
    <glyph glyph-name="r" unicode="r" horiz-adv-x="768" 
d="M731 1006v-191h-65q-131 0 -213 -74t-82 -204v-537h-215v1006h200v-132q54 68 130.5 105t162.5 37q40 0 82 -10z" />
    <glyph glyph-name="s" unicode="s" horiz-adv-x="931" 
d="M61 172l123 135q137 -143 283 -143q72 0 117 29t45 83q0 42 -31 66.5t-111 58.5l-102 43q-138 57 -200 123.5t-62 169.5q0 133 99 212t255 79q216 0 348 -156l-116 -133q-98 103 -236 103q-64 0 -100.5 -25t-36.5 -72q0 -37 28.5 -61.5t104.5 -56.5l96 -39
q146 -61 210.5 -130t64.5 -173q0 -146 -107 -228q-109 -80 -266 -80q-126 0 -231 52.5t-175 142.5z" />
    <glyph glyph-name="t" unicode="t" horiz-adv-x="815" 
d="M754 182v-182q-112 -23 -179 -23q-177 0 -273.5 88.5t-96.5 262.5v491h-164v187h164v264h217v-264h299v-187h-299v-473q0 -94 48.5 -134t150.5 -40q35 0 133 10z" />
    <glyph glyph-name="u" unicode="u" horiz-adv-x="1167" 
d="M145 422v584h213v-600q0 -103 64.5 -166.5t163.5 -63.5q95 0 158 63.5t63 166.5v600h215v-584q0 -199 -124 -322t-312 -123q-192 0 -316.5 122.5t-124.5 322.5z" />
    <glyph glyph-name="v" unicode="v" horiz-adv-x="1124" 
d="M856 1006h229l-485 -1029h-74l-487 1029h229l295 -666z" />
    <glyph glyph-name="w" unicode="w" horiz-adv-x="1748" 
d="M1481 1006h229l-446 -1029h-74l-316 670l-315 -670h-74l-446 1029h229l264 -658l306 680h73l310 -672z" />
    <glyph glyph-name="x" unicode="x" horiz-adv-x="1052" 
d="M1022 0h-246l-252 369l-250 -369h-245l372 522l-346 484h246l225 -332l224 332h245l-348 -486z" />
    <glyph glyph-name="y" unicode="y" horiz-adv-x="1124" 
d="M856 1006h229l-489 -1121q-63 -143 -151.5 -209.5t-217.5 -66.5q-87 0 -166 20v183q94 -9 119 -9q79 0 131.5 33t87.5 115l41 94l-401 961h231l289 -732z" />
    <glyph glyph-name="z" unicode="z" horiz-adv-x="944" 
d="M367 186h532v-186h-854v59l526 760h-479v187h803v-62z" />
    <glyph glyph-name="braceleft" unicode="{" horiz-adv-x="827" 
d="M483 1161q0 -45 25 -182q24 -138 24 -191q0 -71 -31 -111.5t-98 -64.5q69 -24 99 -63.5t30 -110.5q0 -52 -24 -190q-25 -137 -25 -182q0 -154 146 -154h108v-180h-147q-299 0 -299 280q0 76 28 238q21 123 21 158q0 112 -117 112h-123v187h123q117 0 117 110
q0 36 -21 162q-28 162 -28 235q0 279 299 279h147v-180h-108q-146 0 -146 -152z" />
    <glyph glyph-name="bar" unicode="|" horiz-adv-x="679" 
d="M250 -248v1845h180v-1845h-180z" />
    <glyph glyph-name="braceright" unicode="}" horiz-adv-x="827" 
d="M606 707h121v-187h-121q-61 0 -90 -26.5t-29 -85.5q0 -35 21 -158q29 -168 29 -238q0 -280 -299 -280h-148v180h111q143 0 143 154q0 45 -25 182q-24 138 -24 190q0 71 30 110.5t99 63.5q-67 24 -98 64.5t-31 111.5q0 53 24 191q25 137 25 182q0 152 -143 152h-111v180
h148q299 0 299 -279q0 -67 -29 -235q-21 -126 -21 -162q0 -110 119 -110z" />
    <glyph glyph-name="asciitilde" unicode="~" 
d="M653 496l-186 112q-80 51 -121 51q-35 0 -54.5 -23.5t-19.5 -62.5v-49h-168q-4 70 -4 76q0 109 63 181.5t159 72.5q77 0 172 -53l186 -115q54 -30 76 -39.5t45 -9.5q34 0 52.5 24t18.5 62v51h170q1 -19 3 -45t2 -33q0 -111 -63 -182.5t-161 -71.5q-82 0 -170 54z" />
    <glyph glyph-name="uni00A0" unicode="&#xa0;" horiz-adv-x="573" 
 />
    <glyph glyph-name="exclamdown" unicode="&#xa1;" horiz-adv-x="667" 
d="M174 868q0 69 46 114.5t114 45.5t113 -45.5t45 -114.5q0 -67 -46 -112t-112 -45q-68 0 -114 45t-46 112zM203 -369l41 912h178l41 -912h-260z" />
    <glyph glyph-name="cent" unicode="&#xa2;" horiz-adv-x="1136" 
d="M877 496l149 -119q-57 -97 -148 -157t-206 -73v-342h-201v355q-174 43 -289 182q-110 140 -110 328q0 186 110 323q115 142 289 185v356h201v-344q114 -13 206 -72.5t150 -154.5l-149 -119q-116 151 -273 151q-135 0 -225 -93.5t-90 -231.5q0 -139 90.5 -233.5
t224.5 -94.5q162 0 271 154z" />
    <glyph glyph-name="sterling" unicode="&#xa3;" horiz-adv-x="1122" 
d="M498 186h534v-186h-932v49q138 96 205.5 187t67.5 202q0 33 -2 43h-250v187h182l-43 80q-70 137 -70 251q0 167 118 271t300 104q165 0 280.5 -90.5t162.5 -261.5l-187 -68q-68 222 -243 222q-97 0 -153 -58.5t-56 -152.5q0 -55 19.5 -107t62.5 -125q32 -60 34 -65h326
v-187h-266q2 -8 2 -41q0 -148 -92 -254z" />
    <glyph glyph-name="currency" unicode="&#xa4;" horiz-adv-x="1329" 
d="M1063 406l221 -226l-129 -129l-225 230q-119 -76 -268 -76q-146 0 -267 74l-219 -228l-131 129l217 223q-88 119 -88 273q0 151 88 270l-217 221l131 129l221 -223q121 74 265 74q150 0 266 -76l225 225l131 -129l-221 -219q88 -119 88 -272q0 -151 -88 -270zM930 674
q0 118 -78 196t-190 78q-117 0 -192 -77.5t-75 -196.5q0 -117 75 -194t192 -77q112 0 190 78t78 193z" />
    <glyph glyph-name="yen" unicode="&#xa5;" horiz-adv-x="1177" 
d="M1165 1352l-417 -598h335v-183h-385v-157h385v-181h-385v-233h-217v233h-383v181h383v157h-383v183h334l-418 598h242l334 -486l334 486h241z" />
    <glyph glyph-name="brokenbar" unicode="&#xa6;" horiz-adv-x="679" 
d="M250 983v614h180v-614h-180zM250 -248v615h180v-615h-180z" />
    <glyph glyph-name="section" unicode="&#xa7;" horiz-adv-x="1208" 
d="M897 88q2 -6 2 -35q0 -136 -98 -223.5t-258 -87.5q-240 0 -377 199l145 118q54 -67 111 -98t125 -31t104.5 31t36.5 88q0 42 -22 78q-25 44 -136 127q-2 2 -3.5 3t-3.5 2.5t-3.5 3t-3.5 3t-4 2.5l-203 156q-131 95 -187 170t-56 168q0 105 64 176.5t181 101.5q-2 6 -2 35
q0 134 99.5 222.5t259.5 88.5q238 0 374 -198l-145 -121q-55 67 -111 98t-124 31t-105 -30t-37 -87q-3 -37 20 -75t51 -62t63 -50.5t42 -33.5l203 -153q131 -95 187.5 -170t56.5 -168q0 -105 -64.5 -177t-181.5 -102zM934 365q0 42 -32 78.5t-126 107.5l-209 160
q-139 103 -192 176q-99 -37 -99 -123q0 -42 31 -79t125 -110l203 -153q142 -103 199 -180q100 40 100 123z" />
    <glyph glyph-name="dieresis" unicode="&#xa8;" horiz-adv-x="1228" 
d="M244 1380q0 55 42 95.5t99 40.5t97 -39.5t40 -96.5q0 -54 -40 -93.5t-97 -39.5t-99 39.5t-42 93.5zM705 1380q0 55 42 95.5t99 40.5q56 0 96.5 -40.5t40.5 -95.5q0 -54 -40.5 -93.5t-96.5 -39.5q-57 0 -99 39.5t-42 93.5z" />
    <glyph glyph-name="copyright" unicode="&#xa9;" horiz-adv-x="1597" 
d="M88 676q-3 142 54.5 272.5t155 224t229 148.5t270.5 53q140 3 271.5 -52.5t229 -149.5t155 -225t54.5 -271q3 -142 -54.5 -273t-155 -224.5t-229 -148.5t-271.5 -53q-139 -2 -270.5 53t-228.5 148.5t-155 224.5t-55 273zM1358 676q3 159 -75.5 290t-208 202t-277.5 69
q-148 2 -276.5 -69t-206 -202t-74.5 -290q-3 -159 74.5 -290t206 -202t276.5 -69q148 -2 277.5 69t208 202t75.5 290zM426 676q0 165 112 276t277 111q93 0 173 -42t138 -118l-122 -106q-77 102 -185 102q-93 0 -153 -63t-60 -160q0 -94 59.5 -157.5t151.5 -63.5
q115 0 187 100l122 -106q-123 -158 -313 -158q-162 0 -274.5 111t-112.5 274z" />
    <glyph glyph-name="ordfeminine" unicode="&#xaa;" horiz-adv-x="739" 
d="M631 881v-381h-160v55q-70 -70 -188 -70q-103 0 -162.5 53t-59.5 140t64.5 136.5t175.5 49.5h158v29q0 111 -121 111q-83 0 -172 -74l-78 112q117 111 268 111q129 0 202 -71.5t73 -200.5zM459 733v21h-129q-42 0 -66 -19.5t-24 -50.5q0 -34 24 -52t66 -18q56 0 92.5 33
t36.5 86z" />
    <glyph glyph-name="guillemotleft" unicode="&#xab;" horiz-adv-x="1126" 
d="M451 119l-381 407v60l381 407l139 -123l-283 -313l283 -317zM915 119l-380 407v60l380 407l140 -123l-283 -313l283 -317z" />
    <glyph glyph-name="logicalnot" unicode="&#xac;" 
d="M772 203v354h-672v186h879v-540h-207z" />
    <glyph glyph-name="uni00AD" unicode="&#xad;" horiz-adv-x="704" 
d="M100 559v182h504v-182h-504z" />
    <glyph glyph-name="registered" unicode="&#xae;" horiz-adv-x="1171" 
d="M1094 891q2 -136 -67.5 -256.5t-187.5 -191.5t-251 -68q-133 -3 -252.5 68t-190 192t-67.5 256q-3 135 67.5 256.5t190 193t252.5 68.5q133 3 251 -68.5t187.5 -192.5t67.5 -257zM975 893q0 168 -112.5 283.5t-274.5 115.5q-163 0 -275 -115t-112 -284t112 -285t275 -116
q162 0 274.5 115.5t112.5 285.5zM709 827l141 -192h-145l-123 162h-66v-162h-131v514h211q86 0 141.5 -48.5t55.5 -127.5q0 -95 -84 -146zM516 1034v-123h78q29 0 46 16.5t17 43.5q0 29 -17 46t-46 17h-78z" />
    <glyph glyph-name="overscore" unicode="&#xaf;" horiz-adv-x="1228" 
d="M319 1294v172h590v-172h-590z" />
    <glyph glyph-name="degree" unicode="&#xb0;" horiz-adv-x="739" 
d="M57 1067q0 127 91.5 217t220.5 90t221 -90t92 -217t-92 -217t-221 -90t-220.5 90t-91.5 217zM524 1067q0 68 -44 113t-111 45q-63 0 -108.5 -46t-45.5 -112t45.5 -112t108.5 -46q67 0 111 45t44 113z" />
    <glyph glyph-name="plusminus" unicode="&#xb1;" 
d="M469 332v309h-344v180h344v297h211v-297h344v-180h-344v-309h-211zM125 0v180h899v-180h-899z" />
    <glyph glyph-name="uni00B2" unicode="&#xb2;" horiz-adv-x="770" 
d="M377 899h313v-154h-620v37l303 328q65 70 92 117t27 100q0 56 -33 92.5t-86 36.5q-55 0 -89 -36.5t-34 -96.5q0 -4 0.5 -12t1.5 -23t2 -28h-168q-8 31 -8 73q0 111 83.5 195t211.5 84q125 0 209 -78t84 -193q0 -82 -42.5 -154t-140.5 -177z" />
    <glyph glyph-name="uni00B3" unicode="&#xb3;" horiz-adv-x="731" 
d="M655 1024q0 -128 -92.5 -210.5t-224.5 -82.5q-102 0 -182.5 51.5t-124.5 139.5l119 84q74 -119 182 -119q67 0 108 37.5t41 99.5q0 125 -176 125h-92v43l180 252h-299v153h545v-47l-188 -266q89 -21 146.5 -90.5t57.5 -169.5z" />
    <glyph glyph-name="acute" unicode="&#xb4;" horiz-adv-x="1228" 
d="M401 1163l162 434h262v-38l-264 -396h-160z" />
    <glyph glyph-name="uni00B5" unicode="&#xb5;" horiz-adv-x="1232" 
d="M1137 176l57 4v-180q-62 -16 -127 -16q-148 0 -205 112q-92 -119 -252 -119q-151 0 -239 107v-453h-215v1375h215v-590q0 -106 62.5 -174t160.5 -68q99 0 162 68t63 174v590h215v-691q0 -72 24.5 -105.5t78.5 -33.5z" />
    <glyph glyph-name="paragraph" unicode="&#xb6;" horiz-adv-x="1204" 
d="M74 911q0 197 140 319t355 122h123v-887h-123q-214 0 -354.5 124t-140.5 322zM485 -369v185q50 -4 54 -4q51 -7 79 -7q103 0 152 43.5t49 143.5v1360h215v-1381q0 -362 -372 -362q-73 0 -177 22z" />
    <glyph glyph-name="middot" unicode="&#xb7;" horiz-adv-x="573" 
d="M127 649q0 67 47 113.5t115 46.5t112.5 -45.5t44.5 -114.5q0 -67 -45 -112t-112 -45q-68 0 -115 45t-47 112z" />
    <glyph glyph-name="cedilla" unicode="&#xb8;" horiz-adv-x="1228" 
d="M395 -373v148q73 -6 117 -6q67 0 106 32.5t39 92.5q0 65 -49 135l88 43q64 -33 101 -89.5t37 -127.5q0 -106 -80.5 -176t-212.5 -70q-69 0 -146 18z" />
    <glyph glyph-name="uni00B9" unicode="&#xb9;" horiz-adv-x="739" 
d="M92 745v154h213v545h-201v153h371v-698h180v-154h-563z" />
    <glyph glyph-name="ordmasculine" unicode="&#xba;" horiz-adv-x="821" 
d="M70 817q0 141 98.5 237.5t241.5 96.5q142 0 242 -97t100 -237q0 -137 -101 -234.5t-241 -97.5q-142 0 -241 97t-99 235zM580 817q0 78 -47.5 128t-122.5 50t-121.5 -49.5t-46.5 -128.5q0 -78 46.5 -127t121.5 -49t122.5 49t47.5 127z" />
    <glyph glyph-name="guillemotright" unicode="&#xbb;" horiz-adv-x="1126" 
d="M211 119l-139 121l282 317l-282 313l139 123l381 -407v-60zM676 119l-139 121l282 317l-282 313l139 123l381 -407v-60z" />
    <glyph glyph-name="onequarter" unicode="&#xbc;" horiz-adv-x="1865" 
d="M92 500v153h213v545h-201v154h371v-699h180v-153h-563zM510 0l776 1352h182l-776 -1352h-182zM1837 281v-140h-108v-141h-156v141h-428v45l260 666h174l-225 -571h219l2 245h154v-245h108z" />
    <glyph glyph-name="onehalf" unicode="&#xbd;" horiz-adv-x="1939" 
d="M92 500v153h213v545h-201v154h371v-699h180v-153h-563zM510 0l776 1352h182l-776 -1352h-182zM1544 154h314v-154h-621v37l303 328q65 70 92 117t27 100q0 56 -33 92.5t-86 36.5q-55 0 -89 -36.5t-34 -96.5q0 -4 0.5 -12.5t1.5 -23.5t2 -28h-168q-8 31 -8 74
q0 111 83.5 194.5t211.5 83.5q125 0 209 -78t84 -192q0 -82 -42.5 -155t-139.5 -177z" />
    <glyph glyph-name="threequarters" unicode="&#xbe;" horiz-adv-x="1785" 
d="M655 778q0 -128 -92.5 -210.5t-224.5 -82.5q-102 0 -182.5 51.5t-124.5 139.5l119 84q74 -119 182 -119q67 0 108 37.5t41 99.5q0 125 -176 125h-92v43l180 252h-299v154h545v-47l-188 -267q89 -21 146.5 -90.5t57.5 -169.5zM430 0l776 1352h183l-777 -1352h-182z
M1757 281v-140h-108v-141h-156v141h-428v45l260 666h174l-225 -571h219l2 245h154v-245h108z" />
    <glyph glyph-name="questiondown" unicode="&#xbf;" horiz-adv-x="915" 
d="M322 868q0 68 46 114t113 46q68 0 114 -45.5t46 -114.5q0 -67 -46 -113t-114 -46q-66 0 -112.5 46t-46.5 113zM80 -35q0 96 43 169t139 155q85 77 114.5 116t29.5 84q0 29 -7 54h187q20 -47 20 -92q0 -65 -37 -117t-127 -133q-78 -72 -109.5 -120.5t-31.5 -103.5
q0 -74 49 -122t119 -48q137 0 199 177l178 -78q-41 -142 -141.5 -219.5t-241.5 -77.5q-161 0 -272 100.5t-111 255.5z" />
    <glyph glyph-name="Agrave" unicode="&#xc0;" horiz-adv-x="1355" 
d="M1077 0l-96 225h-608l-97 -225h-231l596 1374h74l596 -1374h-234zM903 412l-225 559l-227 -559h452zM600 1483l-264 342v39h262l162 -381h-160z" />
    <glyph glyph-name="Aacute" unicode="&#xc1;" horiz-adv-x="1355" 
d="M1077 0l-96 225h-608l-97 -225h-231l596 1374h74l596 -1374h-234zM903 412l-225 559l-227 -559h452zM594 1483l162 381h262v-39l-264 -342h-160z" />
    <glyph glyph-name="Acircumflex" unicode="&#xc2;" horiz-adv-x="1355" 
d="M1077 0l-96 225h-608l-97 -225h-231l596 1374h74l596 -1374h-234zM903 412l-225 559l-227 -559h452zM1049 1483h-166l-205 192l-207 -192h-166l303 381h137z" />
    <glyph glyph-name="Atilde" unicode="&#xc3;" horiz-adv-x="1355" 
d="M1077 0l-96 225h-608l-97 -225h-231l596 1374h74l596 -1374h-234zM903 412l-225 559l-227 -559h452zM694 1550l-65 37q-61 37 -90 37q-28 0 -43 -20t-15 -54v-26h-172q-4 50 -4 59q0 104 58 172t149 68q76 0 147 -45l68 -41q1 -1 19 -10.5t26 -13.5t22 -8.5t23 -4.5
q57 0 57 72v30h173q4 -50 4 -59q0 -105 -58.5 -172.5t-146.5 -67.5q-72 0 -152 47z" />
    <glyph glyph-name="Adieresis" unicode="&#xc4;" horiz-adv-x="1355" 
d="M1077 0l-96 225h-608l-97 -225h-231l596 1374h74l596 -1374h-234zM903 412l-225 559l-227 -559h452zM287 1663q0 55 41.5 94t97.5 39q60 0 99.5 -38t39.5 -95q0 -54 -41 -93.5t-98 -39.5q-56 0 -97.5 39.5t-41.5 93.5zM788 1661q0 55 42 95t98 40q57 0 98 -39t41 -96
q0 -54 -41 -93.5t-98 -39.5q-56 0 -98 39.5t-42 93.5z" />
    <glyph glyph-name="Aring" unicode="&#xc5;" horiz-adv-x="1355" 
d="M1077 0l-96 225h-608l-97 -225h-231l596 1374h74l596 -1374h-234zM903 412l-225 559l-227 -559h452zM434 1642q0 99 69.5 167.5t172.5 68.5q104 0 174 -68.5t70 -167.5q0 -100 -70 -167.5t-174 -67.5t-173 67.5t-69 167.5zM770 1642q0 41 -26.5 68t-65.5 27
q-41 0 -67.5 -27t-26.5 -68t26.5 -67.5t67.5 -26.5q39 0 65.5 26.5t26.5 67.5z" />
    <glyph glyph-name="AE" unicode="&#xc6;" horiz-adv-x="1712" 
d="M1128 195h502v-195h-684l-39 225h-536l-119 -225h-234l701 1352h887v-195h-637l57 -346h416v-188h-385zM776 1034l-309 -622h407z" />
    <glyph glyph-name="Ccedilla" unicode="&#xc7;" horiz-adv-x="1468" 
d="M88 676q-3 142 54 272.5t153.5 224.5t229 148.5t274.5 52.5q184 0 337 -83.5t242 -227.5l-164 -121q-150 234 -413 234q-136 0 -248 -64.5t-176 -179.5t-64 -256t64 -256t176 -179.5t248 -64.5q263 0 413 234l164 -121q-88 -145 -240.5 -228.5t-338.5 -83.5
q-142 -2 -274.5 53t-229 148.5t-153.5 224.5t-54 273zM539 -373v148q73 -6 116 -6q67 0 106.5 32.5t39.5 92.5q0 65 -49 135l88 43q64 -33 100.5 -89.5t36.5 -127.5q0 -106 -80.5 -176t-212.5 -70q-68 0 -145 18z" />
    <glyph glyph-name="Egrave" unicode="&#xc8;" horiz-adv-x="1165" 
d="M170 0v1352h889v-195h-672v-346h506v-188h-506v-428h696v-195h-913zM535 1483l-265 342v39h262l162 -381h-159z" />
    <glyph glyph-name="Eacute" unicode="&#xc9;" horiz-adv-x="1165" 
d="M170 0v1352h889v-195h-672v-346h506v-188h-506v-428h696v-195h-913zM528 1483l162 381h262v-39l-264 -342h-160z" />
    <glyph glyph-name="Ecircumflex" unicode="&#xca;" horiz-adv-x="1165" 
d="M170 0v1352h889v-195h-672v-346h506v-188h-506v-428h696v-195h-913zM983 1483h-166l-205 192l-206 -192h-166l303 381h137z" />
    <glyph glyph-name="Edieresis" unicode="&#xcb;" horiz-adv-x="1165" 
d="M170 0v1352h889v-195h-672v-346h506v-188h-506v-428h696v-195h-913zM221 1663q0 55 41.5 94t97.5 39q60 0 100 -38t40 -95q0 -54 -41.5 -93.5t-98.5 -39.5q-56 0 -97.5 39.5t-41.5 93.5zM723 1661q0 55 41.5 95t97.5 40q57 0 98 -39t41 -96q0 -54 -41 -93.5t-98 -39.5
q-56 0 -97.5 39.5t-41.5 93.5z" />
    <glyph glyph-name="Igrave" unicode="&#xcc;" horiz-adv-x="557" 
d="M170 0v1352h217v-1352h-217zM203 1483l-264 342v39h262l161 -381h-159z" />
    <glyph glyph-name="Iacute" unicode="&#xcd;" horiz-adv-x="557" 
d="M170 0v1352h217v-1352h-217zM197 1483l161 381h263v-39l-265 -342h-159z" />
    <glyph glyph-name="Icircumflex" unicode="&#xce;" horiz-adv-x="557" 
d="M170 0v1352h217v-1352h-217zM651 1483h-166l-204 192l-207 -192h-166l303 381h137z" />
    <glyph glyph-name="Idieresis" unicode="&#xcf;" horiz-adv-x="557" 
d="M170 0v1352h217v-1352h-217zM-111 1663q0 55 42 94t98 39q60 0 99.5 -38t39.5 -95q0 -54 -41 -93.5t-98 -39.5q-56 0 -98 39.5t-42 93.5zM391 1661q0 55 41.5 95t97.5 40q57 0 98.5 -39t41.5 -96q0 -54 -41.5 -93.5t-98.5 -39.5q-56 0 -97.5 39.5t-41.5 93.5z" />
    <glyph glyph-name="Eth" unicode="&#xd0;" horiz-adv-x="1417" 
d="M1329 678q0 -146 -53.5 -271.5t-148.5 -215t-233 -140.5t-300 -51h-424v543h-182v184h182v625h424q330 0 532.5 -187t202.5 -487zM1106 678q0 216 -139.5 346.5t-374.5 130.5h-205v-428h246v-184h-246v-348h205q233 0 373.5 134.5t140.5 348.5z" />
    <glyph glyph-name="Ntilde" unicode="&#xd1;" horiz-adv-x="1456" 
d="M1067 1352h217v-1375h-74l-823 938v-915h-217v1374h76l821 -934v912zM743 1550l-65 37q-61 37 -90 37q-28 0 -43 -20t-15 -54v-26h-172q-4 50 -4 59q0 104 58 172t149 68q77 0 148 -45l67 -41q1 -1 19 -10.5t26 -13.5t22 -8.5t23 -4.5q28 0 43 19.5t15 52.5v30h172
q4 -50 4 -59q0 -105 -58.5 -172.5t-146.5 -67.5q-72 0 -152 47z" />
    <glyph glyph-name="Ograve" unicode="&#xd2;" horiz-adv-x="1597" 
d="M88 676q-2 142 54.5 272.5t153 224.5t228 148.5t273.5 52.5q141 2 273 -53t229 -148.5t154 -224t54 -272.5q4 -189 -93.5 -352t-262.5 -256.5t-354 -90.5q-143 -2 -275 53t-228 148.5t-152.5 224.5t-53.5 273zM1284 678q0 212 -139 355t-346 143q-210 0 -348 -142
t-138 -356q0 -217 137.5 -359.5t348.5 -142.5q208 0 346.5 143t138.5 359zM721 1483l-264 342v39h262l162 -381h-160z" />
    <glyph glyph-name="Oacute" unicode="&#xd3;" horiz-adv-x="1597" 
d="M88 676q-2 142 54.5 272.5t153 224.5t228 148.5t273.5 52.5q141 2 273 -53t229 -148.5t154 -224t54 -272.5q4 -189 -93.5 -352t-262.5 -256.5t-354 -90.5q-143 -2 -275 53t-228 148.5t-152.5 224.5t-53.5 273zM1284 678q0 212 -139 355t-346 143q-210 0 -348 -142
t-138 -356q0 -217 137.5 -359.5t348.5 -142.5q208 0 346.5 143t138.5 359zM715 1483l162 381h262v-39l-265 -342h-159z" />
    <glyph glyph-name="Ocircumflex" unicode="&#xd4;" horiz-adv-x="1597" 
d="M88 676q-2 142 54.5 272.5t153 224.5t228 148.5t273.5 52.5q141 2 273 -53t229 -148.5t154 -224t54 -272.5q4 -189 -93.5 -352t-262.5 -256.5t-354 -90.5q-143 -2 -275 53t-228 148.5t-152.5 224.5t-53.5 273zM1284 678q0 212 -139 355t-346 143q-210 0 -348 -142
t-138 -356q0 -217 137.5 -359.5t348.5 -142.5q208 0 346.5 143t138.5 359zM1169 1483h-165l-205 192l-207 -192h-166l303 381h137z" />
    <glyph glyph-name="Otilde" unicode="&#xd5;" horiz-adv-x="1597" 
d="M88 676q-2 142 54.5 272.5t153 224.5t228 148.5t273.5 52.5q141 2 273 -53t229 -148.5t154 -224t54 -272.5q4 -189 -93.5 -352t-262.5 -256.5t-354 -90.5q-143 -2 -275 53t-228 148.5t-152.5 224.5t-53.5 273zM1284 678q0 212 -139 355t-346 143q-210 0 -348 -142
t-138 -356q0 -217 137.5 -359.5t348.5 -142.5q208 0 346.5 143t138.5 359zM815 1550l-65 37q-61 37 -91 37q-28 0 -42.5 -20t-14.5 -54v-26h-172q-4 50 -4 59q0 104 58 172t149 68q76 0 147 -45l68 -41q1 -1 19 -10.5t26 -13.5t22 -8.5t23 -4.5q57 0 57 72v30h172
q4 -50 4 -59q0 -105 -58 -172.5t-146 -67.5q-72 0 -152 47z" />
    <glyph glyph-name="Odieresis" unicode="&#xd6;" horiz-adv-x="1597" 
d="M88 676q-2 142 54.5 272.5t153 224.5t228 148.5t273.5 52.5q141 2 273 -53t229 -148.5t154 -224t54 -272.5q4 -189 -93.5 -352t-262.5 -256.5t-354 -90.5q-143 -2 -275 53t-228 148.5t-152.5 224.5t-53.5 273zM1284 678q0 212 -139 355t-346 143q-210 0 -348 -142
t-138 -356q0 -217 137.5 -359.5t348.5 -142.5q208 0 346.5 143t138.5 359zM408 1663q0 55 41.5 94t97.5 39q60 0 99.5 -38t39.5 -95q0 -54 -41 -93.5t-98 -39.5q-56 0 -97.5 39.5t-41.5 93.5zM909 1661q0 55 42 95t98 40q57 0 98 -39t41 -96q0 -54 -41 -93.5t-98 -39.5
q-56 0 -98 39.5t-42 93.5z" />
    <glyph glyph-name="multiply" unicode="&#xd7;" 
d="M262 213l-129 129l309 311l-309 312l129 129l311 -310l312 310l129 -129l-312 -312l312 -311l-129 -129l-312 309z" />
    <glyph glyph-name="Oslash" unicode="&#xd8;" horiz-adv-x="1597" 
d="M1522 1270l-164 -164q149 -182 149 -430q4 -189 -93.5 -352t-262.5 -256.5t-354 -90.5q-236 0 -426 138l-164 -164l-131 131l160 162q-148 195 -148 432q-2 142 54.5 272.5t153 224.5t228 148.5t273.5 52.5q238 0 430 -139l164 166zM303 678q0 -160 80 -287l702 705
q-125 88 -286 88q-212 0 -354 -144.5t-142 -361.5zM1292 678q0 156 -80 283l-702 -705q125 -88 289 -88q211 0 352 145t141 365z" />
    <glyph glyph-name="Ugrave" unicode="&#xd9;" horiz-adv-x="1421" 
d="M156 547v805h217v-820q0 -168 93.5 -262t246.5 -94q151 0 243.5 94t92.5 262v820h217v-805q0 -174 -72.5 -304.5t-197 -198t-283.5 -67.5q-247 0 -402 153.5t-155 416.5zM633 1483l-264 342v39h262l162 -381h-160z" />
    <glyph glyph-name="Uacute" unicode="&#xda;" horiz-adv-x="1421" 
d="M156 547v805h217v-820q0 -168 93.5 -262t246.5 -94q151 0 243.5 94t92.5 262v820h217v-805q0 -174 -72.5 -304.5t-197 -198t-283.5 -67.5q-247 0 -402 153.5t-155 416.5zM627 1483l161 381h263v-39l-265 -342h-159z" />
    <glyph glyph-name="Ucircumflex" unicode="&#xdb;" horiz-adv-x="1421" 
d="M156 547v805h217v-820q0 -168 93.5 -262t246.5 -94q151 0 243.5 94t92.5 262v820h217v-805q0 -174 -72.5 -304.5t-197 -198t-283.5 -67.5q-247 0 -402 153.5t-155 416.5zM1081 1483h-166l-204 192l-207 -192h-166l303 381h137z" />
    <glyph glyph-name="Udieresis" unicode="&#xdc;" horiz-adv-x="1421" 
d="M156 547v805h217v-820q0 -168 93.5 -262t246.5 -94q151 0 243.5 94t92.5 262v820h217v-805q0 -174 -72.5 -304.5t-197 -198t-283.5 -67.5q-247 0 -402 153.5t-155 416.5zM319 1663q0 55 42 94t98 39q60 0 99.5 -38t39.5 -95q0 -54 -41 -93.5t-98 -39.5q-56 0 -98 39.5
t-42 93.5zM821 1661q0 55 42 95t98 40q57 0 98 -39t41 -96q0 -54 -41 -93.5t-98 -39.5q-56 0 -98 39.5t-42 93.5z" />
    <glyph glyph-name="Yacute" unicode="&#xdd;" horiz-adv-x="1269" 
d="M1210 1352l-467 -807v-545h-217v545l-467 807h242l334 -588l336 588h239zM547 1483l162 381h262v-39l-264 -342h-160z" />
    <glyph glyph-name="Thorn" unicode="&#xde;" horiz-adv-x="1193" 
d="M170 0v1352h217v-226h277q205 0 331.5 -115.5t126.5 -303.5q0 -186 -127.5 -305t-330.5 -119h-277v-283h-217zM387 475h272q114 0 177 62.5t63 167.5q0 106 -63 167.5t-177 61.5h-272v-459z" />
    <glyph glyph-name="germandbls" unicode="&#xdf;" horiz-adv-x="1290" 
d="M520 109l98 153q125 -96 259 -96q145 0 145 104q0 48 -37 81t-131 87q-114 66 -164.5 123t-50.5 129q0 69 37 156l78 209q30 77 30 141q0 76 -47 121t-131 45q-107 0 -172 -74t-65 -211v-1077h-213v1087q0 220 124 346t336 126q177 0 281 -85t104 -231q0 -81 -30 -164
l-80 -219q-33 -79 -33 -125q0 -47 38.5 -81t127.5 -85q114 -71 163.5 -135.5t49.5 -157.5q0 -135 -102 -217t-265 -82q-205 0 -350 132z" />
    <glyph glyph-name="agrave" unicode="&#xe0;" horiz-adv-x="1097" 
d="M954 608v-608h-200v113q-114 -136 -322 -136q-158 0 -254 80t-96 211t100.5 209t270.5 78h284v66q0 104 -56 159.5t-159 55.5q-83 0 -148 -36.5t-130 -113.5l-125 127q74 107 182.5 161t241.5 54q189 0 300 -110t111 -310zM737 381v18h-258q-178 0 -178 -123
q0 -62 48.5 -97.5t127.5 -35.5q110 0 185 68t75 170zM463 1163l-264 396v38h262l162 -434h-160z" />
    <glyph glyph-name="aacute" unicode="&#xe1;" horiz-adv-x="1097" 
d="M954 608v-608h-200v113q-114 -136 -322 -136q-158 0 -254 80t-96 211t100.5 209t270.5 78h284v66q0 104 -56 159.5t-159 55.5q-83 0 -148 -36.5t-130 -113.5l-125 127q74 107 182.5 161t241.5 54q189 0 300 -110t111 -310zM737 381v18h-258q-178 0 -178 -123
q0 -62 48.5 -97.5t127.5 -35.5q110 0 185 68t75 170zM463 1163l162 434h262v-38l-264 -396h-160z" />
    <glyph glyph-name="acircumflex" unicode="&#xe2;" horiz-adv-x="1097" 
d="M954 608v-608h-200v113q-114 -136 -322 -136q-158 0 -254 80t-96 211t100.5 209t270.5 78h284v66q0 104 -56 159.5t-159 55.5q-83 0 -148 -36.5t-130 -113.5l-125 127q74 107 182.5 161t241.5 54q189 0 300 -110t111 -310zM737 381v18h-258q-178 0 -178 -123
q0 -62 48.5 -97.5t127.5 -35.5q110 0 185 68t75 170zM887 1163h-160l-184 223l-187 -223h-161l278 434h137z" />
    <glyph glyph-name="atilde" unicode="&#xe3;" horiz-adv-x="1097" 
d="M954 608v-608h-200v113q-114 -136 -322 -136q-158 0 -254 80t-96 211t100.5 209t270.5 78h284v66q0 104 -56 159.5t-159 55.5q-83 0 -148 -36.5t-130 -113.5l-125 127q74 107 182.5 161t241.5 54q189 0 300 -110t111 -310zM737 381v18h-258q-178 0 -178 -123
q0 -62 48.5 -97.5t127.5 -35.5q110 0 185 68t75 170zM553 1251l-55 41q-2 2 -14.5 11t-17.5 12.5t-15.5 9t-19 8t-17.5 2.5q-58 0 -58 -78v-28h-170q-4 54 -4 59q0 109 56 176.5t147 67.5q76 0 143 -49l56 -41q53 -41 84 -41q57 0 57 78v28h170q2 -14 2 -59
q0 -109 -56 -177.5t-147 -68.5q-73 0 -141 49z" />
    <glyph glyph-name="adieresis" unicode="&#xe4;" horiz-adv-x="1097" 
d="M954 608v-608h-200v113q-114 -136 -322 -136q-158 0 -254 80t-96 211t100.5 209t270.5 78h284v66q0 104 -56 159.5t-159 55.5q-83 0 -148 -36.5t-130 -113.5l-125 127q74 107 182.5 161t241.5 54q189 0 300 -110t111 -310zM737 381v18h-258q-178 0 -178 -123
q0 -62 48.5 -97.5t127.5 -35.5q110 0 185 68t75 170zM170 1380q0 55 42 95.5t99 40.5t97.5 -39.5t40.5 -96.5q0 -54 -40.5 -93.5t-97.5 -39.5t-99 39.5t-42 93.5zM631 1380q0 55 42 95.5t99 40.5q56 0 96.5 -40.5t40.5 -95.5q0 -54 -40.5 -93.5t-96.5 -39.5q-57 0 -99 39.5
t-42 93.5z" />
    <glyph glyph-name="aring" unicode="&#xe5;" horiz-adv-x="1097" 
d="M954 608v-608h-200v113q-114 -136 -322 -136q-158 0 -254 80t-96 211t100.5 209t270.5 78h284v66q0 104 -56 159.5t-159 55.5q-83 0 -148 -36.5t-130 -113.5l-125 127q74 107 182.5 161t241.5 54q189 0 300 -110t111 -310zM737 381v18h-258q-178 0 -178 -123
q0 -62 48.5 -97.5t127.5 -35.5q110 0 185 68t75 170zM297 1370q0 101 70 168q70 70 172 70q104 0 173.5 -67.5t69.5 -170.5q0 -100 -69.5 -167.5t-173.5 -67.5q-103 0 -172.5 67.5t-69.5 167.5zM633 1370q0 41 -26.5 68.5t-65.5 27.5q-41 0 -68 -27.5t-27 -68.5
q0 -39 27 -65.5t68 -26.5q38 0 65 27t27 65z" />
    <glyph glyph-name="ae" unicode="&#xe6;" horiz-adv-x="1816" 
d="M1708 418h-747q25 -117 111.5 -183.5t213.5 -66.5q159 0 291 117l104 -146q-167 -162 -399 -162q-138 0 -250 58.5t-182 163.5q-55 -107 -161.5 -164.5t-244.5 -57.5q-166 0 -264 81.5t-98 213.5q0 136 102 218.5t269 82.5h284v48q0 103 -56 159t-157 56
q-80 0 -146.5 -37t-131.5 -113l-125 127q154 215 422 215q238 0 338 -178q68 85 166.5 131.5t214.5 46.5q200 0 331 -132t131 -331q0 -85 -16 -147zM956 573h553q7 122 -65.5 197.5t-190.5 75.5q-115 0 -196 -74.5t-101 -198.5zM737 379v39h-258q-86 0 -132 -33t-46 -96
q0 -67 48.5 -105.5t127.5 -38.5q107 0 185 66q75 66 75 168z" />
    <glyph glyph-name="ccedilla" unicode="&#xe7;" horiz-adv-x="1130" 
d="M92 504q-2 106 40.5 204t115 168.5t172 111.5t205.5 40q138 0 247.5 -61.5t176.5 -171.5l-152 -119q-108 153 -270 153q-134 0 -225 -94t-91 -231q0 -138 90.5 -233t225.5 -95q158 0 270 152l152 -117q-68 -110 -178.5 -172t-245.5 -62q-146 0 -268.5 70t-193.5 191.5
t-71 265.5zM344 -373v148q74 -6 117 -6q67 0 106 32.5t39 92.5q0 65 -49 135l88 43q64 -33 100.5 -89.5t36.5 -127.5q0 -106 -80.5 -176t-212.5 -70q-69 0 -145 18z" />
    <glyph glyph-name="egrave" unicode="&#xe8;" horiz-adv-x="1167" 
d="M1061 432h-750q20 -122 109 -193t219 -71q159 0 293 119l102 -148q-171 -162 -401 -162q-151 0 -275.5 69t-195 189.5t-70.5 266.5q-2 106 39 204.5t111.5 169.5t167.5 112.5t202 39.5q199 0 332 -132t133 -329q0 -60 -16 -135zM315 600h547q-1 112 -75 179t-183 67
q-106 0 -185 -67t-104 -179zM530 1163l-264 396v38h262l162 -434h-160z" />
    <glyph glyph-name="eacute" unicode="&#xe9;" horiz-adv-x="1167" 
d="M1061 432h-750q20 -122 109 -193t219 -71q159 0 293 119l102 -148q-171 -162 -401 -162q-151 0 -275.5 69t-195 189.5t-70.5 266.5q-2 106 39 204.5t111.5 169.5t167.5 112.5t202 39.5q199 0 332 -132t133 -329q0 -60 -16 -135zM315 600h547q-1 112 -75 179t-183 67
q-106 0 -185 -67t-104 -179zM530 1163l162 434h262v-38l-264 -396h-160z" />
    <glyph glyph-name="ecircumflex" unicode="&#xea;" horiz-adv-x="1167" 
d="M1061 432h-750q20 -122 109 -193t219 -71q159 0 293 119l102 -148q-171 -162 -401 -162q-151 0 -275.5 69t-195 189.5t-70.5 266.5q-2 106 39 204.5t111.5 169.5t167.5 112.5t202 39.5q199 0 332 -132t133 -329q0 -60 -16 -135zM315 600h547q-1 112 -75 179t-183 67
q-106 0 -185 -67t-104 -179zM954 1163h-159l-185 223l-186 -223h-162l279 434h137z" />
    <glyph glyph-name="edieresis" unicode="&#xeb;" horiz-adv-x="1167" 
d="M1061 432h-750q20 -122 109 -193t219 -71q159 0 293 119l102 -148q-171 -162 -401 -162q-151 0 -275.5 69t-195 189.5t-70.5 266.5q-2 106 39 204.5t111.5 169.5t167.5 112.5t202 39.5q199 0 332 -132t133 -329q0 -60 -16 -135zM315 600h547q-1 112 -75 179t-183 67
q-106 0 -185 -67t-104 -179zM238 1380q0 55 42 95.5t99 40.5t97 -39.5t40 -96.5q0 -54 -40 -93.5t-97 -39.5t-99 39.5t-42 93.5zM698 1380q0 55 42.5 95.5t99.5 40.5q56 0 96.5 -40.5t40.5 -95.5q0 -54 -40.5 -93.5t-96.5 -39.5q-57 0 -99.5 39.5t-42.5 93.5z" />
    <glyph glyph-name="igrave" unicode="&#xec;" horiz-adv-x="526" 
d="M156 0v1006h215v-1006h-215zM188 1163l-202 396v38h262l100 -434h-160z" />
    <glyph glyph-name="iacute" unicode="&#xed;" horiz-adv-x="526" 
d="M156 0v1006h215v-1006h-215zM182 1163l101 434h262v-38l-203 -396h-160z" />
    <glyph glyph-name="icircumflex" unicode="&#xee;" horiz-adv-x="526" 
d="M156 0v1006h215v-1006h-215zM610 1163h-159l-185 223l-186 -223h-162l279 434h137z" />
    <glyph glyph-name="idieresis" unicode="&#xef;" horiz-adv-x="526" 
d="M156 0v1006h215v-1006h-215zM-80 1380q0 57 40.5 96.5t96.5 39.5q60 0 100 -39.5t40 -96.5q0 -54 -41.5 -93.5t-98.5 -39.5q-54 0 -95.5 39.5t-41.5 93.5zM330 1380q0 56 41.5 96t97.5 40q57 0 98 -39.5t41 -96.5q0 -54 -41 -93.5t-98 -39.5q-56 0 -97.5 39.5t-41.5 93.5
z" />
    <glyph glyph-name="eth" unicode="&#xf0;" horiz-adv-x="1169" 
d="M1077 459q0 -207 -140 -344.5t-351 -137.5q-213 0 -353.5 135t-140.5 334q0 196 136 328.5t331 132.5q16 0 70 -4l-164 225l-293 -141l-76 156l264 129l-122 168l163 119l148 -197l315 154l78 -154l-289 -141l193 -258q67 -91 125 -179q106 -162 106 -325zM858 449
q0 119 -78 196.5t-196 77.5q-119 0 -196 -78t-77 -199t77 -197.5t196 -76.5t196.5 78t77.5 199z" />
    <glyph glyph-name="ntilde" unicode="&#xf1;" horiz-adv-x="1177" 
d="M1034 629v-629h-215v600q0 104 -60.5 169t-158.5 65q-100 0 -164.5 -65.5t-64.5 -168.5v-600h-215v1006h200v-99q115 121 301 121q175 0 276 -108.5t101 -290.5zM592 1251l-55 41q-2 2 -14.5 11t-17.5 12.5t-15.5 9t-19 8t-17.5 2.5q-58 0 -58 -78v-28h-170q-4 54 -4 59
q0 109 56 176.5t147 67.5q76 0 143 -49l56 -41q53 -41 84 -41q57 0 57 78v28h170q2 -14 2 -59q0 -109 -56 -177.5t-147 -68.5q-73 0 -141 49z" />
    <glyph glyph-name="ograve" unicode="&#xf2;" horiz-adv-x="1247" 
d="M92 504q-2 106 40 204t114.5 168.5t171.5 111.5t205 40q108 2 207.5 -39.5t172 -113t114.5 -169t40 -202.5q3 -140 -69 -263t-196.5 -195t-268.5 -69q-106 -2 -205.5 40t-171 114t-114 170t-40.5 203zM936 502q0 139 -90 234t-221 95q-133 0 -223.5 -94.5t-90.5 -234.5
q0 -139 90 -232.5t222 -93.5q133 0 223 94.5t90 231.5zM545 1163l-264 396v38h262l162 -434h-160z" />
    <glyph glyph-name="oacute" unicode="&#xf3;" horiz-adv-x="1247" 
d="M92 504q-2 106 40 204t114.5 168.5t171.5 111.5t205 40q108 2 207.5 -39.5t172 -113t114.5 -169t40 -202.5q3 -140 -69 -263t-196.5 -195t-268.5 -69q-106 -2 -205.5 40t-171 114t-114 170t-40.5 203zM936 502q0 139 -90 234t-221 95q-133 0 -223.5 -94.5t-90.5 -234.5
q0 -139 90 -232.5t222 -93.5q133 0 223 94.5t90 231.5zM547 1163l162 434h262v-38l-264 -396h-160z" />
    <glyph glyph-name="ocircumflex" unicode="&#xf4;" horiz-adv-x="1247" 
d="M92 504q-2 106 40 204t114.5 168.5t171.5 111.5t205 40q108 2 207.5 -39.5t172 -113t114.5 -169t40 -202.5q3 -140 -69 -263t-196.5 -195t-268.5 -69q-106 -2 -205.5 40t-171 114t-114 170t-40.5 203zM936 502q0 139 -90 234t-221 95q-133 0 -223.5 -94.5t-90.5 -234.5
q0 -139 90 -232.5t222 -93.5q133 0 223 94.5t90 231.5zM971 1163h-160l-184 223l-187 -223h-161l278 434h137z" />
    <glyph glyph-name="otilde" unicode="&#xf5;" horiz-adv-x="1247" 
d="M92 504q-2 106 40 204t114.5 168.5t171.5 111.5t205 40q108 2 207.5 -39.5t172 -113t114.5 -169t40 -202.5q3 -140 -69 -263t-196.5 -195t-268.5 -69q-106 -2 -205.5 40t-171 114t-114 170t-40.5 203zM936 502q0 139 -90 234t-221 95q-133 0 -223.5 -94.5t-90.5 -234.5
q0 -139 90 -232.5t222 -93.5q133 0 223 94.5t90 231.5zM637 1251l-55 41q-2 2 -14.5 11t-17.5 12.5t-15.5 9t-19 8t-17.5 2.5q-58 0 -58 -78v-28h-170q-4 54 -4 59q0 109 56 176.5t147 67.5q76 0 143 -49l56 -41q53 -41 84 -41q57 0 57 78v28h170q2 -14 2 -59
q0 -109 -56 -177.5t-147 -68.5q-73 0 -141 49z" />
    <glyph glyph-name="odieresis" unicode="&#xf6;" horiz-adv-x="1247" 
d="M92 504q-2 106 40 204t114.5 168.5t171.5 111.5t205 40q108 2 207.5 -39.5t172 -113t114.5 -169t40 -202.5q3 -140 -69 -263t-196.5 -195t-268.5 -69q-106 -2 -205.5 40t-171 114t-114 170t-40.5 203zM936 502q0 139 -90 234t-221 95q-133 0 -223.5 -94.5t-90.5 -234.5
q0 -139 90 -232.5t222 -93.5q133 0 223 94.5t90 231.5zM254 1380q0 55 42 95.5t99 40.5t97 -39.5t40 -96.5q0 -54 -40 -93.5t-97 -39.5t-99 39.5t-42 93.5zM715 1380q0 55 42 95.5t99 40.5q56 0 96.5 -40.5t40.5 -95.5q0 -54 -40.5 -93.5t-96.5 -39.5q-57 0 -99 39.5
t-42 93.5z" />
    <glyph glyph-name="divide" unicode="&#xf7;" 
d="M430 1022q0 55 41 94t98 39q60 0 100 -38t40 -95q0 -55 -41.5 -94t-98.5 -39t-98 39t-41 94zM102 557v186h940v-186h-940zM430 274q0 55 41 94.5t98 39.5q60 0 100 -38.5t40 -95.5t-40 -95t-100 -38q-57 0 -98 39t-41 94z" />
    <glyph glyph-name="oslash" unicode="&#xf8;" horiz-adv-x="1261" 
d="M1182 922l-115 -115q96 -137 96 -305q3 -140 -70 -262.5t-197.5 -194t-266.5 -68.5q-162 0 -301 91l-115 -117l-131 131l115 115q-99 138 -99 305q0 144 71 265t193.5 191t268.5 70q164 0 303 -92l117 115zM303 502q0 -101 43 -174l463 465q-82 49 -178 49
q-142 0 -236 -97q-92 -95 -92 -243zM958 502q0 98 -40 174l-467 -465q77 -51 178 -51q141 0 235 97.5t94 244.5z" />
    <glyph glyph-name="ugrave" unicode="&#xf9;" horiz-adv-x="1167" 
d="M145 422v584h213v-600q0 -103 64.5 -166.5t163.5 -63.5q95 0 158 63.5t63 166.5v600h215v-584q0 -199 -124 -322t-312 -123q-192 0 -316.5 122.5t-124.5 322.5zM504 1163l-264 396v38h262l162 -434h-160z" />
    <glyph glyph-name="uacute" unicode="&#xfa;" horiz-adv-x="1167" 
d="M145 422v584h213v-600q0 -103 64.5 -166.5t163.5 -63.5q95 0 158 63.5t63 166.5v600h215v-584q0 -199 -124 -322t-312 -123q-192 0 -316.5 122.5t-124.5 322.5zM506 1163l162 434h262v-38l-264 -396h-160z" />
    <glyph glyph-name="ucircumflex" unicode="&#xfb;" horiz-adv-x="1167" 
d="M145 422v584h213v-600q0 -103 64.5 -166.5t163.5 -63.5q95 0 158 63.5t63 166.5v600h215v-584q0 -199 -124 -322t-312 -123q-192 0 -316.5 122.5t-124.5 322.5zM930 1163h-160l-184 223l-187 -223h-161l278 434h137z" />
    <glyph glyph-name="udieresis" unicode="&#xfc;" horiz-adv-x="1167" 
d="M145 422v584h213v-600q0 -103 64.5 -166.5t163.5 -63.5q95 0 158 63.5t63 166.5v600h215v-584q0 -199 -124 -322t-312 -123q-192 0 -316.5 122.5t-124.5 322.5zM213 1380q0 55 42 95.5t99 40.5t97.5 -39.5t40.5 -96.5q0 -54 -40.5 -93.5t-97.5 -39.5t-99 39.5t-42 93.5z
M674 1380q0 55 42 95.5t99 40.5q56 0 96.5 -40.5t40.5 -95.5q0 -54 -40.5 -93.5t-96.5 -39.5q-57 0 -99 39.5t-42 93.5z" />
    <glyph glyph-name="yacute" unicode="&#xfd;" horiz-adv-x="1124" 
d="M856 1006h229l-489 -1121q-63 -143 -151.5 -209.5t-217.5 -66.5q-87 0 -166 20v183q94 -9 119 -9q79 0 131.5 33t87.5 115l41 94l-401 961h231l289 -732zM479 1163l162 434h262v-38l-264 -396h-160z" />
    <glyph glyph-name="thorn" unicode="&#xfe;" horiz-adv-x="1292" 
d="M1200 504q0 -226 -140 -376.5t-353 -150.5q-102 0 -188.5 38t-147.5 108v-492h-215v1905h215v-653q57 69 144.5 107t191.5 38q140 0 253 -68.5t176.5 -188.5t63.5 -267zM979 502q0 144 -87.5 236.5t-219.5 92.5q-127 0 -215 -85.5t-88 -241.5q0 -157 88 -243.5t215 -86.5
q131 0 219 92.5t88 235.5z" />
    <glyph glyph-name="ydieresis" unicode="&#xff;" horiz-adv-x="1124" 
d="M856 1006h229l-489 -1121q-63 -143 -151.5 -209.5t-217.5 -66.5q-87 0 -166 20v183q94 -9 119 -9q79 0 131.5 33t87.5 115l41 94l-401 961h231l289 -732zM188 1380q0 55 42.5 95.5t99.5 40.5t97 -39.5t40 -96.5q0 -54 -40 -93.5t-97 -39.5t-99.5 39.5t-42.5 93.5z
M649 1380q0 55 42.5 95.5t99.5 40.5q56 0 96.5 -40.5t40.5 -95.5q0 -54 -40.5 -93.5t-96.5 -39.5q-57 0 -99.5 39.5t-42.5 93.5z" />
    <glyph glyph-name="Amacron" unicode="&#x100;" horiz-adv-x="1355" 
d="M1077 0l-96 225h-608l-97 -225h-231l596 1374h74l596 -1374h-234zM903 412l-225 559l-227 -559h452zM362 1561v174h631v-174h-631z" />
    <glyph glyph-name="amacron" unicode="&#x101;" horiz-adv-x="1097" 
d="M954 608v-608h-200v113q-114 -136 -322 -136q-158 0 -254 80t-96 211t100.5 209t270.5 78h284v66q0 104 -56 159.5t-159 55.5q-83 0 -148 -36.5t-130 -113.5l-125 127q74 107 182.5 161t241.5 54q189 0 300 -110t111 -310zM737 381v18h-258q-178 0 -178 -123
q0 -62 48.5 -97.5t127.5 -35.5q110 0 185 68t75 170zM246 1294v172h590v-172h-590z" />
    <glyph glyph-name="Abreve" unicode="&#x102;" horiz-adv-x="1355" 
d="M1077 0l-96 225h-608l-97 -225h-231l596 1374h74l596 -1374h-234zM903 412l-225 559l-227 -559h452zM346 1823v41h172v-41q0 -82 43 -130t115 -48q73 0 116.5 48t43.5 130v41h174v-41q0 -153 -95 -248q-91 -94 -239 -94t-239 94t-91 248z" />
    <glyph glyph-name="abreve" unicode="&#x103;" horiz-adv-x="1097" 
d="M954 608v-608h-200v113q-114 -136 -322 -136q-158 0 -254 80t-96 211t100.5 209t270.5 78h284v66q0 104 -56 159.5t-159 55.5q-83 0 -148 -36.5t-130 -113.5l-125 127q74 107 182.5 161t241.5 54q189 0 300 -110t111 -310zM737 381v18h-258q-178 0 -178 -123
q0 -62 48.5 -97.5t127.5 -35.5q110 0 185 68t75 170zM209 1511v60h172v-58q0 -82 43 -130t115 -48q73 0 116 48t43 130v58h174v-60q0 -151 -94 -245q-92 -95 -239 -95q-146 0 -238 95t-92 245z" />
    <glyph glyph-name="Aogonek" unicode="&#x104;" horiz-adv-x="1355" 
d="M1077 0l-96 225h-608l-97 -225h-231l596 1374h74l596 -1374h-234zM903 412l-225 559l-227 -559h452zM918 -201q0 84 68.5 148t238.5 143l86 -90l-92 -59q-44 -30 -57 -40t-24.5 -26.5t-11.5 -36.5q0 -32 22.5 -49.5t63.5 -17.5q28 0 99 12v-150q-83 -24 -162 -24
q-106 0 -168.5 52t-62.5 138z" />
    <glyph glyph-name="aogonek" unicode="&#x105;" horiz-adv-x="1097" 
d="M954 608v-608h-200v113q-114 -136 -322 -136q-158 0 -254 80t-96 211t100.5 209t270.5 78h284v66q0 104 -56 159.5t-159 55.5q-83 0 -148 -36.5t-130 -113.5l-125 127q74 107 182.5 161t241.5 54q189 0 300 -110t111 -310zM737 381v18h-258q-178 0 -178 -123
q0 -62 48.5 -97.5t127.5 -35.5q110 0 185 68t75 170zM559 -201q0 84 68.5 148t238.5 143l86 -90l-92 -59q-42 -29 -56 -40t-25 -27t-11 -36q0 -32 22.5 -49.5t63.5 -17.5q28 0 98 12v-150q-82 -24 -161 -24q-106 0 -169 52t-63 138z" />
    <glyph glyph-name="Cacute" unicode="&#x106;" horiz-adv-x="1468" 
d="M88 676q-3 142 54 272.5t153.5 224.5t229 148.5t274.5 52.5q184 0 337 -83.5t242 -227.5l-164 -121q-150 234 -413 234q-136 0 -248 -64.5t-176 -179.5t-64 -256t64 -256t176 -179.5t248 -64.5q263 0 413 234l164 -121q-88 -145 -240.5 -228.5t-338.5 -83.5
q-142 -2 -274.5 53t-229 148.5t-153.5 224.5t-54 273zM717 1483l162 381h262v-39l-264 -342h-160z" />
    <glyph glyph-name="cacute" unicode="&#x107;" horiz-adv-x="1130" 
d="M92 504q-2 106 40.5 204t115 168.5t172 111.5t205.5 40q138 0 247.5 -61.5t176.5 -171.5l-152 -119q-108 153 -270 153q-134 0 -225 -94t-91 -231q0 -138 90.5 -233t225.5 -95q158 0 270 152l152 -117q-68 -110 -178.5 -172t-245.5 -62q-146 0 -268.5 70t-193.5 191.5
t-71 265.5zM543 1163l162 434h262v-38l-265 -396h-159z" />
    <glyph glyph-name="Ccircumflex" unicode="&#x108;" horiz-adv-x="1468" 
d="M88 676q-3 142 54 272.5t153.5 224.5t229 148.5t274.5 52.5q184 0 337 -83.5t242 -227.5l-164 -121q-150 234 -413 234q-136 0 -248 -64.5t-176 -179.5t-64 -256t64 -256t176 -179.5t248 -64.5q263 0 413 234l164 -121q-88 -145 -240.5 -228.5t-338.5 -83.5
q-142 -2 -274.5 53t-229 148.5t-153.5 224.5t-54 273zM1171 1483h-165l-205 192l-207 -192h-166l303 381h137z" />
    <glyph glyph-name="ccircumflex" unicode="&#x109;" horiz-adv-x="1130" 
d="M92 504q-2 106 40.5 204t115 168.5t172 111.5t205.5 40q138 0 247.5 -61.5t176.5 -171.5l-152 -119q-108 153 -270 153q-134 0 -225 -94t-91 -231q0 -138 90.5 -233t225.5 -95q158 0 270 152l152 -117q-68 -110 -178.5 -172t-245.5 -62q-146 0 -268.5 70t-193.5 191.5
t-71 265.5zM967 1163h-160l-184 223l-187 -223h-162l279 434h137z" />
    <glyph glyph-name="Cdotaccent" unicode="&#x10a;" horiz-adv-x="1468" 
d="M88 676q-3 142 54 272.5t153.5 224.5t229 148.5t274.5 52.5q184 0 337 -83.5t242 -227.5l-164 -121q-150 234 -413 234q-136 0 -248 -64.5t-176 -179.5t-64 -256t64 -256t176 -179.5t248 -64.5q263 0 413 234l164 -121q-88 -145 -240.5 -228.5t-338.5 -83.5
q-142 -2 -274.5 53t-229 148.5t-153.5 224.5t-54 273zM653 1663q0 61 43 102t105 41t103.5 -41t41.5 -102q0 -60 -42.5 -100.5t-102.5 -40.5q-62 0 -105 40.5t-43 100.5z" />
    <glyph glyph-name="cdotaccent" unicode="&#x10b;" horiz-adv-x="1130" 
d="M92 504q-2 106 40.5 204t115 168.5t172 111.5t205.5 40q138 0 247.5 -61.5t176.5 -171.5l-152 -119q-108 153 -270 153q-134 0 -225 -94t-91 -231q0 -138 90.5 -233t225.5 -95q158 0 270 152l152 -117q-68 -110 -178.5 -172t-245.5 -62q-146 0 -268.5 70t-193.5 191.5
t-71 265.5zM473 1380q0 60 43 102t105 42q60 0 102.5 -42t42.5 -102t-42.5 -100.5t-102.5 -40.5q-62 0 -105 40.5t-43 100.5z" />
    <glyph glyph-name="Ccaron" unicode="&#x10c;" horiz-adv-x="1468" 
d="M88 676q-3 142 54 272.5t153.5 224.5t229 148.5t274.5 52.5q184 0 337 -83.5t242 -227.5l-164 -121q-150 234 -413 234q-136 0 -248 -64.5t-176 -179.5t-64 -256t64 -256t176 -179.5t248 -64.5q263 0 413 234l164 -121q-88 -145 -240.5 -228.5t-338.5 -83.5
q-142 -2 -274.5 53t-229 148.5t-153.5 224.5t-54 273zM1006 1864h165l-303 -381h-137l-303 381h166l207 -193z" />
    <glyph glyph-name="ccaron" unicode="&#x10d;" horiz-adv-x="1130" 
d="M92 504q-2 106 40.5 204t115 168.5t172 111.5t205.5 40q138 0 247.5 -61.5t176.5 -171.5l-152 -119q-108 153 -270 153q-134 0 -225 -94t-91 -231q0 -138 90.5 -233t225.5 -95q158 0 270 152l152 -117q-68 -110 -178.5 -172t-245.5 -62q-146 0 -268.5 70t-193.5 191.5
t-71 265.5zM807 1597h160l-277 -434h-137l-279 434h162l187 -223z" />
    <glyph glyph-name="Dcaron" unicode="&#x10e;" horiz-adv-x="1417" 
d="M170 0v1352h424q330 0 532.5 -187t202.5 -487q0 -146 -53.5 -271.5t-148.5 -215t-233 -140.5t-300 -51h-424zM387 195h205q233 0 373.5 134.5t140.5 348.5q0 216 -139.5 346.5t-374.5 130.5h-205v-960zM782 1864h166l-303 -381h-137l-303 381h166l207 -193z" />
    <glyph glyph-name="dcaron" unicode="&#x10f;" horiz-adv-x="1574" 
d="M920 1536h217v-1536h-201v143q-56 -78 -148 -122t-204 -44q-211 0 -351.5 150.5t-140.5 374.5q-3 144 61.5 266.5t179 192.5t251.5 67q104 0 191.5 -38t144.5 -107v653zM924 502q0 155 -89 242t-214 87q-131 0 -220.5 -92t-89.5 -235q0 -144 88 -237t222 -93
q127 0 215 86t88 242zM1329 1110l19 426h227l-90 -426h-156z" />
    <glyph glyph-name="Dcroat" unicode="&#x110;" horiz-adv-x="1417" 
d="M1329 678q0 -146 -53.5 -271.5t-148.5 -215t-233 -140.5t-300 -51h-424v543h-182v184h182v625h424q330 0 532.5 -187t202.5 -487zM1106 678q0 216 -139.5 346.5t-374.5 130.5h-205v-428h246v-184h-246v-348h205q233 0 373.5 134.5t140.5 348.5z" />
    <glyph glyph-name="dslash" unicode="&#x111;" horiz-adv-x="1300" 
d="M1298 1337v-176h-163v-1161h-201v143q-57 -78 -152 -122t-207 -44q-206 0 -345.5 143t-139.5 359q0 217 139 361.5t346 144.5q105 0 195 -39.5t150 -111.5v327h-435v176h435v199h215v-199h163zM922 479q0 156 -91 238q-89 80 -213 80q-130 0 -218.5 -90t-88.5 -228
t86 -227q88 -88 221 -88q131 0 217.5 83t86.5 232z" />
    <glyph glyph-name="Emacron" unicode="&#x112;" horiz-adv-x="1165" 
d="M170 0v1352h889v-195h-672v-346h506v-188h-506v-428h696v-195h-913zM297 1561v174h631v-174h-631z" />
    <glyph glyph-name="emacron" unicode="&#x113;" horiz-adv-x="1167" 
d="M1061 432h-750q20 -122 109 -193t219 -71q159 0 293 119l102 -148q-171 -162 -401 -162q-151 0 -275.5 69t-195 189.5t-70.5 266.5q-2 106 39 204.5t111.5 169.5t167.5 112.5t202 39.5q199 0 332 -132t133 -329q0 -60 -16 -135zM315 600h547q-1 112 -75 179t-183 67
q-106 0 -185 -67t-104 -179zM313 1294v172h590v-172h-590z" />
    <glyph glyph-name="Ebreve" unicode="&#x114;" horiz-adv-x="1165" 
d="M170 0v1352h889v-195h-672v-346h506v-188h-506v-428h696v-195h-913zM281 1823v41h172v-41q0 -82 42.5 -130t114.5 -48q73 0 116.5 48t43.5 130v41h174v-41q0 -154 -94 -248q-91 -94 -240 -94q-148 0 -238.5 94t-90.5 248z" />
    <glyph glyph-name="ebreve" unicode="&#x115;" horiz-adv-x="1167" 
d="M1061 432h-750q20 -122 109 -193t219 -71q159 0 293 119l102 -148q-171 -162 -401 -162q-151 0 -275.5 69t-195 189.5t-70.5 266.5q-2 106 39 204.5t111.5 169.5t167.5 112.5t202 39.5q199 0 332 -132t133 -329q0 -60 -16 -135zM315 600h547q-1 112 -75 179t-183 67
q-106 0 -185 -67t-104 -179zM276 1511v60h173v-58q0 -82 42.5 -130t114.5 -48q73 0 116.5 48t43.5 130v58h174v-60q0 -151 -94 -245q-92 -95 -240 -95q-145 0 -237 95q-93 96 -93 245z" />
    <glyph glyph-name="Edotaccent" unicode="&#x116;" horiz-adv-x="1165" 
d="M170 0v1352h889v-195h-672v-346h506v-188h-506v-428h696v-195h-913zM465 1663q0 61 42.5 102t104.5 41t104 -41t42 -102q0 -60 -43 -100.5t-103 -40.5q-62 0 -104.5 40.5t-42.5 100.5z" />
    <glyph glyph-name="edotaccent" unicode="&#x117;" horiz-adv-x="1167" 
d="M1061 432h-750q20 -122 109 -193t219 -71q159 0 293 119l102 -148q-171 -162 -401 -162q-151 0 -275.5 69t-195 189.5t-70.5 266.5q-2 106 39 204.5t111.5 169.5t167.5 112.5t202 39.5q199 0 332 -132t133 -329q0 -60 -16 -135zM315 600h547q-1 112 -75 179t-183 67
q-106 0 -185 -67t-104 -179zM461 1380q0 60 43 102t104 42q60 0 103 -42t43 -102t-43 -100.5t-103 -40.5q-62 0 -104.5 40.5t-42.5 100.5z" />
    <glyph glyph-name="Eogonek" unicode="&#x118;" horiz-adv-x="1165" 
d="M170 0v1352h889v-195h-672v-346h506v-188h-506v-428h696v-195h-913zM690 -201q0 84 68.5 148t238.5 143l86 -90l-92 -59q-42 -29 -56 -40t-25 -27t-11 -36q0 -32 22.5 -49.5t63.5 -17.5q27 0 98 12v-150q-83 -24 -161 -24q-106 0 -169 52t-63 138z" />
    <glyph glyph-name="eogonek" unicode="&#x119;" horiz-adv-x="1167" 
d="M1061 432h-750q20 -122 109 -193t219 -71q159 0 293 119l102 -148q-171 -162 -401 -162q-151 0 -275.5 69t-195 189.5t-70.5 266.5q-2 106 39 204.5t111.5 169.5t167.5 112.5t202 39.5q199 0 332 -132t133 -329q0 -60 -16 -135zM315 600h547q-1 112 -75 179t-183 67
q-106 0 -185 -67t-104 -179zM580 -201q0 78 45.5 142t201.5 198h207l-180 -186q-37 -37 -51.5 -61t-14.5 -54q0 -67 86 -67q28 0 99 12v-150q-77 -24 -162 -24q-105 0 -168 51.5t-63 138.5z" />
    <glyph glyph-name="Ecaron" unicode="&#x11a;" horiz-adv-x="1165" 
d="M170 0v1352h889v-195h-672v-346h506v-188h-506v-428h696v-195h-913zM817 1864h166l-303 -381h-137l-303 381h166l206 -193z" />
    <glyph glyph-name="ecaron" unicode="&#x11b;" horiz-adv-x="1167" 
d="M1061 432h-750q20 -122 109 -193t219 -71q159 0 293 119l102 -148q-171 -162 -401 -162q-151 0 -275.5 69t-195 189.5t-70.5 266.5q-2 106 39 204.5t111.5 169.5t167.5 112.5t202 39.5q199 0 332 -132t133 -329q0 -60 -16 -135zM315 600h547q-1 112 -75 179t-183 67
q-106 0 -185 -67t-104 -179zM795 1597h159l-276 -434h-137l-279 434h162l186 -223z" />
    <glyph glyph-name="Gcircumflex" unicode="&#x11c;" horiz-adv-x="1527" 
d="M88 676q-3 142 53.5 272.5t153 224.5t229.5 148.5t277 52.5q175 0 318 -73t241 -209l-158 -129q-151 213 -403 213q-213 0 -349.5 -141.5t-136.5 -356.5q0 -218 140.5 -362t357.5 -144q132 0 235.5 53.5t167.5 151.5v145h-415v193h633v-381q-92 -163 -260.5 -260
t-370.5 -97q-145 -2 -278 53t-229 149t-152 224.5t-54 272.5zM1174 1483h-166l-205 192l-207 -192h-166l303 381h137z" />
    <glyph glyph-name="gcircumflex" unicode="&#x11d;" horiz-adv-x="1298" 
d="M944 1006h199v-902q0 -235 -136 -365t-368 -130q-280 0 -483 190l118 150q91 -73 173.5 -108.5t179.5 -35.5q139 0 220 74.5t81 212.5v72q-57 -69 -146 -106.5t-194 -37.5q-211 0 -350.5 142.5t-139.5 361.5t140 361.5t350 142.5q115 0 207.5 -43.5t148.5 -122.5v144z
M930 526q0 148 -86 229t-217 81q-130 0 -219 -86t-89 -226t89 -229q89 -86 219 -86q125 0 213 82q90 84 90 235zM985 1163h-160l-184 223l-186 -223h-162l278 434h138z" />
    <glyph glyph-name="Gbreve" unicode="&#x11e;" horiz-adv-x="1527" 
d="M88 676q-3 142 53.5 272.5t153 224.5t229.5 148.5t277 52.5q175 0 318 -73t241 -209l-158 -129q-151 213 -403 213q-213 0 -349.5 -141.5t-136.5 -356.5q0 -218 140.5 -362t357.5 -144q132 0 235.5 53.5t167.5 151.5v145h-415v193h633v-381q-92 -163 -260.5 -260
t-370.5 -97q-145 -2 -278 53t-229 149t-152 224.5t-54 272.5zM471 1823v41h172v-41q0 -82 43 -130t115 -48q73 0 116.5 48t43.5 130v41h174v-41q0 -153 -95 -248q-91 -94 -239 -94t-239 94t-91 248z" />
    <glyph glyph-name="gbreve" unicode="&#x11f;" horiz-adv-x="1298" 
d="M944 1006h199v-902q0 -235 -136 -365t-368 -130q-280 0 -483 190l118 150q91 -73 173.5 -108.5t179.5 -35.5q139 0 220 74.5t81 212.5v72q-57 -69 -146 -106.5t-194 -37.5q-211 0 -350.5 142.5t-139.5 361.5t140 361.5t350 142.5q115 0 207.5 -43.5t148.5 -122.5v144z
M930 526q0 148 -86 229t-217 81q-130 0 -219 -86t-89 -226t89 -229q89 -86 219 -86q125 0 213 82q90 84 90 235zM307 1511v60h172v-58q0 -82 43 -130t115 -48q73 0 116.5 48t43.5 130v58h174v-60q0 -151 -94 -245q-92 -95 -240 -95q-146 0 -238 95t-92 245z" />
    <glyph glyph-name="Gdotaccent" unicode="&#x120;" horiz-adv-x="1527" 
d="M88 676q-3 142 53.5 272.5t153 224.5t229.5 148.5t277 52.5q175 0 318 -73t241 -209l-158 -129q-151 213 -403 213q-213 0 -349.5 -141.5t-136.5 -356.5q0 -218 140.5 -362t357.5 -144q132 0 235.5 53.5t167.5 151.5v145h-415v193h633v-381q-92 -163 -260.5 -260
t-370.5 -97q-145 -2 -278 53t-229 149t-152 224.5t-54 272.5zM655 1663q0 61 43 102t105 41t103.5 -41t41.5 -102q0 -60 -42.5 -100.5t-102.5 -40.5q-62 0 -105 40.5t-43 100.5z" />
    <glyph glyph-name="gdotaccent" unicode="&#x121;" horiz-adv-x="1298" 
d="M944 1006h199v-902q0 -235 -136 -365t-368 -130q-280 0 -483 190l118 150q91 -73 173.5 -108.5t179.5 -35.5q139 0 220 74.5t81 212.5v72q-57 -69 -146 -106.5t-194 -37.5q-211 0 -350.5 142.5t-139.5 361.5t140 361.5t350 142.5q115 0 207.5 -43.5t148.5 -122.5v144z
M930 526q0 148 -86 229t-217 81q-130 0 -219 -86t-89 -226t89 -229q89 -86 219 -86q125 0 213 82q90 84 90 235zM492 1380q0 60 43 102t104 42q60 0 102.5 -42t42.5 -102t-42.5 -100.5t-102.5 -40.5q-62 0 -104.5 40.5t-42.5 100.5z" />
    <glyph glyph-name="uni0122" unicode="&#x122;" horiz-adv-x="1527" 
d="M88 676q-3 142 53.5 272.5t153 224.5t229.5 148.5t277 52.5q175 0 318 -73t241 -209l-158 -129q-151 213 -403 213q-213 0 -349.5 -141.5t-136.5 -356.5q0 -218 140.5 -362t357.5 -144q132 0 235.5 53.5t167.5 151.5v145h-415v193h633v-381q-92 -163 -260.5 -260
t-370.5 -97q-145 -2 -278 53t-229 149t-152 224.5t-54 272.5zM686 -451l14 353h205l-51 -353h-168z" />
    <glyph glyph-name="uni0123" unicode="&#x123;" horiz-adv-x="1298" 
d="M944 1006h199v-902q0 -235 -136 -365t-368 -130q-280 0 -483 190l118 150q91 -73 173.5 -108.5t179.5 -35.5q139 0 220 74.5t81 212.5v72q-57 -69 -146 -106.5t-194 -37.5q-211 0 -350.5 142.5t-139.5 361.5t140 361.5t350 142.5q115 0 207.5 -43.5t148.5 -122.5v144z
M930 526q0 148 -86 229t-217 81q-130 0 -219 -86t-89 -226t89 -229q89 -86 219 -86q125 0 213 82q90 84 90 235zM530 1163l70 434h160l-21 -434h-209z" />
    <glyph glyph-name="Hcircumflex" unicode="&#x124;" horiz-adv-x="1456" 
d="M170 0v1352h217v-539h680v539h217v-1352h-217v618h-680v-618h-217zM1098 1483h-166l-205 192l-207 -192h-166l303 381h138z" />
    <glyph glyph-name="hcircumflex" unicode="&#x125;" horiz-adv-x="1177" 
d="M1034 629v-629h-215v598q0 105 -60 169t-159 64q-100 0 -164.5 -65.5t-64.5 -167.5v-598h-215v1536h215v-631q105 123 291 123q170 0 271 -109.5t101 -289.5zM741 1667h-166l-204 193l-207 -193h-166l303 381h137z" />
    <glyph glyph-name="Hbar" unicode="&#x126;" horiz-adv-x="1484" 
d="M184 0v918h-196v182h196v252h217v-252h680v252h217v-252h197v-182h-197v-918h-217v479h-680v-479h-217zM401 670h680v248h-680v-248z" />
    <glyph glyph-name="hbar" unicode="&#x127;" horiz-adv-x="1189" 
d="M1047 584v-584h-218v557q0 103 -59.5 166t-157.5 63q-102 0 -166.5 -64.5t-64.5 -164.5v-557h-213v1157h-166v184h166v195h213v-195h403v-184h-403v-295q105 123 291 123q171 0 273 -110t102 -291z" />
    <glyph glyph-name="Itilde" unicode="&#x128;" horiz-adv-x="557" 
d="M170 0v1352h217v-1352h-217zM297 1550l-66 37q-61 37 -90 37q-28 0 -42.5 -20t-14.5 -54v-26h-172q-4 50 -4 59q0 104 58 172t149 68q76 0 147 -45l68 -41q1 -1 19 -10.5t26 -13.5t22 -8.5t23 -4.5q57 0 57 72v30h172q4 -50 4 -59q0 -105 -58 -172.5t-146 -67.5
q-72 0 -152 47z" />
    <glyph glyph-name="itilde" unicode="&#x129;" horiz-adv-x="526" 
d="M156 0v1006h215v-1006h-215zM266 1262l-39 32q-4 3 -10 9q-34 29 -48 31q-4 1 -11 1q-56 0 -56 -78v-28h-170q-4 36 -4 57q0 110 54.5 178t144.5 68q76 0 137 -55l39 -37q25 -23 39 -31t31 -8q53 0 53 78v28h168q4 -36 4 -59q0 -106 -54.5 -176t-140.5 -70q-65 0 -137 60
z" />
    <glyph glyph-name="Imacron" unicode="&#x12a;" horiz-adv-x="557" 
d="M170 0v1352h217v-1352h-217zM-35 1561v174h631v-174h-631z" />
    <glyph glyph-name="imacron" unicode="&#x12b;" horiz-adv-x="526" 
d="M156 0v1006h215v-1006h-215zM20 1294v174h488v-174h-488z" />
    <glyph glyph-name="Ibreve" unicode="&#x12c;" horiz-adv-x="557" 
d="M170 0v1352h217v-1352h-217zM-51 1823v41h172v-41q0 -82 43 -130t115 -48q73 0 116 48t43 130v41h174v-41q0 -154 -94 -248q-91 -94 -239 -94t-239 94t-91 248z" />
    <glyph glyph-name="ibreve" unicode="&#x12d;" horiz-adv-x="526" 
d="M156 0v1006h215v-1006h-215zM-68 1511v60h172v-58q0 -82 43 -130t115 -48q73 0 116.5 48t43.5 130v58h174v-60q0 -151 -94 -245q-92 -95 -240 -95q-145 0 -237 95q-93 96 -93 245z" />
    <glyph glyph-name="Iogonek" unicode="&#x12e;" horiz-adv-x="557" 
d="M170 0v1352h217v-1352h-217zM-6 -201q0 84 68.5 148t238.5 143l86 -90l-92 -59q-42 -29 -56 -40t-25 -27t-11 -36q0 -32 22.5 -49.5t63.5 -17.5q27 0 98 12v-150q-83 -24 -162 -24q-106 0 -168.5 52t-62.5 138z" />
    <glyph glyph-name="iogonek" unicode="&#x12f;" horiz-adv-x="526" 
d="M156 0v1006h215v-1006h-215zM117 1380q0 60 43 102t104 42q60 0 103 -42t43 -102t-43 -100.5t-103 -40.5q-62 0 -104.5 40.5t-42.5 100.5zM-23 -201q0 84 69 148t239 143l86 -90l-92 -59q-44 -30 -57 -40t-24.5 -26.5t-11.5 -36.5q0 -32 22.5 -49.5t63.5 -17.5
q28 0 99 12v-150q-83 -24 -162 -24q-106 0 -169 52t-63 138z" />
    <glyph glyph-name="Idot" unicode="&#x130;" horiz-adv-x="557" 
d="M170 0v1352h217v-1352h-217zM133 1663q0 61 43 102t105 41t103.5 -41t41.5 -102q0 -60 -42.5 -100.5t-102.5 -40.5q-62 0 -105 40.5t-43 100.5z" />
    <glyph glyph-name="dotlessi" unicode="&#x131;" horiz-adv-x="526" 
d="M156 0v1006h215v-1006h-215z" />
    <glyph glyph-name="IJ" unicode="&#x132;" horiz-adv-x="1339" 
d="M170 0v1352h217v-1352h-217zM600 0v186q102 -10 139 -10q109 0 160 41t51 141v994h217v-1016q0 -177 -99 -268t-282 -91q-78 0 -186 23z" />
    <glyph glyph-name="ij" unicode="&#x133;" horiz-adv-x="1054" 
d="M156 0v1006h215v-1006h-215zM117 1380q0 60 43 102t104 42q60 0 103 -42t43 -102t-43 -100.5t-103 -40.5q-62 0 -104.5 40.5t-42.5 100.5zM401 -373v183q58 -7 88 -7q99 0 146 41t47 133v1029h215v-1047q0 -174 -93.5 -262t-262.5 -88q-85 0 -140 18zM643 1380
q0 60 43 102t105 42q60 0 102.5 -42t42.5 -102t-42.5 -100.5t-102.5 -40.5q-62 0 -105 40.5t-43 100.5z" />
    <glyph glyph-name="Jcircumflex" unicode="&#x134;" horiz-adv-x="780" 
d="M43 0v186q102 -10 139 -10q109 0 160 41t51 141v994h217v-1016q0 -177 -99 -268t-282 -91q-78 0 -186 23zM846 1483h-166l-205 192l-207 -192h-166l304 381h137z" />
    <glyph glyph-name="jcircumflex" unicode="&#x135;" horiz-adv-x="526" 
d="M-125 -373v183q58 -7 88 -7q99 0 146 41t47 133v1029h215v-1047q0 -173 -94 -261.5t-263 -88.5q-84 0 -139 18zM610 1163h-159l-185 223l-186 -223h-162l279 434h137z" />
    <glyph glyph-name="uni0136" unicode="&#x136;" horiz-adv-x="1333" 
d="M170 0v1352h217v-1352h-217zM666 719l622 -719h-268l-627 719l568 633h266zM522 -451l15 353h204l-51 -353h-168z" />
    <glyph glyph-name="uni0137" unicode="&#x137;" horiz-adv-x="1091" 
d="M156 0v1536h215v-1536h-215zM631 563l440 -563h-258l-436 565l393 441h266zM434 -451l15 353h204l-51 -353h-168z" />
    <glyph glyph-name="Lacute" unicode="&#x139;" horiz-adv-x="1054" 
d="M170 0v1352h217v-1157h619v-195h-836zM195 1483l161 381h262v-39l-264 -342h-159z" />
    <glyph glyph-name="lacute" unicode="&#x13a;" horiz-adv-x="526" 
d="M156 0v1536h215v-1536h-215zM180 1667l162 381h262v-39l-264 -342h-160z" />
    <glyph glyph-name="uni013B" unicode="&#x13b;" horiz-adv-x="1054" 
d="M170 0v1352h217v-1157h619v-195h-836zM459 -451l14 353h205l-51 -353h-168z" />
    <glyph glyph-name="uni013C" unicode="&#x13c;" horiz-adv-x="526" 
d="M156 0v1536h215v-1536h-215zM147 -451l15 353h205l-52 -353h-168z" />
    <glyph glyph-name="Lcaron" unicode="&#x13d;" horiz-adv-x="1054" 
d="M170 0v1352h217v-1157h619v-195h-836zM741 1049l19 426h227l-90 -426h-156z" />
    <glyph glyph-name="lcaron" unicode="&#x13e;" horiz-adv-x="808" 
d="M156 0v1536h215v-1536h-215zM565 1110l19 426h227l-90 -426h-156z" />
    <glyph glyph-name="Ldot" unicode="&#x13f;" horiz-adv-x="1054" 
d="M170 0v1352h217v-1157h619v-195h-836zM657 764q0 67 47 113.5t115 46.5t113 -45.5t45 -114.5q0 -68 -45.5 -113t-112.5 -45q-68 0 -115 45.5t-47 112.5z" />
    <glyph glyph-name="ldot" unicode="&#x140;" horiz-adv-x="718" 
d="M156 0v1536h215v-1536h-215zM467 649q0 67 47 113.5t115 46.5t112.5 -45.5t44.5 -114.5q0 -67 -45 -112t-112 -45q-68 0 -115 45t-47 112z" />
    <glyph glyph-name="Lslash" unicode="&#x141;" horiz-adv-x="1054" 
d="M387 195h619v-195h-836v471l-154 -70v201l154 70v680h217v-596l430 196v-202l-430 -197v-358z" />
    <glyph glyph-name="lslash" unicode="&#x142;" horiz-adv-x="716" 
d="M627 938v-203l-172 -78v-657h-215v580l-160 -76v203l160 73v756h215v-678z" />
    <glyph glyph-name="Nacute" unicode="&#x143;" horiz-adv-x="1456" 
d="M1067 1352h217v-1375h-74l-823 938v-915h-217v1374h76l821 -934v912zM643 1483l162 381h262v-39l-264 -342h-160z" />
    <glyph glyph-name="nacute" unicode="&#x144;" horiz-adv-x="1177" 
d="M1034 629v-629h-215v600q0 104 -60.5 169t-158.5 65q-100 0 -164.5 -65.5t-64.5 -168.5v-600h-215v1006h200v-99q115 121 301 121q175 0 276 -108.5t101 -290.5zM502 1163l162 434h262v-38l-264 -396h-160z" />
    <glyph glyph-name="uni0145" unicode="&#x145;" horiz-adv-x="1456" 
d="M1067 1352h217v-1375h-74l-823 938v-915h-217v1374h76l821 -934v912zM610 -451l15 353h204l-51 -353h-168z" />
    <glyph glyph-name="uni0146" unicode="&#x146;" horiz-adv-x="1177" 
d="M1034 629v-629h-215v600q0 104 -60.5 169t-158.5 65q-100 0 -164.5 -65.5t-64.5 -168.5v-600h-215v1006h200v-99q115 121 301 121q175 0 276 -108.5t101 -290.5zM479 -451l15 353h204l-51 -353h-168z" />
    <glyph glyph-name="Ncaron" unicode="&#x147;" horiz-adv-x="1456" 
d="M1067 1352h217v-1375h-74l-823 938v-915h-217v1374h76l821 -934v912zM932 1864h166l-303 -381h-138l-303 381h166l207 -193z" />
    <glyph glyph-name="ncaron" unicode="&#x148;" horiz-adv-x="1177" 
d="M1034 629v-629h-215v600q0 104 -60.5 169t-158.5 65q-100 0 -164.5 -65.5t-64.5 -168.5v-600h-215v1006h200v-99q115 121 301 121q175 0 276 -108.5t101 -290.5zM766 1597h160l-277 -434h-137l-279 434h162l187 -223z" />
    <glyph glyph-name="Eng" unicode="&#x14a;" horiz-adv-x="1456" 
d="M1067 1352h217v-1393q0 -173 -94 -261.5t-264 -88.5q-82 0 -138 18v183q58 -7 89 -7q96 0 143 41t47 133v62l-680 844v-883h-217v1374h76l821 -1016v994z" />
    <glyph glyph-name="eng" unicode="&#x14b;" horiz-adv-x="1177" 
d="M1034 629v-670q0 -173 -94 -261.5t-264 -88.5q-80 0 -139 18v183q58 -7 86 -7q101 0 148.5 40t47.5 134v621q0 105 -60 169t-159 64q-100 0 -164.5 -65.5t-64.5 -167.5v-598h-215v1006h200v-99q115 121 301 121q175 0 276 -108.5t101 -290.5z" />
    <glyph glyph-name="Omacron" unicode="&#x14c;" horiz-adv-x="1597" 
d="M88 676q-2 142 54.5 272.5t153 224.5t228 148.5t273.5 52.5q141 2 273 -53t229 -148.5t154 -224t54 -272.5q4 -189 -93.5 -352t-262.5 -256.5t-354 -90.5q-143 -2 -275 53t-228 148.5t-152.5 224.5t-53.5 273zM1284 678q0 212 -139 355t-346 143q-210 0 -348 -142
t-138 -356q0 -217 137.5 -359.5t348.5 -142.5q208 0 346.5 143t138.5 359zM483 1561v174h631v-174h-631z" />
    <glyph glyph-name="omacron" unicode="&#x14d;" horiz-adv-x="1247" 
d="M92 504q-2 106 40 204t114.5 168.5t171.5 111.5t205 40q108 2 207.5 -39.5t172 -113t114.5 -169t40 -202.5q3 -140 -69 -263t-196.5 -195t-268.5 -69q-106 -2 -205.5 40t-171 114t-114 170t-40.5 203zM936 502q0 139 -90 234t-221 95q-133 0 -223.5 -94.5t-90.5 -234.5
q0 -139 90 -232.5t222 -93.5q133 0 223 94.5t90 231.5zM330 1294v172h590v-172h-590z" />
    <glyph glyph-name="Obreve" unicode="&#x14e;" horiz-adv-x="1597" 
d="M88 676q-2 142 54.5 272.5t153 224.5t228 148.5t273.5 52.5q141 2 273 -53t229 -148.5t154 -224t54 -272.5q4 -189 -93.5 -352t-262.5 -256.5t-354 -90.5q-143 -2 -275 53t-228 148.5t-152.5 224.5t-53.5 273zM1284 678q0 212 -139 355t-346 143q-210 0 -348 -142
t-138 -356q0 -217 137.5 -359.5t348.5 -142.5q208 0 346.5 143t138.5 359zM467 1823v41h172v-41q0 -82 43 -130t115 -48q73 0 116 48t43 130v41h174v-41q0 -154 -94 -248q-91 -94 -239 -94t-239 94t-91 248z" />
    <glyph glyph-name="obreve" unicode="&#x14f;" horiz-adv-x="1247" 
d="M92 504q-2 106 40 204t114.5 168.5t171.5 111.5t205 40q108 2 207.5 -39.5t172 -113t114.5 -169t40 -202.5q3 -140 -69 -263t-196.5 -195t-268.5 -69q-106 -2 -205.5 40t-171 114t-114 170t-40.5 203zM936 502q0 139 -90 234t-221 95q-133 0 -223.5 -94.5t-90.5 -234.5
q0 -139 90 -232.5t222 -93.5q133 0 223 94.5t90 231.5zM293 1511v60h172v-58q0 -82 43 -130t115 -48q73 0 116 48t43 130v58h174v-60q0 -151 -94 -245q-92 -95 -239 -95q-146 0 -238 95t-92 245z" />
    <glyph glyph-name="Ohungarumlaut" unicode="&#x150;" horiz-adv-x="1597" 
d="M88 676q-2 142 54.5 272.5t153 224.5t228 148.5t273.5 52.5q141 2 273 -53t229 -148.5t154 -224t54 -272.5q4 -189 -93.5 -352t-262.5 -256.5t-354 -90.5q-143 -2 -275 53t-228 148.5t-152.5 224.5t-53.5 273zM1284 678q0 212 -139 355t-346 143q-210 0 -348 -142
t-138 -356q0 -217 137.5 -359.5t348.5 -142.5q208 0 346.5 143t138.5 359zM467 1483l162 381h227v-39l-242 -342h-147zM934 1483l162 381h227v-39l-242 -342h-147z" />
    <glyph glyph-name="ohungarumlaut" unicode="&#x151;" horiz-adv-x="1247" 
d="M92 504q-2 106 40 204t114.5 168.5t171.5 111.5t205 40q108 2 207.5 -39.5t172 -113t114.5 -169t40 -202.5q3 -140 -69 -263t-196.5 -195t-268.5 -69q-106 -2 -205.5 40t-171 114t-114 170t-40.5 203zM936 502q0 139 -90 234t-221 95q-133 0 -223.5 -94.5t-90.5 -234.5
q0 -139 90 -232.5t222 -93.5q133 0 223 94.5t90 231.5zM328 1163l161 434h228v-38l-242 -396h-147zM754 1163l161 434h228v-38l-242 -396h-147z" />
    <glyph glyph-name="OE" unicode="&#x152;" horiz-adv-x="2279" 
d="M1501 195h694v-195h-911v197q-85 -105 -212.5 -162.5t-276.5 -57.5q-192 -3 -356.5 90.5t-259.5 256t-91 352.5q-3 142 53 272.5t151.5 224.5t228 148.5t276.5 52.5q151 0 278 -57t209 -160v195h887v-195h-670v-346h504v-188h-504v-428zM1284 676q0 212 -140 356
t-347 144q-208 0 -346 -142t-138 -358t138 -358t346 -142q136 0 247.5 64.5t175.5 179.5t64 256z" />
    <glyph glyph-name="oe" unicode="&#x153;" horiz-adv-x="1970" 
d="M1864 430h-738q20 -123 105 -192.5t213 -69.5q158 0 287 117l106 -146q-170 -162 -399 -162q-129 0 -239.5 57.5t-178.5 158.5q-67 -102 -171.5 -159t-232.5 -57q-140 -2 -262 68.5t-193.5 192.5t-68.5 264q-3 142 69 264.5t194.5 193.5t262.5 68q129 0 234 -57t168 -160
q68 101 173 158t228 57q194 0 326.5 -133t132.5 -328q0 -60 -16 -135zM1130 598h535q-1 113 -74 179.5t-182 66.5q-104 0 -180 -67t-99 -179zM918 502q0 140 -84 233q-82 94 -213 94q-133 0 -221.5 -94t-88.5 -233q0 -140 87.5 -233t219.5 -93q133 0 216 92q84 93 84 234z
" />
    <glyph glyph-name="Racute" unicode="&#x154;" horiz-adv-x="1292" 
d="M1268 0h-248l-385 522h-248v-522h-217v1352h494q204 0 331 -115.5t127 -298.5q0 -133 -69 -233.5t-191 -147.5zM387 1159v-444h272q111 0 175.5 60.5t64.5 160.5q0 101 -64.5 162t-175.5 61h-272zM455 1483l161 381h263v-39l-265 -342h-159z" />
    <glyph glyph-name="racute" unicode="&#x155;" horiz-adv-x="768" 
d="M731 1006v-191h-65q-131 0 -213 -74t-82 -204v-537h-215v1006h200v-132q54 68 130.5 105t162.5 37q40 0 82 -10zM295 1163l162 434h262v-38l-264 -396h-160z" />
    <glyph glyph-name="uni0156" unicode="&#x156;" horiz-adv-x="1292" 
d="M1268 0h-248l-385 522h-248v-522h-217v1352h494q204 0 331 -115.5t127 -298.5q0 -133 -69 -233.5t-191 -147.5zM387 1159v-444h272q111 0 175.5 60.5t64.5 160.5q0 101 -64.5 162t-175.5 61h-272zM537 -451l14 353h205l-51 -353h-168z" />
    <glyph glyph-name="uni0157" unicode="&#x157;" horiz-adv-x="768" 
d="M731 1006v-191h-65q-131 0 -213 -74t-82 -204v-537h-215v1006h200v-132q54 68 130.5 105t162.5 37q40 0 82 -10zM145 -451l15 353h205l-52 -353h-168z" />
    <glyph glyph-name="Rcaron" unicode="&#x158;" horiz-adv-x="1292" 
d="M1268 0h-248l-385 522h-248v-522h-217v1352h494q204 0 331 -115.5t127 -298.5q0 -133 -69 -233.5t-191 -147.5zM387 1159v-444h272q111 0 175.5 60.5t64.5 160.5q0 101 -64.5 162t-175.5 61h-272zM743 1864h166l-303 -381h-137l-303 381h166l207 -193z" />
    <glyph glyph-name="rcaron" unicode="&#x159;" horiz-adv-x="768" 
d="M731 1006v-191h-65q-131 0 -213 -74t-82 -204v-537h-215v1006h200v-132q54 68 130.5 105t162.5 37q40 0 82 -10zM559 1597h160l-277 -434h-137l-278 434h161l187 -223z" />
    <glyph glyph-name="Sacute" unicode="&#x15a;" horiz-adv-x="1144" 
d="M74 270l153 117q72 -104 157.5 -159.5t197.5 -55.5q105 0 169 51t64 137q0 68 -43 109t-156 94l-149 70q-158 72 -236.5 159t-78.5 216q0 162 123.5 264t302.5 102q140 0 256 -65.5t180 -175.5l-152 -117q-111 164 -284 164q-89 0 -147 -43.5t-58 -120.5q5 -71 37.5 -102
t132.5 -82l6 -3t5.5 -3t6.5 -3l152 -69q169 -77 246 -166t77 -219q0 -175 -127.5 -283.5t-324.5 -108.5q-164 0 -297.5 77.5t-212.5 215.5zM494 1483l161 381h263v-39l-265 -342h-159z" />
    <glyph glyph-name="sacute" unicode="&#x15b;" horiz-adv-x="931" 
d="M61 172l123 135q137 -143 283 -143q72 0 117 29t45 83q0 42 -31 66.5t-111 58.5l-102 43q-138 57 -200 123.5t-62 169.5q0 133 99 212t255 79q216 0 348 -156l-116 -133q-98 103 -236 103q-64 0 -100.5 -25t-36.5 -72q0 -37 28.5 -61.5t104.5 -56.5l96 -39
q146 -61 210.5 -130t64.5 -173q0 -146 -107 -228q-109 -80 -266 -80q-126 0 -231 52.5t-175 142.5zM395 1163l162 434h262v-38l-264 -396h-160z" />
    <glyph glyph-name="Scircumflex" unicode="&#x15c;" horiz-adv-x="1144" 
d="M74 270l153 117q72 -104 157.5 -159.5t197.5 -55.5q105 0 169 51t64 137q0 68 -43 109t-156 94l-149 70q-158 72 -236.5 159t-78.5 216q0 162 123.5 264t302.5 102q140 0 256 -65.5t180 -175.5l-152 -117q-111 164 -284 164q-89 0 -147 -43.5t-58 -120.5q5 -71 37.5 -102
t132.5 -82l6 -3t5.5 -3t6.5 -3l152 -69q169 -77 246 -166t77 -219q0 -175 -127.5 -283.5t-324.5 -108.5q-164 0 -297.5 77.5t-212.5 215.5zM948 1483h-166l-204 192l-207 -192h-166l303 381h137z" />
    <glyph glyph-name="scircumflex" unicode="&#x15d;" horiz-adv-x="931" 
d="M61 172l123 135q137 -143 283 -143q72 0 117 29t45 83q0 42 -31 66.5t-111 58.5l-102 43q-138 57 -200 123.5t-62 169.5q0 133 99 212t255 79q216 0 348 -156l-116 -133q-98 103 -236 103q-64 0 -100.5 -25t-36.5 -72q0 -37 28.5 -61.5t104.5 -56.5l96 -39
q146 -61 210.5 -130t64.5 -173q0 -146 -107 -228q-109 -80 -266 -80q-126 0 -231 52.5t-175 142.5zM819 1163h-160l-184 223l-186 -223h-162l279 434h137z" />
    <glyph glyph-name="Scedilla" unicode="&#x15e;" horiz-adv-x="1144" 
d="M74 270l153 117q72 -104 157.5 -159.5t197.5 -55.5q105 0 169 51t64 137q0 68 -43 109t-156 94l-149 70q-158 72 -236.5 159t-78.5 216q0 162 123.5 264t302.5 102q140 0 256 -65.5t180 -175.5l-152 -117q-111 164 -284 164q-89 0 -147 -43.5t-58 -120.5q5 -71 37.5 -102
t132.5 -82l6 -3t5.5 -3t6.5 -3l152 -69q169 -77 246 -166t77 -219q0 -175 -127.5 -283.5t-324.5 -108.5q-164 0 -297.5 77.5t-212.5 215.5zM315 -373v148q73 -6 117 -6q67 0 106.5 32.5t39.5 92.5q0 64 -50 135l88 43q64 -33 101 -89.5t37 -127.5q0 -106 -80.5 -176
t-212.5 -70q-69 0 -146 18z" />
    <glyph glyph-name="scedilla" unicode="&#x15f;" horiz-adv-x="931" 
d="M61 172l123 135q137 -143 283 -143q72 0 117 29t45 83q0 42 -31 66.5t-111 58.5l-102 43q-138 57 -200 123.5t-62 169.5q0 133 99 212t255 79q216 0 348 -156l-116 -133q-98 103 -236 103q-64 0 -100.5 -25t-36.5 -72q0 -37 28.5 -61.5t104.5 -56.5l96 -39
q146 -61 210.5 -130t64.5 -173q0 -146 -107 -228q-109 -80 -266 -80q-126 0 -231 52.5t-175 142.5zM217 -373v148q73 -6 117 -6q67 0 106 32.5t39 92.5q0 65 -49 135l88 43q64 -33 100.5 -89.5t36.5 -127.5q0 -106 -80.5 -176t-212.5 -70q-68 0 -145 18z" />
    <glyph glyph-name="Scaron" unicode="&#x160;" horiz-adv-x="1144" 
d="M74 270l153 117q72 -104 157.5 -159.5t197.5 -55.5q105 0 169 51t64 137q0 68 -43 109t-156 94l-149 70q-158 72 -236.5 159t-78.5 216q0 162 123.5 264t302.5 102q140 0 256 -65.5t180 -175.5l-152 -117q-111 164 -284 164q-89 0 -147 -43.5t-58 -120.5q5 -71 37.5 -102
t132.5 -82l6 -3t5.5 -3t6.5 -3l152 -69q169 -77 246 -166t77 -219q0 -175 -127.5 -283.5t-324.5 -108.5q-164 0 -297.5 77.5t-212.5 215.5zM782 1864h166l-303 -381h-137l-303 381h166l207 -193z" />
    <glyph glyph-name="scaron" unicode="&#x161;" horiz-adv-x="931" 
d="M61 172l123 135q137 -143 283 -143q72 0 117 29t45 83q0 42 -31 66.5t-111 58.5l-102 43q-138 57 -200 123.5t-62 169.5q0 133 99 212t255 79q216 0 348 -156l-116 -133q-98 103 -236 103q-64 0 -100.5 -25t-36.5 -72q0 -37 28.5 -61.5t104.5 -56.5l96 -39
q146 -61 210.5 -130t64.5 -173q0 -146 -107 -228q-109 -80 -266 -80q-126 0 -231 52.5t-175 142.5zM659 1597h160l-276 -434h-137l-279 434h162l186 -223z" />
    <glyph glyph-name="uni0162" unicode="&#x162;" horiz-adv-x="1193" 
d="M487 0v1157h-454v195h1128v-195h-456v-1157h-218zM322 -373v148q73 -6 116 -6q67 0 106.5 32.5t39.5 92.5q0 65 -49 135l88 43q64 -33 100.5 -89.5t36.5 -127.5q0 -106 -80.5 -176t-212.5 -70q-69 0 -145 18z" />
    <glyph glyph-name="uni0163" unicode="&#x163;" horiz-adv-x="815" 
d="M754 182v-182q-112 -23 -179 -23q-177 0 -273.5 88.5t-96.5 262.5v491h-164v187h164v264h217v-264h299v-187h-299v-473q0 -94 48.5 -134t150.5 -40q35 0 133 10zM186 -373v148q74 -6 117 -6q67 0 106.5 32.5t39.5 92.5q0 64 -50 135l88 43q64 -33 101 -89.5t37 -127.5
q0 -106 -80.5 -176t-212.5 -70q-70 0 -146 18z" />
    <glyph glyph-name="Tcaron" unicode="&#x164;" horiz-adv-x="1193" 
d="M487 0v1157h-454v195h1128v-195h-456v-1157h-218zM803 1864h166l-303 -381h-138l-303 381h166l207 -193z" />
    <glyph glyph-name="tcaron" unicode="&#x165;" horiz-adv-x="815" 
d="M754 182v-182q-112 -23 -179 -23q-177 0 -273.5 88.5t-96.5 262.5v491h-164v187h164v264h217v-264h299v-187h-299v-473q0 -94 48.5 -134t150.5 -40q35 0 133 10zM606 1110l19 426h227l-90 -426h-156z" />
    <glyph glyph-name="Tbar" unicode="&#x166;" horiz-adv-x="1193" 
d="M487 0v500h-378v182h378v475h-454v195h1128v-195h-456v-475h380v-182h-380v-500h-218z" />
    <glyph glyph-name="tbar" unicode="&#x167;" horiz-adv-x="843" 
d="M772 182v-182q-108 -23 -178 -23q-175 0 -272 88.5t-97 262.5v98h-166v178h166v223h-166v179h166v264h215v-264h299v-179h-299v-223h299v-178h-299v-80q0 -94 48 -134t149 -40q37 0 135 10z" />
    <glyph glyph-name="Utilde" unicode="&#x168;" horiz-adv-x="1421" 
d="M156 547v805h217v-820q0 -168 93.5 -262t246.5 -94q151 0 243.5 94t92.5 262v820h217v-805q0 -174 -72.5 -304.5t-197 -198t-283.5 -67.5q-247 0 -402 153.5t-155 416.5zM727 1550l-65 37q-61 37 -91 37q-28 0 -42.5 -20t-14.5 -54v-26h-172q-4 50 -4 59q0 104 58 172
t149 68q76 0 147 -45l68 -41q1 -1 19 -10.5t26 -13.5t22 -8.5t23 -4.5q57 0 57 72v30h172q4 -50 4 -59q0 -105 -58 -172.5t-146 -67.5q-72 0 -152 47z" />
    <glyph glyph-name="utilde" unicode="&#x169;" horiz-adv-x="1167" 
d="M145 422v584h213v-600q0 -103 64.5 -166.5t163.5 -63.5q95 0 158 63.5t63 166.5v600h215v-584q0 -199 -124 -322t-312 -123q-192 0 -316.5 122.5t-124.5 322.5zM596 1251l-55 41q-2 2 -14.5 11t-17.5 12.5t-15.5 9t-19 8t-17.5 2.5q-58 0 -58 -78v-28h-170q-4 54 -4 59
q0 109 56 176.5t147 67.5q76 0 143 -49l56 -41q53 -41 84 -41q57 0 57 78v28h170q2 -14 2 -59q0 -109 -56 -177.5t-147 -68.5q-73 0 -141 49z" />
    <glyph glyph-name="Umacron" unicode="&#x16a;" horiz-adv-x="1421" 
d="M156 547v805h217v-820q0 -168 93.5 -262t246.5 -94q151 0 243.5 94t92.5 262v820h217v-805q0 -174 -72.5 -304.5t-197 -198t-283.5 -67.5q-247 0 -402 153.5t-155 416.5zM395 1561v174h631v-174h-631z" />
    <glyph glyph-name="umacron" unicode="&#x16b;" horiz-adv-x="1167" 
d="M145 422v584h213v-600q0 -103 64.5 -166.5t163.5 -63.5q95 0 158 63.5t63 166.5v600h215v-584q0 -199 -124 -322t-312 -123q-192 0 -316.5 122.5t-124.5 322.5zM289 1294v172h590v-172h-590z" />
    <glyph glyph-name="Ubreve" unicode="&#x16c;" horiz-adv-x="1421" 
d="M156 547v805h217v-820q0 -168 93.5 -262t246.5 -94q151 0 243.5 94t92.5 262v820h217v-805q0 -174 -72.5 -304.5t-197 -198t-283.5 -67.5q-247 0 -402 153.5t-155 416.5zM379 1823v41h172v-41q0 -82 43 -130t115 -48q73 0 116 48t43 130v41h174v-41q0 -154 -94 -248
q-91 -94 -239 -94t-239 94t-91 248z" />
    <glyph glyph-name="ubreve" unicode="&#x16d;" horiz-adv-x="1167" 
d="M145 422v584h213v-600q0 -103 64.5 -166.5t163.5 -63.5q95 0 158 63.5t63 166.5v600h215v-584q0 -199 -124 -322t-312 -123q-192 0 -316.5 122.5t-124.5 322.5zM252 1511v60h172v-58q0 -82 43 -130t115 -48q73 0 116 48t43 130v58h174v-60q0 -151 -94 -245
q-92 -95 -239 -95q-146 0 -238 95t-92 245z" />
    <glyph glyph-name="Uring" unicode="&#x16e;" horiz-adv-x="1421" 
d="M156 547v805h217v-820q0 -168 93.5 -262t246.5 -94q151 0 243.5 94t92.5 262v820h217v-805q0 -174 -72.5 -304.5t-197 -198t-283.5 -67.5q-247 0 -402 153.5t-155 416.5zM467 1642q0 99 69.5 167.5t172.5 68.5q104 0 173.5 -68.5t69.5 -167.5q0 -100 -69.5 -167.5
t-173.5 -67.5t-173 67.5t-69 167.5zM803 1642q0 41 -26.5 68t-65.5 27q-41 0 -68 -27t-27 -68t27 -67.5t68 -26.5q39 0 65.5 26.5t26.5 67.5z" />
    <glyph glyph-name="uring" unicode="&#x16f;" horiz-adv-x="1167" 
d="M145 422v584h213v-600q0 -103 64.5 -166.5t163.5 -63.5q95 0 158 63.5t63 166.5v600h215v-584q0 -199 -124 -322t-312 -123q-192 0 -316.5 122.5t-124.5 322.5zM340 1370q0 101 70 168q70 70 172 70q104 0 173.5 -67.5t69.5 -170.5q0 -100 -69.5 -167.5t-173.5 -67.5
q-103 0 -172.5 67.5t-69.5 167.5zM676 1370q0 41 -26.5 68.5t-65.5 27.5q-41 0 -68 -27.5t-27 -68.5q0 -39 27 -65.5t68 -26.5q38 0 65 27t27 65z" />
    <glyph glyph-name="Uhungarumlaut" unicode="&#x170;" horiz-adv-x="1421" 
d="M156 547v805h217v-820q0 -168 93.5 -262t246.5 -94q151 0 243.5 94t92.5 262v820h217v-805q0 -174 -72.5 -304.5t-197 -198t-283.5 -67.5q-247 0 -402 153.5t-155 416.5zM379 1483l162 381h227v-39l-242 -342h-147zM846 1483l162 381h227v-39l-242 -342h-147z" />
    <glyph glyph-name="uhungarumlaut" unicode="&#x171;" horiz-adv-x="1167" 
d="M145 422v584h213v-600q0 -103 64.5 -166.5t163.5 -63.5q95 0 158 63.5t63 166.5v600h215v-584q0 -199 -124 -322t-312 -123q-192 0 -316.5 122.5t-124.5 322.5zM287 1163l162 434h227v-38l-242 -396h-147zM713 1163l161 434h228v-38l-242 -396h-147z" />
    <glyph glyph-name="Uogonek" unicode="&#x172;" horiz-adv-x="1421" 
d="M156 547v805h217v-820q0 -168 93.5 -262t246.5 -94q151 0 243.5 94t92.5 262v820h217v-805q0 -174 -72.5 -304.5t-197 -198t-283.5 -67.5q-247 0 -402 153.5t-155 416.5zM662 -201q0 78 45.5 142t201.5 198h207l-180 -186q-37 -37 -51.5 -61t-14.5 -54q0 -67 86 -67
q29 0 99 12v-150q-76 -24 -162 -24q-105 0 -168 51.5t-63 138.5z" />
    <glyph glyph-name="uogonek" unicode="&#x173;" horiz-adv-x="1167" 
d="M807 1006h215v-584q0 -100 -29 -176q-27 -72 -75 -125q-59 -62 -154 -148q-47 -44 -65.5 -71t-18.5 -58q0 -38 24.5 -57.5t67.5 -19.5q46 0 98 12v-141q-89 -29 -168 -29q-106 0 -165.5 46.5t-59.5 133.5q0 108 103 188q-190 3 -312.5 125.5t-122.5 319.5v584h213v-600
q0 -103 64.5 -166.5t163.5 -63.5q95 0 158 63.5t63 166.5v600z" />
    <glyph glyph-name="Wcircumflex" unicode="&#x174;" horiz-adv-x="2152" 
d="M1841 1352h238l-527 -1375h-71l-404 959l-403 -959h-74l-526 1375h239l338 -914l387 936h76l389 -936zM1448 1483h-166l-205 192l-207 -192h-165l303 381h137z" />
    <glyph glyph-name="wcircumflex" unicode="&#x175;" horiz-adv-x="1748" 
d="M1481 1006h229l-446 -1029h-74l-316 670l-315 -670h-74l-446 1029h229l264 -658l306 680h73l310 -672zM1217 1163h-160l-185 223l-186 -223h-162l279 434h137z" />
    <glyph glyph-name="Ycircumflex" unicode="&#x176;" horiz-adv-x="1269" 
d="M1210 1352l-467 -807v-545h-217v545l-467 807h242l334 -588l336 588h239zM1001 1483h-165l-205 192l-207 -192h-166l303 381h137z" />
    <glyph glyph-name="ycircumflex" unicode="&#x177;" horiz-adv-x="1124" 
d="M856 1006h229l-489 -1121q-63 -143 -151.5 -209.5t-217.5 -66.5q-87 0 -166 20v183q94 -9 119 -9q79 0 131.5 33t87.5 115l41 94l-401 961h231l289 -732zM905 1163h-160l-184 223l-186 -223h-162l279 434h137z" />
    <glyph glyph-name="Ydieresis" unicode="&#x178;" horiz-adv-x="1269" 
d="M1210 1352l-467 -807v-545h-217v545l-467 807h242l334 -588l336 588h239zM240 1663q0 55 41.5 94t97.5 39q60 0 99.5 -38t39.5 -95q0 -54 -41 -93.5t-98 -39.5q-56 0 -97.5 39.5t-41.5 93.5zM741 1661q0 55 42 95t98 40q57 0 98 -39t41 -96q0 -54 -41 -93.5t-98 -39.5
q-56 0 -98 39.5t-42 93.5z" />
    <glyph glyph-name="Zacute" unicode="&#x179;" horiz-adv-x="1204" 
d="M389 195h754v-195h-1090v59l750 1098h-662v195h1000v-60zM530 1483l162 381h262v-39l-264 -342h-160z" />
    <glyph glyph-name="zacute" unicode="&#x17a;" horiz-adv-x="944" 
d="M367 186h532v-186h-854v59l526 760h-479v187h803v-62zM408 1163l161 434h262v-38l-264 -396h-159z" />
    <glyph glyph-name="Zdotaccent" unicode="&#x17b;" horiz-adv-x="1204" 
d="M389 195h754v-195h-1090v59l750 1098h-662v195h1000v-60zM467 1663q0 61 42.5 102t104.5 41t104 -41t42 -102q0 -60 -43 -100.5t-103 -40.5q-62 0 -104.5 40.5t-42.5 100.5z" />
    <glyph glyph-name="zdotaccent" unicode="&#x17c;" horiz-adv-x="944" 
d="M367 186h532v-186h-854v59l526 760h-479v187h803v-62zM340 1380q0 60 43 102t104 42q60 0 103 -42t43 -102t-43 -100.5t-103 -40.5q-62 0 -104.5 40.5t-42.5 100.5z" />
    <glyph glyph-name="Zcaron" unicode="&#x17d;" horiz-adv-x="1204" 
d="M389 195h754v-195h-1090v59l750 1098h-662v195h1000v-60zM819 1864h166l-303 -381h-137l-303 381h166l206 -193z" />
    <glyph glyph-name="zcaron" unicode="&#x17e;" horiz-adv-x="944" 
d="M367 186h532v-186h-854v59l526 760h-479v187h803v-62zM674 1597h160l-277 -434h-137l-279 434h162l186 -223z" />
    <glyph glyph-name="uni018F" unicode="&#x18f;" horiz-adv-x="1499" 
d="M1409 680q2 -142 -51.5 -273.5t-145.5 -226t-219 -150t-266 -53.5q-174 -2 -321 75.5t-234 219t-84 314.5q0 64 16 162h1080q-21 192 -144 309q-119 119 -307 119q-263 0 -426 -218l-147 125q99 139 245.5 215t327.5 76q188 3 345 -91t245.5 -254.5t85.5 -348.5z
M1178 563h-877q0 -174 126 -280.5t306 -106.5q171 0 292 106.5t153 280.5z" />
    <glyph glyph-name="florin" unicode="&#x192;" horiz-adv-x="915" 
d="M911 1356v-180q-86 4 -92 4q-93 0 -139.5 -40.5t-58.5 -133.5l-23 -183h203v-186h-226l-67 -559q-44 -350 -371 -350q-58 0 -133 16l-2 182q52 -6 92 -6q93 0 141 41.5t60 134.5l65 541h-188v186h211l25 201q47 350 370 350q84 0 133 -18z" />
    <glyph glyph-name="uni01D4" unicode="&#x1d4;" horiz-adv-x="1167" 
d="M145 422v584h213v-600q0 -103 64.5 -166.5t163.5 -63.5q95 0 158 63.5t63 166.5v600h215v-584q0 -199 -124 -322t-312 -123q-192 0 -316.5 122.5t-124.5 322.5zM770 1597h160l-277 -434h-137l-278 434h161l187 -223z" />
    <glyph glyph-name="AEacute" unicode="&#x1fc;" horiz-adv-x="1712" 
d="M1128 195h502v-195h-684l-39 225h-536l-119 -225h-234l701 1352h887v-195h-637l57 -346h416v-188h-385zM776 1034l-309 -622h407zM774 1483l162 381h262v-39l-264 -342h-160z" />
    <glyph glyph-name="aeacute" unicode="&#x1fd;" horiz-adv-x="1816" 
d="M1708 418h-747q25 -117 111.5 -183.5t213.5 -66.5q159 0 291 117l104 -146q-167 -162 -399 -162q-138 0 -250 58.5t-182 163.5q-55 -107 -161.5 -164.5t-244.5 -57.5q-166 0 -264 81.5t-98 213.5q0 136 102 218.5t269 82.5h284v48q0 103 -56 159t-157 56
q-80 0 -146.5 -37t-131.5 -113l-125 127q154 215 422 215q238 0 338 -178q68 85 166.5 131.5t214.5 46.5q200 0 331 -132t131 -331q0 -85 -16 -147zM956 573h553q7 122 -65.5 197.5t-190.5 75.5q-115 0 -196 -74.5t-101 -198.5zM737 379v39h-258q-86 0 -132 -33t-46 -96
q0 -67 48.5 -105.5t127.5 -38.5q107 0 185 66q75 66 75 168zM801 1163l162 434h262v-38l-264 -396h-160z" />
    <glyph glyph-name="Oslashacute" unicode="&#x1fe;" horiz-adv-x="1597" 
d="M1522 1270l-164 -164q149 -182 149 -430q4 -189 -93.5 -352t-262.5 -256.5t-354 -90.5q-236 0 -426 138l-164 -164l-131 131l160 162q-148 195 -148 432q-2 142 54.5 272.5t153 224.5t228 148.5t273.5 52.5q238 0 430 -139l164 166zM303 678q0 -160 80 -287l702 705
q-125 88 -286 88q-212 0 -354 -144.5t-142 -361.5zM1292 678q0 156 -80 283l-702 -705q125 -88 289 -88q211 0 352 145t141 365zM715 1483l162 381h262v-39l-265 -342h-159z" />
    <glyph glyph-name="oslashacute" unicode="&#x1ff;" horiz-adv-x="1261" 
d="M1182 922l-115 -115q96 -137 96 -305q3 -140 -70 -262.5t-197.5 -194t-266.5 -68.5q-162 0 -301 91l-115 -117l-131 131l115 115q-99 138 -99 305q0 144 71 265t193.5 191t268.5 70q164 0 303 -92l117 115zM303 502q0 -101 43 -174l463 465q-82 49 -178 49
q-142 0 -236 -97q-92 -95 -92 -243zM958 502q0 98 -40 174l-467 -465q77 -51 178 -51q141 0 235 97.5t94 244.5zM555 1163l162 434h262v-38l-264 -396h-160z" />
    <glyph glyph-name="uni0218" unicode="&#x218;" horiz-adv-x="1144" 
d="M74 270l153 117q72 -104 157.5 -159.5t197.5 -55.5q105 0 169 51t64 137q0 68 -43 109t-156 94l-149 70q-158 72 -236.5 159t-78.5 216q0 162 123.5 264t302.5 102q140 0 256 -65.5t180 -175.5l-152 -117q-111 164 -284 164q-89 0 -147 -43.5t-58 -120.5q5 -71 37.5 -102
t132.5 -82l6 -3t5.5 -3t6.5 -3l152 -69q169 -77 246 -166t77 -219q0 -175 -127.5 -283.5t-324.5 -108.5q-164 0 -297.5 77.5t-212.5 215.5zM475 -451l14 353h205l-51 -353h-168z" />
    <glyph glyph-name="uni0219" unicode="&#x219;" horiz-adv-x="931" 
d="M61 172l123 135q137 -143 283 -143q72 0 117 29t45 83q0 42 -31 66.5t-111 58.5l-102 43q-138 57 -200 123.5t-62 169.5q0 133 99 212t255 79q216 0 348 -156l-116 -133q-98 103 -236 103q-64 0 -100.5 -25t-36.5 -72q0 -37 28.5 -61.5t104.5 -56.5l96 -39
q146 -61 210.5 -130t64.5 -173q0 -146 -107 -228q-109 -80 -266 -80q-126 0 -231 52.5t-175 142.5zM377 -451l14 353h205l-51 -353h-168z" />
    <glyph glyph-name="uni021A" unicode="&#x21a;" horiz-adv-x="1193" 
d="M487 0v1157h-454v195h1128v-195h-456v-1157h-218zM481 -451l15 353h204l-51 -353h-168z" />
    <glyph glyph-name="uni021B" unicode="&#x21b;" horiz-adv-x="815" 
d="M754 182v-182q-112 -23 -179 -23q-177 0 -273.5 88.5t-96.5 262.5v491h-164v187h164v264h217v-264h299v-187h-299v-473q0 -94 48.5 -134t150.5 -40q35 0 133 10zM346 -451l14 353h205l-51 -353h-168z" />
    <glyph glyph-name="uni0237" unicode="&#x237;" horiz-adv-x="526" 
d="M-125 -373v183q58 -7 88 -7q99 0 146 41t47 133v1029h215v-1047q0 -173 -94 -261.5t-263 -88.5q-84 0 -139 18z" />
    <glyph glyph-name="uni0259" unicode="&#x259;" horiz-adv-x="1167" 
d="M1077 504q0 -221 -147 -374t-365 -153q-203 0 -338 131.5t-135 329.5q0 72 14 135h750q-20 125 -103 195t-212 70q-171 0 -305 -119l-103 147q171 162 412 162q151 0 273 -69.5t190.5 -189.5t68.5 -265zM854 406h-547q1 -113 76 -179.5t190 -66.5q106 0 182 66.5
t99 179.5z" />
    <glyph glyph-name="circumflex" unicode="&#x2c6;" horiz-adv-x="1228" 
d="M961 1163h-160l-185 223l-186 -223h-162l279 434h137z" />
    <glyph glyph-name="caron" unicode="&#x2c7;" horiz-adv-x="1228" 
d="M801 1597h160l-277 -434h-137l-279 434h162l186 -223z" />
    <glyph glyph-name="breve" unicode="&#x2d8;" horiz-adv-x="1228" 
d="M283 1511v60h172v-58q0 -82 42.5 -130t114.5 -48q73 0 116.5 48t43.5 130v58h174v-60q0 -151 -94 -245q-92 -95 -240 -95q-145 0 -237 95t-92 245z" />
    <glyph glyph-name="dotaccent" unicode="&#x2d9;" horiz-adv-x="1228" 
d="M467 1380q0 60 43 102t104 42q60 0 103 -42t43 -102t-43 -100.5t-103 -40.5q-62 0 -104.5 40.5t-42.5 100.5z" />
    <glyph glyph-name="ring" unicode="&#x2da;" horiz-adv-x="1228" 
d="M371 1370q0 102 69 168q70 70 172 70q105 0 174.5 -67.5t69.5 -170.5q0 -100 -70 -167.5t-174 -67.5q-103 0 -172 67.5t-69 167.5zM707 1370q0 41 -27 68.5t-66 27.5q-41 0 -67.5 -27.5t-26.5 -68.5q0 -39 26.5 -65.5t67.5 -26.5q38 0 65.5 27t27.5 65z" />
    <glyph glyph-name="ogonek" unicode="&#x2db;" horiz-adv-x="1228" 
d="M418 -201q0 84 68.5 148t238.5 143l86 -90l-92 -59q-42 -29 -56 -40t-25 -27t-11 -36q0 -32 22.5 -49.5t63.5 -17.5q27 0 98 12v-150q-83 -24 -162 -24q-106 0 -168.5 52t-62.5 138z" />
    <glyph glyph-name="tilde" unicode="&#x2dc;" horiz-adv-x="1228" 
d="M627 1251l-56 41q-2 2 -14.5 11t-17.5 12.5t-15.5 9t-19 8t-17.5 2.5q-57 0 -57 -78v-28h-170q-4 54 -4 59q0 109 56 176.5t147 67.5q76 0 143 -49l55 -41q53 -41 84 -41q58 0 58 78v28h170q2 -14 2 -59q0 -109 -56 -177.5t-147 -68.5q-73 0 -141 49z" />
    <glyph glyph-name="hungarumlaut" unicode="&#x2dd;" horiz-adv-x="1228" 
d="M207 1163l162 434h227v-38l-242 -396h-147zM633 1163l162 434h227v-38l-242 -396h-147z" />
    <glyph glyph-name="gravecomb" unicode="&#x300;" horiz-adv-x="0" 
d="M-461 1163l-264 396v38h262l162 -434h-160z" />
    <glyph glyph-name="acutecomb" unicode="&#x301;" horiz-adv-x="0" 
d="M-725 1163l162 434h262v-38l-264 -396h-160z" />
    <glyph glyph-name="uni0302" unicode="&#x302;" horiz-adv-x="0" 
d="M-166 1163h-160l-184 223l-186 -223h-162l278 434h138z" />
    <glyph glyph-name="tildecomb" unicode="&#x303;" horiz-adv-x="0" 
d="M-500 1251l-55 41q-2 2 -14.5 11t-17.5 12.5t-15.5 9t-19 8t-17.5 2.5q-57 0 -57 -78v-28h-170q-4 54 -4 59q0 109 55.5 176.5t146.5 67.5q77 0 144 -49l55 -41q53 -41 84 -41q57 0 57 78v28h170q2 -14 2 -59q0 -109 -56 -177.5t-146 -68.5q-74 0 -142 49z" />
    <glyph glyph-name="uni0304" unicode="&#x304;" horiz-adv-x="0" 
d="M-807 1294v172h590v-172h-590z" />
    <glyph glyph-name="uni0306" unicode="&#x306;" horiz-adv-x="0" 
d="M-844 1511v60h172v-58q0 -82 43 -130t115 -48q73 0 116.5 48t43.5 130v58h174v-60q0 -150 -92 -245q-95 -95 -242 -95q-146 0 -238 95t-92 245z" />
    <glyph glyph-name="uni0307" unicode="&#x307;" horiz-adv-x="0" 
d="M-659 1380q0 60 43 102t104 42q60 0 102.5 -42t42.5 -102t-42.5 -100.5t-102.5 -40.5q-62 0 -104.5 40.5t-42.5 100.5z" />
    <glyph glyph-name="uni0308" unicode="&#x308;" horiz-adv-x="0" 
d="M-883 1380q0 55 42.5 95.5t99.5 40.5t97 -39.5t40 -96.5q0 -54 -40 -93.5t-97 -39.5t-99.5 39.5t-42.5 93.5zM-422 1380q0 55 42 95.5t99 40.5q56 0 97 -40.5t41 -95.5q0 -54 -41 -93.5t-97 -39.5q-57 0 -99 39.5t-42 93.5z" />
    <glyph glyph-name="uni030A" unicode="&#x30a;" horiz-adv-x="0" 
d="M-756 1370q0 101 70 168q70 70 172 70q105 0 174.5 -67.5t69.5 -170.5q0 -100 -70 -167.5t-174 -67.5q-103 0 -172.5 67.5t-69.5 167.5zM-420 1370q0 41 -26.5 68.5t-65.5 27.5q-41 0 -67.5 -27.5t-26.5 -68.5q0 -39 26.5 -65.5t67.5 -26.5q38 0 65 27t27 65z" />
    <glyph glyph-name="uni030B" unicode="&#x30b;" horiz-adv-x="0" 
d="M-920 1163l162 434h228v-38l-242 -396h-148zM-494 1163l162 434h228v-38l-242 -396h-148z" />
    <glyph glyph-name="uni030C" unicode="&#x30c;" horiz-adv-x="0" 
d="M-326 1597h160l-276 -434h-138l-278 434h162l186 -223z" />
    <glyph glyph-name="uni0326" unicode="&#x326;" horiz-adv-x="0" 
d="M-623 -451l15 353h205l-52 -353h-168z" />
    <glyph glyph-name="uni0327" unicode="&#x327;" horiz-adv-x="0" 
d="M-731 -373v148q73 -6 117 -6q67 0 106 32.5t39 92.5q0 65 -49 135l88 43q64 -33 100.5 -89.5t36.5 -127.5q0 -106 -80.5 -176t-212.5 -70q-68 0 -145 18z" />
    <glyph glyph-name="uni0328" unicode="&#x328;" horiz-adv-x="0" 
d="M-709 -201q0 84 69 148t239 143l86 -90l-93 -59q-42 -29 -56 -40t-25 -27t-11 -36q0 -32 22.5 -49.5t63.5 -17.5q28 0 99 12v-150q-83 -24 -162 -24q-106 0 -169 52t-63 138z" />
    <glyph glyph-name="tonos" unicode="&#x384;" horiz-adv-x="1024" 
d="M348 1163l68 434h258v-38l-164 -396h-162z" />
    <glyph glyph-name="dieresistonos" unicode="&#x385;" horiz-adv-x="1024" 
d="M358 1163l82 434h252v-38l-178 -396h-156zM25 1380q0 56 41 96t96 40q57 0 98 -39.5t41 -96.5q0 -54 -41 -93.5t-98 -39.5q-54 0 -95.5 39.5t-41.5 93.5zM723 1380q0 57 40.5 96.5t96.5 39.5q57 0 97 -39.5t40 -96.5q0 -54 -40 -93.5t-97 -39.5q-54 0 -95.5 39.5
t-41.5 93.5z" />
    <glyph glyph-name="Alphatonos" unicode="&#x386;" horiz-adv-x="1355" 
d="M1077 0l-96 225h-608l-97 -225h-231l596 1374h74l596 -1374h-234zM903 412l-225 559l-227 -559h452zM29 926l18 426h227l-90 -426h-155z" />
    <glyph glyph-name="anoteleia" unicode="&#x387;" horiz-adv-x="573" 
d="M127 649q0 67 47 113.5t115 46.5t112.5 -45.5t44.5 -114.5q0 -67 -45 -112t-112 -45q-68 0 -115 45t-47 112z" />
    <glyph glyph-name="Epsilontonos" unicode="&#x388;" horiz-adv-x="1165" 
d="M170 0v1352h889v-195h-672v-346h506v-188h-506v-428h696v-195h-913zM-246 926l19 426h227l-90 -426h-156z" />
    <glyph glyph-name="Etatonos" unicode="&#x389;" horiz-adv-x="1456" 
d="M170 0v1352h217v-539h680v539h217v-1352h-217v618h-680v-618h-217zM-246 926l19 426h227l-90 -426h-156z" />
    <glyph glyph-name="Iotatonos" unicode="&#x38a;" horiz-adv-x="557" 
d="M170 0v1352h217v-1352h-217zM-246 926l19 426h227l-90 -426h-156z" />
    <glyph glyph-name="Omicrontonos" unicode="&#x38c;" horiz-adv-x="1597" 
d="M88 676q-2 142 54.5 272.5t153 224.5t228 148.5t273.5 52.5q141 2 273 -53t229 -148.5t154 -224t54 -272.5q4 -189 -93.5 -352t-262.5 -256.5t-354 -90.5q-143 -2 -275 53t-228 148.5t-152.5 224.5t-53.5 273zM1284 678q0 212 -139 355t-346 143q-210 0 -348 -142
t-138 -356q0 -217 137.5 -359.5t348.5 -142.5q208 0 346.5 143t138.5 359zM-156 926l19 426h227l-90 -426h-156z" />
    <glyph glyph-name="Upsilontonos" unicode="&#x38e;" horiz-adv-x="1269" 
d="M1210 1352l-467 -807v-545h-217v545l-467 807h242l334 -588l336 588h239zM-289 926l19 426h227l-90 -426h-156z" />
    <glyph glyph-name="Omegatonos" unicode="&#x38f;" horiz-adv-x="1617" 
d="M1233 195h264v-195h-565v195q178 85 270 212t92 289q0 208 -137.5 344t-349.5 136t-347.5 -135t-135.5 -343q0 -330 362 -503v-195h-567v195h256q-277 203 -277 512q-4 182 91.5 337t260.5 244t357 86q144 3 277 -49.5t229 -143t152 -215t53 -259.5q0 -155 -69 -279
t-216 -233zM-133 926l18 426h228l-90 -426h-156z" />
    <glyph glyph-name="iotadieresistonos" unicode="&#x390;" horiz-adv-x="651" 
d="M150 315v691h217v-660q0 -92 35 -133t114 -41q34 0 119 10v-182q-97 -23 -168 -23q-317 0 -317 338zM127 1163l82 434h252v-38l-178 -396h-156zM-207 1380q0 56 41 96t96 40q57 0 98.5 -39.5t41.5 -96.5q0 -54 -41.5 -93.5t-98.5 -39.5q-54 0 -95.5 39.5t-41.5 93.5z
M492 1380q0 57 40.5 96.5t96.5 39.5q57 0 97 -39.5t40 -96.5q0 -54 -40 -93.5t-97 -39.5q-54 0 -95.5 39.5t-41.5 93.5z" />
    <glyph glyph-name="Alpha" unicode="&#x391;" horiz-adv-x="1355" 
d="M1077 0l-96 225h-608l-97 -225h-231l596 1374h74l596 -1374h-234zM903 412l-225 559l-227 -559h452z" />
    <glyph glyph-name="Beta" unicode="&#x392;" horiz-adv-x="1265" 
d="M1188 393q0 -172 -121 -282.5t-317 -110.5h-580v1352h473q181 0 293.5 -101.5t112.5 -259.5t-113 -254q119 -38 185.5 -129t66.5 -215zM623 1161h-240v-364h240q99 0 153.5 49t54.5 135q0 85 -54.5 132.5t-153.5 47.5zM969 399q0 97 -63 154t-175 57h-348v-420h348
q112 0 175 56t63 153z" />
    <glyph glyph-name="Gamma" unicode="&#x393;" horiz-adv-x="1054" 
d="M170 0v1352h836v-195h-619v-1157h-217z" />
    <glyph glyph-name="uni0394" unicode="&#x394;" horiz-adv-x="1355" 
d="M715 1374l569 -1315v-59h-1212v59l569 1315h74zM995 195l-317 745l-320 -745h637z" />
    <glyph glyph-name="Epsilon" unicode="&#x395;" horiz-adv-x="1165" 
d="M170 0v1352h889v-195h-672v-346h506v-188h-506v-428h696v-195h-913z" />
    <glyph glyph-name="Zeta" unicode="&#x396;" horiz-adv-x="1204" 
d="M389 195h754v-195h-1090v59l750 1098h-662v195h1000v-60z" />
    <glyph glyph-name="Eta" unicode="&#x397;" horiz-adv-x="1456" 
d="M170 0v1352h217v-539h680v539h217v-1352h-217v618h-680v-618h-217z" />
    <glyph glyph-name="Theta" unicode="&#x398;" horiz-adv-x="1597" 
d="M88 676q-2 142 54.5 272.5t153 224.5t228 148.5t273.5 52.5q141 2 273 -53t229 -148.5t154 -224t54 -272.5q4 -189 -93.5 -352t-262.5 -256.5t-354 -90.5q-143 -2 -275 53t-228 148.5t-152.5 224.5t-53.5 273zM1296 676q0 219 -142 364.5t-357 145.5
q-213 0 -354.5 -145.5t-141.5 -364.5q0 -221 141.5 -365.5t354.5 -144.5t356 145t143 365zM494 580v186h612v-186h-612z" />
    <glyph glyph-name="Iota" unicode="&#x399;" horiz-adv-x="557" 
d="M170 0v1352h217v-1352h-217z" />
    <glyph glyph-name="Kappa" unicode="&#x39a;" horiz-adv-x="1333" 
d="M170 0v1352h217v-1352h-217zM666 719l622 -719h-268l-627 719l568 633h266z" />
    <glyph glyph-name="Lambda" unicode="&#x39b;" horiz-adv-x="1355" 
d="M1311 0h-234l-399 944l-402 -944h-231l596 1374h74z" />
    <glyph glyph-name="Mu" unicode="&#x39c;" horiz-adv-x="1624" 
d="M1380 1374h74v-1374h-217v848l-387 -508h-74l-389 510v-850h-217v1374h76l567 -756z" />
    <glyph glyph-name="Nu" unicode="&#x39d;" horiz-adv-x="1456" 
d="M1067 1352h217v-1375h-74l-823 938v-915h-217v1374h76l821 -934v912z" />
    <glyph glyph-name="Xi" unicode="&#x39e;" horiz-adv-x="1275" 
d="M82 1157v195h1112v-195h-1112zM223 578v196h832v-196h-832zM82 0v195h1112v-195h-1112z" />
    <glyph glyph-name="Omicron" unicode="&#x39f;" horiz-adv-x="1597" 
d="M88 676q-2 142 54.5 272.5t153 224.5t228 148.5t273.5 52.5q141 2 273 -53t229 -148.5t154 -224t54 -272.5q4 -189 -93.5 -352t-262.5 -256.5t-354 -90.5q-143 -2 -275 53t-228 148.5t-152.5 224.5t-53.5 273zM1284 678q0 212 -139 355t-346 143q-210 0 -348 -142
t-138 -356q0 -217 137.5 -359.5t348.5 -142.5q208 0 346.5 143t138.5 359z" />
    <glyph glyph-name="Pi" unicode="&#x3a0;" horiz-adv-x="1404" 
d="M170 0v1352h1065v-1352h-217v1157h-631v-1157h-217z" />
    <glyph glyph-name="Rho" unicode="&#x3a1;" horiz-adv-x="1193" 
d="M170 0v1352h494q204 0 331 -115.5t127 -298.5q0 -182 -127.5 -299t-330.5 -117h-277v-522h-217zM387 715h272q114 0 177 60t63 161q0 102 -63 162.5t-177 60.5h-272v-444z" />
    <glyph glyph-name="Sigma" unicode="&#x3a3;" horiz-adv-x="1171" 
d="M436 195h654v-195h-986v59l459 633l-459 600v60h961v-195h-621l342 -444v-37z" />
    <glyph glyph-name="Tau" unicode="&#x3a4;" horiz-adv-x="1193" 
d="M487 0v1157h-454v195h1128v-195h-456v-1157h-218z" />
    <glyph glyph-name="Upsilon" unicode="&#x3a5;" horiz-adv-x="1269" 
d="M1210 1352l-467 -807v-545h-217v545l-467 807h242l334 -588l336 588h239z" />
    <glyph glyph-name="Phi" unicode="&#x3a6;" horiz-adv-x="1673" 
d="M944 35v-121h-217v121q-181 6 -327 90t-229 229.5t-83 323.5t83 322t228.5 226.5t327.5 88.5v123h217v-123q182 -4 328.5 -87t229.5 -227.5t83 -322.5q0 -180 -83.5 -326t-230 -229.5t-327.5 -87.5zM1366 672q0 194 -119 321t-303 133v-901q185 6 303.5 131t118.5 316z
M727 225v901q-183 -6 -301.5 -133t-118.5 -321q0 -191 118.5 -316t301.5 -131z" />
    <glyph glyph-name="Chi" unicode="&#x3a7;" horiz-adv-x="1243" 
d="M1196 0h-248l-327 504l-326 -504h-250l457 690l-428 662h250l299 -478l295 478h247l-420 -662z" />
    <glyph glyph-name="Psi" unicode="&#x3a8;" horiz-adv-x="1603" 
d="M694 0v305q-266 23 -415.5 181.5t-149.5 422.5v443h217v-439q0 -178 94.5 -288t253.5 -121v848h217v-848q159 11 252.5 121t93.5 288v439h218v-443q0 -264 -149 -422.5t-415 -181.5v-305h-217z" />
    <glyph glyph-name="uni03A9" unicode="&#x3a9;" horiz-adv-x="1617" 
d="M1233 195h264v-195h-565v195q178 85 270 212t92 289q0 208 -137.5 344t-349.5 136t-347.5 -135t-135.5 -343q0 -330 362 -503v-195h-567v195h256q-277 203 -277 512q-4 182 91.5 337t260.5 244t357 86q144 3 277 -49.5t229 -143t152 -215t53 -259.5q0 -155 -69 -279
t-216 -233z" />
    <glyph glyph-name="Iotadieresis" unicode="&#x3aa;" horiz-adv-x="557" 
d="M170 0v1352h217v-1352h-217zM-111 1663q0 55 42 94t98 39q60 0 99.5 -38t39.5 -95q0 -54 -41 -93.5t-98 -39.5q-56 0 -98 39.5t-42 93.5zM391 1661q0 55 41.5 95t97.5 40q57 0 98.5 -39t41.5 -96q0 -54 -41.5 -93.5t-98.5 -39.5q-56 0 -97.5 39.5t-41.5 93.5z" />
    <glyph glyph-name="Upsilondieresis" unicode="&#x3ab;" horiz-adv-x="1269" 
d="M1210 1352l-467 -807v-545h-217v545l-467 807h242l334 -588l336 588h239zM244 1663q0 55 41.5 94t97.5 39q60 0 99.5 -38t39.5 -95q0 -54 -41 -93.5t-98 -39.5q-56 0 -97.5 39.5t-41.5 93.5zM745 1661q0 55 42 95t98 40q57 0 98 -39t41 -96q0 -54 -41 -93.5t-98 -39.5
q-56 0 -98 39.5t-42 93.5z" />
    <glyph glyph-name="alphatonos" unicode="&#x3ac;" horiz-adv-x="1318" 
d="M1221 176l59 4v-180q-66 -16 -129 -16q-178 0 -227 161q-54 -80 -145.5 -124t-203.5 -44q-139 0 -250 69t-172 189t-61 267q0 225 137.5 375.5t345.5 150.5q115 0 208 -48t147 -134l10 160h201q-21 -307 -21 -476v-219q0 -135 101 -135zM907 502q0 153 -86 241t-211 88
q-129 0 -215 -92q-84 -93 -84 -235q0 -144 85.5 -237t213.5 -93q124 0 210.5 87t86.5 241zM492 1163l67 434h258v-38l-164 -396h-161z" />
    <glyph glyph-name="epsilontonos" unicode="&#x3ad;" horiz-adv-x="1046" 
d="M834 297l131 -129q-141 -191 -441 -191q-209 0 -319.5 74.5t-110.5 214.5q0 88 48.5 152.5t136.5 93.5q-68 37 -105 95.5t-37 131.5q0 135 106 212t294 77q279 0 415 -174l-131 -129q-101 113 -278 113q-189 0 -189 -129q0 -117 158 -117h197v-172h-199
q-105 0 -153 -28.5t-48 -90.5q0 -72 49 -102.5t166 -30.5q106 0 180.5 31t129.5 98zM422 1163l67 434h259v-38l-164 -396h-162z" />
    <glyph glyph-name="etatonos" unicode="&#x3ae;" horiz-adv-x="1222" 
d="M1077 629v-998h-215v967q0 105 -60 169t-159 64q-100 0 -164.5 -65.5t-64.5 -167.5v-598h-213v694q0 133 -103 133l-59 -2v181q62 16 129 16q158 0 211 -123q120 129 317 129q174 0 277.5 -108t103.5 -291zM530 1163l68 434h258v-38l-164 -396h-162z" />
    <glyph glyph-name="iotatonos" unicode="&#x3af;" horiz-adv-x="651" 
d="M150 315v691h217v-660q0 -92 35 -133t114 -41q34 0 119 10v-182q-97 -23 -168 -23q-317 0 -317 338zM147 1163l68 434h258v-38l-164 -396h-162z" />
    <glyph glyph-name="upsilondieresistonos" unicode="&#x3b0;" horiz-adv-x="1183" 
d="M145 430v576h215v-592q0 -106 65 -174t167 -68t166.5 68t64.5 174v592h215v-576q0 -203 -122.5 -328t-323.5 -125t-324 125t-123 328zM451 1163l81 434h252v-38l-178 -396h-155zM117 1380q0 56 41 96t96 40q57 0 98 -39.5t41 -96.5q0 -54 -41 -93.5t-98 -39.5
q-54 0 -95.5 39.5t-41.5 93.5zM815 1380q0 57 40.5 96.5t96.5 39.5q57 0 97.5 -39.5t40.5 -96.5q0 -54 -40.5 -93.5t-97.5 -39.5q-54 0 -95.5 39.5t-41.5 93.5z" />
    <glyph glyph-name="alpha" unicode="&#x3b1;" horiz-adv-x="1318" 
d="M1221 176l59 4v-180q-66 -16 -129 -16q-178 0 -227 161q-54 -80 -145.5 -124t-203.5 -44q-139 0 -250 69t-172 189t-61 267q0 225 137.5 375.5t345.5 150.5q115 0 208 -48t147 -134l10 160h201q-21 -307 -21 -476v-219q0 -135 101 -135zM907 502q0 153 -86 241t-211 88
q-129 0 -215 -92q-84 -93 -84 -235q0 -144 85.5 -237t213.5 -93q124 0 210.5 87t86.5 241z" />
    <glyph glyph-name="beta" unicode="&#x3b2;" horiz-adv-x="1261" 
d="M1169 449q0 -204 -137 -338t-346 -134q-182 0 -315 109v-455h-215v1481q0 198 131.5 324.5t335.5 126.5q188 0 311 -110.5t123 -276.5q0 -102 -45 -183t-125 -129q131 -48 206.5 -157.5t75.5 -257.5zM950 455q0 129 -81.5 207.5t-215.5 78.5h-123v185h86q99 0 157 60.5
t58 164.5q0 94 -60.5 153.5t-156.5 59.5q-109 0 -176 -71.5t-67 -188.5v-807q121 -121 288 -121q130 0 210.5 77t80.5 202z" />
    <glyph glyph-name="gamma" unicode="&#x3b3;" 
d="M1108 1006l-426 -1039v-336h-215v336l-428 1039h229l305 -783l306 783h229z" />
    <glyph glyph-name="delta" unicode="&#x3b4;" horiz-adv-x="1228" 
d="M1137 496q0 -142 -69.5 -261.5t-190.5 -188.5t-265 -69t-263.5 67t-188 185t-68.5 260q0 206 139.5 351.5t348.5 154.5l-467 482v59h958v-199h-543l381 -391q122 -128 175 -231.5t53 -218.5zM915 487q0 141 -86 230q-87 90 -219 90q-131 0 -215 -90t-84 -228
q0 -139 84 -226t219 -87q133 0 217 87t84 224z" />
    <glyph glyph-name="epsilon" unicode="&#x3b5;" horiz-adv-x="1046" 
d="M834 297l131 -129q-141 -191 -441 -191q-209 0 -319.5 74.5t-110.5 214.5q0 88 48.5 152.5t136.5 93.5q-68 37 -105 95.5t-37 131.5q0 135 106 212t294 77q279 0 415 -174l-131 -129q-101 113 -278 113q-189 0 -189 -129q0 -117 158 -117h197v-172h-199
q-105 0 -153 -28.5t-48 -90.5q0 -72 49 -102.5t166 -30.5q106 0 180.5 31t129.5 98z" />
    <glyph glyph-name="zeta" unicode="&#x3b6;" horiz-adv-x="950" 
d="M961 1477l-433 -625q-126 -179 -172 -266q-47 -86 -47 -158q0 -96 59 -152t195 -88l88 -20q129 -30 199 -112.5t70 -200.5q0 -117 -58 -224h-213q51 92 51 176q0 78 -42 121.5t-134 67.5l-92 22q-166 41 -253 141t-87 247q0 102 58 212q53 103 215 343l262 376h-516v199
h850v-59z" />
    <glyph glyph-name="eta" unicode="&#x3b7;" horiz-adv-x="1222" 
d="M1077 629v-998h-215v967q0 105 -60 169t-159 64q-100 0 -164.5 -65.5t-64.5 -167.5v-598h-213v694q0 133 -103 133l-59 -2v181q62 16 129 16q158 0 211 -123q120 129 317 129q174 0 277.5 -108t103.5 -291z" />
    <glyph glyph-name="theta" unicode="&#x3b8;" horiz-adv-x="1288" 
d="M1188 772q0 -380 -143.5 -587.5t-401.5 -207.5t-400.5 206t-142.5 589q0 379 142.5 583t400.5 204q259 0 402 -204t143 -583zM322 868h643q-13 245 -95.5 368.5t-226.5 123.5q-143 0 -225.5 -124t-95.5 -368zM965 674h-643q13 -248 95.5 -374t225.5 -126t226 125.5
t96 374.5z" />
    <glyph glyph-name="iota" unicode="&#x3b9;" horiz-adv-x="651" 
d="M150 315v691h217v-660q0 -92 35 -133t114 -41q34 0 119 10v-182q-97 -23 -168 -23q-317 0 -317 338z" />
    <glyph glyph-name="kappa" unicode="&#x3ba;" horiz-adv-x="1093" 
d="M156 0v1006h215v-1006h-215zM641 539l434 -539h-256l-440 539l409 467h265z" />
    <glyph glyph-name="lambda" unicode="&#x3bb;" 
d="M1079 180h47v-180q-56 -16 -100 -16q-88 0 -141 45t-90 151l-217 594l-334 -774h-230l459 1026l-59 174q-29 88 -72.5 126t-116.5 38q-37 0 -102 -6v182q59 19 141 19q126 0 205.5 -68.5t134.5 -216.5l373 -1000q34 -94 102 -94z" />
    <glyph glyph-name="uni03BC" unicode="&#x3bc;" horiz-adv-x="1232" 
d="M1137 176l57 4v-180q-62 -16 -127 -16q-148 0 -205 112q-92 -119 -252 -119q-151 0 -239 107v-453h-215v1375h215v-590q0 -106 62.5 -174t160.5 -68q99 0 162 68t63 174v590h215v-691q0 -72 24.5 -105.5t78.5 -33.5z" />
    <glyph glyph-name="nu" unicode="&#x3bd;" horiz-adv-x="1124" 
d="M856 1006h229l-485 -1029h-74l-487 1029h229l295 -666z" />
    <glyph glyph-name="xi" unicode="&#x3be;" horiz-adv-x="980" 
d="M936 -145q0 -112 -53 -224h-211q47 96 47 174q0 83 -39.5 126.5t-130.5 56.5l-78 14q-172 32 -268.5 141t-96.5 269q0 131 63.5 231.5t178.5 151.5q-89 44 -135.5 117t-46.5 165q0 75 33 143t94 117h-174v199h815v-199h-311q-112 0 -177 -65.5t-65 -161.5t61 -161.5
t162 -65.5h244v-189h-248q-125 0 -198.5 -68.5t-73.5 -185.5q0 -104 65.5 -167.5t206.5 -94.5l74 -16q262 -59 262 -307z" />
    <glyph glyph-name="omicron" unicode="&#x3bf;" horiz-adv-x="1247" 
d="M92 504q-2 106 40 204t114.5 168.5t171.5 111.5t205 40q108 2 207.5 -39.5t172 -113t114.5 -169t40 -202.5q3 -140 -69 -263t-196.5 -195t-268.5 -69q-106 -2 -205.5 40t-171 114t-114 170t-40.5 203zM936 502q0 139 -90 234t-221 95q-133 0 -223.5 -94.5t-90.5 -234.5
q0 -139 90 -232.5t222 -93.5q133 0 223 94.5t90 231.5z" />
    <glyph glyph-name="pi" unicode="&#x3c0;" horiz-adv-x="1212" 
d="M186 0v805h-151v201h1145v-201h-152v-805h-215v805h-412v-805h-215z" />
    <glyph glyph-name="rho" unicode="&#x3c1;" horiz-adv-x="1267" 
d="M1178 502q0 -224 -139.5 -374.5t-348.5 -150.5q-102 0 -189 39t-143 107v-492h-213v865q0 238 140.5 385t369.5 147t376 -147.5t147 -378.5zM956 502q0 143 -86 235q-85 94 -219 94t-214.5 -90t-80.5 -239q0 -147 82 -237.5t215 -90.5q130 0 216.5 94.5t86.5 233.5z" />
    <glyph glyph-name="uni03C2" unicode="&#x3c2;" horiz-adv-x="1083" 
d="M733 -195q0 75 -36 117t-124 68l-96 26q-385 114 -385 486q0 232 143 379t367 147q141 0 253 -61t181 -176l-151 -119q-115 157 -277 157q-129 0 -213 -90t-84 -227q0 -125 68.5 -203t214.5 -119l108 -30q123 -32 186.5 -110t63.5 -195q0 -106 -53 -224h-213
q47 89 47 174z" />
    <glyph glyph-name="sigma" unicode="&#x3c3;" horiz-adv-x="1310" 
d="M1276 1006v-201h-270q135 -135 135 -322q3 -138 -67.5 -255.5t-193 -185t-266.5 -65.5q-222 0 -372 149.5t-150 371.5t150.5 365t384.5 143h649zM920 502q0 136 -86 225q-82 88 -218 88q-134 0 -219.5 -88t-85.5 -227q0 -138 86.5 -231t216.5 -93q129 0 217.5 93.5
t88.5 232.5z" />
    <glyph glyph-name="tau" unicode="&#x3c4;" horiz-adv-x="999" 
d="M936 805h-371v-459q0 -91 47 -132.5t150 -41.5q37 0 135 10v-182q-108 -23 -178 -23q-179 0 -274 90.5t-95 260.5v477h-319v201h905v-201z" />
    <glyph glyph-name="upsilon" unicode="&#x3c5;" horiz-adv-x="1183" 
d="M145 430v576h215v-592q0 -106 65 -174t167 -68t166.5 68t64.5 174v592h215v-576q0 -203 -122.5 -328t-323.5 -125t-324 125t-123 328z" />
    <glyph glyph-name="phi" unicode="&#x3c6;" horiz-adv-x="1558" 
d="M887 -20v-349h-217v349q-165 8 -296 74t-206.5 183.5t-75.5 266.5q0 223 163 365.5t415 154.5v328h217v-328q166 -8 297 -73t206.5 -181.5t75.5 -265.5t-76 -266.5t-207 -183.5t-296 -74zM676 164v676q-159 -9 -268 -101q-105 -89 -105 -239q0 -149 101.5 -237t271.5 -99
zM1255 500q0 149 -102.5 239t-271.5 101v-676q170 11 272 99t102 237z" />
    <glyph glyph-name="chi" unicode="&#x3c7;" horiz-adv-x="1046" 
d="M1042 -188v-181q-56 -16 -118 -16q-82 0 -140 42.5t-102 135.5l-166 346l-244 -508h-239l362 711l-188 395q-25 47 -51.5 67.5t-73.5 20.5h-70v181q46 14 125 14q89 0 141.5 -41t98.5 -137l143 -310l232 474h237l-352 -678l213 -428q26 -54 52.5 -72t76.5 -18q51 0 63 2z
" />
    <glyph glyph-name="psi" unicode="&#x3c8;" horiz-adv-x="1568" 
d="M676 -369v346q-234 0 -382.5 147t-148.5 380v502h213v-484q0 -148 92 -249t226 -101v1180h217v-1180q134 0 225.5 101t91.5 249v484h215v-502q0 -233 -148.5 -380t-383.5 -147v-346h-217z" />
    <glyph glyph-name="omega" unicode="&#x3c9;" horiz-adv-x="1622" 
d="M1530 485q0 -231 -115.5 -369.5t-310.5 -138.5q-198 0 -293 148q-44 -72 -120.5 -110t-174.5 -38q-193 0 -308.5 138.5t-115.5 369.5q0 201 92 340t262 193l74 -187q-211 -105 -211 -350q0 -141 58.5 -224t158.5 -83q86 0 134.5 59t48.5 162v287h204v-287
q0 -103 48.5 -162t134.5 -59q100 0 158.5 82t58.5 223q0 251 -209 352l72 187q170 -54 262 -193t92 -340z" />
    <glyph glyph-name="iotadieresis" unicode="&#x3ca;" horiz-adv-x="651" 
d="M150 315v691h217v-660q0 -92 35 -133t114 -41q34 0 119 10v-182q-97 -23 -168 -23q-317 0 -317 338zM-86 1380q0 57 40.5 96.5t96.5 39.5q60 0 99.5 -39.5t39.5 -96.5q0 -54 -41 -93.5t-98 -39.5q-54 0 -95.5 39.5t-41.5 93.5zM324 1380q0 56 41.5 96t97.5 40
q57 0 98 -39.5t41 -96.5q0 -54 -41 -93.5t-98 -39.5q-56 0 -97.5 39.5t-41.5 93.5z" />
    <glyph glyph-name="upsilondieresis" unicode="&#x3cb;" horiz-adv-x="1183" 
d="M145 430v576h215v-592q0 -106 65 -174t167 -68t166.5 68t64.5 174v592h215v-576q0 -203 -122.5 -328t-323.5 -125t-324 125t-123 328zM211 1380q0 55 42 95.5t99 40.5t97 -39.5t40 -96.5q0 -54 -40 -93.5t-97 -39.5t-99 39.5t-42 93.5zM672 1380q0 55 42 95.5t99 40.5
q56 0 96.5 -40.5t40.5 -95.5q0 -54 -40.5 -93.5t-96.5 -39.5q-57 0 -99 39.5t-42 93.5z" />
    <glyph glyph-name="omicrontonos" unicode="&#x3cc;" horiz-adv-x="1247" 
d="M92 504q-2 106 40 204t114.5 168.5t171.5 111.5t205 40q108 2 207.5 -39.5t172 -113t114.5 -169t40 -202.5q3 -140 -69 -263t-196.5 -195t-268.5 -69q-106 -2 -205.5 40t-171 114t-114 170t-40.5 203zM936 502q0 139 -90 234t-221 95q-133 0 -223.5 -94.5t-90.5 -234.5
q0 -139 90 -232.5t222 -93.5q133 0 223 94.5t90 231.5zM512 1163l68 434h258v-38l-164 -396h-162z" />
    <glyph glyph-name="upsilontonos" unicode="&#x3cd;" horiz-adv-x="1183" 
d="M145 430v576h215v-592q0 -106 65 -174t167 -68t166.5 68t64.5 174v592h215v-576q0 -203 -122.5 -328t-323.5 -125t-324 125t-123 328zM469 1163l68 434h258v-38l-164 -396h-162z" />
    <glyph glyph-name="omegatonos" unicode="&#x3ce;" horiz-adv-x="1622" 
d="M1530 485q0 -231 -115.5 -369.5t-310.5 -138.5q-198 0 -293 148q-44 -72 -120.5 -110t-174.5 -38q-193 0 -308.5 138.5t-115.5 369.5q0 201 92 340t262 193l74 -187q-211 -105 -211 -350q0 -141 58.5 -224t158.5 -83q86 0 134.5 59t48.5 162v287h204v-287
q0 -103 48.5 -162t134.5 -59q100 0 158.5 82t58.5 223q0 251 -209 352l72 187q170 -54 262 -193t92 -340zM700 1163l68 434h258v-38l-164 -396h-162z" />
    <glyph glyph-name="uni0400" unicode="&#x400;" horiz-adv-x="1165" 
d="M170 0v1352h889v-195h-672v-346h506v-188h-506v-428h696v-195h-913zM535 1483l-265 342v39h262l162 -381h-159z" />
    <glyph glyph-name="uni0401" unicode="&#x401;" horiz-adv-x="1165" 
d="M170 0v1352h889v-195h-672v-346h506v-188h-506v-428h696v-195h-913zM221 1663q0 55 41.5 94t97.5 39q60 0 100 -38t40 -95q0 -54 -41.5 -93.5t-98.5 -39.5q-56 0 -97.5 39.5t-41.5 93.5zM723 1661q0 55 41.5 95t97.5 40q57 0 98 -39t41 -96q0 -54 -41 -93.5t-98 -39.5
q-56 0 -97.5 39.5t-41.5 93.5z" />
    <glyph glyph-name="uni0402" unicode="&#x402;" horiz-adv-x="1517" 
d="M967 -29l-41 193q135 20 206.5 78t71.5 166q0 107 -71.5 164t-196.5 57q-150 0 -281 -49v-580h-217v1157h-405v195h1097v-195h-475v-385q128 49 291 49q214 0 346 -108q135 -108 135 -303q0 -203 -131 -310q-129 -108 -329 -129z" />
    <glyph glyph-name="uni0403" unicode="&#x403;" horiz-adv-x="1054" 
d="M170 0v1352h836v-195h-619v-1157h-217zM473 1483l162 381h262v-39l-264 -342h-160z" />
    <glyph glyph-name="uni0404" unicode="&#x404;" horiz-adv-x="1468" 
d="M1214 410l164 -121q-88 -145 -240.5 -228.5t-338.5 -83.5q-142 -2 -274.5 53t-229 148.5t-153.5 224.5t-54 273q-3 142 54 272.5t153.5 224.5t229 148.5t274.5 52.5q184 0 337 -83.5t242 -227.5l-164 -121q-150 234 -413 234q-182 0 -314 -111q-127 -104 -163 -285h610
v-188h-615q28 -183 162 -299.5t320 -116.5q263 0 413 234z" />
    <glyph glyph-name="uni0405" unicode="&#x405;" horiz-adv-x="1144" 
d="M74 270l153 117q72 -104 157.5 -159.5t197.5 -55.5q105 0 169 51t64 137q0 68 -43 109t-156 94l-149 70q-158 72 -236.5 159t-78.5 216q0 162 123.5 264t302.5 102q140 0 256 -65.5t180 -175.5l-152 -117q-111 164 -284 164q-89 0 -147 -43.5t-58 -120.5q5 -71 37.5 -102
t132.5 -82l6 -3t5.5 -3t6.5 -3l152 -69q169 -77 246 -166t77 -219q0 -175 -127.5 -283.5t-324.5 -108.5q-164 0 -297.5 77.5t-212.5 215.5z" />
    <glyph glyph-name="uni0406" unicode="&#x406;" horiz-adv-x="557" 
d="M170 0v1352h217v-1352h-217z" />
    <glyph glyph-name="uni0407" unicode="&#x407;" horiz-adv-x="557" 
d="M170 0v1352h217v-1352h-217zM-113 1663q0 55 42 94t98 39q60 0 99.5 -38t39.5 -95q0 -54 -41 -93.5t-98 -39.5q-56 0 -98 39.5t-42 93.5zM389 1661q0 55 41.5 95t97.5 40q57 0 98.5 -39t41.5 -96q0 -54 -41.5 -93.5t-98.5 -39.5q-56 0 -97.5 39.5t-41.5 93.5z" />
    <glyph glyph-name="uni0408" unicode="&#x408;" horiz-adv-x="780" 
d="M43 0v186q102 -10 139 -10q109 0 160 41t51 141v994h217v-1016q0 -177 -99 -268t-282 -91q-78 0 -186 23z" />
    <glyph glyph-name="uni0409" unicode="&#x409;" horiz-adv-x="1982" 
d="M1890 426q0 -189 -130 -307.5t-341 -118.5h-489v1157h-406q-13 -454 -57.5 -704t-131 -357t-237.5 -112q-58 0 -98 16v186q12 -4 57 -4q135 0 193 226.5t67 721.5l2 222h828v-500h272q211 0 341 -118.5t130 -307.5zM1667 426q0 106 -66.5 169.5t-183.5 63.5h-270v-466
h270q117 0 183.5 63.5t66.5 169.5z" />
    <glyph glyph-name="uni040A" unicode="&#x40a;" horiz-adv-x="2002" 
d="M170 0v1352h217v-508h563v508h217v-508h273q211 0 341 -117.5t130 -304.5q0 -188 -129.5 -305t-341.5 -117h-490v647h-563v-647h-217zM1167 193h271q116 0 183 62.5t67 164.5q0 104 -66.5 167.5t-183.5 63.5h-271v-458z" />
    <glyph glyph-name="uni040B" unicode="&#x40b;" horiz-adv-x="1587" 
d="M1442 303v-303h-217v285q0 162 -80 250t-219 88q-147 0 -271 -48v-575h-217v1157h-405v195h1097v-195h-475v-385q137 49 285 49q227 0 364.5 -136.5t137.5 -381.5z" />
    <glyph glyph-name="uni040C" unicode="&#x40c;" horiz-adv-x="1333" 
d="M170 0v1352h217v-1352h-217zM666 719l622 -719h-268l-627 719l568 633h266zM584 1483l161 381h263v-39l-265 -342h-159z" />
    <glyph glyph-name="uni040D" unicode="&#x40d;" horiz-adv-x="1470" 
d="M1225 1374h75v-1374h-217v944l-837 -967h-76v1375h217v-942zM676 1483l-264 342v39h262l162 -381h-160z" />
    <glyph glyph-name="uni040E" unicode="&#x40e;" horiz-adv-x="1341" 
d="M1069 1352h227l-475 -1022q-47 -100 -83 -159.5t-84 -106t-106 -66t-140 -21.5q-55 0 -132 23v186q44 -8 107 -8q129 0 199 115l-523 1059h244l397 -815zM373 1823v41h176v-47q0 -85 40 -133t113 -48q74 0 115 47.5t41 133.5v47h178v-41q0 -154 -92.5 -248t-241.5 -94
q-148 0 -238.5 94t-90.5 248z" />
    <glyph glyph-name="uni040F" unicode="&#x40f;" horiz-adv-x="1429" 
d="M1260 1352v-1352h-439v-289h-213v289h-438v1352h217v-1157h655v1157h218z" />
    <glyph glyph-name="uni0410" unicode="&#x410;" horiz-adv-x="1355" 
d="M1077 0l-96 225h-608l-97 -225h-231l596 1374h74l596 -1374h-234zM903 412l-225 559l-227 -559h452z" />
    <glyph glyph-name="uni0411" unicode="&#x411;" horiz-adv-x="1210" 
d="M170 0v1352h852v-195h-635v-346h291q203 0 329 -112t126 -291q0 -181 -126 -294.5t-329 -113.5h-508zM387 190h283q114 0 178.5 59t64.5 159q0 99 -64.5 158t-178.5 59h-283v-435z" />
    <glyph glyph-name="uni0412" unicode="&#x412;" horiz-adv-x="1265" 
d="M1188 393q0 -172 -121 -282.5t-317 -110.5h-580v1352h473q181 0 293.5 -101.5t112.5 -259.5t-113 -254q119 -38 185.5 -129t66.5 -215zM623 1161h-240v-364h240q99 0 153.5 49t54.5 135q0 85 -54.5 132.5t-153.5 47.5zM969 399q0 97 -63 154t-175 57h-348v-420h348
q112 0 175 56t63 153z" />
    <glyph glyph-name="uni0413" unicode="&#x413;" horiz-adv-x="1054" 
d="M170 0v1352h836v-195h-619v-1157h-217z" />
    <glyph glyph-name="uni0414" unicode="&#x414;" horiz-adv-x="1427" 
d="M1200 195h172v-484h-217v289h-911v-289h-217v484h106q99 88 145 320t46 644v193h876v-1157zM371 195h612v962h-459q-3 -722 -153 -962z" />
    <glyph glyph-name="uni0415" unicode="&#x415;" horiz-adv-x="1165" 
d="M170 0v1352h889v-195h-672v-346h506v-188h-506v-428h696v-195h-913z" />
    <glyph glyph-name="uni0416" unicode="&#x416;" horiz-adv-x="2004" 
d="M94 1352h268l525 -633l-574 -719h-268l586 719zM893 0v1352h217v-1352h-217zM1374 719l586 -719h-268l-576 719l526 633h267z" />
    <glyph glyph-name="uni0417" unicode="&#x417;" horiz-adv-x="1200" 
d="M1112 395q0 -184 -140 -301t-360 -117q-171 0 -308.5 81.5t-213.5 222.5l154 112q144 -217 366 -217q123 0 203 64t80 166q0 95 -68.5 149.5t-199.5 54.5h-166v187h159q98 0 153.5 50.5t55.5 133.5q0 89 -57.5 142t-161.5 53q-190 0 -305 -183l-153 113
q70 129 188.5 198.5t275.5 69.5q197 0 315 -103t118 -274q0 -168 -148 -274q101 -48 157 -133.5t56 -194.5z" />
    <glyph glyph-name="uni0418" unicode="&#x418;" horiz-adv-x="1470" 
d="M1225 1374h75v-1374h-217v944l-837 -967h-76v1375h217v-942z" />
    <glyph glyph-name="uni0419" unicode="&#x419;" horiz-adv-x="1470" 
d="M1225 1374h75v-1374h-217v944l-837 -967h-76v1375h217v-942zM422 1823v41h176v-47q0 -85 40.5 -133t113.5 -48q74 0 114.5 47.5t40.5 133.5v47h178v-41q0 -154 -92 -248t-241 -94q-148 0 -239 94t-91 248z" />
    <glyph glyph-name="uni041A" unicode="&#x41a;" horiz-adv-x="1333" 
d="M170 0v1352h217v-1352h-217zM666 719l622 -719h-268l-627 719l568 633h266z" />
    <glyph glyph-name="uni041B" unicode="&#x41b;" horiz-adv-x="1372" 
d="M319 1352h883v-1352h-217v1157h-459q-11 -343 -37.5 -563.5t-78.5 -357.5t-126 -193t-186 -59q-58 0 -98 16v186q12 -4 57 -4q135 0 193 226.5t67 721.5z" />
    <glyph glyph-name="uni041C" unicode="&#x41c;" horiz-adv-x="1624" 
d="M1380 1374h74v-1374h-217v848l-387 -508h-74l-389 510v-850h-217v1374h76l567 -756z" />
    <glyph glyph-name="uni041D" unicode="&#x41d;" horiz-adv-x="1456" 
d="M170 0v1352h217v-539h680v539h217v-1352h-217v618h-680v-618h-217z" />
    <glyph glyph-name="uni041E" unicode="&#x41e;" horiz-adv-x="1597" 
d="M88 676q-2 142 54.5 272.5t153 224.5t228 148.5t273.5 52.5q141 2 273 -53t229 -148.5t154 -224t54 -272.5q4 -189 -93.5 -352t-262.5 -256.5t-354 -90.5q-143 -2 -275 53t-228 148.5t-152.5 224.5t-53.5 273zM1284 678q0 212 -139 355t-346 143q-210 0 -348 -142
t-138 -356q0 -217 137.5 -359.5t348.5 -142.5q208 0 346.5 143t138.5 359z" />
    <glyph glyph-name="uni041F" unicode="&#x41f;" horiz-adv-x="1435" 
d="M170 0v1352h1094v-1352h-217v1157h-660v-1157h-217z" />
    <glyph glyph-name="uni0420" unicode="&#x420;" horiz-adv-x="1193" 
d="M170 0v1352h494q204 0 331 -115.5t127 -298.5q0 -182 -127.5 -299t-330.5 -117h-277v-522h-217zM387 715h272q114 0 177 60t63 161q0 102 -63 162.5t-177 60.5h-272v-444z" />
    <glyph glyph-name="uni0421" unicode="&#x421;" horiz-adv-x="1468" 
d="M88 676q-3 142 54 272.5t153.5 224.5t229 148.5t274.5 52.5q184 0 337 -83.5t242 -227.5l-164 -121q-150 234 -413 234q-136 0 -248 -64.5t-176 -179.5t-64 -256t64 -256t176 -179.5t248 -64.5q263 0 413 234l164 -121q-88 -145 -240.5 -228.5t-338.5 -83.5
q-142 -2 -274.5 53t-229 148.5t-153.5 224.5t-54 273z" />
    <glyph glyph-name="uni0422" unicode="&#x422;" horiz-adv-x="1193" 
d="M487 0v1157h-454v195h1128v-195h-456v-1157h-218z" />
    <glyph glyph-name="uni0423" unicode="&#x423;" horiz-adv-x="1341" 
d="M1069 1352h227l-475 -1022q-47 -100 -83 -159.5t-84 -106t-106 -66t-140 -21.5q-55 0 -132 23v186q44 -8 107 -8q129 0 199 115l-523 1059h244l397 -815z" />
    <glyph glyph-name="uni0424" unicode="&#x424;" horiz-adv-x="1675" 
d="M944 125v-166h-217v166q-289 6 -467 156.5t-178 404.5q0 252 178 400.5t467 154.5v152h217v-152q191 -4 337 -70.5t229 -192t83 -294.5q0 -168 -83 -294t-229 -193.5t-337 -71.5zM1376 684q0 171 -115.5 267.5t-316.5 101.5v-738q199 2 315.5 100t116.5 269zM727 315v738
q-199 -5 -313.5 -103.5t-114.5 -269.5q0 -169 114 -264.5t314 -100.5z" />
    <glyph glyph-name="uni0425" unicode="&#x425;" horiz-adv-x="1243" 
d="M1196 0h-248l-327 504l-326 -504h-250l457 690l-428 662h250l299 -478l295 478h247l-420 -662z" />
    <glyph glyph-name="uni0426" unicode="&#x426;" horiz-adv-x="1484" 
d="M1219 -289v289h-1049v1352h217v-1157h655v1157h218v-1157h170v-484h-211z" />
    <glyph glyph-name="uni0427" unicode="&#x427;" horiz-adv-x="1337" 
d="M950 1352h217v-1352h-217v522q-133 -53 -303 -53q-256 0 -396 133.5t-140 390.5v359h217v-340q0 -177 85.5 -261.5t258.5 -84.5q167 0 278 51v635z" />
    <glyph glyph-name="uni0428" unicode="&#x428;" horiz-adv-x="1998" 
d="M170 0v1352h217v-1157h504v1157h217v-1157h504v1157h217v-1352h-1659z" />
    <glyph glyph-name="uni0429" unicode="&#x429;" horiz-adv-x="2056" 
d="M1790 -289v289h-1620v1352h217v-1157h504v1157h217v-1157h504v1157h217v-1157h172v-484h-211z" />
    <glyph glyph-name="uni042A" unicode="&#x42a;" horiz-adv-x="1392" 
d="M340 0v1157h-307v195h524v-500h272q210 0 342 -119t132 -307t-131.5 -307t-342.5 -119h-489zM557 193h272q117 0 183.5 63.5t66.5 169.5t-66.5 169.5t-183.5 63.5h-272v-466z" />
    <glyph glyph-name="uni042B" unicode="&#x42b;" horiz-adv-x="1761" 
d="M170 0v1352h217v-500h272q210 0 342 -119t132 -307t-131.5 -307t-342.5 -119h-489zM387 193h270q117 0 184.5 63.5t67.5 169.5t-67.5 169.5t-184.5 63.5h-270v-466zM1372 0v1352h217v-1352h-217z" />
    <glyph glyph-name="uni042C" unicode="&#x42c;" horiz-adv-x="1222" 
d="M170 0v1352h217v-500h272q210 0 342 -119t132 -307t-131.5 -307t-342.5 -119h-489zM387 193h270q117 0 184.5 63.5t67.5 169.5t-67.5 169.5t-184.5 63.5h-270v-466z" />
    <glyph glyph-name="uni042D" unicode="&#x42d;" horiz-adv-x="1468" 
d="M1380 676q4 -189 -93 -352t-262 -256.5t-355 -90.5q-187 0 -340 83.5t-240 228.5l164 121q153 -234 414 -234q186 0 320.5 116.5t162.5 299.5h-586v188h582q-35 178 -166 285q-132 111 -313 111q-261 0 -414 -234l-164 121q92 145 244.5 228t335.5 83q142 2 274 -52.5
t228.5 -148.5t153.5 -224.5t54 -272.5z" />
    <glyph glyph-name="uni042E" unicode="&#x42e;" horiz-adv-x="2029" 
d="M1939 676q3 -190 -89.5 -352.5t-251.5 -256t-343 -90.5q-178 -3 -330 81.5t-244 232.5t-101 327h-193v-618h-217v1352h217v-539h203q43 246 228.5 403.5t436.5 157.5q186 3 345 -90.5t250.5 -255.5t88.5 -352zM1716 678q0 214 -130 356t-329 142q-201 0 -330.5 -141.5
t-129.5 -356.5q0 -218 129 -360t331 -142q200 0 329.5 142.5t129.5 359.5z" />
    <glyph glyph-name="uni042F" unicode="&#x42f;" horiz-adv-x="1282" 
d="M647 1352h463v-1352h-217v487h-223l-348 -487h-238l369 520q-138 50 -217.5 157t-79.5 245q0 191 136 310.5t355 119.5zM893 682v477h-250q-121 0 -192.5 -65t-71.5 -174q0 -108 72.5 -173t191.5 -65h250z" />
    <glyph glyph-name="uni0430" unicode="&#x430;" horiz-adv-x="1097" 
d="M954 608v-608h-200v113q-114 -136 -322 -136q-158 0 -254 80t-96 211t100.5 209t270.5 78h284v66q0 104 -56 159.5t-159 55.5q-83 0 -148 -36.5t-130 -113.5l-125 127q74 107 182.5 161t241.5 54q189 0 300 -110t111 -310zM737 381v18h-258q-178 0 -178 -123
q0 -62 48.5 -97.5t127.5 -35.5q110 0 185 68t75 170z" />
    <glyph glyph-name="uni0431" unicode="&#x431;" horiz-adv-x="1261" 
d="M1171 485q0 -140 -69.5 -256t-191 -182.5t-267.5 -66.5q-236 0 -383 161t-147 420v162q0 235 51 381q53 157 197 253.5t403 133.5q240 35 319 68v-201q-98 -40 -309 -64q-100 -15 -173 -36t-123 -52.5t-81.5 -67.5t-49 -90t-24 -108.5t-8.5 -134.5q62 88 158 137t211 49
q131 2 244.5 -66.5t179.5 -186.5t63 -253zM950 485q0 128 -90 218t-219 90q-127 0 -217 -90t-90 -218q0 -129 89.5 -219t217.5 -90q129 0 219 90t90 219z" />
    <glyph glyph-name="uni0432" unicode="&#x432;" horiz-adv-x="1124" 
d="M1018 305q0 -135 -99.5 -220t-259.5 -85h-501v1006h442q150 0 244 -75.5t94 -199.5q0 -121 -92 -188q83 -31 127.5 -92t44.5 -146zM369 831v-227h223q143 0 143 115q0 112 -143 112h-223zM813 309q0 60 -46 94.5t-128 34.5h-270v-266h270q81 0 127.5 37.5t46.5 99.5z" />
    <glyph glyph-name="uni0433" unicode="&#x433;" horiz-adv-x="909" 
d="M158 0v1006h708v-187h-491v-819h-217z" />
    <glyph glyph-name="uni0434" unicode="&#x434;" horiz-adv-x="1241" 
d="M1006 186h165v-475h-208v289h-740v-289h-211v475h113q62 66 91.5 197t35.5 354l8 269h746v-820zM348 186h443v633h-336l-2 -102q-9 -362 -105 -531z" />
    <glyph glyph-name="uni0435" unicode="&#x435;" horiz-adv-x="1167" 
d="M1061 432h-750q20 -122 109 -193t219 -71q159 0 293 119l102 -148q-171 -162 -401 -162q-151 0 -275.5 69t-195 189.5t-70.5 266.5q-2 106 39 204.5t111.5 169.5t167.5 112.5t202 39.5q199 0 332 -132t133 -329q0 -60 -16 -135zM315 600h547q-1 112 -75 179t-183 67
q-106 0 -185 -67t-104 -179z" />
    <glyph glyph-name="uni0436" unicode="&#x436;" horiz-adv-x="1650" 
d="M59 1006h260l386 -467l-424 -539h-252l422 539zM713 0v1006h215v-1006h-215zM1192 545l428 -545h-262l-424 539l387 467h258z" />
    <glyph glyph-name="uni0437" unicode="&#x437;" horiz-adv-x="980" 
d="M885 293q0 -149 -105.5 -232.5t-290.5 -83.5q-265 0 -409 191l131 129q106 -129 268 -129q91 0 142 37.5t51 101.5q0 61 -48 96t-135 35h-116v172h110q69 0 106.5 30.5t37.5 84.5q0 52 -40.5 82.5t-111.5 30.5q-81 0 -138.5 -28t-107.5 -85l-131 129q64 81 164.5 127.5
t222.5 46.5q165 0 259 -75.5t94 -209.5q0 -139 -109 -213q74 -36 115 -98.5t41 -138.5z" />
    <glyph glyph-name="uni0438" unicode="&#x438;" horiz-adv-x="1193" 
d="M963 1028h73v-1028h-217v625l-586 -648h-75v1029h217v-629z" />
    <glyph glyph-name="uni0439" unicode="&#x439;" horiz-adv-x="1193" 
d="M963 1028h73v-1028h-217v625l-586 -648h-75v1029h217v-629zM291 1511v60h176v-58q0 -90 40 -138t114 -48q75 0 115 47.5t40 138.5v58h178v-60q0 -152 -92 -246t-241 -94q-148 0 -239 94t-91 246z" />
    <glyph glyph-name="uni043A" unicode="&#x43a;" horiz-adv-x="1107" 
d="M158 0v1006h217v-1006h-217zM637 547l442 -547h-262l-434 539l403 467h254z" />
    <glyph glyph-name="uni043B" unicode="&#x43b;" horiz-adv-x="1136" 
d="M240 1006h739v-1006h-215v819h-324l-2 -100q-9 -393 -84.5 -562t-253.5 -169q-42 0 -77 12v180q32 -4 40 -4q89 0 128.5 136t44.5 442z" />
    <glyph glyph-name="uni043C" unicode="&#x43c;" horiz-adv-x="1411" 
d="M158 0v1028h75l474 -547l475 547h71v-1028h-215v582l-295 -342h-75l-293 340v-580h-217z" />
    <glyph glyph-name="uni043D" unicode="&#x43d;" horiz-adv-x="1179" 
d="M158 0v1006h217v-385h432v385h215v-1006h-215v434h-432v-434h-217z" />
    <glyph glyph-name="uni043E" unicode="&#x43e;" horiz-adv-x="1247" 
d="M92 504q-2 106 40 204t114.5 168.5t171.5 111.5t205 40q108 2 207.5 -39.5t172 -113t114.5 -169t40 -202.5q3 -140 -69 -263t-196.5 -195t-268.5 -69q-106 -2 -205.5 40t-171 114t-114 170t-40.5 203zM936 502q0 139 -90 234t-221 95q-133 0 -223.5 -94.5t-90.5 -234.5
q0 -139 90 -232.5t222 -93.5q133 0 223 94.5t90 231.5z" />
    <glyph glyph-name="uni043F" unicode="&#x43f;" horiz-adv-x="1169" 
d="M158 0v1006h854v-1006h-217v819h-420v-819h-217z" />
    <glyph glyph-name="uni0440" unicode="&#x440;" horiz-adv-x="1292" 
d="M1200 504q0 -226 -140 -376.5t-353 -150.5q-102 0 -188.5 38t-147.5 108v-492h-215v1375h200v-142q55 78 147.5 121t203.5 43q140 0 253 -68.5t176.5 -188.5t63.5 -267zM979 502q0 144 -87.5 236.5t-219.5 92.5q-127 0 -215 -85.5t-88 -241.5q0 -157 88 -243.5t215 -86.5
q131 0 219 92.5t88 235.5z" />
    <glyph glyph-name="uni0441" unicode="&#x441;" horiz-adv-x="1130" 
d="M92 504q-2 106 40.5 204t115 168.5t172 111.5t205.5 40q138 0 247.5 -61.5t176.5 -171.5l-152 -119q-108 153 -270 153q-134 0 -225 -94t-91 -231q0 -138 90.5 -233t225.5 -95q158 0 270 152l152 -117q-68 -110 -178.5 -172t-245.5 -62q-146 0 -268.5 70t-193.5 191.5
t-71 265.5z" />
    <glyph glyph-name="uni0442" unicode="&#x442;" horiz-adv-x="931" 
d="M358 0v819h-323v187h862v-187h-324v-819h-215z" />
    <glyph glyph-name="uni0443" unicode="&#x443;" horiz-adv-x="1124" 
d="M856 1006h229l-489 -1121q-63 -143 -151.5 -209.5t-217.5 -66.5q-87 0 -166 20v183q94 -9 119 -9q79 0 131.5 33t87.5 115l41 94l-401 961h231l289 -732z" />
    <glyph glyph-name="uni0444" unicode="&#x444;" horiz-adv-x="1536" 
d="M877 -20v-349h-218v349q-165 8 -293 72.5t-201 181.5t-73 270q0 154 74 270.5t201.5 180t291.5 71.5v510h218v-510q255 -15 412 -154.5t157 -369.5q0 -155 -74 -271.5t-202 -179.5t-293 -71zM666 166v674q-167 -8 -262 -97t-95 -243q0 -151 95.5 -238.5t261.5 -95.5z
M1227 504q0 152 -94.5 240t-260.5 96v-674q166 8 260.5 96t94.5 242z" />
    <glyph glyph-name="uni0445" unicode="&#x445;" horiz-adv-x="1052" 
d="M1022 0h-246l-252 369l-250 -369h-245l372 522l-346 484h246l225 -332l224 332h245l-348 -486z" />
    <glyph glyph-name="uni0446" unicode="&#x446;" horiz-adv-x="1239" 
d="M961 -289v289h-803v1006h215v-820h415v820h216v-820h165v-475h-208z" />
    <glyph glyph-name="uni0447" unicode="&#x447;" horiz-adv-x="1107" 
d="M733 1006h215v-1006h-215v375q-85 -39 -235 -39q-190 0 -298 108.5t-108 305.5v256h215v-244q0 -234 234 -234q108 0 192 35v443z" />
    <glyph glyph-name="uni0448" unicode="&#x448;" horiz-adv-x="1705" 
d="M158 0v1006h215v-820h372v820h216v-820h372v820h215v-1006h-1390z" />
    <glyph glyph-name="uni0449" unicode="&#x449;" horiz-adv-x="1781" 
d="M1503 -289v289h-1345v1006h215v-820h372v820h216v-820h372v820h215v-820h164v-475h-209z" />
    <glyph glyph-name="uni044A" unicode="&#x44a;" horiz-adv-x="1183" 
d="M270 0v819h-235v187h450v-320h213q178 0 285 -94q111 -92 111 -248q0 -157 -109 -250.5t-287 -93.5h-428zM485 186h203q87 0 135.5 41.5t48.5 114.5q0 72 -50 115t-136 43h-201v-314z" />
    <glyph glyph-name="uni044B" unicode="&#x44b;" horiz-adv-x="1484" 
d="M158 0v1006h217v-320h211q178 0 286.5 -92.5t108.5 -249.5t-108.5 -250.5t-286.5 -93.5h-428zM1110 0v1006h215v-1006h-215zM375 186h203q88 0 136 40.5t48 115.5t-49.5 116.5t-137.5 41.5h-200v-314z" />
    <glyph glyph-name="uni044C" unicode="&#x44c;" horiz-adv-x="1073" 
d="M158 0v1006h217v-320h211q177 0 284 -94q111 -92 111 -248q0 -157 -108.5 -250.5t-286.5 -93.5h-428zM375 186h203q87 0 135.5 41.5t48.5 114.5q0 72 -50.5 115t-136.5 43h-200v-314z" />
    <glyph glyph-name="uni044D" unicode="&#x44d;" horiz-adv-x="1130" 
d="M1038 504q2 -106 -40 -204.5t-114.5 -170t-172 -113t-207.5 -39.5q-134 0 -242 59.5t-180 172.5l145 117q117 -156 277 -156q117 0 201 72t108 186h-381v168h377q-30 107 -112 172.5t-193 65.5q-162 0 -277 -154l-147 115q72 113 181 173t243 60q144 2 268.5 -68.5
t196.5 -192t69 -263.5z" />
    <glyph glyph-name="uni044E" unicode="&#x44e;" horiz-adv-x="1650" 
d="M1559 504q2 -140 -68.5 -263t-191.5 -195t-261 -69q-195 0 -339 130.5t-169 326.5h-155v-434h-217v1006h217v-385h164q37 179 177 293t324 114q138 3 259 -68t192 -193.5t68 -262.5zM1341 502q0 139 -87.5 234t-215.5 95q-130 0 -216.5 -94.5t-86.5 -234.5t86 -233
t215 -93t217 94.5t88 231.5z" />
    <glyph glyph-name="uni044F" unicode="&#x44f;" horiz-adv-x="1103" 
d="M518 1006h428v-1006h-215v338h-149l-260 -338h-248l288 367q-107 39 -166 118t-59 187q0 152 104 243t277 91zM731 520v299h-203q-79 0 -124.5 -40t-45.5 -109t46.5 -109.5t125.5 -40.5h201z" />
    <glyph glyph-name="uni0450" unicode="&#x450;" horiz-adv-x="1167" 
d="M1061 432h-750q20 -122 109 -193t219 -71q159 0 293 119l102 -148q-171 -162 -401 -162q-151 0 -275.5 69t-195 189.5t-70.5 266.5q-2 106 39 204.5t111.5 169.5t167.5 112.5t202 39.5q199 0 332 -132t133 -329q0 -60 -16 -135zM315 600h547q-1 112 -75 179t-183 67
q-106 0 -185 -67t-104 -179zM530 1163l-264 396v38h262l162 -434h-160z" />
    <glyph glyph-name="uni0451" unicode="&#x451;" horiz-adv-x="1167" 
d="M1061 432h-750q20 -122 109 -193t219 -71q159 0 293 119l102 -148q-171 -162 -401 -162q-151 0 -275.5 69t-195 189.5t-70.5 266.5q-2 106 39 204.5t111.5 169.5t167.5 112.5t202 39.5q199 0 332 -132t133 -329q0 -60 -16 -135zM315 600h547q-1 112 -75 179t-183 67
q-106 0 -185 -67t-104 -179zM238 1380q0 55 42 95.5t99 40.5t97 -39.5t40 -96.5q0 -54 -40 -93.5t-97 -39.5t-99 39.5t-42 93.5zM698 1380q0 55 42.5 95.5t99.5 40.5q56 0 96.5 -40.5t40.5 -95.5q0 -54 -40.5 -93.5t-96.5 -39.5q-57 0 -99.5 39.5t-42.5 93.5z" />
    <glyph glyph-name="uni0452" unicode="&#x452;" horiz-adv-x="1189" 
d="M1047 584v-625q0 -173 -95 -261.5t-266 -88.5q-82 0 -137 18v183q54 -7 86 -7q100 0 147 40t47 134v580q0 103 -59.5 166t-157.5 63q-102 0 -166.5 -64.5t-64.5 -164.5v-557h-213v1159h-166v184h166v193h213v-193h403v-184h-403v-297q105 123 291 123q171 0 273 -110
t102 -291z" />
    <glyph glyph-name="uni0453" unicode="&#x453;" horiz-adv-x="909" 
d="M158 0v1006h708v-187h-491v-819h-217zM416 1163l162 434h262v-38l-265 -396h-159z" />
    <glyph glyph-name="uni0454" unicode="&#x454;" horiz-adv-x="1130" 
d="M901 326l148 -117q-152 -232 -424 -232q-146 0 -268.5 70t-193.5 191.5t-71 265.5t71 264.5t193.5 190t268.5 69.5q136 0 243.5 -60t180.5 -173l-146 -115q-115 154 -276 154q-111 0 -194.5 -66t-113.5 -172h377v-168h-381q24 -114 109.5 -186t202.5 -72q160 0 274 156z
" />
    <glyph glyph-name="uni0455" unicode="&#x455;" horiz-adv-x="931" 
d="M61 172l123 135q137 -143 283 -143q72 0 117 29t45 83q0 42 -31 66.5t-111 58.5l-102 43q-138 57 -200 123.5t-62 169.5q0 133 99 212t255 79q216 0 348 -156l-116 -133q-98 103 -236 103q-64 0 -100.5 -25t-36.5 -72q0 -37 28.5 -61.5t104.5 -56.5l96 -39
q146 -61 210.5 -130t64.5 -173q0 -146 -107 -228q-109 -80 -266 -80q-126 0 -231 52.5t-175 142.5z" />
    <glyph glyph-name="uni0456" unicode="&#x456;" horiz-adv-x="559" 
d="M133 1380q0 60 43 102t105 42q60 0 102.5 -42t42.5 -102t-42.5 -100.5t-102.5 -40.5q-62 0 -105 40.5t-43 100.5zM172 0v1006h215v-1006h-215z" />
    <glyph glyph-name="uni0457" unicode="&#x457;" horiz-adv-x="526" 
d="M10 1380q0 63 33.5 103.5t87.5 40.5t87.5 -40.5t33.5 -103.5t-33.5 -102t-87.5 -39t-87.5 39t-33.5 102zM279 1380q0 63 33 103.5t87 40.5t87.5 -40.5t33.5 -103.5t-33.5 -102t-87.5 -39t-87 39t-33 102zM156 0v1006h215v-1006h-215z" />
    <glyph glyph-name="uni0458" unicode="&#x458;" horiz-adv-x="526" 
d="M-125 -373v183q58 -7 88 -7q99 0 146 41t47 133v1029h215v-1047q0 -173 -94 -261.5t-263 -88.5q-84 0 -139 18zM117 1380q0 60 43 102t104 42q60 0 103 -42t43 -102t-43 -100.5t-103 -40.5q-62 0 -104.5 40.5t-42.5 100.5z" />
    <glyph glyph-name="uni0459" unicode="&#x459;" horiz-adv-x="1638" 
d="M1546 348q0 -159 -108.5 -253.5t-286.5 -94.5h-428v819h-283l-2 -100q-9 -393 -84.5 -562t-253.5 -169q-42 0 -77 12v180q32 -4 40 -4q89 0 128.5 136t44.5 442l4 252h698v-320h213q178 0 286.5 -92t108.5 -246zM1325 344q0 72 -49.5 114t-134.5 42h-203v-314h203
q86 0 135 42t49 116z" />
    <glyph glyph-name="uni045A" unicode="&#x45a;" horiz-adv-x="1677" 
d="M1585 334q0 -157 -109 -245.5t-294 -88.5h-428v477h-379v-477h-217v1006h217v-342h379v342h215v-342h213q184 0 293.5 -88.5t109.5 -241.5zM1366 332q0 68 -51 107.5t-139 39.5h-207v-295h207q91 0 140.5 38t49.5 110z" />
    <glyph glyph-name="uni045B" unicode="&#x45b;" horiz-adv-x="1189" 
d="M1047 584v-584h-218v557q0 103 -59.5 166t-157.5 63q-102 0 -166.5 -64.5t-64.5 -164.5v-557h-213v1157h-166v184h166v195h213v-195h403v-184h-403v-295q105 123 291 123q171 0 273 -110t102 -291z" />
    <glyph glyph-name="uni045C" unicode="&#x45c;" horiz-adv-x="1107" 
d="M158 0v1006h217v-1006h-217zM637 547l442 -547h-262l-434 539l403 467h254zM500 1163l162 434h262v-38l-265 -396h-159z" />
    <glyph glyph-name="uni045D" unicode="&#x45d;" horiz-adv-x="1193" 
d="M963 1028h73v-1028h-217v625l-586 -648h-75v1029h217v-629zM543 1163l-264 396v38h262l161 -434h-159z" />
    <glyph glyph-name="uni045E" unicode="&#x45e;" horiz-adv-x="1124" 
d="M856 1006h229l-489 -1121q-63 -143 -151.5 -209.5t-217.5 -66.5q-87 0 -166 20v183q94 -9 119 -9q79 0 131.5 33t87.5 115l41 94l-401 961h231l289 -732zM227 1511v60h176v-58q0 -90 40 -138t114 -48q75 0 115.5 48t40.5 138v58h178v-60q0 -152 -92.5 -246t-241.5 -94
q-148 0 -239 94t-91 246z" />
    <glyph glyph-name="uni045F" unicode="&#x45f;" horiz-adv-x="1163" 
d="M1004 1006v-1006h-318v-289h-209v289h-319v1006h215v-820h415v820h216z" />
    <glyph glyph-name="uni0462" unicode="&#x462;" horiz-adv-x="1384" 
d="M332 0v1010h-299v178h299v176h217v-176h387v-178h-387v-211h282q212 0 337.5 -110.5t125.5 -289.5q0 -178 -127 -290q-127 -109 -338 -109h-497zM549 193h280q114 0 178 56t64 150t-64.5 151.5t-177.5 57.5h-280v-415z" />
    <glyph glyph-name="uni0463" unicode="&#x463;" horiz-adv-x="1193" 
d="M279 0v827h-277v179h277v530h215v-530h329v-179h-329v-184h225q173 0 278 -87t105 -232q0 -147 -105.5 -235.5t-277.5 -88.5h-440zM494 178h208q86 0 133.5 38t47.5 106q0 66 -48.5 104.5t-132.5 38.5h-208v-287z" />
    <glyph glyph-name="uni0472" unicode="&#x472;" horiz-adv-x="1597" 
d="M1507 676q4 -189 -93.5 -352t-262.5 -256.5t-354 -90.5q-143 -2 -275 53t-228 148.5t-152.5 224.5t-53.5 273q-2 142 54.5 272.5t153 224.5t228 148.5t273.5 52.5q141 2 273 -53t229 -148.5t154 -224t54 -272.5zM315 758q120 57 254 57q90 0 232 -37q133 -39 231 -39
q126 0 242 52q-34 172 -166 280q-131 107 -311 107q-187 0 -322 -117.5t-160 -302.5zM1282 600q-121 -53 -250 -53q-97 0 -237 39q-145 37 -226 37q-124 0 -250 -56q35 -176 164 -284q133 -109 314 -109q191 0 325.5 119.5t159.5 306.5z" />
    <glyph glyph-name="uni0473" unicode="&#x473;" horiz-adv-x="1247" 
d="M1157 504q0 -144 -72 -265.5t-195 -191.5t-267 -70q-108 0 -206.5 41.5t-169.5 112t-113 168t-42 205.5q-2 106 40 204t114.5 168.5t171.5 111.5t205 40q142 2 266.5 -68t197.5 -192.5t70 -263.5zM313 590q76 31 144 31q70 0 168 -31q110 -29 166 -29q58 0 143 29
q-27 111 -111 179.5t-200 68.5t-200.5 -68.5t-109.5 -179.5zM938 436q-70 -33 -147 -33q-62 0 -173 31q-98 31 -161 31q-78 0 -148 -33q23 -119 108 -190.5t206 -71.5t208 74t107 192z" />
    <glyph glyph-name="uni0474" unicode="&#x474;" horiz-adv-x="1400" 
d="M1401 1350v-187q-40 6 -68 6q-59 0 -94 -29t-68 -100l-456 -1063h-74l-596 1375h244l391 -942l297 718q51 125 125 181.5t190 56.5q47 0 109 -16z" />
    <glyph glyph-name="uni0475" unicode="&#x475;" horiz-adv-x="1130" 
d="M1130 1006v-183q-12 2 -55 2q-46 0 -72.5 -21t-52.5 -73l-350 -754h-74l-487 1029h229l295 -668l209 475q45 105 105.5 155t150.5 50q56 0 102 -12z" />
    <glyph glyph-name="uni0490" unicode="&#x490;" horiz-adv-x="1011" 
d="M170 0v1352h580v288h213v-483h-576v-1157h-217z" />
    <glyph glyph-name="uni0491" unicode="&#x491;" horiz-adv-x="909" 
d="M158 0v1006h499v288h209v-475h-491v-819h-217z" />
    <glyph glyph-name="uni0492" unicode="&#x492;" horiz-adv-x="1071" 
d="M1026 1157h-604v-436h332v-182h-332v-539h-217v539h-182v182h182v631h821v-195z" />
    <glyph glyph-name="uni0493" unicode="&#x493;" horiz-adv-x="909" 
d="M866 819h-491v-258h272v-182h-272v-379h-217v379h-156v182h156v445h708v-187z" />
    <glyph glyph-name="uni0496" unicode="&#x496;" horiz-adv-x="2002" 
d="M94 1352h268l525 -633l-574 -719h-268l586 719zM893 0v1352h217v-1352h-217zM1800 195h197v-484h-211v289h-94l-576 719l526 633h267l-533 -633z" />
    <glyph glyph-name="uni0497" unicode="&#x497;" horiz-adv-x="1722" 
d="M63 1006h261l385 -461l-428 -545h-252l426 545zM717 0v1006h215v-1006h-215zM1479 186h174v-475h-209v289h-76l-430 545l387 461h258l-389 -457z" />
    <glyph glyph-name="uni0498" unicode="&#x498;" horiz-adv-x="1200" 
d="M1112 395q0 -184 -140 -301t-360 -117q-171 0 -308.5 81.5t-213.5 222.5l154 112q144 -217 366 -217q123 0 203 64t80 166q0 95 -68.5 149.5t-199.5 54.5h-166v187h159q98 0 153.5 50.5t55.5 133.5q0 89 -57.5 142t-161.5 53q-190 0 -305 -183l-153 113
q70 129 188.5 198.5t275.5 69.5q197 0 315 -103t118 -274q0 -168 -148 -274q101 -48 157 -133.5t56 -194.5zM344 -373v148q74 -6 117 -6q67 0 106 32.5t39 92.5q0 65 -49 135l88 43q64 -33 100.5 -89.5t36.5 -127.5q0 -106 -80.5 -176t-212.5 -70q-69 0 -145 18z" />
    <glyph glyph-name="uni0499" unicode="&#x499;" horiz-adv-x="980" 
d="M885 293q0 -149 -105.5 -232.5t-290.5 -83.5q-265 0 -409 191l131 129q106 -129 268 -129q91 0 142 37.5t51 101.5q0 61 -48 96t-135 35h-116v172h110q69 0 106.5 30.5t37.5 84.5q0 52 -40.5 82.5t-111.5 30.5q-81 0 -138.5 -28t-107.5 -85l-131 129q64 81 164.5 127.5
t222.5 46.5q165 0 259 -75.5t94 -209.5q0 -139 -109 -213q74 -36 115 -98.5t41 -138.5zM248 -373v148q74 -6 117 -6q67 0 106 32.5t39 92.5q0 65 -49 135l88 43q64 -33 100.5 -89.5t36.5 -127.5q0 -106 -80.5 -176t-212.5 -70q-69 0 -145 18z" />
    <glyph glyph-name="uni049A" unicode="&#x49a;" horiz-adv-x="1331" 
d="M170 0v1352h217v-1352h-217zM1124 195h201v-484h-211v289h-94l-627 719l568 633h266l-561 -631z" />
    <glyph glyph-name="uni049B" unicode="&#x49b;" horiz-adv-x="1173" 
d="M158 0v1006h217v-1006h-217zM928 186h176v-475h-209v289h-74l-440 545l401 461h256l-405 -455z" />
    <glyph glyph-name="uni04A0" unicode="&#x4a0;" horiz-adv-x="1679" 
d="M35 1157v195h698v-1352h-217v1157h-481zM1010 719l624 -719h-268l-627 719l566 633h268z" />
    <glyph glyph-name="uni04A1" unicode="&#x4a1;" horiz-adv-x="1355" 
d="M35 819v187h586v-1006h-215v819h-371zM883 551l444 -551h-256l-440 545l401 461h256z" />
    <glyph glyph-name="uni04A2" unicode="&#x4a2;" horiz-adv-x="1511" 
d="M1245 -289v289h-178v618h-680v-618h-217v1352h217v-539h680v539h217v-1157h172v-484h-211z" />
    <glyph glyph-name="uni04A3" unicode="&#x4a3;" horiz-adv-x="1251" 
d="M973 -289v289h-166v434h-432v-434h-217v1006h217v-385h432v385h215v-820h160v-475h-209z" />
    <glyph glyph-name="uni04AA" unicode="&#x4aa;" horiz-adv-x="1468" 
d="M88 676q-3 142 54 272.5t153.5 224.5t229 148.5t274.5 52.5q184 0 337 -83.5t242 -227.5l-164 -121q-150 234 -413 234q-136 0 -248 -64.5t-176 -179.5t-64 -256t64 -256t176 -179.5t248 -64.5q263 0 413 234l164 -121q-88 -145 -240.5 -228.5t-338.5 -83.5
q-142 -2 -274.5 53t-229 148.5t-153.5 224.5t-54 273zM539 -373v148q73 -6 116 -6q67 0 106.5 32.5t39.5 92.5q0 65 -49 135l88 43q64 -33 100.5 -89.5t36.5 -127.5q0 -106 -80.5 -176t-212.5 -70q-68 0 -145 18z" />
    <glyph glyph-name="uni04AB" unicode="&#x4ab;" horiz-adv-x="1130" 
d="M92 504q-2 106 40.5 204t115 168.5t172 111.5t205.5 40q138 0 247.5 -61.5t176.5 -171.5l-152 -119q-108 153 -270 153q-134 0 -225 -94t-91 -231q0 -138 90.5 -233t225.5 -95q158 0 270 152l152 -117q-68 -110 -178.5 -172t-245.5 -62q-146 0 -268.5 70t-193.5 191.5
t-71 265.5zM344 -373v148q74 -6 117 -6q67 0 106 32.5t39 92.5q0 65 -49 135l88 43q64 -33 100.5 -89.5t36.5 -127.5q0 -106 -80.5 -176t-212.5 -70q-69 0 -145 18z" />
    <glyph glyph-name="uni04AE" unicode="&#x4ae;" horiz-adv-x="1269" 
d="M1210 1352l-467 -807v-545h-217v545l-467 807h242l334 -588l336 588h239z" />
    <glyph glyph-name="uni04AF" unicode="&#x4af;" horiz-adv-x="1124" 
d="M1085 1006l-415 -1006v-369h-215v365l-416 1010h229l295 -793l293 793h229z" />
    <glyph glyph-name="uni04B0" unicode="&#x4b0;" horiz-adv-x="1269" 
d="M1210 1352l-462 -801h296v-182h-301v-369h-217v369h-301v182h297l-463 801h242l334 -588l336 588h239z" />
    <glyph glyph-name="uni04B1" unicode="&#x4b1;" horiz-adv-x="1124" 
d="M1085 1006l-411 -1006h260v-180h-264v-189h-215v189h-262v180h258l-412 1006h229l295 -795l293 795h229z" />
    <glyph glyph-name="uni04B2" unicode="&#x4b2;" horiz-adv-x="1259" 
d="M1069 195h184v-484h-211v289h-94l-327 504l-326 -504h-250l457 690l-428 662h250l299 -478l295 478h247l-420 -662z" />
    <glyph glyph-name="uni04B3" unicode="&#x4b3;" horiz-adv-x="1132" 
d="M889 186h174v-475h-209v289h-74l-254 365l-254 -365h-243l374 522l-348 484h244l227 -330l228 330h241l-350 -484z" />
    <glyph glyph-name="uni04B6" unicode="&#x4b6;" horiz-adv-x="1394" 
d="M1167 195h172v-484h-213v289h-176v522q-133 -53 -303 -53q-256 0 -396 133.5t-140 390.5v359h217v-340q0 -177 85.5 -261.5t258.5 -84.5q167 0 278 51v635h217v-1157z" />
    <glyph glyph-name="uni04B7" unicode="&#x4b7;" horiz-adv-x="1183" 
d="M950 186h166v-475h-211v289h-172v387q-105 -51 -235 -51q-190 0 -298 108.5t-108 305.5v256h215v-244q0 -116 55.5 -175t157.5 -59q117 0 213 47v431h217v-820z" />
    <glyph glyph-name="uni04BA" unicode="&#x4ba;" horiz-adv-x="1337" 
d="M1227 358v-358h-217v340q0 177 -84.5 261.5t-257.5 84.5q-170 0 -281 -51v-635h-217v1352h217v-523q136 54 303 54q256 0 396.5 -134t140.5 -391z" />
    <glyph glyph-name="uni04BB" unicode="&#x4bb;" horiz-adv-x="1177" 
d="M1034 629v-629h-215v598q0 105 -60 169t-159 64q-100 0 -164.5 -65.5t-64.5 -167.5v-598h-215v1536h215v-631q105 123 291 123q170 0 271 -109.5t101 -289.5z" />
    <glyph glyph-name="uni04C0" unicode="&#x4c0;" horiz-adv-x="557" 
d="M170 0v1352h217v-1352h-217z" />
    <glyph glyph-name="uni04C1" unicode="&#x4c1;" horiz-adv-x="2004" 
d="M94 1352h268l525 -633l-574 -719h-268l586 719zM893 0v1352h217v-1352h-217zM1374 719l586 -719h-268l-576 719l526 633h267zM670 1823v41h176v-47q0 -85 40 -133t113 -48q74 0 115 47.5t41 133.5v47h178v-41q0 -154 -92.5 -248t-241.5 -94q-148 0 -238.5 94t-90.5 248z
" />
    <glyph glyph-name="uni04C2" unicode="&#x4c2;" horiz-adv-x="1650" 
d="M59 1006h260l386 -467l-424 -539h-252l422 539zM713 0v1006h215v-1006h-215zM1192 545l428 -545h-262l-424 539l387 467h258zM489 1511v60h177v-58q0 -90 39.5 -138t113.5 -48q75 0 115.5 48t40.5 138v58h178v-60q0 -152 -92.5 -246t-241.5 -94q-148 0 -239 94t-91 246z
" />
    <glyph glyph-name="uni04CF" unicode="&#x4cf;" horiz-adv-x="532" 
d="M158 0v1536h217v-1536h-217z" />
    <glyph glyph-name="uni04D0" unicode="&#x4d0;" horiz-adv-x="1355" 
d="M1077 0l-96 225h-608l-97 -225h-231l596 1374h74l596 -1374h-234zM903 412l-225 559l-227 -559h452zM346 1823v41h176v-47q0 -85 40.5 -133t113.5 -48q74 0 114.5 47.5t40.5 133.5v47h179v-41q0 -154 -92.5 -248t-241.5 -94q-148 0 -239 94t-91 248z" />
    <glyph glyph-name="uni04D1" unicode="&#x4d1;" horiz-adv-x="1097" 
d="M954 608v-608h-200v113q-114 -136 -322 -136q-158 0 -254 80t-96 211t100.5 209t270.5 78h284v66q0 104 -56 159.5t-159 55.5q-83 0 -148 -36.5t-130 -113.5l-125 127q74 107 182.5 161t241.5 54q189 0 300 -110t111 -310zM737 381v18h-258q-178 0 -178 -123
q0 -62 48.5 -97.5t127.5 -35.5q110 0 185 68t75 170zM211 1511v60h176v-58q0 -90 40 -138t114 -48q75 0 115 47.5t40 138.5v58h178v-60q0 -152 -92 -246t-241 -94q-148 0 -239 94t-91 246z" />
    <glyph glyph-name="uni04D4" unicode="&#x4d4;" horiz-adv-x="1712" 
d="M1128 195h502v-195h-684l-39 225h-536l-119 -225h-234l701 1352h887v-195h-637l57 -346h416v-188h-385zM776 1034l-309 -622h407z" />
    <glyph glyph-name="uni04D5" unicode="&#x4d5;" horiz-adv-x="1816" 
d="M1708 418h-747q25 -117 111.5 -183.5t213.5 -66.5q159 0 291 117l104 -146q-167 -162 -399 -162q-138 0 -250 58.5t-182 163.5q-55 -107 -161.5 -164.5t-244.5 -57.5q-166 0 -264 81.5t-98 213.5q0 136 102 218.5t269 82.5h284v48q0 103 -56 159t-157 56
q-80 0 -146.5 -37t-131.5 -113l-125 127q154 215 422 215q238 0 338 -178q68 85 166.5 131.5t214.5 46.5q200 0 331 -132t131 -331q0 -85 -16 -147zM956 573h553q7 122 -65.5 197.5t-190.5 75.5q-115 0 -196 -74.5t-101 -198.5zM737 379v39h-258q-86 0 -132 -33t-46 -96
q0 -67 48.5 -105.5t127.5 -38.5q107 0 185 66q75 66 75 168z" />
    <glyph glyph-name="uni04D6" unicode="&#x4d6;" horiz-adv-x="1165" 
d="M170 0v1352h889v-195h-672v-346h506v-188h-506v-428h696v-195h-913zM252 1823v41h176v-47q0 -85 40.5 -133t113.5 -48q74 0 114.5 47.5t40.5 133.5v47h178v-41q0 -154 -92 -248t-241 -94q-148 0 -239 94t-91 248z" />
    <glyph glyph-name="uni04D7" unicode="&#x4d7;" horiz-adv-x="1167" 
d="M1061 432h-750q20 -122 109 -193t219 -71q159 0 293 119l102 -148q-171 -162 -401 -162q-151 0 -275.5 69t-195 189.5t-70.5 266.5q-2 106 39 204.5t111.5 169.5t167.5 112.5t202 39.5q199 0 332 -132t133 -329q0 -60 -16 -135zM315 600h547q-1 112 -75 179t-183 67
q-106 0 -185 -67t-104 -179zM252 1511v60h176v-58q0 -90 40 -138t114 -48q75 0 115 47.5t40 138.5v58h178v-60q0 -152 -92 -246t-241 -94q-148 0 -239 94t-91 246z" />
    <glyph glyph-name="uni04D8" unicode="&#x4d8;" horiz-adv-x="1499" 
d="M1409 680q2 -142 -51.5 -273.5t-145.5 -226t-219 -150t-266 -53.5q-174 -2 -321 75.5t-234 219t-84 314.5q0 64 16 162h1080q-21 192 -144 309q-119 119 -307 119q-263 0 -426 -218l-147 125q99 139 245.5 215t327.5 76q188 3 345 -91t245.5 -254.5t85.5 -348.5z
M1178 563h-877q0 -174 126 -280.5t306 -106.5q171 0 292 106.5t153 280.5z" />
    <glyph glyph-name="uni04D9" unicode="&#x4d9;" horiz-adv-x="1167" 
d="M1077 504q0 -221 -147 -374t-365 -153q-203 0 -338 131.5t-135 329.5q0 72 14 135h750q-20 125 -103 195t-212 70q-171 0 -305 -119l-103 147q171 162 412 162q151 0 273 -69.5t190.5 -189.5t68.5 -265zM854 406h-547q1 -113 76 -179.5t190 -66.5q106 0 182 66.5
t99 179.5z" />
    <glyph glyph-name="uni04E2" unicode="&#x4e2;" horiz-adv-x="1470" 
d="M1225 1374h75v-1374h-217v944l-837 -967h-76v1375h217v-942zM438 1561v174h631v-174h-631z" />
    <glyph glyph-name="uni04E3" unicode="&#x4e3;" horiz-adv-x="1193" 
d="M963 1028h73v-1028h-217v625l-586 -648h-75v1029h217v-629zM328 1294v172h590v-172h-590z" />
    <glyph glyph-name="uni04E6" unicode="&#x4e6;" horiz-adv-x="1597" 
d="M88 676q-2 142 54.5 272.5t153 224.5t228 148.5t273.5 52.5q141 2 273 -53t229 -148.5t154 -224t54 -272.5q4 -189 -93.5 -352t-262.5 -256.5t-354 -90.5q-143 -2 -275 53t-228 148.5t-152.5 224.5t-53.5 273zM1284 678q0 212 -139 355t-346 143q-210 0 -348 -142
t-138 -356q0 -217 137.5 -359.5t348.5 -142.5q208 0 346.5 143t138.5 359zM408 1663q0 55 41.5 94t97.5 39q60 0 99.5 -38t39.5 -95q0 -54 -41 -93.5t-98 -39.5q-56 0 -97.5 39.5t-41.5 93.5zM909 1661q0 55 42 95t98 40q57 0 98 -39t41 -96q0 -54 -41 -93.5t-98 -39.5
q-56 0 -98 39.5t-42 93.5z" />
    <glyph glyph-name="uni04E7" unicode="&#x4e7;" horiz-adv-x="1247" 
d="M92 504q-2 106 40 204t114.5 168.5t171.5 111.5t205 40q108 2 207.5 -39.5t172 -113t114.5 -169t40 -202.5q3 -140 -69 -263t-196.5 -195t-268.5 -69q-106 -2 -205.5 40t-171 114t-114 170t-40.5 203zM936 502q0 139 -90 234t-221 95q-133 0 -223.5 -94.5t-90.5 -234.5
q0 -139 90 -232.5t222 -93.5q133 0 223 94.5t90 231.5zM254 1380q0 55 42 95.5t99 40.5t97 -39.5t40 -96.5q0 -54 -40 -93.5t-97 -39.5t-99 39.5t-42 93.5zM715 1380q0 55 42 95.5t99 40.5q56 0 96.5 -40.5t40.5 -95.5q0 -54 -40.5 -93.5t-96.5 -39.5q-57 0 -99 39.5
t-42 93.5z" />
    <glyph glyph-name="uni04E8" unicode="&#x4e8;" horiz-adv-x="1597" 
d="M1507 676q4 -189 -93.5 -352t-262.5 -256.5t-354 -90.5q-143 -2 -275 53t-228 148.5t-152.5 224.5t-53.5 273q-2 142 54.5 272.5t153 224.5t228 148.5t273.5 52.5q141 2 273 -53t229 -148.5t154 -224t54 -272.5zM319 786h957q-34 175 -166 283q-133 109 -311 109
q-181 0 -314 -109q-132 -108 -166 -283zM1280 598h-967q25 -188 160.5 -306t325.5 -118t323 118t158 306z" />
    <glyph glyph-name="uni04E9" unicode="&#x4e9;" horiz-adv-x="1247" 
d="M1157 504q0 -144 -72 -265.5t-195 -191.5t-267 -70q-108 0 -206.5 41.5t-169.5 112t-113 168t-42 205.5q-2 106 40 204t114.5 168.5t171.5 111.5t205 40q142 2 266.5 -68t197.5 -192.5t70 -263.5zM315 596h617q-26 109 -110 175.5t-199 66.5t-198.5 -66t-109.5 -176z
M936 428h-627q23 -118 108 -188t206 -70q118 0 204 71t109 187z" />
    <glyph glyph-name="uni04EE" unicode="&#x4ee;" horiz-adv-x="1341" 
d="M1069 1352h227l-475 -1022q-47 -100 -83 -159.5t-84 -106t-106 -66t-140 -21.5q-55 0 -132 23v186q44 -8 107 -8q129 0 199 115l-523 1059h244l397 -815zM389 1561v174h631v-174h-631z" />
    <glyph glyph-name="uni04EF" unicode="&#x4ef;" horiz-adv-x="1124" 
d="M856 1006h229l-489 -1121q-63 -143 -151.5 -209.5t-217.5 -66.5q-87 0 -166 20v183q94 -9 119 -9q79 0 131.5 33t87.5 115l41 94l-401 961h231l289 -732zM268 1294v172h590v-172h-590z" />
    <glyph glyph-name="uni04F2" unicode="&#x4f2;" horiz-adv-x="1341" 
d="M1069 1352h227l-475 -1022q-47 -100 -83 -159.5t-84 -106t-106 -66t-140 -21.5q-55 0 -132 23v186q44 -8 107 -8q129 0 199 115l-523 1059h244l397 -815zM371 1483l161 381h228v-39l-242 -342h-147zM838 1483l161 381h228v-39l-242 -342h-147z" />
    <glyph glyph-name="uni04F3" unicode="&#x4f3;" horiz-adv-x="1124" 
d="M856 1006h229l-489 -1121q-63 -143 -151.5 -209.5t-217.5 -66.5q-87 0 -166 20v183q94 -9 119 -9q79 0 131.5 33t87.5 115l41 94l-401 961h231l289 -732zM266 1163l162 434h227v-38l-241 -396h-148zM692 1163l162 434h227v-38l-241 -396h-148z" />
    <glyph glyph-name="Wgrave" unicode="&#x1e80;" horiz-adv-x="2152" 
d="M1841 1352h238l-527 -1375h-71l-404 959l-403 -959h-74l-526 1375h239l338 -914l387 936h76l389 -936zM999 1483l-264 342v39h262l162 -381h-160z" />
    <glyph glyph-name="wgrave" unicode="&#x1e81;" horiz-adv-x="1748" 
d="M1481 1006h229l-446 -1029h-74l-316 670l-315 -670h-74l-446 1029h229l264 -658l306 680h73l310 -672zM793 1163l-265 396v38h263l161 -434h-159z" />
    <glyph glyph-name="Wacute" unicode="&#x1e82;" horiz-adv-x="2152" 
d="M1841 1352h238l-527 -1375h-71l-404 959l-403 -959h-74l-526 1375h239l338 -914l387 936h76l389 -936zM993 1483l162 381h262v-39l-264 -342h-160z" />
    <glyph glyph-name="wacute" unicode="&#x1e83;" horiz-adv-x="1748" 
d="M1481 1006h229l-446 -1029h-74l-316 670l-315 -670h-74l-446 1029h229l264 -658l306 680h73l310 -672zM793 1163l161 434h263v-38l-265 -396h-159z" />
    <glyph glyph-name="Wdieresis" unicode="&#x1e84;" horiz-adv-x="2152" 
d="M1841 1352h238l-527 -1375h-71l-404 959l-403 -959h-74l-526 1375h239l338 -914l387 936h76l389 -936zM686 1663q0 55 41.5 94t97.5 39q60 0 100 -38t40 -95q0 -54 -41.5 -93.5t-98.5 -39.5q-56 0 -97.5 39.5t-41.5 93.5zM1188 1661q0 55 41.5 95t97.5 40q57 0 98 -39
t41 -96q0 -54 -41 -93.5t-98 -39.5q-56 0 -97.5 39.5t-41.5 93.5z" />
    <glyph glyph-name="wdieresis" unicode="&#x1e85;" horiz-adv-x="1748" 
d="M1481 1006h229l-446 -1029h-74l-316 670l-315 -670h-74l-446 1029h229l264 -658l306 680h73l310 -672zM500 1380q0 55 42 95.5t99 40.5t97 -39.5t40 -96.5q0 -54 -40 -93.5t-97 -39.5t-99 39.5t-42 93.5zM961 1380q0 55 42 95.5t99 40.5q56 0 96.5 -40.5t40.5 -95.5
q0 -54 -40.5 -93.5t-96.5 -39.5q-57 0 -99 39.5t-42 93.5z" />
    <glyph glyph-name="uni1E9E" unicode="&#x1e9e;" horiz-adv-x="1474" 
d="M1384 418q0 -192 -132.5 -316.5t-321.5 -124.5q-110 0 -213 45.5t-178 127.5l120 153q121 -127 261 -127q105 0 174 69t69 177q0 117 -83.5 183.5t-229.5 66.5h-125v57l250 428h-588v-1157h-217v1352h1110v-60l-256 -442q153 -27 256 -145q104 -113 104 -287z" />
    <glyph glyph-name="Ygrave" unicode="&#x1ef2;" horiz-adv-x="1269" 
d="M1210 1352l-467 -807v-545h-217v545l-467 807h242l334 -588l336 588h239zM553 1483l-264 342v39h262l162 -381h-160z" />
    <glyph glyph-name="ygrave" unicode="&#x1ef3;" horiz-adv-x="1124" 
d="M856 1006h229l-489 -1121q-63 -143 -151.5 -209.5t-217.5 -66.5q-87 0 -166 20v183q94 -9 119 -9q79 0 131.5 33t87.5 115l41 94l-401 961h231l289 -732zM479 1163l-264 396v38h262l162 -434h-160z" />
    <glyph glyph-name="uni2009" unicode="&#x2009;" horiz-adv-x="286" 
 />
    <glyph glyph-name="endash" unicode="&#x2013;" horiz-adv-x="1032" 
d="M80 559v182h872v-182h-872z" />
    <glyph glyph-name="emdash" unicode="&#x2014;" horiz-adv-x="2048" 
d="M102 559v182h1844v-182h-1844z" />
    <glyph glyph-name="uni2015" unicode="&#x2015;" horiz-adv-x="2048" 
d="M102 559v182h1844v-182h-1844z" />
    <glyph glyph-name="quoteleft" unicode="&#x2018;" horiz-adv-x="595" 
d="M145 803l101 549h168l-21 -549h-248z" />
    <glyph glyph-name="quoteright" unicode="&#x2019;" horiz-adv-x="595" 
d="M182 803l19 549h248l-101 -549h-166z" />
    <glyph glyph-name="quotesinglbase" unicode="&#x201a;" horiz-adv-x="595" 
d="M182 -330l19 547h248l-101 -547h-166z" />
    <glyph glyph-name="quotedblleft" unicode="&#x201c;" horiz-adv-x="1024" 
d="M145 803l101 549h168l-21 -549h-248zM575 803l101 549h168l-21 -549h-248z" />
    <glyph glyph-name="quotedblright" unicode="&#x201d;" horiz-adv-x="1024" 
d="M182 803l19 549h248l-101 -549h-166zM612 803l19 549h248l-101 -549h-166z" />
    <glyph glyph-name="quotedblbase" unicode="&#x201e;" horiz-adv-x="1024" 
d="M182 -330l19 547h248l-101 -547h-166zM612 -330l19 547h248l-101 -547h-166z" />
    <glyph glyph-name="dagger" unicode="&#x2020;" horiz-adv-x="956" 
d="M371 588v477h-258v186h258v285h215v-285h258v-186h-258v-477h-215z" />
    <glyph glyph-name="daggerdbl" unicode="&#x2021;" horiz-adv-x="956" 
d="M371 446v226h-258v186h258v268h-258v187h258v223h215v-223h258v-187h-258v-268h258v-186h-258v-226h-215z" />
    <glyph glyph-name="bullet" unicode="&#x2022;" horiz-adv-x="823" 
d="M111 551q0 126 88.5 210.5t212.5 84.5q126 0 212.5 -84.5t86.5 -210.5q0 -125 -87 -209t-212 -84q-123 0 -212 85t-89 208z" />
    <glyph glyph-name="ellipsis" unicode="&#x2026;" horiz-adv-x="1613" 
d="M647 135q0 67 47 113.5t115 46.5t113 -45.5t45 -114.5q0 -67 -45.5 -112.5t-112.5 -45.5q-68 0 -115 45.5t-47 112.5zM127 135q0 67 47 113.5t115 46.5t112.5 -45.5t44.5 -114.5q0 -68 -45 -113t-112 -45q-68 0 -115 45.5t-47 112.5zM1167 135q0 67 47 113.5t115 46.5
t113 -45.5t45 -114.5q0 -67 -45.5 -112.5t-112.5 -45.5q-68 0 -115 45.5t-47 112.5z" />
    <glyph glyph-name="perthousand" unicode="&#x2030;" horiz-adv-x="2494" 
d="M125 1042q0 138 100.5 235t243.5 97q139 0 239.5 -97.5t100.5 -234.5q0 -140 -100.5 -236.5t-239.5 -96.5q-143 0 -243.5 96.5t-100.5 236.5zM395 0l774 1352h183l-777 -1352h-180zM639 1042q0 75 -49 128t-121 53q-73 0 -121.5 -51.5t-48.5 -129.5t47.5 -129t122.5 -51
q72 0 121 51t49 129zM1686 313q0 140 100 237t242 97t242 -97t100 -237q0 -137 -101 -234t-241 -97t-241 97t-101 234zM936 311q0 140 99 237t241 97t242 -97t100 -237q0 -137 -101 -234t-241 -97q-141 0 -240.5 96.5t-99.5 234.5zM2198 313q0 78 -48 129.5t-120 51.5
q-75 0 -123.5 -51.5t-48.5 -129.5t48.5 -128t123.5 -50q72 0 120 51.5t48 126.5zM1446 311q0 78 -48 129.5t-120 51.5q-75 0 -122.5 -50.5t-47.5 -130.5q0 -78 47.5 -128t122.5 -50q72 0 120 51.5t48 126.5z" />
    <glyph glyph-name="minute" unicode="&#x2032;" horiz-adv-x="548" 
d="M137 782l80 570h250l-162 -570h-168z" />
    <glyph glyph-name="second" unicode="&#x2033;" horiz-adv-x="976" 
d="M137 782l80 570h250l-162 -570h-168zM567 782l80 570h250l-162 -570h-168z" />
    <glyph glyph-name="guilsinglleft" unicode="&#x2039;" horiz-adv-x="661" 
d="M451 119l-381 407v60l381 407l139 -123l-283 -313l283 -317z" />
    <glyph glyph-name="guilsinglright" unicode="&#x203a;" horiz-adv-x="661" 
d="M211 119l-139 121l282 317l-282 313l139 123l381 -407v-60z" />
    <glyph glyph-name="fraction" unicode="&#x2044;" horiz-adv-x="499" 
d="M-229 0l776 1352h182l-776 -1352h-182z" />
    <glyph glyph-name="uni2070" unicode="&#x2070;" horiz-adv-x="849" 
d="M94 1180q0 200 85.5 316t246.5 116t246.5 -116t85.5 -316q0 -203 -86 -326t-246 -123t-246 123t-86 326zM586 1178q0 278 -160 278t-160 -278q0 -141 40.5 -217t119.5 -76q160 0 160 293z" />
    <glyph glyph-name="uni2074" unicode="&#x2074;" horiz-adv-x="749" 
d="M721 1026v-139h-109v-142h-155v142h-428v45l260 665h174l-225 -571h219l2 246h153v-246h109z" />
    <glyph glyph-name="uni2075" unicode="&#x2075;" horiz-adv-x="755" 
d="M680 1028q0 -133 -94 -215q-91 -82 -230 -82q-104 0 -185.5 51.5t-125.5 139.5l119 84q70 -119 186 -119q68 0 112 37t44 98q0 62 -45.5 94.5t-132.5 32.5h-195v448h504v-153h-342v-160q58 10 92 10q121 0 207 -71t86 -195z" />
    <glyph glyph-name="uni2076" unicode="&#x2076;" horiz-adv-x="757" 
d="M688 1032q0 -127 -92 -214t-219 -87t-217 87t-90 218q0 66 24.5 121t89.5 146l211 294h199l-195 -274h11q109 0 193.5 -85t84.5 -206zM518 1032q0 63 -40.5 105.5t-100.5 42.5t-99.5 -42.5t-39.5 -105.5t39.5 -104t99.5 -41t100.5 41t40.5 104z" />
    <glyph glyph-name="uni2077" unicode="&#x2077;" horiz-adv-x="681" 
d="M55 1597h590v-47l-387 -805h-184l346 699h-365v153z" />
    <glyph glyph-name="uni2078" unicode="&#x2078;" horiz-adv-x="788" 
d="M709 971q0 -108 -88 -174t-228 -66t-226.5 66t-86.5 176q0 146 166 213q-129 76 -129 203q0 103 76.5 163t199.5 60q125 0 202 -61t77 -165q0 -126 -129 -200q166 -70 166 -215zM272 1380q0 -39 27.5 -65.5t93.5 -59.5q67 33 95 59.5t28 65.5q0 44 -34 70.5t-89 26.5
q-52 0 -86.5 -27t-34.5 -70zM543 979q0 48 -36.5 79.5t-113.5 57.5q-76 -28 -111.5 -59t-35.5 -78q0 -51 38.5 -81t108.5 -30q69 0 109.5 30.5t40.5 80.5z" />
    <glyph glyph-name="uni2079" unicode="&#x2079;" horiz-adv-x="757" 
d="M688 1307q0 -74 -26 -125q-28 -54 -89 -142l-213 -295h-198l196 275h-10q-109 0 -193.5 85t-84.5 206q0 128 91 214.5t220 86.5q127 0 217 -87t90 -218zM520 1311q0 63 -39.5 104t-99.5 41q-61 0 -102 -41t-41 -104t41.5 -105.5t101.5 -42.5t99.5 42.5t39.5 105.5z" />
    <glyph glyph-name="uni207A" unicode="&#x207a;" horiz-adv-x="874" 
d="M352 813v283h-274v151h274v285h168v-285h277v-151h-277v-283h-168z" />
    <glyph glyph-name="uni207B" unicode="&#x207b;" horiz-adv-x="874" 
d="M78 1102v143h719v-143h-719z" />
    <glyph glyph-name="uni207C" unicode="&#x207c;" horiz-adv-x="874" 
d="M92 1262v151h690v-151h-690zM92 932v153h690v-153h-690z" />
    <glyph glyph-name="uni207D" unicode="&#x207d;" horiz-adv-x="542" 
d="M109 1171q0 266 88 436t237 240l68 -104q-242 -155 -242 -572q0 -416 242 -571l-68 -104q-325 193 -325 675z" />
    <glyph glyph-name="uni207E" unicode="&#x207e;" horiz-adv-x="542" 
d="M109 496l-68 104q240 153 240 571q0 409 -240 572l68 104q149 -70 236 -239.5t87 -436.5t-87 -436t-236 -239z" />
    <glyph glyph-name="uni2080" unicode="&#x2080;" horiz-adv-x="849" 
d="M94 188q0 200 85.5 316.5t246.5 116.5t246.5 -116.5t85.5 -316.5q0 -203 -86 -325.5t-246 -122.5t-246 122.5t-86 325.5zM586 186q0 279 -160 279t-160 -279q0 -141 40.5 -216.5t119.5 -75.5q160 0 160 292z" />
    <glyph glyph-name="uni2081" unicode="&#x2081;" horiz-adv-x="739" 
d="M92 -246v154h213v545h-201v153h371v-698h180v-154h-563z" />
    <glyph glyph-name="uni2082" unicode="&#x2082;" horiz-adv-x="770" 
d="M377 -92h313v-154h-620v37l303 328q65 70 92 117t27 100q0 56 -33 92.5t-86 36.5q-55 0 -89 -36.5t-34 -96.5q0 -4 0.5 -12.5t1.5 -23.5t2 -28h-168q-8 31 -8 74q0 111 83.5 195t211.5 84q125 0 209 -78t84 -193q0 -82 -42.5 -155t-140.5 -177z" />
    <glyph glyph-name="uni2083" unicode="&#x2083;" horiz-adv-x="731" 
d="M655 33q0 -128 -92.5 -210.5t-224.5 -82.5q-102 0 -182.5 51t-124.5 139l119 84q73 -118 182 -118q67 0 108 37.5t41 99.5q0 125 -176 125h-92v43l180 252h-299v153h545v-47l-188 -266q89 -21 146.5 -90.5t57.5 -169.5z" />
    <glyph glyph-name="uni2084" unicode="&#x2084;" horiz-adv-x="749" 
d="M721 35v-139h-109v-142h-155v142h-428v45l260 665h174l-225 -571h219l2 246h153v-246h109z" />
    <glyph glyph-name="uni2085" unicode="&#x2085;" horiz-adv-x="755" 
d="M680 37q0 -133 -94 -215q-91 -82 -230 -82q-104 0 -185.5 51t-125.5 139l119 84q69 -118 186 -118q68 0 112 37t44 98q0 62 -45.5 94.5t-132.5 32.5h-195v448h504v-153h-342v-160q58 10 92 10q120 0 207 -72q86 -71 86 -194z" />
    <glyph glyph-name="uni2086" unicode="&#x2086;" horiz-adv-x="757" 
d="M688 41q0 -127 -92 -214t-219 -87t-217 87t-90 218q0 66 24.5 120.5t89.5 145.5l211 295h199l-195 -274h11q109 0 193.5 -85t84.5 -206zM518 41q0 63 -40.5 105t-100.5 42t-99.5 -42t-39.5 -105t39.5 -104t99.5 -41t100.5 41t40.5 104z" />
    <glyph glyph-name="uni2087" unicode="&#x2087;" horiz-adv-x="681" 
d="M55 606h590v-47l-387 -805h-184l346 699h-365v153z" />
    <glyph glyph-name="uni2088" unicode="&#x2088;" horiz-adv-x="788" 
d="M709 -20q0 -108 -88 -174t-228 -66t-226.5 66t-86.5 176q0 146 166 213q-129 76 -129 202q0 103 76.5 163.5t199.5 60.5q125 0 202 -61t77 -165q0 -127 -129 -200q166 -70 166 -215zM272 389q0 -39 27.5 -65.5t93.5 -59.5q67 33 95 59.5t28 65.5q0 44 -34 70t-89 26
q-52 0 -86.5 -26.5t-34.5 -69.5zM543 -12q0 48 -36.5 79.5t-113.5 57.5q-76 -28 -111.5 -59t-35.5 -78q0 -51 38.5 -81t108.5 -30q69 0 109.5 30.5t40.5 80.5z" />
    <glyph glyph-name="uni2089" unicode="&#x2089;" horiz-adv-x="757" 
d="M688 315q0 -74 -26 -125q-26 -50 -89 -141l-213 -295h-198l196 275h-10q-109 0 -193.5 84.5t-84.5 205.5q0 128 91 215t220 87q127 0 217 -87.5t90 -218.5zM520 319q0 63 -39.5 104.5t-99.5 41.5t-101.5 -41.5t-41.5 -104.5t41.5 -105t101.5 -42t99.5 42t39.5 105z" />
    <glyph glyph-name="uni208A" unicode="&#x208a;" horiz-adv-x="874" 
d="M352 -180v282h-274v152h274v285h168v-285h277v-152h-277v-282h-168z" />
    <glyph glyph-name="uni208B" unicode="&#x208b;" horiz-adv-x="874" 
d="M78 109v143h719v-143h-719z" />
    <glyph glyph-name="uni208C" unicode="&#x208c;" horiz-adv-x="874" 
d="M92 268v152h690v-152h-690zM92 -61v153h690v-153h-690z" />
    <glyph glyph-name="uni208D" unicode="&#x208d;" horiz-adv-x="542" 
d="M109 178q0 266 88 436t237 240l68 -104q-242 -155 -242 -572q0 -416 242 -571l-68 -105q-325 193 -325 676z" />
    <glyph glyph-name="uni208E" unicode="&#x208e;" horiz-adv-x="542" 
d="M109 -498l-68 105q240 153 240 571q0 409 -240 572l68 104q149 -70 236 -239.5t87 -436.5t-87 -436.5t-236 -239.5z" />
    <glyph glyph-name="lira" unicode="&#x20a4;" horiz-adv-x="1122" 
d="M492 180h540v-180h-932v49q218 150 260 299h-239v164h244q-11 58 -56 143h-188v164h106q-37 93 -37 180q0 167 118 271t300 104q165 0 280.5 -90.5t162.5 -261.5l-187 -68q-68 222 -243 222q-97 0 -153 -58.5t-56 -152.5q0 -71 34 -146h379v-164h-293q40 -76 52 -143h241
v-164h-245q-21 -95 -88 -168z" />
    <glyph glyph-name="peseta" unicode="&#x20a7;" horiz-adv-x="1243" 
d="M1245 987v-180h-164q-30 -161 -166 -264q-132 -99 -329 -99h-164v-444h-217v807h-164v180h164v365h381q198 0 332 -101q136 -100 163 -264h164zM586 1165h-164v-186h440q-23 92 -94 139t-182 47zM860 815h-438v-184h164q111 0 182.5 47t91.5 137z" />
    <glyph glyph-name="Euro" unicode="&#x20ac;" horiz-adv-x="1390" 
d="M1147 336l153 -121q-73 -112 -198 -175t-281 -63q-222 0 -381 123q-157 124 -221 328h-211v170h178q-4 66 -4 78q0 55 2 69h-174v170h205q64 212 225 335.5t381 123.5q156 0 281 -62.5t198 -174.5l-153 -119q-119 158 -318 158q-132 0 -230 -69t-148 -192h540l-43 -170
h-536q-4 -62 -4 -69q0 -12 4 -78h493l-45 -170h-405q52 -120 148.5 -186t225.5 -66q200 0 318 160z" />
    <glyph glyph-name="uni20AE" unicode="&#x20ae;" horiz-adv-x="1193" 
d="M1161 1157h-456v-305l352 119v-191l-352 -118v-154l352 119v-191l-352 -119v-317h-218v256l-350 -119v191l350 118v154l-350 -119v193l350 117v366h-454v195h1128v-195z" />
    <glyph glyph-name="uni20B4" unicode="&#x20b4;" horiz-adv-x="1107" 
d="M938 905h139v-162h-1042v162h670q38 44 38 105q0 75 -54.5 120.5t-145.5 45.5q-160 0 -279 -144l-131 131q66 102 173 156.5t241 54.5q186 0 302 -99.5t116 -260.5q0 -69 -27 -109zM33 436v162h1044v-162h-721q-14 -28 -14 -74q0 -86 59 -136t162 -50q100 0 195 48.5
t162 135.5l127 -131q-78 -118 -207 -185t-279 -67q-197 0 -319.5 107t-122.5 278q0 43 8 74h-94z" />
    <glyph glyph-name="uni20B8" unicode="&#x20b8;" horiz-adv-x="1193" 
d="M33 1157v195h1128v-195h-1128zM487 0v811h-454v197h1128v-197h-456v-811h-218z" />
    <glyph glyph-name="uni20B9" unicode="&#x20b9;" horiz-adv-x="1075" 
d="M924 1184h-228q50 -62 68 -148h160v-170h-156q-20 -141 -119.5 -229.5t-259.5 -108.5l535 -528h-273l-532 522v174h174q102 0 166 44t84 126h-426v170h420q-25 69 -88 106.5t-156 37.5h-174v172h805v-168z" />
    <glyph glyph-name="uni20BA" unicode="&#x20ba;" horiz-adv-x="1081" 
d="M1018 475q0 -232 -184.5 -365t-505.5 -133h-103v486l-186 -86v190l186 86v154l-186 -84v190l186 84v355h217v-269l365 166v-190l-365 -166v-154l365 166v-190l-365 -166v-369q174 17 279.5 102t105.5 212q0 40 -8 108h180q19 -65 19 -127z" />
    <glyph glyph-name="uni20BD" unicode="&#x20bd;" horiz-adv-x="1202" 
d="M205 0v244h-164v180h164v158h-164v186h164v584h485q190 0 307 -105t117 -280q0 -172 -117.5 -278.5t-306.5 -106.5h-268v-158h530v-180h-530v-244h-217zM422 768h258q100 0 159.5 53t59.5 144q0 93 -58.5 146.5t-160.5 53.5h-258v-397z" />
    <glyph glyph-name="uni20BF" unicode="&#x20bf;" horiz-adv-x="1187" 
d="M819 80v-275h-176v261h-149v-261h-177v261h-147v1222h147v246h177v-246h143h6v246h176v-283q88 -38 137.5 -114t49.5 -174q0 -152 -117 -242q97 -38 149 -116.5t52 -184.5q0 -127 -73 -217.5t-198 -122.5zM621 1112h-254v-326h254q88 0 136 43.5t48 122.5q0 78 -48 119
t-136 41zM887 426q0 91 -54.5 140.5t-154.5 49.5h-311v-376h311q99 0 154 49t55 137z" />
    <glyph glyph-name="uni2113" unicode="&#x2113;" horiz-adv-x="940" 
d="M635 172q55 0 190 21v-183q-103 -33 -227 -33q-184 0 -281 96t-98 281l-108 -80l-103 166l211 160v543q0 209 90 312.5t254 103.5q150 0 229.5 -82.5t79.5 -247.5q0 -189 -106.5 -365t-333.5 -366v-119q0 -207 203 -207zM432 1153v-397q131 125 191.5 234t60.5 229
q0 157 -111 157q-141 0 -141 -223z" />
    <glyph glyph-name="uni2116" unicode="&#x2116;" horiz-adv-x="2304" 
d="M1067 440v912h217v-1375h-74l-823 938v-915h-217v1374h76zM1528 817q0 140 100 237t242 97t242 -97t100 -237q0 -137 -101 -234.5t-241 -97.5q-141 0 -241.5 97t-100.5 235zM1698 817q0 -78 48.5 -128t123.5 -50t123.5 50t48.5 128t-48.5 129t-123.5 51t-123.5 -50.5
t-48.5 -129.5zM1540 193v145h660v-145h-660z" />
    <glyph glyph-name="uni2117" unicode="&#x2117;" horiz-adv-x="1597" 
d="M88 676q-3 142 54.5 272.5t155 224t229 148.5t270.5 53q140 3 271.5 -52.5t229 -149.5t155 -225t54.5 -271q3 -142 -54.5 -273t-155 -224.5t-229 -148.5t-271.5 -53q-139 -2 -270.5 53t-228.5 148.5t-155 224.5t-55 273zM1358 676q3 159 -75.5 290t-208 202t-277.5 69
q-148 2 -276.5 -69t-206 -202t-74.5 -290q-3 -159 74.5 -290t206 -202t276.5 -69q148 -2 277.5 69t208 202t75.5 290zM551 311v721h309q123 0 201 -68t78 -178t-77.5 -177.5t-201.5 -67.5h-149v-230h-160zM713 680h147q55 0 86 28t31 78q0 48 -32 77.5t-85 29.5h-147v-213z
" />
    <glyph glyph-name="trademark" unicode="&#x2122;" horiz-adv-x="1961" 
d="M944 432v934h62l389 -502l389 502h57v-934h-182v508l-236 -307h-59l-236 307v-508h-184zM322 432v754h-299v166h778v-166h-299v-754h-180z" />
    <glyph glyph-name="uni2126" unicode="&#x2126;" horiz-adv-x="1617" 
d="M1233 195h264v-195h-565v195q178 85 270 212t92 289q0 208 -137.5 344t-349.5 136t-347.5 -135t-135.5 -343q0 -330 362 -503v-195h-567v195h256q-277 203 -277 512q-4 182 91.5 337t260.5 244t357 86q144 3 277 -49.5t229 -143t152 -215t53 -259.5q0 -155 -69 -279
t-216 -233z" />
    <glyph glyph-name="estimated" unicode="&#x212e;" horiz-adv-x="1628" 
d="M1497 670h-1114v-410q75 -102 190 -157.5t261 -55.5q156 0 292.5 65t229.5 177l51 -45q-101 -124 -251 -194t-322 -70q-147 -2 -280 52.5t-228.5 147.5t-150.5 221t-52 267q-3 142 55 274t154.5 226.5t226.5 150.5t266 53q122 2 245 -42.5t221 -121.5t158 -190.5
t56 -237.5q0 -66 -8 -110zM383 1090v-353h862v383q-74 88 -179 135.5t-232 47.5q-141 0 -258 -56t-193 -157z" />
    <glyph glyph-name="uni2150" unicode="&#x2150;" horiz-adv-x="1923" 
d="M92 500v153h213v545h-201v154h371v-699h180v-153h-563zM510 0l776 1352h182l-776 -1352h-182zM1294 852h590v-47l-387 -805h-184l346 698h-365v154z" />
    <glyph glyph-name="uni2151" unicode="&#x2151;" horiz-adv-x="1935" 
d="M92 500v153h213v545h-201v154h371v-699h180v-153h-563zM510 0l776 1352h182l-776 -1352h-182zM1866 561q0 -73 -27 -125q-28 -55 -88 -141l-213 -295h-199l197 274h-10q-109 0 -194 85t-85 206q0 128 91.5 214.5t220.5 86.5q127 0 217 -87t90 -218zM1698 565
q0 63 -39.5 104.5t-99.5 41.5q-61 0 -102.5 -41.5t-41.5 -104.5t42 -105t102 -42t99.5 42t39.5 105z" />
    <glyph glyph-name="uni2152" unicode="&#x2152;" horiz-adv-x="2830" 
d="M92 500v153h213v545h-201v154h371v-699h180v-153h-563zM510 0l776 1352h182l-776 -1352h-182zM1331 0v154h213v544h-201v154h371v-698h180v-154h-563zM2075 434q0 200 85 316t246 116t246.5 -116t85.5 -316q0 -203 -86 -325.5t-246 -122.5t-245.5 122.5t-85.5 325.5z
M2566 432q0 279 -160 279q-159 0 -159 -279q0 -141 40 -217t119 -76q160 0 160 293z" />
    <glyph glyph-name="uni2153" unicode="&#x2153;" horiz-adv-x="1970" 
d="M92 500v153h213v545h-201v154h371v-699h180v-153h-563zM510 0l776 1352h182l-776 -1352h-182zM1894 279q0 -128 -92.5 -210.5t-224.5 -82.5q-102 0 -182.5 51t-124.5 139l119 84q74 -119 182 -119q66 0 107.5 37.5t41.5 100.5q0 124 -176 124h-92v43l180 252h-299v154
h545v-47l-188 -266q89 -21 146.5 -90.5t57.5 -169.5z" />
    <glyph glyph-name="uni2154" unicode="&#x2154;" horiz-adv-x="2000" 
d="M377 653h313v-153h-620v37l303 327q65 70 92 117t27 100q0 56 -33 92.5t-86 36.5q-55 0 -89 -36.5t-34 -96.5q0 -4 0.5 -12t1.5 -23t2 -28h-168q-8 31 -8 73q0 111 83.5 195t211.5 84q125 0 209 -78t84 -192q0 -82 -42.5 -155t-140.5 -177zM541 0l776 1352h182
l-776 -1352h-182zM1927 279q0 -128 -92.5 -210.5t-224.5 -82.5q-102 0 -182.5 51t-124.5 139l118 84q74 -119 183 -119q66 0 107.5 37.5t41.5 100.5q0 124 -176 124h-92v43l180 252h-299v154h545v-47l-189 -266q89 -21 147 -90.5t58 -169.5z" />
    <glyph glyph-name="uni2155" unicode="&#x2155;" horiz-adv-x="1978" 
d="M92 500v153h213v545h-201v154h371v-699h180v-153h-563zM510 0l776 1352h182l-776 -1352h-182zM1903 283q0 -132 -95 -215q-91 -82 -229 -82q-104 0 -185.5 51t-125.5 139l118 84q70 -119 187 -119q68 0 112 37t44 98q0 62 -46 94.5t-133 32.5h-194v449h504v-154h-342
v-159q58 10 92 10q120 0 207 -72q86 -71 86 -194z" />
    <glyph glyph-name="uni2156" unicode="&#x2156;" horiz-adv-x="2009" 
d="M377 653h313v-153h-620v37l303 327q65 70 92 117t27 100q0 56 -33 92.5t-86 36.5q-55 0 -89 -36.5t-34 -96.5q0 -4 0.5 -12t1.5 -23t2 -28h-168q-8 31 -8 73q0 111 83.5 195t211.5 84q125 0 209 -78t84 -192q0 -82 -42.5 -155t-140.5 -177zM541 0l776 1352h182
l-776 -1352h-182zM1935 283q0 -133 -94 -215q-91 -82 -229 -82q-104 0 -186.5 51t-125.5 139l119 84q70 -119 187 -119q68 0 111.5 37t43.5 98q0 62 -45.5 94.5t-132.5 32.5h-194v449h503v-154h-342v-159q58 10 92 10q120 0 207 -72q86 -71 86 -194z" />
    <glyph glyph-name="uni2157" unicode="&#x2157;" horiz-adv-x="1898" 
d="M655 778q0 -128 -92.5 -210.5t-224.5 -82.5q-102 0 -182.5 51.5t-124.5 139.5l119 84q74 -119 182 -119q67 0 108 37.5t41 99.5q0 125 -176 125h-92v43l180 252h-299v154h545v-47l-188 -267q89 -21 146.5 -90.5t57.5 -169.5zM430 0l776 1352h183l-777 -1352h-182z
M1823 283q0 -133 -94 -215q-91 -82 -230 -82q-104 0 -185.5 51t-125.5 139l119 84q70 -119 186 -119q68 0 112 37t44 98q0 62 -46 94.5t-133 32.5h-194v449h504v-154h-342v-159q58 10 92 10q120 0 207 -72q86 -71 86 -194z" />
    <glyph glyph-name="uni2158" unicode="&#x2158;" horiz-adv-x="2009" 
d="M721 780v-139h-109v-141h-155v141h-428v45l260 666h174l-225 -572h219l2 246h153v-246h109zM541 0l776 1352h182l-776 -1352h-182zM1933 283q0 -133 -94 -215q-91 -82 -229 -82q-104 0 -186.5 51t-125.5 139l119 84q70 -119 187 -119q68 0 111.5 37t43.5 98
q0 62 -45.5 94.5t-132.5 32.5h-195v449h504v-154h-342v-159q58 10 92 10q120 0 207 -72q86 -71 86 -194z" />
    <glyph glyph-name="uni2159" unicode="&#x2159;" horiz-adv-x="1832" 
d="M92 500v153h213v545h-201v154h371v-699h180v-153h-563zM510 0l776 1352h182l-776 -1352h-182zM1763 287q0 -127 -92 -214t-219 -87t-217 87t-90 218q0 66 24.5 120t90.5 146l210 295h199l-194 -274h10q109 0 193.5 -85t84.5 -206zM1593 287q0 63 -40.5 105t-100.5 42
t-99.5 -42t-39.5 -105t39.5 -104.5t99.5 -41.5t100.5 41.5t40.5 104.5z" />
    <glyph glyph-name="uni215A" unicode="&#x215a;" horiz-adv-x="1777" 
d="M680 782q0 -133 -94 -215q-91 -82 -230 -82q-104 0 -185.5 51.5t-125.5 139.5l119 84q70 -119 186 -119q68 0 112 37t44 98q0 62 -45.5 94.5t-132.5 32.5h-195v449h504v-154h-342v-160q64 11 92 11q120 0 207 -72q86 -71 86 -195zM455 0l776 1352h182l-776 -1352h-182z
M1708 287q0 -127 -92 -214t-219 -87t-217 87t-90 218q0 66 24.5 120.5t89.5 145.5l211 295h199l-195 -274h11q109 0 193.5 -85t84.5 -206zM1538 287q0 63 -40.5 105t-100.5 42t-100 -42t-40 -105t40 -104.5t100 -41.5t100.5 41.5t40.5 104.5z" />
    <glyph glyph-name="oneeighth" unicode="&#x215b;" horiz-adv-x="1935" 
d="M92 500v153h213v545h-201v154h371v-699h180v-153h-563zM510 0l776 1352h182l-776 -1352h-182zM1855 225q0 -108 -87.5 -173.5t-227.5 -65.5t-226.5 65.5t-86.5 175.5q0 146 166 213q-129 76 -129 203q0 103 76.5 163t199.5 60q125 0 202 -60.5t77 -164.5
q0 -127 -129 -201q165 -70 165 -215zM1419 635q0 -39 27.5 -65.5t93.5 -59.5q67 33 95 59.5t28 65.5q0 44 -34 70t-89 26q-52 0 -86.5 -26.5t-34.5 -69.5zM1690 233q0 48 -36.5 80t-113.5 58q-76 -28 -111.5 -59.5t-35.5 -78.5q0 -51 38 -80.5t109 -29.5q69 0 109.5 30
t40.5 80z" />
    <glyph glyph-name="threeeighths" unicode="&#x215c;" horiz-adv-x="1855" 
d="M655 778q0 -128 -92.5 -210.5t-224.5 -82.5q-102 0 -182.5 51.5t-124.5 139.5l119 84q74 -119 182 -119q67 0 108 37.5t41 99.5q0 125 -176 125h-92v43l180 252h-299v154h545v-47l-188 -267q89 -21 146.5 -90.5t57.5 -169.5zM430 0l776 1352h183l-777 -1352h-182z
M1776 225q0 -108 -87.5 -173.5t-228.5 -65.5q-140 0 -226.5 65.5t-86.5 175.5q0 146 166 213q-129 76 -129 203q0 103 76.5 163t199.5 60q125 0 202 -60.5t77 -164.5q0 -127 -129 -201q166 -70 166 -215zM1339 635q0 -39 27.5 -65.5t93.5 -59.5q67 33 95 59.5t28 65.5
q0 44 -34 70t-89 26q-52 0 -86.5 -26.5t-34.5 -69.5zM1610 233q0 48 -36.5 80t-113.5 58q-76 -28 -111.5 -59.5t-35.5 -78.5q0 -51 38 -80.5t109 -29.5q69 0 109.5 30t40.5 80z" />
    <glyph glyph-name="fiveeighths" unicode="&#x215d;" horiz-adv-x="1880" 
d="M680 782q0 -133 -94 -215q-91 -82 -230 -82q-104 0 -185.5 51.5t-125.5 139.5l119 84q70 -119 186 -119q68 0 112 37t44 98q0 62 -45.5 94.5t-132.5 32.5h-195v449h504v-154h-342v-160q64 11 92 11q120 0 207 -72q86 -71 86 -195zM455 0l776 1352h182l-776 -1352h-182z
M1800 225q0 -108 -87.5 -173.5t-227.5 -65.5t-227 66t-87 175q0 146 166 213q-129 76 -129 203q0 103 77 163t200 60q125 0 201.5 -60.5t76.5 -164.5q0 -127 -129 -201q166 -70 166 -215zM1364 635q0 -39 27.5 -65.5t93.5 -59.5q67 33 95 59.5t28 65.5q0 44 -34 70t-89 26
q-52 0 -86.5 -26.5t-34.5 -69.5zM1634 233q0 48 -36.5 80t-112.5 58q-76 -28 -112 -59.5t-36 -78.5q0 -50 38.5 -80t109.5 -30q69 0 109 30t40 80z" />
    <glyph glyph-name="seveneighths" unicode="&#x215e;" horiz-adv-x="1677" 
d="M55 1352h590v-47l-387 -805h-184l346 698h-365v154zM252 0l776 1352h182l-776 -1352h-182zM1599 225q0 -108 -87.5 -173.5t-227.5 -65.5t-226.5 65.5t-86.5 175.5q0 146 166 213q-129 76 -129 203q0 103 76.5 163t199.5 60q125 0 202 -60.5t77 -164.5q0 -127 -129 -201
q165 -70 165 -215zM1163 635q0 -39 27.5 -65.5t93.5 -59.5q67 33 95 59.5t28 65.5q0 44 -34 70t-89 26q-52 0 -86.5 -26.5t-34.5 -69.5zM1434 233q0 48 -36.5 80t-113.5 58q-76 -28 -111.5 -59.5t-35.5 -78.5q0 -51 38 -80.5t109 -29.5q69 0 109.5 30t40.5 80z" />
    <glyph glyph-name="arrowleft" unicode="&#x2190;" horiz-adv-x="1331" 
d="M1231 557h-660l-139 4l363 -362l-129 -127l-557 557v43l557 557l129 -127l-363 -363l139 4h660v-186z" />
    <glyph glyph-name="arrowup" unicode="&#x2191;" horiz-adv-x="1331" 
d="M1243 655l-129 -127l-352 353l2 -138v-657h-197v657l2 138l-352 -353l-129 127l555 557h45z" />
    <glyph glyph-name="arrowright" unicode="&#x2192;" horiz-adv-x="1331" 
d="M666 1229l557 -557v-43l-557 -557l-129 127l364 364l-141 -4l-660 -2v186h660l139 -4l-362 363z" />
    <glyph glyph-name="arrowdown" unicode="&#x2193;" horiz-adv-x="1331" 
d="M1114 774l129 -129l-555 -555h-45l-555 555l129 129l352 -354l-2 139v655h197v-655l-2 -139z" />
    <glyph glyph-name="arrowboth" unicode="&#x2194;" horiz-adv-x="1984" 
d="M1309 1229l557 -557v-43l-557 -557l-127 127l360 362l-139 -4h-832l-139 4l363 -362l-129 -127l-557 557v43l557 557l129 -127l-363 -363l139 4h832l141 -4l-362 363z" />
    <glyph glyph-name="arrowupdn" unicode="&#x2195;" horiz-adv-x="1331" 
d="M764 193l336 335l129 -127l-541 -540h-45l-541 540l129 127l338 -338l-2 140v692l2 139l-338 -338l-129 127l541 541h45l541 -541l-129 -127l-336 336l2 -137v-692z" />
    <glyph glyph-name="uni2196" unicode="&#x2196;" horiz-adv-x="1331" 
d="M637 791l528 -529l-135 -133l-526 526l-86 90v-524h-191v815l31 31h805v-182h-524z" />
    <glyph glyph-name="uni2197" unicode="&#x2197;" horiz-adv-x="1331" 
d="M1073 1067l31 -31v-815h-191v524l-86 -90l-526 -526l-135 133l528 529l99 94h-525v182h805z" />
    <glyph glyph-name="uni2198" unicode="&#x2198;" horiz-adv-x="1331" 
d="M913 1040h191v-815l-31 -30h-805v182h525l-99 94l-528 528l135 134l526 -527l86 -90v524z" />
    <glyph glyph-name="uni2199" unicode="&#x2199;" horiz-adv-x="1331" 
d="M637 471l-98 -94h524v-182h-805l-31 30v815h191v-524l86 90l526 527l135 -134z" />
    <glyph glyph-name="partialdiff" unicode="&#x2202;" horiz-adv-x="1251" 
d="M1126 748q2 -218 -74 -396t-213 -279t-307 -98q-184 0 -311 112t-127 300q0 196 137.5 318t370.5 122q131 0 303 -41q-12 394 -291 394q-84 0 -149.5 -37t-124.5 -113l-141 117q68 107 177 167t247 60q234 0 368.5 -164t134.5 -462zM897 604q-167 37 -285 37
q-147 0 -222 -67.5t-75 -178.5q0 -102 64.5 -165.5t167.5 -63.5q136 0 230 116t120 322z" />
    <glyph glyph-name="uni2206" unicode="&#x2206;" horiz-adv-x="1355" 
d="M715 1374l569 -1315v-59h-1212v59l569 1315h74zM995 195l-317 745l-320 -745h637z" />
    <glyph glyph-name="product" unicode="&#x220f;" horiz-adv-x="1425" 
d="M170 -248v1600h1085v-1600h-217v1405h-651v-1405h-217z" />
    <glyph glyph-name="summation" unicode="&#x2211;" horiz-adv-x="1171" 
d="M438 -53h652v-195h-986v51l457 768l-457 729v52h961v-195h-621l353 -557v-51z" />
    <glyph glyph-name="minus" unicode="&#x2212;" 
d="M102 557v186h940v-186h-940z" />
    <glyph glyph-name="uni2219" unicode="&#x2219;" horiz-adv-x="573" 
d="M127 649q0 67 47 113.5t115 46.5t112.5 -45.5t44.5 -114.5q0 -67 -45 -112t-112 -45q-68 0 -115 45t-47 112z" />
    <glyph glyph-name="radical" unicode="&#x221a;" horiz-adv-x="1503" 
d="M1280 1536h213l-1051 -1808h-75v661h-328v180h516v-278z" />
    <glyph glyph-name="infinity" unicode="&#x221e;" horiz-adv-x="1738" 
d="M1688 647q0 -157 -111 -266t-283 -109q-124 0 -223 58.5t-203 177.5q-106 -119 -205 -177.5t-223 -58.5q-171 0 -280 109t-109 266t109 267t284 110q124 0 223.5 -57.5t200.5 -171.5q105 116 203 172.5t221 56.5q173 0 284.5 -110.5t111.5 -266.5zM748 651
q-78 92 -143.5 135t-139.5 43q-89 0 -144 -48.5t-55 -131.5q0 -84 55 -133t144 -49q75 0 139.5 44t143.5 140zM1473 649q0 84 -54.5 132t-146.5 48q-74 0 -139.5 -43t-143.5 -135q79 -95 144.5 -139.5t140.5 -44.5q89 0 144 49t55 133z" />
    <glyph glyph-name="integral" unicode="&#x222b;" horiz-adv-x="702" 
d="M8 -248v180l101 -4q202 0 202 226q0 111 -67 510q-74 442 -74 571q0 185 100 282t277 97q76 0 149 -17v-180l-102 4q-201 0 -201 -221q0 -49 19 -188l41 -277q42 -268 59.5 -401.5t17.5 -218.5q0 -187 -97.5 -283t-274.5 -96q-84 0 -150 16z" />
    <glyph glyph-name="approxequal" unicode="&#x2248;" 
d="M645 721l-186 113q-80 51 -121 51q-35 0 -54.5 -23.5t-19.5 -62.5v-49h-168q-4 70 -4 75q0 109 62.5 181.5t158.5 72.5q77 0 172 -53l187 -115q54 -30 76 -39.5t45 -9.5q34 0 52.5 24t18.5 62v51h170q1 -15 2 -33t1.5 -28t0.5 -16q0 -111 -62.5 -182.5t-160.5 -71.5
q-84 0 -170 53zM645 268l-186 113q-80 51 -121 51q-35 0 -54.5 -23.5t-19.5 -62.5v-49h-168q-4 70 -4 76q0 109 62.5 181.5t158.5 72.5q75 0 172 -54l187 -114q54 -30 76 -39.5t45 -9.5q34 0 52.5 24t18.5 62v51h170q1 -14 2 -33t1.5 -29t0.5 -16q0 -111 -62.5 -182.5
t-160.5 -71.5q-84 0 -170 53z" />
    <glyph glyph-name="notequal" unicode="&#x2260;" 
d="M1024 774h-274l-154 -248h428v-186h-543l-131 -215h-194l133 215h-164v186h278l152 248h-430v187h545l129 208h192l-129 -208h162v-187z" />
    <glyph glyph-name="lessequal" unicode="&#x2264;" 
d="M1016 1112v-192l-535 -197l535 -199v-192l-924 360v60zM117 0v180h899v-180h-899z" />
    <glyph glyph-name="greaterequal" unicode="&#x2265;" 
d="M131 1112l924 -360v-60l-924 -360v192l535 199l-535 197v192zM131 0v180h899v-180h-899z" />
    <glyph glyph-name="uni24EA" unicode="&#x24ea;" horiz-adv-x="2002" 
d="M119 676q-3 175 68 339.5t190.5 284.5t283.5 191.5t338 67.5q174 4 339 -67.5t286 -191.5t192.5 -285t67.5 -339q4 -174 -67.5 -339t-192.5 -285t-286 -191.5t-339 -67.5q-174 -4 -338 67.5t-283.5 191.5t-190.5 284.5t-68 339.5zM1712 676q2 145 -54.5 279t-153 231
t-229.5 153.5t-276 53.5q-190 3 -355 -92.5t-262 -262.5t-93 -362q-4 -195 93 -362t262 -262.5t355 -92.5q143 -3 276 53.5t229.5 153.5t153 231t54.5 279zM641 682q0 213 94 340t264 127q175 0 269 -126.5t94 -340.5q0 -210 -92 -346q-92 -135 -271 -135q-176 0 -268 135
q-90 137 -90 346zM1180 682q0 305 -181 305q-176 0 -176 -305q0 -320 176 -320q181 0 181 320z" />
    <glyph glyph-name="uni24FF" unicode="&#x24ff;" horiz-adv-x="2002" 
d="M119 676q-3 175 68 339.5t190.5 284.5t283.5 191.5t338 67.5q174 4 339 -67.5t286 -191.5t192.5 -285t67.5 -339q4 -174 -67.5 -339t-192.5 -285t-286 -191.5t-339 -67.5q-174 -4 -338 67.5t-283.5 191.5t-190.5 284.5t-68 339.5zM1364 682q0 214 -95 340.5t-270 126.5
q-173 0 -266.5 -126.5t-93.5 -340.5q0 -209 90 -346q91 -135 270 -135t271 135q94 134 94 346zM829 682q0 299 170 299q175 0 175 -299q0 -313 -175 -313q-170 0 -170 313z" />
    <glyph glyph-name="filledbox" unicode="&#x25a0;" horiz-adv-x="1495" 
d="M184 113v1126h1127v-1126h-1127z" />
    <glyph glyph-name="uni25A1" unicode="&#x25a1;" horiz-adv-x="1495" 
d="M184 113v1126h1127v-1126h-1127zM385 301h725v750h-725v-750z" />
    <glyph glyph-name="uni25AA" unicode="&#x25aa;" horiz-adv-x="1085" 
d="M152 115v778h780v-778h-780z" />
    <glyph glyph-name="uni25AB" unicode="&#x25ab;" horiz-adv-x="1085" 
d="M152 115v778h780v-778h-780zM340 291h403v424h-403v-424z" />
    <glyph glyph-name="triagup" unicode="&#x25b2;" horiz-adv-x="1495" 
d="M59 113l-16 28l688 1211h35l686 -1211l-16 -28h-1377z" />
    <glyph glyph-name="uni25B3" unicode="&#x25b3;" horiz-adv-x="1495" 
d="M766 1352l686 -1211l-16 -28h-1377l-16 28l688 1211h35zM1133 311l-385 676l-386 -676h771z" />
    <glyph glyph-name="uni25B4" unicode="&#x25b4;" horiz-adv-x="1085" 
d="M70 115l-17 28l473 830h35l471 -830l-16 -28h-946z" />
    <glyph glyph-name="uni25B5" unicode="&#x25b5;" horiz-adv-x="1085" 
d="M561 973l471 -830l-16 -28h-946l-17 28l473 830h35zM764 270l-221 389l-219 -389h440z" />
    <glyph glyph-name="uni25B6" unicode="&#x25b6;" horiz-adv-x="1495" 
d="M274 -23l-28 17v1364l28 16l1061 -682v-35z" />
    <glyph glyph-name="uni25B7" unicode="&#x25b7;" horiz-adv-x="1495" 
d="M274 1374l1061 -682v-35l-1061 -680l-28 17v1364zM1001 676l-555 356v-713z" />
    <glyph glyph-name="uni25B8" unicode="&#x25b8;" horiz-adv-x="1085" 
d="M254 23l-29 16v932l29 16l727 -465v-35z" />
    <glyph glyph-name="uni25B9" unicode="&#x25b9;" horiz-adv-x="1085" 
d="M254 987l727 -465v-35l-727 -464l-29 16v932zM700 504l-309 198v-395z" />
    <glyph glyph-name="triagrt" unicode="&#x25ba;" horiz-adv-x="1968" 
d="M233 -23l-28 17v1364l28 16l1694 -682v-35z" />
    <glyph glyph-name="uni25BB" unicode="&#x25bb;" horiz-adv-x="1968" 
d="M233 1374l1694 -682v-35l-1694 -680l-28 17v1364zM1446 676l-1040 420v-840z" />
    <glyph glyph-name="triagdn" unicode="&#x25bc;" horiz-adv-x="1495" 
d="M59 1239h1377l16 -29l-686 -1210h-35l-688 1210z" />
    <glyph glyph-name="uni25BD" unicode="&#x25bd;" horiz-adv-x="1495" 
d="M1436 1239l16 -29l-686 -1210h-35l-688 1210l16 29h1377zM1133 1040h-771l386 -675z" />
    <glyph glyph-name="uni25BE" unicode="&#x25be;" horiz-adv-x="1085" 
d="M526 35l-473 827l17 31h946l16 -31l-471 -827h-35z" />
    <glyph glyph-name="uni25BF" unicode="&#x25bf;" horiz-adv-x="1085" 
d="M1016 893l16 -31l-471 -827h-35l-473 827l17 31h946zM764 735h-440l219 -387z" />
    <glyph glyph-name="uni25C0" unicode="&#x25c0;" horiz-adv-x="1495" 
d="M1221 -23l-1061 680v35l1061 682l28 -16v-1364z" />
    <glyph glyph-name="uni25C1" unicode="&#x25c1;" horiz-adv-x="1495" 
d="M1221 1374l28 -16v-1364l-28 -17l-1061 680v35zM1049 1032l-555 -356l555 -357v713z" />
    <glyph glyph-name="uni25C2" unicode="&#x25c2;" horiz-adv-x="1085" 
d="M831 23l-727 464v35l727 465l29 -16v-932z" />
    <glyph glyph-name="uni25C3" unicode="&#x25c3;" horiz-adv-x="1085" 
d="M831 987l29 -16v-932l-29 -16l-727 464v35zM694 307v395l-311 -198z" />
    <glyph glyph-name="triaglf" unicode="&#x25c4;" horiz-adv-x="1968" 
d="M1735 -23l-1694 680v35l1694 682l28 -16v-1364z" />
    <glyph glyph-name="uni25C5" unicode="&#x25c5;" horiz-adv-x="1968" 
d="M1735 1374l28 -16v-1364l-28 -17l-1694 680v35zM1563 256v840l-1041 -420z" />
    <glyph glyph-name="lozenge" unicode="&#x25ca;" horiz-adv-x="1361" 
d="M719 1374l436 -698l-436 -699h-76l-436 701l436 696h76zM432 678l254 -402l246 400l-250 401z" />
    <glyph glyph-name="circle" unicode="&#x25cb;" horiz-adv-x="1495" 
d="M72 676q-3 132 52 257.5t147 217.5t218 147t259 52q132 3 257.5 -52t217.5 -146.5t146.5 -217.5t51.5 -258q3 -133 -51.5 -259t-146.5 -218t-217.5 -147t-257.5 -52q-132 -3 -258 52t-218 147t-147 218t-53 259zM1223 676q3 130 -61 243t-175 179t-239 63
q-130 0 -240 -65t-174 -176.5t-64 -243.5t64 -244t174 -177t240 -65q96 -2 185 36.5t153 104.5t101.5 157t35.5 188z" />
    <glyph glyph-name="uni25CF" unicode="&#x25cf;" horiz-adv-x="1495" 
d="M72 676q-3 132 52 257.5t147 217.5t218 147t259 52q132 3 257.5 -52t217.5 -146.5t146.5 -217.5t51.5 -258q3 -133 -51.5 -259t-146.5 -218t-217.5 -147t-257.5 -52q-132 -3 -258 52t-218 147t-147 218t-53 259z" />
    </font>
</defs>
</svg>
