<?xml version="1.0" standalone="no"?>
<!DOCTYPE svg PUBLIC "-//W3C//DTD SVG 1.1//EN" "http://www.w3.org/Graphics/SVG/1.1/DTD/svg11.dtd" >
<svg xmlns="http://www.w3.org/2000/svg" xmlns:xlink="http://www.w3.org/1999/xlink" version="1.1">
<metadata>
Created by FontForge 20170731 at Mon Dec 21 18:11:27 2020
 By Aleksey,,,
Copyright (c) 2015, 2018 by Jakob Runge, under exclusive license to TypeMates. All rights reserved.
</metadata>
<defs>
<font id="CeraPro-LightItalic" horiz-adv-x="1146" >
  <font-face 
    font-family="Cera Pro"
    font-weight="300"
    font-style="italic"
    font-stretch="normal"
    units-per-em="2048"
    panose-1="0 0 4 0 0 0 0 0 0 0"
    ascent="1655"
    descent="-393"
    x-height="989"
    cap-height="1352"
    bbox="-854 -504 2648.04 2048"
    underline-thickness="92"
    underline-position="-296"
    slope="-10"
    unicode-range="U+0020-FB02"
  />
<missing-glyph horiz-adv-x="1441" 
d="M352 1352h1043l-238 -1352h-1042zM1083 80l209 1192h-872z" />
    <glyph glyph-name="fi" unicode="fi" horiz-adv-x="1099" 
d="M803 1532l-17 -84q-60 14 -118 14q-186 0 -224 -207l-47 -266h260l-18 -94h-258l-178 -1012q-23 -130 -103.5 -201t-205.5 -71q-72 0 -148 24l16 84q75 -16 119 -16q96 0 150 52t73 157l175 983h-144l17 94h143l51 293q23 133 103.5 203.5t205.5 70.5q71 0 148 -24z
M719 0l174 989h104l-174 -989h-104zM924 1370q0 37 26.5 63.5t63.5 26.5q38 0 64 -26.5t26 -63.5t-26 -63.5t-64 -26.5q-37 0 -63.5 26.5t-26.5 63.5z" />
    <glyph glyph-name="fl" unicode="fl" horiz-adv-x="1099" 
d="M803 1532l-17 -84q-60 14 -118 14q-186 0 -224 -207l-47 -266h260l-18 -94h-258l-178 -1012q-23 -130 -103.5 -201t-205.5 -71q-72 0 -148 24l16 84q75 -16 119 -16q96 0 150 52t73 157l175 983h-144l17 94h143l51 293q23 133 103.5 203.5t205.5 70.5q71 0 148 -24z
M719 0l270 1536h105l-271 -1536h-104z" />
    <glyph glyph-name=".notdef" horiz-adv-x="1441" 
d="M352 1352h1043l-238 -1352h-1042zM1083 80l209 1192h-872z" />
    <glyph glyph-name=".null" horiz-adv-x="0" 
 />
    <glyph glyph-name="nonmarkingreturn" horiz-adv-x="682" 
 />
    <glyph glyph-name="space" unicode=" " horiz-adv-x="573" 
 />
    <glyph glyph-name="exclam" unicode="!" horiz-adv-x="585" 
d="M229 397l148 955h131l-189 -955h-90zM119 78q0 44 29 73t71 29t72.5 -29.5t30.5 -72.5q0 -42 -30.5 -70t-72.5 -28t-71 28t-29 70z" />
    <glyph glyph-name="quotedbl" unicode="&#x22;" horiz-adv-x="882" 
d="M268 846l121 506h127l-162 -506h-86zM594 846l121 506h127l-162 -506h-86z" />
    <glyph glyph-name="numbersign" unicode="#" horiz-adv-x="1122" 
d="M1137 870h-201l-70 -389h205l-16 -90h-203l-70 -391h-92l70 391h-434l-68 -391h-92l70 391h-199l14 90h199l69 389h-200l16 91h199l69 391h91l-68 -391h432l70 391h92l-70 -391h203zM342 481h432l70 389h-434z" />
    <glyph glyph-name="dollar" unicode="$" horiz-adv-x="1095" 
d="M731 1190l-84 -477l37 -21q121 -69 176 -144t55 -169q0 -147 -106 -240q-107 -91 -279 -94l-41 -233h-104l43 245q-219 41 -342 277l86 49q106 -189 272 -229l91 510l-41 24q-116 68 -170 139.5t-54 157.5q0 140 103.5 226t273.5 87l43 240h105l-45 -252
q168 -41 262 -203l-84 -53q-79 125 -197 160zM553 770l76 432q-112 -1 -181 -60t-69 -153q0 -61 40.5 -112t133.5 -107zM629 608l-80 -465q117 4 187.5 67t70.5 163q0 67 -42 122.5t-136 112.5z" />
    <glyph glyph-name="percent" unicode="%" horiz-adv-x="1640" 
d="M215 1036q0 138 99 237t237 99q131 0 221 -91t90 -224q0 -138 -99.5 -237t-238.5 -99q-129 0 -219 91t-90 224zM279 0l1058 1352h101l-1061 -1352h-98zM768 1057q0 103 -60 168t-157 65q-104 0 -174 -72t-70 -180q0 -103 62.5 -169t160.5 -66q103 0 170.5 72.5
t67.5 181.5zM846 295q0 138 99 237t237 99q132 0 221.5 -91t89.5 -225q0 -138 -99.5 -236.5t-238.5 -98.5q-129 0 -219 91t-90 224zM1401 315q0 103 -60.5 168.5t-156.5 65.5q-104 0 -174 -72t-70 -180q0 -103 62.5 -168.5t160.5 -65.5q103 0 170.5 71.5t67.5 180.5z" />
    <glyph glyph-name="ampersand" unicode="&#x26;" horiz-adv-x="1239" 
d="M1202 539l-31 -37q-175 -204 -231 -262l158 -240h-121l-109 168q-103 -95 -200.5 -141.5t-204.5 -46.5q-167 0 -276 94t-109 239q0 127 88 228q83 96 309 225q-57 90 -81.5 158.5t-24.5 134.5q0 133 88 223t217 90q118 0 193 -71.5t75 -184.5q0 -103 -75 -191t-253 -190
l269 -409q78 84 155 180l86 100zM475 1059q0 -111 88 -248q148 85 211.5 155.5t63.5 149.5q0 72 -45.5 116t-120.5 44q-90 0 -143.5 -59t-53.5 -158zM813 252l-287 438q-206 -129 -272 -200.5t-66 -170.5q0 -106 77 -174.5t198 -68.5q89 0 171.5 43t178.5 133z" />
    <glyph glyph-name="quotesingle" unicode="'" horiz-adv-x="557" 
d="M268 846l121 506h127l-162 -506h-86z" />
    <glyph glyph-name="parenleft" unicode="(" horiz-adv-x="667" 
d="M172 373q-3 253 72.5 491.5t208.5 407t295 225.5l30 -76q-142 -61 -258 -220.5t-181 -379.5t-63 -452q0 -393 218 -572l-54 -65q-268 194 -268 641z" />
    <glyph glyph-name="parenright" unicode=")" horiz-adv-x="665" 
d="M-39 -268l-31 73q142 62 258 221t181 379.5t63 454.5q0 394 -215 570l53 67q267 -193 267 -643q3 -254 -72.5 -492t-208.5 -405.5t-295 -224.5z" />
    <glyph glyph-name="asterisk" unicode="*" horiz-adv-x="786" 
d="M829 1294l-219 -92l172 -160l-45 -53l-184 141l-53 -229l-70 12l29 236l-226 -70l-24 66l217 92l-172 160l45 53l188 -143l54 229l67 -10l-26 -234l221 68z" />
    <glyph glyph-name="plus" unicode="+" 
d="M469 184l74 408h-398l17 92h397l72 406h102l-71 -406h391l-17 -92h-391l-74 -408h-102z" />
    <glyph glyph-name="comma" unicode="," horiz-adv-x="573" 
d="M51 -369l125 523h127l-162 -523h-90z" />
    <glyph glyph-name="hyphen" unicode="-" horiz-adv-x="696" 
d="M135 592l17 90h462l-16 -90h-463z" />
    <glyph glyph-name="period" unicode="." horiz-adv-x="573" 
d="M113 78q0 44 29 73t71 29t72 -29t30 -73q0 -42 -30 -70t-72 -28t-71 28t-29 70z" />
    <glyph glyph-name="slash" unicode="/" horiz-adv-x="1216" 
d="M-113 -248l1387 1845h117l-1387 -1845h-117z" />
    <glyph glyph-name="zero" unicode="0" horiz-adv-x="1243" 
d="M158 487q0 181 55 385q60 210 188 353q132 147 344 147q195 0 298.5 -134t103.5 -376q0 -181 -55 -385q-56 -204 -187 -350q-132 -147 -342 -147q-195 0 -300 133.5t-105 373.5zM1038 870q0 218 -88 312t-217 94q-170 0 -274 -137q-103 -132 -150 -320q-43 -182 -43 -338
q0 -217 88 -311q89 -92 219 -92q168 0 273 135q103 135 147 319q45 179 45 338z" />
    <glyph glyph-name="one" unicode="1" horiz-adv-x="761" 
d="M633 1352h41l-238 -1352h-106l217 1239l-328 -76l-12 94z" />
    <glyph glyph-name="two" unicode="2" horiz-adv-x="1124" 
d="M664 438l-428 -344h708l-16 -94h-916l6 33l582 477q165 135 242.5 248t77.5 237q0 129 -75 204t-204 75q-143 0 -233.5 -101t-90.5 -262q0 -47 2 -61h-110q-2 10 -2 68q0 194 125.5 324t312.5 130q174 0 280.5 -102t106.5 -269q0 -142 -88.5 -274t-279.5 -289z" />
    <glyph glyph-name="three" unicode="3" horiz-adv-x="1089" 
d="M1077 1352l-6 -35l-467 -483q155 -21 254 -129q98 -107 98 -261q0 -197 -140.5 -330.5t-346.5 -133.5q-314 0 -442 303l88 45q112 -254 356 -254q162 0 269.5 104t107.5 262q0 140 -98 224t-263 84h-69l6 32l457 477h-602l16 95h782z" />
    <glyph glyph-name="four" unicode="4" horiz-adv-x="1093" 
d="M1018 358l-17 -94h-206l-45 -264h-107l45 264h-680l6 35l635 1053h113l-598 -994h543l84 488h106l-84 -488h205z" />
    <glyph glyph-name="five" unicode="5" horiz-adv-x="1126" 
d="M1073 1257h-608l-76 -434q132 11 164 11q204 0 323 -104t119 -284q0 -201 -137.5 -333.5t-347.5 -132.5q-158 0 -272 77t-177 226l86 45q62 -131 149.5 -192.5t211.5 -61.5q165 0 272 103.5t107 262.5q0 141 -94 221t-261 80h-262l107 611h713z" />
    <glyph glyph-name="six" unicode="6" horiz-adv-x="1118" 
d="M993 438q0 -124 -63 -229.5t-170.5 -167t-233.5 -61.5q-183 0 -304.5 120t-121.5 299q0 105 47 201q45 86 189 266l397 486h135l-448 -537q73 37 160 37q175 0 294 -119.5t119 -294.5zM885 436q0 142 -90 232q-89 92 -228 92q-151 0 -255.5 -105.5t-104.5 -257.5
q0 -138 90 -231q90 -90 229 -90q152 0 255.5 104t103.5 256z" />
    <glyph glyph-name="seven" unicode="7" horiz-adv-x="1003" 
d="M219 1352h883l-6 -35l-946 -1317h-117l907 1257h-737z" />
    <glyph glyph-name="eight" unicode="8" horiz-adv-x="1171" 
d="M1020 356q0 -161 -132.5 -268.5t-330.5 -107.5q-205 0 -334 97t-129 251q0 139 109.5 241.5t306.5 149.5q-116 66 -170.5 139.5t-54.5 165.5q0 148 117 247t290 99q177 0 283 -86t106 -227q0 -257 -344 -357q283 -137 283 -344zM633 758q177 47 259.5 116.5t82.5 172.5
t-77.5 165t-205.5 62q-131 0 -215 -69.5t-84 -178.5q0 -79 53.5 -139t186.5 -129zM913 360q0 85 -65 150q-69 69 -236 149q-409 -86 -409 -321q0 -121 95 -192.5t255 -71.5t260 79.5t100 206.5z" />
    <glyph glyph-name="nine" unicode="9" horiz-adv-x="1118" 
d="M1085 952q0 -106 -49 -200q-46 -93 -188 -267l-397 -485h-136l449 537q-72 -35 -160 -35q-176 0 -295 117.5t-119 293.5q0 124 62.5 229.5t170.5 167.5t236 62q183 0 304.5 -120.5t121.5 -299.5zM977 954q0 142 -90 232t-230 90q-152 0 -255 -104t-103 -257
q0 -138 90 -231q89 -92 229 -92q148 0 253.5 105t105.5 257z" />
    <glyph glyph-name="colon" unicode=":" horiz-adv-x="573" 
d="M256 893q0 44 29 73t71 29t72.5 -29.5t30.5 -72.5q0 -42 -30.5 -70t-72.5 -28t-71 28t-29 70zM113 78q0 44 29 73t71 29t72 -29t30 -73q0 -42 -30 -70t-72 -28t-71 28t-29 70z" />
    <glyph glyph-name="semicolon" unicode=";" horiz-adv-x="573" 
d="M256 893q0 44 29 73t71 29t72.5 -29.5t30.5 -72.5q0 -42 -30.5 -70t-72.5 -28t-71 28t-29 70zM51 -369l125 523h127l-162 -523h-90z" />
    <glyph glyph-name="less" unicode="&#x3c;" 
d="M1085 1026l-16 -104l-739 -287l637 -287l-17 -94l-809 369l6 34z" />
    <glyph glyph-name="equal" unicode="=" 
d="M201 799l16 94h852l-16 -94h-852zM129 383l16 92h850l-16 -92h-850z" />
    <glyph glyph-name="greater" unicode="&#x3e;" 
d="M250 1024l809 -367l-6 -34l-936 -369l18 106l731 285l-633 289z" />
    <glyph glyph-name="question" unicode="?" horiz-adv-x="905" 
d="M555 743q151 130 192.5 185.5t45.5 142.5q0 96 -58 151.5t-153 55.5q-171 0 -273 -193l-82 48q57 113 152 176t211 63q136 0 223.5 -81.5t87.5 -211.5q0 -70 -29 -133q-28 -57 -79 -111t-164 -151q-90 -78 -129 -139t-54 -148h-96q11 102 55.5 180t149.5 166zM268 80
q0 43 29.5 71.5t71.5 28.5t72 -29t30 -71q0 -43 -30 -71.5t-72 -28.5t-71.5 28.5t-29.5 71.5z" />
    <glyph glyph-name="at" unicode="@" horiz-adv-x="1871" 
d="M1776 629q0 -252 -148 -403.5t-397 -151.5h-70l25 137q-54 -68 -136 -105.5t-178 -37.5q-161 0 -268.5 112.5t-107.5 282.5q0 192 132.5 326.5t321.5 134.5q112 0 201 -52.5t127 -140.5l31 174h96l-131 -741q186 5 294.5 129t108.5 334q0 181 -84 321t-235.5 216.5
t-347.5 76.5q-214 4 -399 -102t-292.5 -288.5t-103.5 -393.5q-2 -140 53.5 -266t152 -216t231 -142t282.5 -50q134 0 246 37l16 -82q-124 -47 -274 -47q-165 -2 -316 58t-259.5 162t-171.5 244.5t-60 297.5q-3 140 42 275t129.5 244.5t195.5 192t247.5 127t278.5 41.5
q162 2 306 -51.5t246 -147t160 -225t56 -280.5zM1245 547q0 125 -81 203.5t-210 78.5q-147 0 -248.5 -104.5t-101.5 -253.5q0 -136 83 -223.5t212 -87.5q141 0 243.5 114.5t102.5 272.5z" />
    <glyph glyph-name="A" unicode="A" horiz-adv-x="1361" 
d="M1096 0l-78 324h-705l-190 -324h-121l821 1372h41l338 -1372h-106zM995 418l-182 760l-444 -760h626z" />
    <glyph glyph-name="B" unicode="B" horiz-adv-x="1253" 
d="M1135 399q0 -177 -131 -288t-342 -111h-547l237 1352h418q158 0 250 -82t92 -223q0 -108 -54 -190t-149 -124q107 -42 166.5 -129t59.5 -205zM750 1257h-308l-86 -483h359q129 0 207.5 73.5t78.5 192.5q0 103 -65 160t-186 57zM1024 401q0 125 -81 201t-216 76h-387
l-102 -584h419q166 0 266.5 84t100.5 223z" />
    <glyph glyph-name="C" unicode="C" horiz-adv-x="1456" 
d="M145 623q-4 146 57 286t164 242.5t243 163.5t286 57q174 0 314 -79t221 -226l-87 -55q-74 128 -190 195t-264 67q-126 2 -244 -50t-204 -139.5t-137 -208.5t-48 -249q0 -238 151.5 -393.5t383.5 -155.5q136 0 259.5 56.5t217.5 160.5l73 -64q-106 -119 -253 -185
t-306 -66q-132 -2 -251 47.5t-204.5 135.5t-134.5 206.5t-47 253.5z" />
    <glyph glyph-name="D" unicode="D" horiz-adv-x="1433" 
d="M115 0l237 1352h320q304 0 493 -172t189 -449q2 -157 -58 -294t-167 -233.5t-259 -151t-327 -52.5h-428zM238 94h311q202 0 360 79.5t246 224t88 329.5q0 239 -158.5 384.5t-420.5 145.5h-224z" />
    <glyph glyph-name="E" unicode="E" horiz-adv-x="1155" 
d="M115 0l237 1352h846l-16 -95h-742l-86 -479h578l-17 -96h-575l-102 -588h763l-16 -94h-870z" />
    <glyph glyph-name="F" unicode="F" horiz-adv-x="1060" 
d="M115 0l237 1352h826l-17 -95h-721l-92 -524h600l-16 -96h-600l-111 -637h-106z" />
    <glyph glyph-name="G" unicode="G" horiz-adv-x="1533" 
d="M145 623q-4 146 57 286t164 242.5t243 163.5t286 57q167 0 306.5 -77t225.5 -218l-84 -61q-74 125 -191.5 191.5t-264.5 66.5q-124 2 -241.5 -50t-204 -139.5t-137.5 -208.5t-48 -249q0 -238 151.5 -393.5t383.5 -155.5q137 0 262 58.5t217 166.5l47 266h-498l17 95h606
l-70 -388q-100 -137 -258 -216.5t-334 -79.5q-176 -3 -323 82t-230.5 234t-81.5 327z" />
    <glyph glyph-name="H" unicode="H" horiz-adv-x="1445" 
d="M115 0l237 1352h107l-101 -574h832l100 574h107l-238 -1352h-106l118 682h-831l-119 -682h-106z" />
    <glyph glyph-name="I" unicode="I" horiz-adv-x="505" 
d="M115 0l237 1352h107l-238 -1352h-106z" />
    <glyph glyph-name="J" unicode="J" horiz-adv-x="751" 
d="M-29 12l19 92q104 -26 184 -26q103 0 161 52t77 161l186 1061h107l-191 -1076q-52 -296 -336 -296q-107 0 -207 32z" />
    <glyph glyph-name="K" unicode="K" horiz-adv-x="1253" 
d="M352 1352h107l-238 -1352h-106zM1286 1352l-770 -631l582 -721h-127l-592 731l754 621h153z" />
    <glyph glyph-name="L" unicode="L" horiz-adv-x="1021" 
d="M115 0l237 1352h107l-221 -1258h665l-16 -94h-772z" />
    <glyph glyph-name="M" unicode="M" horiz-adv-x="1607" 
d="M1522 1372h41l-242 -1372h-107l193 1094l-588 -672h-41l-362 692l-195 -1114h-106l241 1372h41l420 -805z" />
    <glyph glyph-name="N" unicode="N" horiz-adv-x="1445" 
d="M1290 1352h107l-242 -1372h-43l-694 1163l-197 -1143h-106l241 1372h41l695 -1167z" />
    <glyph glyph-name="O" unicode="O" horiz-adv-x="1603" 
d="M145 623q-3 147 58 286.5t162.5 241.5t240.5 163t285 58q132 2 250.5 -47.5t203.5 -135.5t134 -206.5t47 -253.5q3 -147 -58 -286.5t-163.5 -241.5t-241.5 -163t-285 -58q-176 -3 -323 83t-230 235t-80 325zM1413 727q0 235 -150 391t-378 156q-168 3 -314.5 -85.5
t-232 -239t-82.5 -322.5q0 -235 149 -391t377 -156q124 -2 241.5 50t204 139.5t137.5 208.5t48 249z" />
    <glyph glyph-name="P" unicode="P" horiz-adv-x="1163" 
d="M115 0l237 1352h416q183 0 288 -92t105 -252q0 -180 -129 -291t-338 -111h-366l-107 -606h-106zM344 700h356q160 0 254.5 82.5t94.5 223.5q0 122 -75 186.5t-216 64.5h-318z" />
    <glyph glyph-name="Q" unicode="Q" horiz-adv-x="1605" 
d="M1944 -301l-15 -84q-78 -16 -176 -16q-507 0 -758 413q-103 -32 -217 -32q-176 -3 -323 83t-230 235t-80 325q-3 147 58 286.5t162.5 241.5t240.5 163t285 58q135 0 253.5 -49t202 -134.5t131.5 -204.5t48 -255q0 -219 -121 -405t-315 -275q124 -191 298 -272.5
t416 -81.5q54 0 140 4zM782 78q124 -3 242 50t204 141.5t137 209.5t48 248q0 153 -67.5 278t-188.5 197t-272 72q-168 3 -314.5 -85.5t-232 -239t-82.5 -322.5q-2 -151 66 -278t190.5 -200.5t269.5 -70.5z" />
    <glyph glyph-name="R" unicode="R" horiz-adv-x="1257" 
d="M772 610l358 -610h-118l-355 606h-329l-107 -606h-106l237 1352h416q184 0 288.5 -91t104.5 -251q0 -161 -105 -269t-284 -131zM440 1257l-96 -557h356q161 0 255 82.5t94 223.5q0 122 -75 186.5t-216 64.5h-318z" />
    <glyph glyph-name="S" unicode="S" horiz-adv-x="1138" 
d="M57 299l88 51q151 -272 414 -272q135 0 219 72.5t84 189.5q0 80 -48.5 142.5t-156.5 125.5l-147 88q-244 142 -244 330q0 148 114 247t288 99q275 0 413 -237l-84 -52q-63 99 -143 145t-188 46q-130 0 -209.5 -66.5t-79.5 -175.5q0 -74 45 -131.5t153 -120.5l144 -84
q132 -79 194 -162t62 -186q0 -161 -119 -264.5t-301 -103.5q-160 0 -288 82t-210 237z" />
    <glyph glyph-name="T" unicode="T" horiz-adv-x="1198" 
d="M459 0l223 1257h-496l17 95h1095l-16 -95h-494l-223 -1257h-106z" />
    <glyph glyph-name="U" unicode="U" horiz-adv-x="1396" 
d="M182 438q0 38 11 121l137 793h106l-139 -799q-8 -44 -8 -107q0 -161 107 -264.5t274 -103.5t286 104q122 110 152 283l154 887h106l-156 -895q-41 -221 -186 -348q-147 -129 -358 -129q-214 0 -350 128.5t-136 329.5z" />
    <glyph glyph-name="V" unicode="V" horiz-adv-x="1361" 
d="M1303 1352h122l-821 -1372h-41l-338 1372h109l282 -1168z" />
    <glyph glyph-name="W" unicode="W" horiz-adv-x="2187" 
d="M2103 1352h119l-741 -1372h-43l-242 1173l-659 -1173h-41l-263 1372h109l211 -1147l655 1167h43l240 -1167z" />
    <glyph glyph-name="X" unicode="X" horiz-adv-x="1196" 
d="M1245 1352l-547 -670l342 -682h-114l-301 608l-510 -608h-131l589 702l-319 650h115l280 -576l465 576h131z" />
    <glyph glyph-name="Y" unicode="Y" horiz-adv-x="1255" 
d="M1290 1352l-606 -779l-100 -573h-107l101 575l-334 777h108l289 -680l526 680h123z" />
    <glyph glyph-name="Z" unicode="Z" horiz-adv-x="1208" 
d="M1280 1352l-6 -35l-1098 -1223h885l-17 -94h-1054l6 35l1096 1222h-789l14 95h963z" />
    <glyph glyph-name="bracketleft" unicode="[" horiz-adv-x="698" 
d="M88 -268l309 1761h361l-17 -92h-258l-276 -1575h258l-16 -94h-361z" />
    <glyph glyph-name="backslash" unicode="\" horiz-adv-x="1222" 
d="M969 -248l-756 1845h102l756 -1845h-102z" />
    <glyph glyph-name="bracketright" unicode="]" horiz-adv-x="698" 
d="M-16 -268l16 92h260l277 1575h-261l17 94h360l-309 -1761h-360z" />
    <glyph glyph-name="asciicircum" unicode="^" horiz-adv-x="1026" 
d="M150 592l495 780h43l221 -780h-98l-170 600l-381 -600h-110z" />
    <glyph glyph-name="underscore" unicode="_" horiz-adv-x="1024" 
d="M-35 -254l17 90h831l-16 -90h-832z" />
    <glyph glyph-name="grave" unicode="`" horiz-adv-x="1024" 
d="M670 1155l-84 424l6 18h115l38 -442h-75z" />
    <glyph glyph-name="a" unicode="a" horiz-adv-x="1292" 
d="M1085 989h103l-174 -989h-99l29 168q-62 -88 -164 -138t-223 -50q-190 0 -319 135.5t-129 337.5q-2 111 40.5 214.5t115 179.5t172.5 120.5t208 42.5q135 0 244.5 -65.5t159.5 -172.5zM1004 553q0 162 -98 262t-257 100q-85 1 -166 -36t-140.5 -99t-94.5 -147t-33 -174
q0 -167 104 -276t263 -109q111 -3 210 63t157 178t55 238z" />
    <glyph glyph-name="b" unicode="b" horiz-adv-x="1292" 
d="M1184 532q2 -112 -40 -215.5t-113.5 -177.5t-170.5 -117.5t-205 -41.5q-134 0 -245.5 66t-161.5 171l-37 -217h-105l269 1536h104l-127 -713q64 87 164 137t215 50q195 0 324 -135.5t129 -342.5zM1075 526q0 169 -102.5 279t-263.5 110q-115 0 -212 -65t-153.5 -176.5
t-56.5 -243.5q0 -154 103.5 -255t260.5 -101q177 0 300.5 131.5t123.5 320.5z" />
    <glyph glyph-name="c" unicode="c" horiz-adv-x="1138" 
d="M111 465q-3 146 71 273t200.5 201t270.5 71q130 0 236.5 -57t169.5 -160l-80 -54q-57 84 -141.5 129t-184.5 45q-182 0 -309 -128t-127 -314q0 -173 108 -284t273 -111q96 0 181 38.5t147 108.5l67 -63q-146 -180 -397 -180q-208 0 -346.5 137.5t-138.5 347.5z" />
    <glyph glyph-name="d" unicode="d" horiz-adv-x="1292" 
d="M1182 1536h104l-270 -1536h-98l28 166q-62 -87 -164 -136.5t-223 -49.5q-193 0 -320.5 135.5t-127.5 343.5q0 152 70.5 278.5t193 199.5t268.5 73q138 0 247 -65.5t157 -172.5zM1006 555q0 159 -101 260q-100 100 -258 100q-175 0 -302.5 -132.5t-127.5 -317.5
q0 -173 103.5 -282t263.5 -109q113 0 210.5 65.5t154.5 176.5t57 239z" />
    <glyph glyph-name="e" unicode="e" horiz-adv-x="1155" 
d="M1040 471h-823v-2q0 -176 105 -287q108 -108 278 -108q187 0 332 139l57 -68q-78 -79 -181 -122t-216 -43q-207 0 -344 138t-137 345q-2 108 40.5 210t114 176t170 118t203.5 43q184 0 302 -117.5t118 -300.5q0 -69 -19 -121zM225 563h727v31q0 146 -87 233.5t-230 87.5
q-156 0 -268 -100q-115 -100 -142 -252z" />
    <glyph glyph-name="f" unicode="f" horiz-adv-x="583" 
d="M803 1532l-17 -84q-60 14 -118 14q-186 0 -224 -207l-47 -266h260l-18 -94h-258l-178 -1012q-23 -130 -103.5 -201t-205.5 -71q-72 0 -148 24l16 84q75 -16 119 -16q96 0 150 52t73 157l175 983h-144l17 94h143l51 293q23 133 103.5 203.5t205.5 70.5q71 0 148 -24z" />
    <glyph glyph-name="g" unicode="g" horiz-adv-x="1292" 
d="M1083 989h103l-164 -940q-35 -204 -173 -321t-345 -117q-142 0 -264 60.5t-197 168.5l74 62q66 -94 167 -145.5t222 -51.5q164 0 274.5 93t139.5 257l20 117q-66 -80 -166.5 -124t-218.5 -44q-193 0 -319.5 128t-126.5 321q0 154 72.5 282t197 201.5t272.5 73.5
q134 0 241 -64.5t155 -171.5zM1008 557q0 158 -100 258t-257 100q-117 0 -217.5 -61.5t-159.5 -166t-59 -226.5q0 -157 103.5 -259t263.5 -102q114 -3 214 59t157.5 168.5t54.5 229.5z" />
    <glyph glyph-name="h" unicode="h" horiz-adv-x="1142" 
d="M997 692q0 -28 -12 -110l-102 -582h-103l103 588q0 1 3.5 19.5t6 38t2.5 36.5q0 106 -68.5 169.5t-181.5 63.5q-123 0 -211.5 -75t-111.5 -201l-111 -639h-105l269 1536h104l-114 -657q115 131 299 131q149 0 241 -87.5t92 -230.5z" />
    <glyph glyph-name="i" unicode="i" horiz-adv-x="485" 
d="M104 0l175 989h104l-174 -989h-105zM309 1370q0 37 26.5 63.5t63.5 26.5q38 0 64 -26.5t26 -63.5t-26 -63.5t-64 -26.5q-37 0 -63.5 26.5t-26.5 63.5z" />
    <glyph glyph-name="j" unicode="j" horiz-adv-x="487" 
d="M-262 -365l14 86q59 -16 121 -16q180 0 215 189l193 1095h104l-197 -1108q-24 -136 -103 -203t-204 -67q-81 0 -143 24zM309 1370q0 37 26.5 63.5t63.5 26.5q38 0 64 -26.5t26 -63.5t-26 -63.5t-64 -26.5q-37 0 -63.5 26.5t-26.5 63.5z" />
    <glyph glyph-name="k" unicode="k" horiz-adv-x="985" 
d="M375 1536h104l-270 -1536h-105zM1004 989l-539 -452l399 -537h-121l-407 547l522 442h146z" />
    <glyph glyph-name="l" unicode="l" horiz-adv-x="485" 
d="M104 0l271 1536h104l-270 -1536h-105z" />
    <glyph glyph-name="m" unicode="m" horiz-adv-x="1775" 
d="M1630 692q0 -36 -12 -110l-102 -582h-105l107 588q10 80 10 88q0 109 -64.5 174t-173.5 65q-118 0 -205 -75t-108 -201l-115 -639h-102l104 588q10 58 10 88q0 110 -64 174.5t-173 64.5q-115 0 -202 -74t-111 -202l-115 -639h-103l175 989h98l-19 -115q120 136 297 136
q108 0 186.5 -51t110.5 -142q56 91 147.5 142t203.5 51q148 0 236.5 -88t88.5 -230z" />
    <glyph glyph-name="n" unicode="n" horiz-adv-x="1142" 
d="M997 692q0 -36 -12 -110l-102 -582h-105l107 588q10 65 10 90q0 108 -67.5 172.5t-180.5 64.5q-123 0 -211.5 -75t-111.5 -201l-115 -639h-103l175 989h98l-19 -117q119 138 306 138q149 0 239 -90q92 -89 92 -228z" />
    <glyph glyph-name="o" unicode="o" horiz-adv-x="1249" 
d="M111 467q-2 108 42 209t117.5 175t175 117.5t209.5 41.5q207 0 346.5 -140.5t139.5 -347.5q3 -144 -72 -270.5t-203 -200.5t-274 -71q-205 0 -343 140t-138 347zM1032 522q0 166 -108.5 278.5t-272.5 112.5q-180 0 -306 -130t-126 -316q0 -170 106.5 -280.5t270.5 -110.5
q182 0 309 130t127 316z" />
    <glyph glyph-name="p" unicode="p" horiz-adv-x="1290" 
d="M1182 535q2 -112 -40 -216t-113.5 -178.5t-170.5 -118.5t-205 -42q-135 0 -247 67t-160 174l-103 -590h-104l242 1358h98l-29 -166q63 88 165 137.5t220 49.5q191 0 319 -135.5t128 -339.5zM711 913q-175 0 -300.5 -142.5t-125.5 -344.5q0 -153 101.5 -251.5t262.5 -98.5
q180 0 303 131.5t123 320.5q0 167 -103.5 276t-260.5 109z" />
    <glyph glyph-name="q" unicode="q" horiz-adv-x="1292" 
d="M1085 989h103l-240 -1358h-102l92 525q-63 -82 -163.5 -129t-215.5 -47q-193 0 -321.5 135t-128.5 338q0 240 153.5 398.5t380.5 158.5q135 0 247 -64t159 -168zM1006 569q0 154 -100.5 250t-260.5 96q-181 0 -304.5 -132t-123.5 -330q0 -165 104 -272t263 -107
q172 0 297 146t125 349z" />
    <glyph glyph-name="r" unicode="r" horiz-adv-x="716" 
d="M768 983l-16 -88q-41 8 -84 8q-132 0 -232 -80q-98 -79 -119 -209l-108 -614h-105l177 989h98l-23 -129q122 137 316 137q50 0 96 -14z" />
    <glyph glyph-name="s" unicode="s" horiz-adv-x="931" 
d="M66 203l79 61q66 -100 137.5 -145t163.5 -45q100 0 165 49.5t65 124.5q0 56 -39 95.5t-145 94.5l-86 45q-113 60 -161 120.5t-48 144.5q0 117 89 189.5t230 72.5q205 0 318 -168l-76 -62q-102 135 -250 135q-91 0 -147 -44.5t-56 -116.5q0 -57 34 -96.5t126 -88.5l86 -45
q126 -69 178.5 -128t52.5 -144q0 -122 -94 -197t-246 -75q-120 0 -217 58t-159 165z" />
    <glyph glyph-name="t" unicode="t" horiz-adv-x="743" 
d="M406 895l-107 -598q-6 -27 -6 -59q0 -85 56.5 -124.5t170.5 -39.5q5 0 17.5 0.5t35.5 1.5t43 2l-16 -88q-48 -10 -106 -10q-146 0 -226 60.5t-80 184.5q0 39 9 74l104 596h-172l14 94h174l50 281h104l-49 -281h317l-14 -94h-319z" />
    <glyph glyph-name="u" unicode="u" horiz-adv-x="1124" 
d="M152 324q0 48 8 79l100 586h105l-107 -598q-4 -28 -4 -63q0 -113 74 -183.5t192 -70.5q115 0 196.5 72t104.5 194l113 649h104l-114 -653q-26 -158 -144 -260q-116 -96 -268 -96q-157 0 -258.5 96.5t-101.5 247.5z" />
    <glyph glyph-name="v" unicode="v" horiz-adv-x="1079" 
d="M969 989h118l-630 -1009h-41l-281 1009h107l221 -831z" />
    <glyph glyph-name="w" unicode="w" horiz-adv-x="1730" 
d="M1622 989h115l-572 -1009h-43l-211 833l-510 -833h-43l-223 1009h107l170 -823l503 844h43l211 -842z" />
    <glyph glyph-name="x" unicode="x" horiz-adv-x="980" 
d="M991 989l-434 -485l287 -504h-119l-242 432l-387 -432h-131l467 516l-264 473h117l221 -403l354 403h131z" />
    <glyph glyph-name="y" unicode="y" horiz-adv-x="1140" 
d="M934 989h104l-178 -999q-29 -176 -144.5 -277.5t-283.5 -101.5q-123 0 -228.5 60.5t-168.5 166.5l74 64q122 -197 325 -197q127 0 213 77t111 212l22 125q-117 -129 -297 -129q-149 0 -241 87.5t-92 229.5q0 41 12 111l100 571h105l-105 -577q-10 -62 -10 -88
q0 -109 67.5 -174.5t182.5 -65.5q120 0 208.5 75t112.5 203z" />
    <glyph glyph-name="z" unicode="z" horiz-adv-x="921" 
d="M934 989l-6 -35l-762 -860h618l-14 -94h-788l6 35l760 860h-562l17 94h731z" />
    <glyph glyph-name="braceleft" unicode="{" horiz-adv-x="806" 
d="M758 1493h110l-16 -92h-96q-121 0 -175.5 -77.5t-54.5 -250.5v-176q0 -146 -39 -212.5t-131 -78.5q105 -24 105 -129q0 -39 -15 -89.5t-53 -151.5q-39 -100 -56.5 -160.5t-17.5 -108.5q0 -143 162 -143h94l-14 -90h-100q-117 0 -180.5 56t-63.5 159q0 39 11 87.5t24 88.5
t45 127q61 149 61 213q0 100 -114 100h-117l14 92h119q97 0 131.5 50t34.5 190v180q0 216 80 316t252 100z" />
    <glyph glyph-name="bar" unicode="|" horiz-adv-x="679" 
d="M326 -248v1845h94v-1845h-94z" />
    <glyph glyph-name="braceright" unicode="}" horiz-adv-x="808" 
d="M608 659h117l-16 -94h-117q-96 0 -132 -51t-36 -186v-181q0 -217 -79.5 -316t-252.5 -99h-110l16 92h96q123 0 176.5 76.5t53.5 253.5v174q0 146 39 212t131 78q-105 24 -105 130q0 39 15 89.5t53 151.5q73 188 73 268q0 144 -159 144h-97l15 90h102q116 0 180 -56
t64 -159q0 -58 -19 -122.5t-63 -180.5q-61 -149 -61 -213q0 -101 116 -101z" />
    <glyph glyph-name="asciitilde" unicode="~" 
d="M662 535l-175 114q-51 35 -77 47.5t-54 12.5q-86 0 -100 -150h-90q7 121 54.5 184.5t129.5 63.5q42 0 84 -17.5t101 -56.5l174 -117q52 -34 77.5 -45.5t53.5 -11.5q86 0 100 150h90q-7 -121 -54.5 -185.5t-129.5 -64.5q-42 0 -84 18t-100 58z" />
    <glyph glyph-name="uni00A0" unicode="&#xa0;" horiz-adv-x="573" 
 />
    <glyph glyph-name="exclamdown" unicode="&#xa1;" horiz-adv-x="585" 
d="M264 911q0 42 30.5 70.5t72.5 28.5t71 -28.5t29 -70.5q0 -44 -29 -73t-71 -29t-72.5 29.5t-30.5 72.5zM80 -369l186 961h90l-147 -961h-129z" />
    <glyph glyph-name="cent" unicode="&#xa2;" horiz-adv-x="1136" 
d="M930 406l67 -62q-78 -90 -183.5 -138t-223.5 -46l-51 -348h-105l53 360q-174 34 -278 162q-105 132 -105 309q-2 105 41 204.5t115.5 173.5t172.5 119t206 46l51 352h105l-54 -358q105 -17 189 -72.5t135 -142.5l-82 -52q-44 69 -111 113.5t-145 58.5l-123 -831
q93 2 178 41t148 111zM502 264l121 828q-171 -12 -290.5 -141.5t-119.5 -303.5q0 -142 79.5 -247t209.5 -136z" />
    <glyph glyph-name="sterling" unicode="&#xa3;" horiz-adv-x="1042" 
d="M406 973q0 -78 47 -215q24 -77 41 -148h327l-16 -92h-299v-24q0 -124 -54.5 -228t-154.5 -172h580l-17 -94h-817l4 33q352 166 352 452q0 27 -2 33h-243l14 92h217q-5 24 -37 125q-29 88 -41 140.5t-12 105.5q0 170 111 280.5t280 110.5q154 0 254.5 -93.5t120.5 -258.5
l-103 -23q-17 134 -87.5 206.5t-182.5 72.5q-123 0 -203 -86q-79 -85 -79 -217z" />
    <glyph glyph-name="currency" unicode="&#xa4;" horiz-adv-x="1366" 
d="M1069 326l211 -234l-68 -61l-211 235q-143 -104 -317 -104q-196 0 -338 129l-266 -260l-64 67l271 260q-97 132 -97 297q0 105 41 203t115 174l-196 223l65 62l201 -227q132 100 307 100q201 0 346 -135l279 262l63 -68l-283 -262q93 -128 93 -289q0 -214 -152 -372z
M684 260q177 0 302.5 128t125.5 308q0 166 -112.5 281t-276.5 115q-177 0 -300.5 -126.5t-123.5 -308.5q0 -168 110.5 -282.5t274.5 -114.5z" />
    <glyph glyph-name="yen" unicode="&#xa5;" horiz-adv-x="1089" 
d="M1221 1352l-568 -639h400l-17 -92h-415l-39 -224h415l-16 -92h-416l-53 -305h-106l53 305h-410l17 92h409l39 224h-410l17 92h395l-342 639h109l309 -574l502 574h127z" />
    <glyph glyph-name="brokenbar" unicode="&#xa6;" horiz-adv-x="679" 
d="M326 983v614h94v-614h-94zM326 -248v615h94v-615h-94z" />
    <glyph glyph-name="section" unicode="&#xa7;" horiz-adv-x="1134" 
d="M1030 385q0 -115 -82 -192t-217 -91q6 -27 6 -53q0 -120 -90 -201t-221 -81q-100 0 -182 50t-129 140l75 57q43 -73 104.5 -112t133.5 -39q88 0 144.5 52t56.5 132q0 54 -30 105.5t-99 117.5l-183 172q-96 87 -140 162.5t-44 151.5q0 114 81.5 190.5t217.5 93.5
q-6 27 -6 54q0 118 90 199t221 81q100 0 181 -49.5t131 -140.5l-78 -56q-41 72 -102.5 112t-133.5 40q-88 0 -145.5 -53t-57.5 -133q0 -53 31 -105t101 -119l182 -172q97 -93 140.5 -166.5t43.5 -146.5zM922 379q0 55 -33 109.5t-109 127.5l-194 187q-91 88 -125 158
q-98 -11 -158.5 -65.5t-60.5 -133.5q0 -55 33 -110.5t108 -127.5l192 -184q83 -80 127 -160q100 10 160 64.5t60 134.5z" />
    <glyph glyph-name="dieresis" unicode="&#xa8;" horiz-adv-x="1024" 
d="M362 1370q0 36 26 61t63 25t63.5 -25t26.5 -61t-26.5 -61t-63.5 -25t-63 25t-26 61zM793 1370q0 36 26.5 61t63.5 25t62.5 -24.5t25.5 -61.5t-25.5 -61.5t-62.5 -24.5t-63.5 25t-26.5 61z" />
    <glyph glyph-name="copyright" unicode="&#xa9;" horiz-adv-x="1624" 
d="M150 647q-3 140 57 275t160 234t235 159t275 57q132 3 255.5 -50.5t213.5 -144t143 -215t51 -257.5q3 -140 -57.5 -275t-160.5 -234t-235.5 -159t-275.5 -57q-131 -3 -254 50.5t-213 144t-143 215t-51 257.5zM1450 707q3 156 -75.5 292.5t-213 216.5t-287.5 76
q-126 3 -244.5 -49t-205 -140t-138 -208.5t-48.5 -247.5q-2 -117 43.5 -226.5t123.5 -189.5t186 -127t224 -45q124 -2 242.5 51t205.5 141.5t138.5 209t48.5 246.5zM449 655q0 173 125 297.5t300 124.5q96 0 178 -45t136 -127l-76 -55q-42 67 -106 102t-138 35
q-133 0 -225 -96.5t-92 -233.5q0 -125 80 -208q84 -84 203 -84q143 0 243 112l64 -59q-61 -69 -142.5 -106.5t-169.5 -37.5q-161 0 -270.5 110t-109.5 271z" />
    <glyph glyph-name="ordfeminine" unicode="&#xaa;" horiz-adv-x="862" 
d="M737 1124h94l-110 -624h-88l16 96q-39 -52 -100.5 -81.5t-132.5 -29.5q-118 0 -199 84q-80 86 -80 213q0 148 99 253.5t241 105.5q81 0 145 -37t95 -100zM686 846q0 92 -57 150.5t-148 58.5q-101 0 -175.5 -78t-74.5 -184q0 -100 58.5 -162t154.5 -62q101 0 171.5 80.5
t70.5 196.5z" />
    <glyph glyph-name="guillemotleft" unicode="&#xab;" horiz-adv-x="940" 
d="M379 168l-285 367l6 34l406 367l63 -68l-350 -323l236 -320zM727 168l-285 367l7 34l405 367l64 -68l-351 -323l236 -320z" />
    <glyph glyph-name="logicalnot" unicode="&#xac;" 
d="M799 188l73 404h-727l17 92h829l-88 -496h-104z" />
    <glyph glyph-name="uni00AD" unicode="&#xad;" horiz-adv-x="696" 
d="M135 592l17 90h462l-16 -90h-463z" />
    <glyph glyph-name="registered" unicode="&#xae;" horiz-adv-x="1179" 
d="M1153 905q2 -98 -40.5 -193t-113 -165t-166.5 -112t-196 -40q-126 -2 -236 61.5t-174 173t-61 234.5q-2 98 40.5 193t113 164.5t166.5 111t196 39.5q125 3 235.5 -61t174.5 -173t61 -233zM1073 907q0 164 -112.5 276.5t-278.5 112.5q-117 0 -217.5 -58.5t-159.5 -158
t-59 -215.5q0 -166 112.5 -278.5t278.5 -112.5q113 -3 215 57t162.5 162t58.5 215zM754 842l123 -207h-97l-116 194h-105l-35 -194h-86l88 514h195q68 0 112 -43t44 -109q0 -56 -32.5 -97t-90.5 -58zM788 993q0 35 -22.5 56.5t-60.5 21.5h-105l-31 -166h107q54 0 83 23
t29 65z" />
    <glyph glyph-name="overscore" unicode="&#xaf;" horiz-adv-x="1024" 
d="M391 1327l17 88h534l-16 -88h-535z" />
    <glyph glyph-name="degree" unicode="&#xb0;" horiz-adv-x="737" 
d="M174 1071q0 123 90 212t217 89q121 0 205 -83t84 -202q0 -124 -91.5 -213.5t-217.5 -89.5q-120 0 -203.5 83.5t-83.5 203.5zM674 1087q0 85 -55.5 142t-137.5 57q-88 0 -150.5 -63.5t-62.5 -151.5q0 -85 56 -142t141 -57q88 0 148.5 62t60.5 153z" />
    <glyph glyph-name="plusminus" unicode="&#xb1;" 
d="M483 274l64 361h-375l16 94h375l64 358h104l-63 -358h372l-16 -94h-375l-61 -361h-105zM61 0l17 94h852l-17 -94h-852z" />
    <glyph glyph-name="uni00B2" unicode="&#xb2;" horiz-adv-x="743" 
d="M539 1012l-224 -181h406l-16 -86h-586l6 25l362 305q101 87 146 154.5t45 134.5q0 73 -44 116.5t-118 43.5q-82 0 -133 -57.5t-51 -151.5q0 -27 2 -35h-94q-2 6 -2 39q0 127 79.5 209t202.5 82q115 0 184.5 -65.5t69.5 -174.5q0 -88 -54 -170t-181 -188z" />
    <glyph glyph-name="uni00B3" unicode="&#xb3;" horiz-adv-x="720" 
d="M799 1597l-4 -28l-275 -295q88 -19 144.5 -87.5t56.5 -158.5q0 -125 -89.5 -210t-221.5 -85q-101 0 -175 50.5t-110 146.5l76 41q65 -154 209 -154q94 0 154.5 58t60.5 149q0 82 -55.5 128t-153.5 46h-58l7 29l266 284h-352l16 86h504z" />
    <glyph glyph-name="acute" unicode="&#xb4;" horiz-adv-x="1024" 
d="M467 1155l264 442h133l-2 -18l-305 -424h-90z" />
    <glyph glyph-name="uni00B5" unicode="&#xb5;" horiz-adv-x="1196" 
d="M1077 76l-16 -86q-31 -8 -68 -8q-69 0 -116.5 35.5t-59.5 101.5q-114 -139 -303 -139q-98 0 -173 40.5t-110 112.5l-88 -502h-104l242 1358h102l-102 -586q-11 -64 -11 -86q0 -110 68.5 -176.5t181.5 -66.5q121 0 209 75.5t111 200.5l112 639h105l-129 -725
q-10 -52 -10 -90q0 -100 104 -100q45 0 55 2z" />
    <glyph glyph-name="paragraph" unicode="&#xb6;" horiz-adv-x="1302" 
d="M170 930q0 186 133.5 304t345.5 118h123v-852h-123q-209 0 -344 121t-135 309zM535 -369v93q87 -17 135 -17q110 0 165.5 51.5t55.5 173.5v1420h102v-1424q0 -317 -307 -317q-78 0 -151 20z" />
    <glyph glyph-name="middot" unicode="&#xb7;" horiz-adv-x="575" 
d="M211 635q0 44 29 73t71 29t72.5 -29.5t30.5 -72.5q0 -42 -30.5 -70t-72.5 -28t-71 28t-29 70z" />
    <glyph glyph-name="cedilla" unicode="&#xb8;" horiz-adv-x="1024" 
d="M170 -360l14 77q76 -20 131 -20q82 0 130.5 45t48.5 123q0 41 -14.5 71.5t-51.5 69.5l43 25q55 -31 85 -79.5t30 -105.5q0 -101 -76 -168q-73 -67 -182 -67q-73 0 -158 29z" />
    <glyph glyph-name="uni00B9" unicode="&#xb9;" horiz-adv-x="708" 
d="M147 745l15 86h221l119 680h-217l14 86h311l-133 -766h197l-15 -86h-512z" />
    <glyph glyph-name="ordmasculine" unicode="&#xba;" horiz-adv-x="819" 
d="M139 795q0 141 102.5 242.5t245.5 101.5q131 0 219.5 -88.5t88.5 -219.5q0 -138 -104.5 -241t-246.5 -103q-130 0 -219 86q-86 89 -86 222zM700 829q0 97 -61.5 160.5t-155.5 63.5q-105 0 -178 -76q-72 -75 -72 -182q0 -97 61 -159.5t155 -62.5q107 0 178 74
q73 73 73 182z" />
    <glyph glyph-name="guillemotright" unicode="&#xbb;" horiz-adv-x="942" 
d="M457 168l-64 68l352 323l-237 322l76 55l284 -367l-6 -34zM109 168l-64 68l352 323l-237 322l76 55l284 -367l-6 -34z" />
    <glyph glyph-name="onequarter" unicode="&#xbc;" horiz-adv-x="1816" 
d="M104 500l15 86h221l119 680h-217l14 86h311l-133 -766h197l-15 -86h-512zM442 0l1012 1352h100l-1013 -1352h-99zM1733 244l-15 -84h-123l-28 -160h-90l26 160h-426l4 28l385 664h105l-354 -608h301l51 286h90l-49 -286h123z" />
    <glyph glyph-name="onehalf" unicode="&#xbd;" horiz-adv-x="1892" 
d="M104 500l15 86h221l119 680h-217l14 86h311l-133 -766h197l-15 -86h-512zM442 0l1012 1352h100l-1013 -1352h-99zM1556 266l-223 -180h406l-17 -86h-585l6 25l362 305q101 87 146 154t45 134q0 73 -44 116.5t-118 43.5q-82 0 -133 -57.5t-51 -151.5q0 -26 2 -34h-95
q-2 6 -2 38q0 127 80 209t203 82q116 0 185 -65t69 -174q0 -88 -54.5 -170.5t-181.5 -188.5z" />
    <glyph glyph-name="threequarters" unicode="&#xbe;" horiz-adv-x="1757" 
d="M756 1352l-4 -29l-275 -295q88 -19 144.5 -87.5t56.5 -158.5q0 -125 -89.5 -210t-221.5 -85q-101 0 -175 50.5t-110 146.5l76 41q65 -154 209 -154q94 0 154.5 58t60.5 149q0 82 -55.5 128t-153.5 46h-58l7 29l266 285h-352l16 86h504zM383 0l1012 1352h100l-1014 -1352
h-98zM1673 244l-14 -84h-123l-29 -160h-90l27 160h-426l4 28l385 664h104l-354 -608h301l51 286h90l-49 -286h123z" />
    <glyph glyph-name="questiondown" unicode="&#xbf;" horiz-adv-x="905" 
d="M436 909q0 44 29.5 72.5t71.5 28.5q43 0 72.5 -28.5t29.5 -72.5q0 -43 -30 -71.5t-72 -28.5q-39 0 -70 29t-31 71zM4 -98q0 102 52 177t220 218q96 84 132 137q36 56 51 139h96q-11 -99 -54 -172t-149 -163q-154 -132 -196.5 -189.5t-42.5 -138.5q0 -94 57 -149.5
t154 -55.5q170 0 272 193l84 -48q-61 -117 -155 -178t-210 -61q-137 0 -224 81t-87 210z" />
    <glyph glyph-name="Agrave" unicode="&#xc0;" horiz-adv-x="1361" 
d="M1096 0l-78 324h-705l-190 -324h-121l821 1372h41l338 -1372h-106zM995 418l-182 760l-444 -760h626zM811 1483l-162 362l2 19h119l121 -381h-80z" />
    <glyph glyph-name="Aacute" unicode="&#xc1;" horiz-adv-x="1361" 
d="M1096 0l-78 324h-705l-190 -324h-121l821 1372h41l338 -1372h-106zM995 418l-182 760l-444 -760h626zM803 1483l246 381h133l-2 -19l-293 -362h-84z" />
    <glyph glyph-name="Acircumflex" unicode="&#xc2;" horiz-adv-x="1361" 
d="M1096 0l-78 324h-705l-190 -324h-121l821 1372h41l338 -1372h-106zM995 418l-182 760l-444 -760h626zM1176 1483h-78l-199 264l-289 -264h-94l369 381h59z" />
    <glyph glyph-name="Atilde" unicode="&#xc3;" horiz-adv-x="1361" 
d="M1096 0l-78 324h-705l-190 -324h-121l821 1372h41l338 -1372h-106zM995 418l-182 760l-444 -760h626zM883 1591l-66 47q-53 41 -86 41q-38 0 -58 -30.5t-28 -94.5h-88q11 110 51 166t119 56q40 0 69.5 -13t71.5 -45l62 -49q53 -41 90 -41q38 0 57 30t27 97h88
q-21 -221 -172 -221q-38 0 -64 12t-73 45z" />
    <glyph glyph-name="Adieresis" unicode="&#xc4;" horiz-adv-x="1361" 
d="M1096 0l-78 324h-705l-190 -324h-121l821 1372h41l338 -1372h-106zM995 418l-182 760l-444 -760h626zM557 1655q0 36 26.5 61t63.5 25t62.5 -24.5t25.5 -61.5t-25.5 -62.5t-62.5 -25.5t-63.5 25.5t-26.5 62.5zM1020 1653q0 37 26.5 62.5t63.5 25.5t62.5 -25.5t25.5 -62.5
q0 -35 -25.5 -60.5t-62.5 -25.5t-63.5 25.5t-26.5 60.5z" />
    <glyph glyph-name="Aring" unicode="&#xc5;" horiz-adv-x="1361" 
d="M1096 0l-78 324h-705l-190 -324h-121l821 1372h41l338 -1372h-106zM995 418l-182 760l-444 -760h626zM670 1651q0 88 65 153q64 64 160 64q86 0 144.5 -57t58.5 -142q0 -91 -68 -156q-63 -63 -158 -63q-86 0 -144 58t-58 143zM1008 1665q0 51 -34 85t-85 34
q-54 0 -91.5 -37.5t-37.5 -91.5q0 -51 34 -86t83 -35q54 0 92.5 38.5t38.5 92.5z" />
    <glyph glyph-name="AE" unicode="&#xc6;" horiz-adv-x="1654" 
d="M1679 1257h-686v-479h439l-17 -96h-424v-588h510l-16 -94h-600v324h-590l-223 -324h-123l938 1352h809zM885 418l2 764l-527 -764h525z" />
    <glyph glyph-name="Ccedilla" unicode="&#xc7;" horiz-adv-x="1456" 
d="M145 623q-4 146 57 286t164 242.5t243 163.5t286 57q174 0 314 -79t221 -226l-87 -55q-74 128 -190 195t-264 67q-126 2 -244 -50t-204 -139.5t-137 -208.5t-48 -249q0 -238 151.5 -393.5t383.5 -155.5q136 0 259.5 56.5t217.5 160.5l73 -64q-106 -119 -253 -185
t-306 -66q-132 -2 -251 47.5t-204.5 135.5t-134.5 206.5t-47 253.5zM420 -360l14 77q76 -20 131 -20q82 0 130 45t48 123q0 41 -14 72t-51 69l43 25q55 -31 85 -79.5t30 -105.5q0 -101 -76 -168q-73 -67 -182 -67q-73 0 -158 29z" />
    <glyph glyph-name="Egrave" unicode="&#xc8;" horiz-adv-x="1155" 
d="M115 0l237 1352h846l-16 -95h-742l-86 -479h578l-17 -96h-575l-102 -588h763l-16 -94h-870zM752 1483l-162 362l2 19h119l120 -381h-79z" />
    <glyph glyph-name="Eacute" unicode="&#xc9;" horiz-adv-x="1155" 
d="M115 0l237 1352h846l-16 -95h-742l-86 -479h578l-17 -96h-575l-102 -588h763l-16 -94h-870zM743 1483l246 381h133l-2 -19l-293 -362h-84z" />
    <glyph glyph-name="Ecircumflex" unicode="&#xca;" horiz-adv-x="1155" 
d="M115 0l237 1352h846l-16 -95h-742l-86 -479h578l-17 -96h-575l-102 -588h763l-16 -94h-870zM1116 1483h-78l-198 264l-289 -264h-94l368 381h60z" />
    <glyph glyph-name="Edieresis" unicode="&#xcb;" horiz-adv-x="1155" 
d="M115 0l237 1352h846l-16 -95h-742l-86 -479h578l-17 -96h-575l-102 -588h763l-16 -94h-870zM496 1655q0 36 26.5 61t63.5 25t62.5 -24.5t25.5 -61.5t-25.5 -62.5t-62.5 -25.5t-63.5 25.5t-26.5 62.5zM958 1653q0 36 27 62t64 26t62.5 -25.5t25.5 -62.5q0 -35 -25.5 -60.5
t-62.5 -25.5t-64 25.5t-27 60.5z" />
    <glyph glyph-name="Igrave" unicode="&#xcc;" horiz-adv-x="505" 
d="M115 0l237 1352h107l-238 -1352h-106zM391 1483l-162 362l2 19h119l121 -381h-80z" />
    <glyph glyph-name="Iacute" unicode="&#xcd;" horiz-adv-x="505" 
d="M115 0l237 1352h107l-238 -1352h-106zM383 1483l246 381h133l-2 -19l-293 -362h-84z" />
    <glyph glyph-name="Icircumflex" unicode="&#xce;" horiz-adv-x="505" 
d="M115 0l237 1352h107l-238 -1352h-106zM756 1483h-78l-199 264l-289 -264h-94l369 381h59z" />
    <glyph glyph-name="Idieresis" unicode="&#xcf;" horiz-adv-x="505" 
d="M115 0l237 1352h107l-238 -1352h-106zM137 1655q0 36 26.5 61t63.5 25t62.5 -24.5t25.5 -61.5t-25.5 -62.5t-62.5 -25.5t-63.5 25.5t-26.5 62.5zM600 1653q0 37 26.5 62.5t63.5 25.5t62.5 -25.5t25.5 -62.5q0 -35 -25.5 -60.5t-62.5 -25.5t-63.5 25.5t-26.5 60.5z" />
    <glyph glyph-name="Eth" unicode="&#xd0;" horiz-adv-x="1435" 
d="M1356 731q2 -158 -58 -295t-167 -233.5t-259 -150.5t-327 -52h-428l100 575h-205l15 93h206l121 684h320q306 0 494 -172t188 -449zM1245 727q0 239 -158 384.5t-419 145.5h-224l-104 -589h289l-17 -93h-288l-84 -481h311q202 0 360 79.5t246 224t88 329.5z" />
    <glyph glyph-name="Ntilde" unicode="&#xd1;" horiz-adv-x="1445" 
d="M1290 1352h107l-242 -1372h-43l-694 1163l-197 -1143h-106l241 1372h41l695 -1167zM932 1591l-66 47q-53 41 -86 41q-38 0 -58 -30.5t-28 -94.5h-88q11 110 51 166t119 56q40 0 70.5 -13t71.5 -45l61 -49q53 -41 90 -41q38 0 57 30t27 97h88q-21 -221 -172 -221
q-38 0 -64 12t-73 45z" />
    <glyph glyph-name="Ograve" unicode="&#xd2;" horiz-adv-x="1603" 
d="M145 623q-3 147 58 286.5t162.5 241.5t240.5 163t285 58q132 2 250.5 -47.5t203.5 -135.5t134 -206.5t47 -253.5q3 -147 -58 -286.5t-163.5 -241.5t-241.5 -163t-285 -58q-176 -3 -323 83t-230 235t-80 325zM1413 727q0 235 -150 391t-378 156q-168 3 -314.5 -85.5
t-232 -239t-82.5 -322.5q0 -235 149 -391t377 -156q124 -2 241.5 50t204 139.5t137.5 208.5t48 249zM936 1483l-162 362l2 19h119l121 -381h-80z" />
    <glyph glyph-name="Oacute" unicode="&#xd3;" horiz-adv-x="1603" 
d="M145 623q-3 147 58 286.5t162.5 241.5t240.5 163t285 58q132 2 250.5 -47.5t203.5 -135.5t134 -206.5t47 -253.5q3 -147 -58 -286.5t-163.5 -241.5t-241.5 -163t-285 -58q-176 -3 -323 83t-230 235t-80 325zM1413 727q0 235 -150 391t-378 156q-168 3 -314.5 -85.5
t-232 -239t-82.5 -322.5q0 -235 149 -391t377 -156q124 -2 241.5 50t204 139.5t137.5 208.5t48 249zM928 1483l246 381h133l-2 -19l-293 -362h-84z" />
    <glyph glyph-name="Ocircumflex" unicode="&#xd4;" horiz-adv-x="1603" 
d="M145 623q-3 147 58 286.5t162.5 241.5t240.5 163t285 58q132 2 250.5 -47.5t203.5 -135.5t134 -206.5t47 -253.5q3 -147 -58 -286.5t-163.5 -241.5t-241.5 -163t-285 -58q-176 -3 -323 83t-230 235t-80 325zM1413 727q0 235 -150 391t-378 156q-168 3 -314.5 -85.5
t-232 -239t-82.5 -322.5q0 -235 149 -391t377 -156q124 -2 241.5 50t204 139.5t137.5 208.5t48 249zM1300 1483h-77l-199 264l-289 -264h-94l369 381h59z" />
    <glyph glyph-name="Otilde" unicode="&#xd5;" horiz-adv-x="1603" 
d="M145 623q-3 147 58 286.5t162.5 241.5t240.5 163t285 58q132 2 250.5 -47.5t203.5 -135.5t134 -206.5t47 -253.5q3 -147 -58 -286.5t-163.5 -241.5t-241.5 -163t-285 -58q-176 -3 -323 83t-230 235t-80 325zM1413 727q0 235 -150 391t-378 156q-168 3 -314.5 -85.5
t-232 -239t-82.5 -322.5q0 -235 149 -391t377 -156q124 -2 241.5 50t204 139.5t137.5 208.5t48 249zM1008 1591l-66 47q-53 41 -86 41q-38 0 -58 -30.5t-28 -94.5h-88q11 110 51 166t119 56q40 0 69.5 -13t71.5 -45l62 -49q53 -41 90 -41q38 0 57 30t27 97h88
q-21 -221 -172 -221q-38 0 -64 12t-73 45z" />
    <glyph glyph-name="Odieresis" unicode="&#xd6;" horiz-adv-x="1603" 
d="M145 623q-3 147 58 286.5t162.5 241.5t240.5 163t285 58q132 2 250.5 -47.5t203.5 -135.5t134 -206.5t47 -253.5q3 -147 -58 -286.5t-163.5 -241.5t-241.5 -163t-285 -58q-176 -3 -323 83t-230 235t-80 325zM1413 727q0 235 -150 391t-378 156q-168 3 -314.5 -85.5
t-232 -239t-82.5 -322.5q0 -235 149 -391t377 -156q124 -2 241.5 50t204 139.5t137.5 208.5t48 249zM682 1655q0 36 26.5 61t63.5 25t62.5 -24.5t25.5 -61.5t-25.5 -62.5t-62.5 -25.5t-63.5 25.5t-26.5 62.5zM1145 1653q0 37 26.5 62.5t63.5 25.5t62.5 -25.5t25.5 -62.5
q0 -35 -25.5 -60.5t-62.5 -25.5t-63.5 25.5t-26.5 60.5z" />
    <glyph glyph-name="multiply" unicode="&#xd7;" 
d="M872 229l-280 344l-377 -313l-57 70l377 313l-283 342l74 59l280 -342l375 312l57 -70l-376 -311l282 -344z" />
    <glyph glyph-name="Oslash" unicode="&#xd8;" horiz-adv-x="1576" 
d="M1554 1313l-180 -172q137 -171 137 -412q3 -146 -58 -286t-163 -242.5t-241 -163.5t-285 -57q-124 0 -235.5 42.5t-196.5 120.5l-178 -172l-66 68l180 172q-137 176 -137 412q-3 147 58 286.5t163.5 241.5t241.5 163t285 58q256 0 432 -162l178 170zM242 627
q0 -195 104 -340l887 850q-69 66 -163 101.5t-200 35.5q-124 2 -241 -50t-202.5 -139.5t-136 -208t-48.5 -249.5zM1401 727q0 193 -105 340l-890 -850q142 -139 362 -139q123 -3 241 50t204.5 141.5t138 209.5t49.5 248z" />
    <glyph glyph-name="Ugrave" unicode="&#xd9;" horiz-adv-x="1396" 
d="M182 438q0 38 11 121l137 793h106l-139 -799q-8 -44 -8 -107q0 -161 107 -264.5t274 -103.5t286 104q122 110 152 283l154 887h106l-156 -895q-41 -221 -186 -348q-147 -129 -358 -129q-214 0 -350 128.5t-136 329.5zM838 1483l-162 362l2 19h119l121 -381h-80z" />
    <glyph glyph-name="Uacute" unicode="&#xda;" horiz-adv-x="1396" 
d="M182 438q0 38 11 121l137 793h106l-139 -799q-8 -44 -8 -107q0 -161 107 -264.5t274 -103.5t286 104q122 110 152 283l154 887h106l-156 -895q-41 -221 -186 -348q-147 -129 -358 -129q-214 0 -350 128.5t-136 329.5zM829 1483l246 381h133l-2 -19l-293 -362h-84z" />
    <glyph glyph-name="Ucircumflex" unicode="&#xdb;" horiz-adv-x="1396" 
d="M182 438q0 38 11 121l137 793h106l-139 -799q-8 -44 -8 -107q0 -161 107 -264.5t274 -103.5t286 104q122 110 152 283l154 887h106l-156 -895q-41 -221 -186 -348q-147 -129 -358 -129q-214 0 -350 128.5t-136 329.5zM1202 1483h-78l-198 264l-289 -264h-94l368 381h60z
" />
    <glyph glyph-name="Udieresis" unicode="&#xdc;" horiz-adv-x="1396" 
d="M182 438q0 38 11 121l137 793h106l-139 -799q-8 -44 -8 -107q0 -161 107 -264.5t274 -103.5t286 104q122 110 152 283l154 887h106l-156 -895q-41 -221 -186 -348q-147 -129 -358 -129q-214 0 -350 128.5t-136 329.5zM582 1655q0 36 26.5 61t63.5 25t62.5 -24.5
t25.5 -61.5t-25.5 -62.5t-62.5 -25.5t-63.5 25.5t-26.5 62.5zM1044 1653q0 36 27 62t64 26t62.5 -25.5t25.5 -62.5q0 -35 -25.5 -60.5t-62.5 -25.5t-64 25.5t-27 60.5z" />
    <glyph glyph-name="Yacute" unicode="&#xdd;" horiz-adv-x="1255" 
d="M1290 1352l-606 -779l-100 -573h-107l101 575l-334 777h108l289 -680l526 680h123zM743 1483l246 381h133l-2 -19l-293 -362h-84z" />
    <glyph glyph-name="Thorn" unicode="&#xde;" horiz-adv-x="1155" 
d="M1104 739q0 -184 -129.5 -297.5t-337.5 -113.5h-358l-58 -328h-106l237 1352h107l-45 -258h297q180 0 286.5 -95.5t106.5 -259.5zM993 735q0 125 -77 193.5t-216 68.5h-303l-102 -575h348q159 0 254.5 85.5t95.5 227.5z" />
    <glyph glyph-name="germandbls" unicode="&#xdf;" horiz-adv-x="1220" 
d="M442 154l66 69q69 -79 136 -114t149 -35q100 0 159.5 46t59.5 124q0 45 -27.5 75t-110.5 89q-14 11 -22 16q-102 74 -139 118.5t-37 100.5q0 37 14.5 78t52.5 115l136 258q63 114 63 196q0 78 -55.5 125t-149.5 47q-127 0 -214 -85t-113 -234l-199 -1143h-105l203 1151
q30 184 150 295q119 110 289 110q135 0 218 -69t83 -182q0 -105 -68 -232l-135 -258q-64 -120 -64 -160q0 -37 28.5 -66.5t119.5 -94.5q109 -80 148.5 -128.5t39.5 -117.5q0 -115 -96.5 -191.5t-235.5 -76.5q-201 0 -344 174z" />
    <glyph glyph-name="agrave" unicode="&#xe0;" horiz-adv-x="1292" 
d="M1085 989h103l-174 -989h-99l29 168q-62 -88 -164 -138t-223 -50q-190 0 -319 135.5t-129 337.5q-2 111 40.5 214.5t115 179.5t172.5 120.5t208 42.5q135 0 244.5 -65.5t159.5 -172.5zM1004 553q0 162 -98 262t-257 100q-85 1 -166 -36t-140.5 -99t-94.5 -147t-33 -174
q0 -167 104 -276t263 -109q111 -3 210 63t157 178t55 238zM649 1155l-84 424l6 18h115l39 -442h-76z" />
    <glyph glyph-name="aacute" unicode="&#xe1;" horiz-adv-x="1292" 
d="M1085 989h103l-174 -989h-99l29 168q-62 -88 -164 -138t-223 -50q-190 0 -319 135.5t-129 337.5q-2 111 40.5 214.5t115 179.5t172.5 120.5t208 42.5q135 0 244.5 -65.5t159.5 -172.5zM1004 553q0 162 -98 262t-257 100q-85 1 -166 -36t-140.5 -99t-94.5 -147t-33 -174
q0 -167 104 -276t263 -109q111 -3 210 63t157 178t55 238zM631 1155l264 442h133l-2 -18l-305 -424h-90z" />
    <glyph glyph-name="acircumflex" unicode="&#xe2;" horiz-adv-x="1292" 
d="M1085 989h103l-174 -989h-99l29 168q-62 -88 -164 -138t-223 -50q-190 0 -319 135.5t-129 337.5q-2 111 40.5 214.5t115 179.5t172.5 120.5t208 42.5q135 0 244.5 -65.5t159.5 -172.5zM1004 553q0 162 -98 262t-257 100q-85 1 -166 -36t-140.5 -99t-94.5 -147t-33 -174
q0 -167 104 -276t263 -109q111 -3 210 63t157 178t55 238zM1004 1155h-78l-170 313l-279 -313h-90l356 442h60z" />
    <glyph glyph-name="atilde" unicode="&#xe3;" horiz-adv-x="1292" 
d="M1085 989h103l-174 -989h-99l29 168q-62 -88 -164 -138t-223 -50q-190 0 -319 135.5t-129 337.5q-2 111 40.5 214.5t115 179.5t172.5 120.5t208 42.5q135 0 244.5 -65.5t159.5 -172.5zM1004 553q0 162 -98 262t-257 100q-85 1 -166 -36t-140.5 -99t-94.5 -147t-33 -174
q0 -167 104 -276t263 -109q111 -3 210 63t157 178t55 238zM731 1300l-45 50q-24 28 -41 38.5t-39 10.5q-38 0 -58 -32.5t-28 -102.5h-88q21 229 170 229q74 0 131 -63l45 -52q40 -49 80 -49q37 0 56 31.5t30 103.5h88q-21 -229 -170 -229q-75 0 -131 65z" />
    <glyph glyph-name="adieresis" unicode="&#xe4;" horiz-adv-x="1292" 
d="M1085 989h103l-174 -989h-99l29 168q-62 -88 -164 -138t-223 -50q-190 0 -319 135.5t-129 337.5q-2 111 40.5 214.5t115 179.5t172.5 120.5t208 42.5q135 0 244.5 -65.5t159.5 -172.5zM1004 553q0 162 -98 262t-257 100q-85 1 -166 -36t-140.5 -99t-94.5 -147t-33 -174
q0 -167 104 -276t263 -109q111 -3 210 63t157 178t55 238zM426 1370q0 37 25.5 61.5t62.5 24.5t63.5 -25t26.5 -61t-26.5 -61t-63.5 -25t-62.5 24.5t-25.5 61.5zM856 1370q0 36 26.5 61t63.5 25t62.5 -24.5t25.5 -61.5t-25.5 -61.5t-62.5 -24.5t-63.5 25t-26.5 61z" />
    <glyph glyph-name="aring" unicode="&#xe5;" horiz-adv-x="1292" 
d="M1085 989h103l-174 -989h-99l29 168q-62 -88 -164 -138t-223 -50q-190 0 -319 135.5t-129 337.5q-2 111 40.5 214.5t115 179.5t172.5 120.5t208 42.5q135 0 244.5 -65.5t159.5 -172.5zM1004 553q0 162 -98 262t-257 100q-85 1 -166 -36t-140.5 -99t-94.5 -147t-33 -174
q0 -167 104 -276t263 -109q111 -3 210 63t157 178t55 238zM528 1356q0 87 66 153t158 66q86 0 144 -57t58 -142q0 -90 -65 -155q-64 -64 -158 -64q-84 0 -143.5 58.5t-59.5 140.5zM864 1372q0 51 -32.5 85t-83.5 34q-54 0 -92 -38t-38 -93q0 -51 33.5 -85t83.5 -34
q54 0 91.5 38t37.5 93z" />
    <glyph glyph-name="ae" unicode="&#xe6;" horiz-adv-x="1835" 
d="M1720 453h-819q3 -168 107 -275q104 -104 272 -104q187 0 332 139l55 -68q-75 -79 -178.5 -122t-216.5 -43q-148 0 -262.5 74t-169.5 200q-54 -128 -172 -201t-273 -73q-154 0 -244 70.5t-90 191.5q0 139 106.5 220t289.5 81h342l8 45q8 36 8 86q0 113 -67.5 177
t-188.5 64q-82 0 -154 -32.5t-147 -104.5l-55 72q165 160 368 160q130 0 217 -60t113 -166q75 106 185 166t237 60q181 0 298.5 -117t117.5 -299q0 -67 -19 -141zM907 543h723q2 14 2 55q0 146 -85.5 231.5t-231.5 85.5q-155 0 -268 -104t-140 -268zM770 360l14 93h-333
q-136 0 -208.5 -52t-72.5 -149q0 -86 62 -135t171 -49q141 0 242 82q104 82 125 210z" />
    <glyph glyph-name="ccedilla" unicode="&#xe7;" horiz-adv-x="1138" 
d="M111 465q-3 146 71 273t200.5 201t270.5 71q130 0 236.5 -57t169.5 -160l-80 -54q-57 84 -141.5 129t-184.5 45q-182 0 -309 -128t-127 -314q0 -173 108 -284t273 -111q96 0 181 38.5t147 108.5l67 -63q-146 -180 -397 -180q-208 0 -346.5 137.5t-138.5 347.5zM229 -360
l15 77q76 -20 131 -20q82 0 130 45t48 123q0 41 -14.5 71.5t-51.5 69.5l43 25q55 -31 85 -79.5t30 -105.5q0 -101 -76 -168q-73 -67 -182 -67q-73 0 -158 29z" />
    <glyph glyph-name="egrave" unicode="&#xe8;" horiz-adv-x="1155" 
d="M1040 471h-823v-2q0 -176 105 -287q108 -108 278 -108q187 0 332 139l57 -68q-78 -79 -181 -122t-216 -43q-207 0 -344 138t-137 345q-2 108 40.5 210t114 176t170 118t203.5 43q184 0 302 -117.5t118 -300.5q0 -69 -19 -121zM225 563h727v31q0 146 -87 233.5t-230 87.5
q-156 0 -268 -100q-115 -100 -142 -252zM616 1155l-84 424l7 18h114l39 -442h-76z" />
    <glyph glyph-name="eacute" unicode="&#xe9;" horiz-adv-x="1155" 
d="M1040 471h-823v-2q0 -176 105 -287q108 -108 278 -108q187 0 332 139l57 -68q-78 -79 -181 -122t-216 -43q-207 0 -344 138t-137 345q-2 108 40.5 210t114 176t170 118t203.5 43q184 0 302 -117.5t118 -300.5q0 -69 -19 -121zM225 563h727v31q0 146 -87 233.5t-230 87.5
q-156 0 -268 -100q-115 -100 -142 -252zM598 1155l264 442h133l-2 -18l-305 -424h-90z" />
    <glyph glyph-name="ecircumflex" unicode="&#xea;" horiz-adv-x="1155" 
d="M1040 471h-823v-2q0 -176 105 -287q108 -108 278 -108q187 0 332 139l57 -68q-78 -79 -181 -122t-216 -43q-207 0 -344 138t-137 345q-2 108 40.5 210t114 176t170 118t203.5 43q184 0 302 -117.5t118 -300.5q0 -69 -19 -121zM225 563h727v31q0 146 -87 233.5t-230 87.5
q-156 0 -268 -100q-115 -100 -142 -252zM971 1155h-78l-170 313l-279 -313h-90l357 442h59z" />
    <glyph glyph-name="edieresis" unicode="&#xeb;" horiz-adv-x="1155" 
d="M1040 471h-823v-2q0 -176 105 -287q108 -108 278 -108q187 0 332 139l57 -68q-78 -79 -181 -122t-216 -43q-207 0 -344 138t-137 345q-2 108 40.5 210t114 176t170 118t203.5 43q184 0 302 -117.5t118 -300.5q0 -69 -19 -121zM225 563h727v31q0 146 -87 233.5t-230 87.5
q-156 0 -268 -100q-115 -100 -142 -252zM393 1370q0 37 25.5 61.5t62.5 24.5t63.5 -25t26.5 -61t-26.5 -61t-63.5 -25t-62.5 24.5t-25.5 61.5zM823 1370q0 36 26.5 61t63.5 25t62.5 -24.5t25.5 -61.5t-25.5 -61.5t-62.5 -24.5t-63.5 25t-26.5 61z" />
    <glyph glyph-name="igrave" unicode="&#xec;" horiz-adv-x="485" 
d="M104 0l175 989h104l-174 -989h-105zM322 1155l-91 424l2 18h119l49 -442h-79z" />
    <glyph glyph-name="iacute" unicode="&#xed;" horiz-adv-x="485" 
d="M104 0l175 989h104l-174 -989h-105zM317 1155l203 442h133l-2 -18l-245 -424h-89z" />
    <glyph glyph-name="icircumflex" unicode="&#xee;" horiz-adv-x="485" 
d="M104 0l175 989h104l-174 -989h-105zM666 1155h-78l-170 313l-279 -313h-90l357 442h59z" />
    <glyph glyph-name="idieresis" unicode="&#xef;" horiz-adv-x="485" 
d="M104 0l175 989h104l-174 -989h-105zM129 1370q0 37 26.5 62.5t63.5 25.5t62.5 -25.5t25.5 -62.5q0 -35 -25.5 -60.5t-62.5 -25.5t-63.5 25.5t-26.5 60.5zM481 1370q0 36 26 62t62 26q37 0 63.5 -25.5t26.5 -62.5q0 -35 -26.5 -60.5t-63.5 -25.5q-35 0 -61.5 25.5
t-26.5 60.5z" />
    <glyph glyph-name="eth" unicode="&#xf0;" horiz-adv-x="1155" 
d="M1038 479q3 -131 -66 -248t-186.5 -185.5t-248.5 -65.5q-186 0 -310.5 126.5t-124.5 315.5q-2 95 37.5 184.5t106.5 154.5t158.5 103t189.5 37q108 0 199 -49l-226 367l-338 -136l-28 84l319 125l-131 213l84 51l141 -227l330 131l31 -80l-316 -125l211 -340
q91 -145 131 -245q37 -93 37 -191zM930 475q0 147 -94 238q-94 94 -240 94q-161 0 -273 -111t-112 -272q0 -152 94.5 -251t239.5 -99q160 0 272.5 117t112.5 284z" />
    <glyph glyph-name="ntilde" unicode="&#xf1;" horiz-adv-x="1142" 
d="M997 692q0 -36 -12 -110l-102 -582h-105l107 588q10 65 10 90q0 108 -67.5 172.5t-180.5 64.5q-123 0 -211.5 -75t-111.5 -201l-115 -639h-103l175 989h98l-19 -117q119 138 306 138q149 0 239 -90q92 -89 92 -228zM729 1300l-45 50q-24 28 -41 38.5t-39 10.5
q-38 0 -58 -32.5t-28 -102.5h-88q21 229 170 229q74 0 131 -63l45 -52q40 -49 80 -49q37 0 56 31.5t30 103.5h88q-21 -229 -170 -229q-75 0 -131 65z" />
    <glyph glyph-name="ograve" unicode="&#xf2;" horiz-adv-x="1249" 
d="M111 467q-2 108 42 209t117.5 175t175 117.5t209.5 41.5q207 0 346.5 -140.5t139.5 -347.5q3 -144 -72 -270.5t-203 -200.5t-274 -71q-205 0 -343 140t-138 347zM1032 522q0 166 -108.5 278.5t-272.5 112.5q-180 0 -306 -130t-126 -316q0 -170 106.5 -280.5t270.5 -110.5
q182 0 309 130t127 316zM643 1155l-84 424l6 18h115l39 -442h-76z" />
    <glyph glyph-name="oacute" unicode="&#xf3;" horiz-adv-x="1249" 
d="M111 467q-2 108 42 209t117.5 175t175 117.5t209.5 41.5q207 0 346.5 -140.5t139.5 -347.5q3 -144 -72 -270.5t-203 -200.5t-274 -71q-205 0 -343 140t-138 347zM1032 522q0 166 -108.5 278.5t-272.5 112.5q-180 0 -306 -130t-126 -316q0 -170 106.5 -280.5t270.5 -110.5
q182 0 309 130t127 316zM627 1155l264 442h133l-2 -18l-305 -424h-90z" />
    <glyph glyph-name="ocircumflex" unicode="&#xf4;" horiz-adv-x="1249" 
d="M111 467q-2 108 42 209t117.5 175t175 117.5t209.5 41.5q207 0 346.5 -140.5t139.5 -347.5q3 -144 -72 -270.5t-203 -200.5t-274 -71q-205 0 -343 140t-138 347zM1032 522q0 166 -108.5 278.5t-272.5 112.5q-180 0 -306 -130t-126 -316q0 -170 106.5 -280.5t270.5 -110.5
q182 0 309 130t127 316zM997 1155h-77l-170 313l-279 -313h-90l356 442h60z" />
    <glyph glyph-name="otilde" unicode="&#xf5;" horiz-adv-x="1249" 
d="M111 467q-2 108 42 209t117.5 175t175 117.5t209.5 41.5q207 0 346.5 -140.5t139.5 -347.5q3 -144 -72 -270.5t-203 -200.5t-274 -71q-205 0 -343 140t-138 347zM1032 522q0 166 -108.5 278.5t-272.5 112.5q-180 0 -306 -130t-126 -316q0 -170 106.5 -280.5t270.5 -110.5
q182 0 309 130t127 316zM725 1300l-45 50q-24 28 -41 38.5t-39 10.5q-38 0 -58 -32.5t-28 -102.5h-88q21 229 170 229q74 0 131 -63l45 -52q40 -49 80 -49q37 0 56 31.5t30 103.5h88q-21 -229 -170 -229q-75 0 -131 65z" />
    <glyph glyph-name="odieresis" unicode="&#xf6;" horiz-adv-x="1249" 
d="M111 467q-2 108 42 209t117.5 175t175 117.5t209.5 41.5q207 0 346.5 -140.5t139.5 -347.5q3 -144 -72 -270.5t-203 -200.5t-274 -71q-205 0 -343 140t-138 347zM1032 522q0 166 -108.5 278.5t-272.5 112.5q-180 0 -306 -130t-126 -316q0 -170 106.5 -280.5t270.5 -110.5
q182 0 309 130t127 316zM420 1370q0 37 25.5 61.5t62.5 24.5t63.5 -25t26.5 -61t-26.5 -61t-63.5 -25t-62.5 24.5t-25.5 61.5zM850 1370q0 36 26.5 61t63.5 25t62.5 -24.5t25.5 -61.5t-25.5 -61.5t-62.5 -24.5t-63.5 25t-26.5 61z" />
    <glyph glyph-name="divide" unicode="&#xf7;" 
d="M575 991q0 38 26 63t63 25q38 0 64 -25t26 -63q0 -37 -26 -61.5t-64 -24.5q-37 0 -63 25t-26 61zM145 592l17 92h891l-15 -92h-893zM449 281q0 37 26.5 62.5t63.5 25.5q38 0 64 -25.5t26 -62.5t-26 -62.5t-64 -25.5q-37 0 -63.5 25.5t-26.5 62.5z" />
    <glyph glyph-name="oslash" unicode="&#xf8;" horiz-adv-x="1269" 
d="M1161 942l-119 -119q107 -128 107 -307q2 -105 -42 -204.5t-118.5 -173t-177 -117t-209.5 -41.5q-176 0 -305 104l-123 -121l-65 68l120 119q-110 128 -110 315q-3 106 41.5 206.5t119.5 174t176.5 117t207.5 41.5q181 0 315 -113l117 117zM227 465q0 -137 78 -244
l602 598q-104 88 -248 88q-177 0 -304.5 -129.5t-127.5 -312.5zM1040 514q0 132 -71 238l-602 -598q100 -80 237 -80q180 0 308 130t128 310z" />
    <glyph glyph-name="ugrave" unicode="&#xf9;" horiz-adv-x="1124" 
d="M152 324q0 48 8 79l100 586h105l-107 -598q-4 -28 -4 -63q0 -113 74 -183.5t192 -70.5q115 0 196.5 72t104.5 194l113 649h104l-114 -653q-26 -158 -144 -260q-116 -96 -268 -96q-157 0 -258.5 96.5t-101.5 247.5zM618 1155l-83 424l6 18h114l39 -442h-76z" />
    <glyph glyph-name="uacute" unicode="&#xfa;" horiz-adv-x="1124" 
d="M152 324q0 48 8 79l100 586h105l-107 -598q-4 -28 -4 -63q0 -113 74 -183.5t192 -70.5q115 0 196.5 72t104.5 194l113 649h104l-114 -653q-26 -158 -144 -260q-116 -96 -268 -96q-157 0 -258.5 96.5t-101.5 247.5zM600 1155l264 442h133l-2 -18l-305 -424h-90z" />
    <glyph glyph-name="ucircumflex" unicode="&#xfb;" horiz-adv-x="1124" 
d="M152 324q0 48 8 79l100 586h105l-107 -598q-4 -28 -4 -63q0 -113 74 -183.5t192 -70.5q115 0 196.5 72t104.5 194l113 649h104l-114 -653q-26 -158 -144 -260q-116 -96 -268 -96q-157 0 -258.5 96.5t-101.5 247.5zM973 1155h-78l-170 313l-279 -313h-90l357 442h59z" />
    <glyph glyph-name="udieresis" unicode="&#xfc;" horiz-adv-x="1124" 
d="M152 324q0 48 8 79l100 586h105l-107 -598q-4 -28 -4 -63q0 -113 74 -183.5t192 -70.5q115 0 196.5 72t104.5 194l113 649h104l-114 -653q-26 -158 -144 -260q-116 -96 -268 -96q-157 0 -258.5 96.5t-101.5 247.5zM395 1370q0 37 25.5 61.5t62.5 24.5t63.5 -25t26.5 -61
t-26.5 -61t-63.5 -25t-62.5 24.5t-25.5 61.5zM825 1370q0 36 26.5 61t63.5 25t63 -25t26 -61t-26 -61t-63 -25t-63.5 25t-26.5 61z" />
    <glyph glyph-name="yacute" unicode="&#xfd;" horiz-adv-x="1140" 
d="M934 989h104l-178 -999q-29 -176 -144.5 -277.5t-283.5 -101.5q-123 0 -228.5 60.5t-168.5 166.5l74 64q122 -197 325 -197q127 0 213 77t111 212l22 125q-117 -129 -297 -129q-149 0 -241 87.5t-92 229.5q0 41 12 111l100 571h105l-105 -577q-10 -62 -10 -88
q0 -109 67.5 -174.5t182.5 -65.5q120 0 208.5 75t112.5 203zM608 1155l264 442h134l-2 -18l-306 -424h-90z" />
    <glyph glyph-name="thorn" unicode="&#xfe;" horiz-adv-x="1290" 
d="M1182 539q1 -113 -40.5 -217.5t-112.5 -180.5t-169.5 -120t-206.5 -41q-135 0 -247 67t-160 174l-103 -590h-104l336 1905h104l-127 -711q63 87 164 136t219 49q189 0 318 -135t129 -336zM711 913q-115 0 -213 -65t-155.5 -176.5t-57.5 -243.5q0 -153 102 -252.5
t262 -99.5q180 0 303 131.5t123 322.5q0 166 -103.5 274.5t-260.5 108.5z" />
    <glyph glyph-name="ydieresis" unicode="&#xff;" horiz-adv-x="1140" 
d="M934 989h104l-178 -999q-29 -176 -144.5 -277.5t-283.5 -101.5q-123 0 -228.5 60.5t-168.5 166.5l74 64q122 -197 325 -197q127 0 213 77t111 212l22 125q-117 -129 -297 -129q-149 0 -241 87.5t-92 229.5q0 41 12 111l100 571h105l-105 -577q-10 -62 -10 -88
q0 -109 67.5 -174.5t182.5 -65.5q120 0 208.5 75t112.5 203zM401 1370q0 37 25.5 61.5t62.5 24.5t64 -25t27 -61t-27 -61t-64 -25t-62.5 24.5t-25.5 61.5zM831 1370q0 36 27 61t64 25t62.5 -24.5t25.5 -61.5t-25.5 -61.5t-62.5 -24.5t-64 25t-27 61z" />
    <glyph glyph-name="Amacron" unicode="&#x100;" horiz-adv-x="1361" 
d="M1096 0l-78 324h-705l-190 -324h-121l821 1372h41l338 -1372h-106zM995 418l-182 760l-444 -760h626zM580 1591l16 88h575l-16 -88h-575z" />
    <glyph glyph-name="amacron" unicode="&#x101;" horiz-adv-x="1292" 
d="M1085 989h103l-174 -989h-99l29 168q-62 -88 -164 -138t-223 -50q-190 0 -319 135.5t-129 337.5q-2 111 40.5 214.5t115 179.5t172.5 120.5t208 42.5q135 0 244.5 -65.5t159.5 -172.5zM1004 553q0 162 -98 262t-257 100q-85 1 -166 -36t-140.5 -99t-94.5 -147t-33 -174
q0 -167 104 -276t263 -109q111 -3 210 63t157 178t55 238zM461 1327l16 88h535l-17 -88h-534z" />
    <glyph glyph-name="Abreve" unicode="&#x102;" horiz-adv-x="1361" 
d="M1096 0l-78 324h-705l-190 -324h-121l821 1372h41l338 -1372h-106zM995 418l-182 760l-444 -760h626zM612 1755q0 20 13 109h92q-12 -62 -12 -99q0 -84 50 -135t132 -51q85 0 143.5 56t71.5 153l12 76h92l-12 -76q-23 -136 -106 -214.5t-205 -78.5q-117 0 -194 74
t-77 186z" />
    <glyph glyph-name="abreve" unicode="&#x103;" horiz-adv-x="1292" 
d="M1085 989h103l-174 -989h-99l29 168q-62 -88 -164 -138t-223 -50q-190 0 -319 135.5t-129 337.5q-2 111 40.5 214.5t115 179.5t172.5 120.5t208 42.5q135 0 244.5 -65.5t159.5 -172.5zM1004 553q0 162 -98 262t-257 100q-85 1 -166 -36t-140.5 -99t-94.5 -147t-33 -174
q0 -167 104 -276t263 -109q111 -3 210 63t157 178t55 238zM444 1436q0 38 15 114h92q-14 -71 -14 -104q0 -84 50 -134t132 -50q87 0 144.5 54t70.5 152l14 82h92l-14 -82q-23 -136 -106 -214t-205 -78q-117 0 -194 74t-77 186z" />
    <glyph glyph-name="Aogonek" unicode="&#x104;" horiz-adv-x="1361" 
d="M1096 0l-78 324h-705l-190 -324h-121l821 1372h41l338 -1372h-106zM995 418l-182 760l-444 -760h626zM819 -236q0 78 78 144q76 64 277 147l28 -55l-143 -78q-69 -37 -100 -71t-31 -72q0 -82 131 -82q39 0 92 6l-14 -82q-62 -10 -113 -10q-93 0 -149 42t-56 111z" />
    <glyph glyph-name="aogonek" unicode="&#x105;" horiz-adv-x="1292" 
d="M1085 989h103l-174 -989h-99l29 168q-62 -88 -164 -138t-223 -50q-190 0 -319 135.5t-129 337.5q-2 111 40.5 214.5t115 179.5t172.5 120.5t208 42.5q135 0 244.5 -65.5t159.5 -172.5zM1004 553q0 162 -98 262t-257 100q-85 1 -166 -36t-140.5 -99t-94.5 -147t-33 -174
q0 -167 104 -276t263 -109q111 -3 210 63t157 178t55 238zM629 -236q0 78 78 144q77 64 276 147l29 -55l-144 -78q-69 -37 -100 -71t-31 -72q0 -82 131 -82q40 0 93 6l-15 -82q-62 -10 -112 -10q-93 0 -149 42t-56 111z" />
    <glyph glyph-name="Cacute" unicode="&#x106;" horiz-adv-x="1456" 
d="M145 623q-4 146 57 286t164 242.5t243 163.5t286 57q174 0 314 -79t221 -226l-87 -55q-74 128 -190 195t-264 67q-126 2 -244 -50t-204 -139.5t-137 -208.5t-48 -249q0 -238 151.5 -393.5t383.5 -155.5q136 0 259.5 56.5t217.5 160.5l73 -64q-106 -119 -253 -185
t-306 -66q-132 -2 -251 47.5t-204.5 135.5t-134.5 206.5t-47 253.5zM934 1483l246 381h133l-2 -19l-293 -362h-84z" />
    <glyph glyph-name="cacute" unicode="&#x107;" horiz-adv-x="1138" 
d="M111 465q-3 146 71 273t200.5 201t270.5 71q130 0 236.5 -57t169.5 -160l-80 -54q-57 84 -141.5 129t-184.5 45q-182 0 -309 -128t-127 -314q0 -173 108 -284t273 -111q96 0 181 38.5t147 108.5l67 -63q-146 -180 -397 -180q-208 0 -346.5 137.5t-138.5 347.5zM618 1155
l265 442h133l-2 -18l-305 -424h-91z" />
    <glyph glyph-name="Ccircumflex" unicode="&#x108;" horiz-adv-x="1456" 
d="M145 623q-4 146 57 286t164 242.5t243 163.5t286 57q174 0 314 -79t221 -226l-87 -55q-74 128 -190 195t-264 67q-126 2 -244 -50t-204 -139.5t-137 -208.5t-48 -249q0 -238 151.5 -393.5t383.5 -155.5q136 0 259.5 56.5t217.5 160.5l73 -64q-106 -119 -253 -185
t-306 -66q-132 -2 -251 47.5t-204.5 135.5t-134.5 206.5t-47 253.5zM1307 1483h-78l-199 264l-289 -264h-94l369 381h59z" />
    <glyph glyph-name="ccircumflex" unicode="&#x109;" horiz-adv-x="1138" 
d="M111 465q-3 146 71 273t200.5 201t270.5 71q130 0 236.5 -57t169.5 -160l-80 -54q-57 84 -141.5 129t-184.5 45q-182 0 -309 -128t-127 -314q0 -173 108 -284t273 -111q96 0 181 38.5t147 108.5l67 -63q-146 -180 -397 -180q-208 0 -346.5 137.5t-138.5 347.5zM989 1155
h-78l-170 313l-278 -313h-90l356 442h59z" />
    <glyph glyph-name="Cdotaccent" unicode="&#x10a;" horiz-adv-x="1456" 
d="M145 623q-4 146 57 286t164 242.5t243 163.5t286 57q174 0 314 -79t221 -226l-87 -55q-74 128 -190 195t-264 67q-126 2 -244 -50t-204 -139.5t-137 -208.5t-48 -249q0 -238 151.5 -393.5t383.5 -155.5q136 0 259.5 56.5t217.5 160.5l73 -64q-106 -119 -253 -185
t-306 -66q-132 -2 -251 47.5t-204.5 135.5t-134.5 206.5t-47 253.5zM920 1655q0 37 26 62.5t64 25.5q37 0 63.5 -25.5t26.5 -62.5q0 -38 -26.5 -64t-63.5 -26q-38 0 -64 26t-26 64z" />
    <glyph glyph-name="cdotaccent" unicode="&#x10b;" horiz-adv-x="1138" 
d="M111 465q-3 146 71 273t200.5 201t270.5 71q130 0 236.5 -57t169.5 -160l-80 -54q-57 84 -141.5 129t-184.5 45q-182 0 -309 -128t-127 -314q0 -173 108 -284t273 -111q96 0 181 38.5t147 108.5l67 -63q-146 -180 -397 -180q-208 0 -346.5 137.5t-138.5 347.5zM635 1370
q0 37 26.5 63.5t63.5 26.5q38 0 64 -26.5t26 -63.5t-26 -63.5t-64 -26.5q-37 0 -63.5 26.5t-26.5 63.5z" />
    <glyph glyph-name="Ccaron" unicode="&#x10c;" horiz-adv-x="1456" 
d="M145 623q-4 146 57 286t164 242.5t243 163.5t286 57q174 0 314 -79t221 -226l-87 -55q-74 128 -190 195t-264 67q-126 2 -244 -50t-204 -139.5t-137 -208.5t-48 -249q0 -238 151.5 -393.5t383.5 -155.5q136 0 259.5 56.5t217.5 160.5l73 -64q-106 -119 -253 -185
t-306 -66q-132 -2 -251 47.5t-204.5 135.5t-134.5 206.5t-47 253.5zM1280 1864h94l-366 -381h-60l-233 381h80l194 -265z" />
    <glyph glyph-name="ccaron" unicode="&#x10d;" horiz-adv-x="1138" 
d="M111 465q-3 146 71 273t200.5 201t270.5 71q130 0 236.5 -57t169.5 -160l-80 -54q-57 84 -141.5 129t-184.5 45q-182 0 -309 -128t-127 -314q0 -173 108 -284t273 -111q96 0 181 38.5t147 108.5l67 -63q-146 -180 -397 -180q-208 0 -346.5 137.5t-138.5 347.5zM983 1597
h90l-356 -442h-60l-200 442h78l167 -311z" />
    <glyph glyph-name="Dcaron" unicode="&#x10e;" horiz-adv-x="1433" 
d="M115 0l237 1352h320q304 0 493 -172t189 -449q2 -157 -58 -294t-167 -233.5t-259 -151t-327 -52.5h-428zM238 94h311q202 0 360 79.5t246 224t88 329.5q0 239 -158.5 384.5t-420.5 145.5h-224zM1053 1864h94l-367 -381h-59l-234 381h80l195 -265z" />
    <glyph glyph-name="dcaron" unicode="&#x10f;" horiz-adv-x="1482" 
d="M1182 1536h104l-270 -1536h-98l28 166q-62 -87 -164 -136.5t-223 -49.5q-193 0 -320.5 135.5t-127.5 343.5q0 152 70.5 278.5t193 199.5t268.5 73q138 0 247 -65.5t157 -172.5zM1006 555q0 159 -101 260q-100 100 -258 100q-175 0 -302.5 -132.5t-127.5 -317.5
q0 -173 103.5 -282t263.5 -109q113 0 210.5 65.5t154.5 176.5t57 239zM1438 1108l110 428h119l-147 -428h-82z" />
    <glyph glyph-name="Dcroat" unicode="&#x110;" horiz-adv-x="1435" 
d="M1356 731q2 -158 -58 -295t-167 -233.5t-259 -150.5t-327 -52h-428l100 575h-205l15 93h206l121 684h320q306 0 494 -172t188 -449zM1245 727q0 239 -158 384.5t-419 145.5h-224l-104 -589h289l-17 -93h-288l-84 -481h311q202 0 360 79.5t246 224t88 329.5z" />
    <glyph glyph-name="dslash" unicode="&#x111;" horiz-adv-x="1294" 
d="M1419 1307l-16 -90h-174l-215 -1217h-99l29 164q-62 -87 -163 -135.5t-222 -48.5q-197 0 -323.5 134.5t-126.5 342.5q-2 109 40 210t114.5 174t172 115.5t207.5 40.5q139 0 246.5 -68t152.5 -181l82 469h-458l16 90h459l41 229h102l-41 -229h176zM1006 549
q0 158 -101 256q-100 100 -260 100q-175 0 -300.5 -129.5t-125.5 -312.5q0 -173 101 -281t262 -108q109 -3 208.5 63t158.5 177.5t57 234.5z" />
    <glyph glyph-name="Emacron" unicode="&#x112;" horiz-adv-x="1155" 
d="M115 0l237 1352h846l-16 -95h-742l-86 -479h578l-17 -96h-575l-102 -588h763l-16 -94h-870zM520 1591l17 88h575l-16 -88h-576z" />
    <glyph glyph-name="emacron" unicode="&#x113;" horiz-adv-x="1155" 
d="M1040 471h-823v-2q0 -176 105 -287q108 -108 278 -108q187 0 332 139l57 -68q-78 -79 -181 -122t-216 -43q-207 0 -344 138t-137 345q-2 108 40.5 210t114 176t170 118t203.5 43q184 0 302 -117.5t118 -300.5q0 -69 -19 -121zM225 563h727v31q0 146 -87 233.5t-230 87.5
q-156 0 -268 -100q-115 -100 -142 -252zM428 1327l16 88h535l-16 -88h-535z" />
    <glyph glyph-name="Ebreve" unicode="&#x114;" horiz-adv-x="1155" 
d="M115 0l237 1352h846l-16 -95h-742l-86 -479h578l-17 -96h-575l-102 -588h763l-16 -94h-870zM553 1755q0 27 12 109h92q-12 -62 -12 -99q0 -84 50 -135t132 -51q85 0 143.5 56t71.5 153l13 76h92l-12 -76q-23 -136 -106.5 -214.5t-205.5 -78.5q-117 0 -193.5 73.5
t-76.5 186.5z" />
    <glyph glyph-name="ebreve" unicode="&#x115;" horiz-adv-x="1155" 
d="M1040 471h-823v-2q0 -176 105 -287q108 -108 278 -108q187 0 332 139l57 -68q-78 -79 -181 -122t-216 -43q-207 0 -344 138t-137 345q-2 108 40.5 210t114 176t170 118t203.5 43q184 0 302 -117.5t118 -300.5q0 -69 -19 -121zM225 563h727v31q0 146 -87 233.5t-230 87.5
q-156 0 -268 -100q-115 -100 -142 -252zM412 1436q0 43 14 114h92q-14 -71 -14 -104q0 -84 50 -134t132 -50q87 0 144.5 54t70.5 152l14 82h93l-15 -82q-23 -136 -106 -214t-205 -78q-117 0 -193.5 73.5t-76.5 186.5z" />
    <glyph glyph-name="Edotaccent" unicode="&#x116;" horiz-adv-x="1155" 
d="M115 0l237 1352h846l-16 -95h-742l-86 -479h578l-17 -96h-575l-102 -588h763l-16 -94h-870zM729 1655q0 37 26 62.5t64 25.5q37 0 63.5 -25.5t26.5 -62.5q0 -38 -26.5 -64t-63.5 -26q-38 0 -64 26t-26 64z" />
    <glyph glyph-name="edotaccent" unicode="&#x117;" horiz-adv-x="1155" 
d="M1040 471h-823v-2q0 -176 105 -287q108 -108 278 -108q187 0 332 139l57 -68q-78 -79 -181 -122t-216 -43q-207 0 -344 138t-137 345q-2 108 40.5 210t114 176t170 118t203.5 43q184 0 302 -117.5t118 -300.5q0 -69 -19 -121zM225 563h727v31q0 146 -87 233.5t-230 87.5
q-156 0 -268 -100q-115 -100 -142 -252zM614 1370q0 37 27 63.5t64 26.5q38 0 64 -26.5t26 -63.5t-26 -63.5t-64 -26.5q-37 0 -64 26.5t-27 63.5z" />
    <glyph glyph-name="Eogonek" unicode="&#x118;" horiz-adv-x="1155" 
d="M115 0l237 1352h846l-16 -95h-742l-86 -479h578l-17 -96h-575l-102 -588h763l-16 -94h-870zM602 -236q0 78 78 144q76 64 276 147l29 -55l-143 -78q-69 -37 -100 -71t-31 -72q0 -82 131 -82q39 0 92 6l-14 -82q-62 -10 -113 -10q-93 0 -149 42t-56 111z" />
    <glyph glyph-name="eogonek" unicode="&#x119;" horiz-adv-x="1155" 
d="M1040 471h-823v-2q0 -176 105 -287q108 -108 278 -108q187 0 332 139l57 -68q-78 -79 -181 -122t-216 -43q-207 0 -344 138t-137 345q-2 108 40.5 210t114 176t170 118t203.5 43q184 0 302 -117.5t118 -300.5q0 -69 -19 -121zM225 563h727v31q0 146 -87 233.5t-230 87.5
q-156 0 -268 -100q-115 -100 -142 -252zM559 -236q3 58 32.5 106.5t90.5 105.5t203 174l102 -5l-199 -188q-67 -62 -93.5 -102t-26.5 -76q0 -82 131 -82q39 0 92 6l-14 -82q-65 -10 -113 -10q-94 0 -149.5 40.5t-55.5 112.5z" />
    <glyph glyph-name="Ecaron" unicode="&#x11a;" horiz-adv-x="1155" 
d="M115 0l237 1352h846l-16 -95h-742l-86 -479h578l-17 -96h-575l-102 -588h763l-16 -94h-870zM1090 1864h94l-367 -381h-59l-234 381h80l195 -265z" />
    <glyph glyph-name="ecaron" unicode="&#x11b;" horiz-adv-x="1155" 
d="M1040 471h-823v-2q0 -176 105 -287q108 -108 278 -108q187 0 332 139l57 -68q-78 -79 -181 -122t-216 -43q-207 0 -344 138t-137 345q-2 108 40.5 210t114 176t170 118t203.5 43q184 0 302 -117.5t118 -300.5q0 -69 -19 -121zM225 563h727v31q0 146 -87 233.5t-230 87.5
q-156 0 -268 -100q-115 -100 -142 -252zM965 1597h90l-357 -442h-59l-201 442h78l168 -311z" />
    <glyph glyph-name="Gcircumflex" unicode="&#x11c;" horiz-adv-x="1533" 
d="M145 623q-4 146 57 286t164 242.5t243 163.5t286 57q167 0 306.5 -77t225.5 -218l-84 -61q-74 125 -191.5 191.5t-264.5 66.5q-124 2 -241.5 -50t-204 -139.5t-137.5 -208.5t-48 -249q0 -238 151.5 -393.5t383.5 -155.5q137 0 262 58.5t217 166.5l47 266h-498l17 95h606
l-70 -388q-100 -137 -258 -216.5t-334 -79.5q-176 -3 -323 82t-230.5 234t-81.5 327zM1303 1483h-78l-199 264l-289 -264h-94l369 381h59z" />
    <glyph glyph-name="gcircumflex" unicode="&#x11d;" horiz-adv-x="1292" 
d="M1083 989h103l-164 -940q-35 -204 -173 -321t-345 -117q-142 0 -264 60.5t-197 168.5l74 62q66 -94 167 -145.5t222 -51.5q164 0 274.5 93t139.5 257l20 117q-66 -80 -166.5 -124t-218.5 -44q-193 0 -319.5 128t-126.5 321q0 154 72.5 282t197 201.5t272.5 73.5
q134 0 241 -64.5t155 -171.5zM1008 557q0 158 -100 258t-257 100q-117 0 -217.5 -61.5t-159.5 -166t-59 -226.5q0 -157 103.5 -259t263.5 -102q114 -3 214 59t157.5 168.5t54.5 229.5zM983 1155h-78l-170 313l-278 -313h-90l356 442h59z" />
    <glyph glyph-name="Gbreve" unicode="&#x11e;" horiz-adv-x="1533" 
d="M145 623q-4 146 57 286t164 242.5t243 163.5t286 57q167 0 306.5 -77t225.5 -218l-84 -61q-74 125 -191.5 191.5t-264.5 66.5q-124 2 -241.5 -50t-204 -139.5t-137.5 -208.5t-48 -249q0 -238 151.5 -393.5t383.5 -155.5q137 0 262 58.5t217 166.5l47 266h-498l17 95h606
l-70 -388q-100 -137 -258 -216.5t-334 -79.5q-176 -3 -323 82t-230.5 234t-81.5 327zM741 1755q0 20 13 109h92q-12 -62 -12 -99q0 -84 50 -135t132 -51q85 0 143.5 56t71.5 153l12 76h92l-12 -76q-23 -136 -106 -214.5t-205 -78.5q-117 0 -194 74t-77 186z" />
    <glyph glyph-name="gbreve" unicode="&#x11f;" horiz-adv-x="1292" 
d="M1083 989h103l-164 -940q-35 -204 -173 -321t-345 -117q-142 0 -264 60.5t-197 168.5l74 62q66 -94 167 -145.5t222 -51.5q164 0 274.5 93t139.5 257l20 117q-66 -80 -166.5 -124t-218.5 -44q-193 0 -319.5 128t-126.5 321q0 154 72.5 282t197 201.5t272.5 73.5
q134 0 241 -64.5t155 -171.5zM1008 557q0 158 -100 258t-257 100q-117 0 -217.5 -61.5t-159.5 -166t-59 -226.5q0 -157 103.5 -259t263.5 -102q114 -3 214 59t157.5 168.5t54.5 229.5zM424 1436q0 43 14 114h92q-14 -71 -14 -104q0 -84 50 -134t132 -50q87 0 144.5 54
t70.5 152l15 82h92l-14 -82q-23 -136 -106 -214t-206 -78q-117 0 -193.5 73.5t-76.5 186.5z" />
    <glyph glyph-name="Gdotaccent" unicode="&#x120;" horiz-adv-x="1533" 
d="M145 623q-4 146 57 286t164 242.5t243 163.5t286 57q167 0 306.5 -77t225.5 -218l-84 -61q-74 125 -191.5 191.5t-264.5 66.5q-124 2 -241.5 -50t-204 -139.5t-137.5 -208.5t-48 -249q0 -238 151.5 -393.5t383.5 -155.5q137 0 262 58.5t217 166.5l47 266h-498l17 95h606
l-70 -388q-100 -137 -258 -216.5t-334 -79.5q-176 -3 -323 82t-230.5 234t-81.5 327zM915 1655q0 37 26.5 62.5t64.5 25.5q37 0 63.5 -25.5t26.5 -62.5q0 -38 -26.5 -64t-63.5 -26q-38 0 -64.5 26t-26.5 64z" />
    <glyph glyph-name="gdotaccent" unicode="&#x121;" horiz-adv-x="1292" 
d="M1083 989h103l-164 -940q-35 -204 -173 -321t-345 -117q-142 0 -264 60.5t-197 168.5l74 62q66 -94 167 -145.5t222 -51.5q164 0 274.5 93t139.5 257l20 117q-66 -80 -166.5 -124t-218.5 -44q-193 0 -319.5 128t-126.5 321q0 154 72.5 282t197 201.5t272.5 73.5
q134 0 241 -64.5t155 -171.5zM1008 557q0 158 -100 258t-257 100q-117 0 -217.5 -61.5t-159.5 -166t-59 -226.5q0 -157 103.5 -259t263.5 -102q114 -3 214 59t157.5 168.5t54.5 229.5zM627 1370q0 37 26.5 63.5t63.5 26.5q38 0 64 -26.5t26 -63.5t-26 -63.5t-64 -26.5
q-37 0 -63.5 26.5t-26.5 63.5z" />
    <glyph glyph-name="uni0122" unicode="&#x122;" horiz-adv-x="1533" 
d="M145 623q-4 146 57 286t164 242.5t243 163.5t286 57q167 0 306.5 -77t225.5 -218l-84 -61q-74 125 -191.5 191.5t-264.5 66.5q-124 2 -241.5 -50t-204 -139.5t-137.5 -208.5t-48 -249q0 -238 151.5 -393.5t383.5 -155.5q137 0 262 58.5t217 166.5l47 266h-498l17 95h606
l-70 -388q-100 -137 -258 -216.5t-334 -79.5q-176 -3 -323 82t-230.5 234t-81.5 327zM557 -451l86 347h109l-111 -347h-84z" />
    <glyph glyph-name="uni0123" unicode="&#x123;" horiz-adv-x="1292" 
d="M1083 989h103l-164 -940q-35 -204 -173 -321t-345 -117q-142 0 -264 60.5t-197 168.5l74 62q66 -94 167 -145.5t222 -51.5q164 0 274.5 93t139.5 257l20 117q-66 -80 -166.5 -124t-218.5 -44q-193 0 -319.5 128t-126.5 321q0 154 72.5 282t197 201.5t272.5 73.5
q134 0 241 -64.5t155 -171.5zM1008 557q0 158 -100 258t-257 100q-117 0 -217.5 -61.5t-159.5 -166t-59 -226.5q0 -157 103.5 -259t263.5 -102q114 -3 214 59t157.5 168.5t54.5 229.5zM621 1155l139 442h82l-113 -442h-108z" />
    <glyph glyph-name="Hcircumflex" unicode="&#x124;" horiz-adv-x="1445" 
d="M115 0l237 1352h107l-101 -574h832l100 574h107l-238 -1352h-106l118 682h-831l-119 -682h-106zM1225 1483h-78l-199 264l-289 -264h-94l369 381h59z" />
    <glyph glyph-name="hcircumflex" unicode="&#x125;" horiz-adv-x="1142" 
d="M997 692q0 -28 -12 -110l-102 -582h-103l103 588q0 1 3.5 19.5t6 38t2.5 36.5q0 106 -68.5 169.5t-181.5 63.5q-123 0 -211.5 -75t-111.5 -201l-111 -639h-105l269 1536h104l-114 -657q115 131 299 131q149 0 241 -87.5t92 -230.5zM780 1667h-78l-198 264l-289 -264h-94
l368 381h60z" />
    <glyph glyph-name="Hbar" unicode="&#x126;" horiz-adv-x="1464" 
d="M1565 1057l-17 -92h-211l-170 -965h-106l98 557h-831l-99 -557h-106l170 965h-213l16 92h213l51 295h107l-51 -295h831l51 295h107l-51 -295h211zM1176 653l55 312h-832l-55 -312h832z" />
    <glyph glyph-name="hbar" unicode="&#x127;" horiz-adv-x="1142" 
d="M993 670q0 -38 -12 -111l-98 -559h-103l99 565q10 58 10 88q0 109 -66.5 174.5t-181.5 65.5q-121 0 -210 -75.5t-112 -203.5l-108 -614h-105l213 1214h-172l17 95h172l39 227h104l-39 -227h422l-16 -95h-422l-64 -358q119 131 299 131q151 0 242.5 -88t91.5 -229z" />
    <glyph glyph-name="Itilde" unicode="&#x128;" horiz-adv-x="505" 
d="M115 0l237 1352h107l-238 -1352h-106zM463 1591l-66 47q-53 41 -86 41q-38 0 -58 -30.5t-28 -94.5h-88q11 110 51 166t119 56q40 0 70.5 -13t71.5 -45l61 -49q53 -41 90 -41q38 0 57 30t27 97h88q-21 -221 -172 -221q-38 0 -64 12t-73 45z" />
    <glyph glyph-name="itilde" unicode="&#x129;" horiz-adv-x="485" 
d="M104 0l175 989h104l-174 -989h-105zM389 1305l-33 45q-20 27 -35 38t-34 11q-35 0 -54 -32t-30 -103h-88q11 108 53 168.5t117 60.5q39 0 66.5 -17t56.5 -53l30 -45q23 -29 35.5 -39t34.5 -10q35 0 54 32t30 103h88q-27 -229 -168 -229q-74 0 -123 70z" />
    <glyph glyph-name="Imacron" unicode="&#x12a;" horiz-adv-x="505" 
d="M115 0l237 1352h107l-238 -1352h-106zM160 1591l16 88h576l-17 -88h-575z" />
    <glyph glyph-name="imacron" unicode="&#x12b;" horiz-adv-x="485" 
d="M104 0l175 989h104l-174 -989h-105zM182 1325l15 90h419l-16 -90h-418z" />
    <glyph glyph-name="Ibreve" unicode="&#x12c;" horiz-adv-x="505" 
d="M115 0l237 1352h107l-238 -1352h-106zM193 1755q0 27 12 109h92q-12 -62 -12 -99q0 -84 50 -135t132 -51q85 0 143.5 56t71.5 153l12 76h92l-12 -76q-23 -136 -106 -214.5t-205 -78.5q-117 0 -193.5 73.5t-76.5 186.5z" />
    <glyph glyph-name="ibreve" unicode="&#x12d;" horiz-adv-x="485" 
d="M104 0l175 989h104l-174 -989h-105zM104 1436q0 38 15 114h92q-14 -71 -14 -104q0 -84 50 -134t132 -50q87 0 144.5 54t70.5 152l14 82h92l-14 -82q-23 -136 -106 -214t-205 -78q-117 0 -194 74t-77 186z" />
    <glyph glyph-name="Iogonek" unicode="&#x12e;" horiz-adv-x="505" 
d="M115 0l237 1352h107l-238 -1352h-106zM-164 -236q0 78 78 144q76 64 276 147l29 -55l-143 -78q-69 -37 -100 -71t-31 -72q0 -82 131 -82q40 0 92 6l-14 -82q-62 -10 -113 -10q-93 0 -149 42t-56 111z" />
    <glyph glyph-name="iogonek" unicode="&#x12f;" horiz-adv-x="485" 
d="M104 0l175 989h104l-174 -989h-105zM309 1370q0 37 26.5 63.5t63.5 26.5q38 0 64 -26.5t26 -63.5t-26 -63.5t-64 -26.5q-37 0 -63.5 26.5t-26.5 63.5zM-176 -236q0 78 78 144q76 64 276 147l29 -55l-144 -78q-69 -37 -100 -71t-31 -72q0 -82 131 -82q41 0 93 6l-15 -82
q-62 -10 -112 -10q-93 0 -149 42t-56 111z" />
    <glyph glyph-name="Idot" unicode="&#x130;" horiz-adv-x="505" 
d="M115 0l237 1352h107l-238 -1352h-106zM369 1655q0 37 26 62.5t64 25.5q37 0 63.5 -25.5t26.5 -62.5q0 -38 -26.5 -64t-63.5 -26q-38 0 -64 26t-26 64z" />
    <glyph glyph-name="dotlessi" unicode="&#x131;" horiz-adv-x="485" 
d="M104 0l175 989h104l-174 -989h-105z" />
    <glyph glyph-name="IJ" unicode="&#x132;" horiz-adv-x="1259" 
d="M115 0l237 1352h107l-238 -1352h-106zM477 12l19 92q104 -26 184 -26q103 0 161 52t77 161l186 1061h106l-190 -1076q-52 -296 -336 -296q-107 0 -207 32z" />
    <glyph glyph-name="ij" unicode="&#x133;" horiz-adv-x="972" 
d="M104 0l175 989h104l-174 -989h-105zM309 1370q0 37 26.5 63.5t63.5 26.5q38 0 64 -26.5t26 -63.5t-26 -63.5t-64 -26.5q-37 0 -63.5 26.5t-26.5 63.5zM223 -365l15 86q59 -16 120 -16q180 0 215 189l193 1095h104l-196 -1108q-24 -136 -103 -203t-204 -67q-83 0 -144 24z
M795 1370q0 37 26.5 63.5t63.5 26.5q38 0 64 -26.5t26 -63.5t-26 -63.5t-64 -26.5q-37 0 -63.5 26.5t-26.5 63.5z" />
    <glyph glyph-name="Jcircumflex" unicode="&#x134;" horiz-adv-x="751" 
d="M-29 12l19 92q104 -26 184 -26q103 0 161 52t77 161l186 1061h107l-191 -1076q-52 -296 -336 -296q-107 0 -207 32zM989 1483h-78l-198 264l-289 -264h-94l368 381h60z" />
    <glyph glyph-name="jcircumflex" unicode="&#x135;" horiz-adv-x="487" 
d="M-262 -365l14 86q59 -16 121 -16q180 0 215 189l193 1095h104l-197 -1108q-24 -136 -103 -203t-204 -67q-81 0 -143 24zM666 1155h-78l-170 313l-279 -313h-90l357 442h59z" />
    <glyph glyph-name="uni0136" unicode="&#x136;" horiz-adv-x="1253" 
d="M352 1352h107l-238 -1352h-106zM1286 1352l-770 -631l582 -721h-127l-592 731l754 621h153zM383 -451l86 347h109l-111 -347h-84z" />
    <glyph glyph-name="uni0137" unicode="&#x137;" horiz-adv-x="985" 
d="M375 1536h104l-270 -1536h-105zM1004 989l-539 -452l399 -537h-121l-407 547l522 442h146zM252 -451l86 347h108l-110 -347h-84z" />
    <glyph glyph-name="Lacute" unicode="&#x139;" horiz-adv-x="1021" 
d="M115 0l237 1352h107l-221 -1258h665l-16 -94h-772zM383 1483l246 381h133l-2 -19l-293 -362h-84z" />
    <glyph glyph-name="lacute" unicode="&#x13a;" horiz-adv-x="485" 
d="M104 0l271 1536h104l-270 -1536h-105zM406 1667l245 381h133l-2 -18l-293 -363h-83z" />
    <glyph glyph-name="uni013B" unicode="&#x13b;" horiz-adv-x="1021" 
d="M115 0l237 1352h107l-221 -1258h665l-16 -94h-772zM336 -451l86 347h108l-110 -347h-84z" />
    <glyph glyph-name="uni013C" unicode="&#x13c;" horiz-adv-x="485" 
d="M104 0l271 1536h104l-270 -1536h-105zM0 -451l86 347h109l-111 -347h-84z" />
    <glyph glyph-name="Lcaron" unicode="&#x13d;" horiz-adv-x="1021" 
d="M115 0l237 1352h107l-221 -1258h665l-16 -94h-772zM819 924l111 428h119l-148 -428h-82z" />
    <glyph glyph-name="lcaron" unicode="&#x13e;" horiz-adv-x="655" 
d="M104 0l271 1536h104l-270 -1536h-105zM610 1108l111 428h119l-148 -428h-82z" />
    <glyph glyph-name="Ldot" unicode="&#x13f;" horiz-adv-x="1021" 
d="M115 0l237 1352h107l-221 -1258h665l-16 -94h-772zM709 743q0 44 29 73.5t71 29.5t72 -29.5t30 -73.5q0 -42 -30 -70t-72 -28t-71 28t-29 70z" />
    <glyph glyph-name="ldot" unicode="&#x140;" horiz-adv-x="546" 
d="M104 0l271 1536h104l-270 -1536h-105zM438 635q0 44 29.5 73t71.5 29t72 -29t30 -73q0 -42 -30 -70t-72 -28t-71.5 28t-29.5 70z" />
    <glyph glyph-name="Lslash" unicode="&#x141;" horiz-adv-x="1021" 
d="M238 94h665l-16 -94h-772l98 565l-178 -76l18 101l178 76l121 686h107l-115 -647l516 217l-18 -101l-514 -217z" />
    <glyph glyph-name="lslash" unicode="&#x142;" horiz-adv-x="491" 
d="M545 918l-17 -99l-194 -84l-129 -735h-103l123 698l-182 -77l18 98l181 78l131 739h102l-123 -702z" />
    <glyph glyph-name="Nacute" unicode="&#x143;" horiz-adv-x="1445" 
d="M1290 1352h107l-242 -1372h-43l-694 1163l-197 -1143h-106l241 1372h41l695 -1167zM852 1483l246 381h133l-2 -19l-293 -362h-84z" />
    <glyph glyph-name="nacute" unicode="&#x144;" horiz-adv-x="1142" 
d="M997 692q0 -36 -12 -110l-102 -582h-105l107 588q10 65 10 90q0 108 -67.5 172.5t-180.5 64.5q-123 0 -211.5 -75t-111.5 -201l-115 -639h-103l175 989h98l-19 -117q119 138 306 138q149 0 239 -90q92 -89 92 -228zM629 1155l264 442h133l-2 -18l-305 -424h-90z" />
    <glyph glyph-name="uni0145" unicode="&#x145;" horiz-adv-x="1445" 
d="M1290 1352h107l-242 -1372h-43l-694 1163l-197 -1143h-106l241 1372h41l695 -1167zM479 -451l86 347h109l-111 -347h-84z" />
    <glyph glyph-name="uni0146" unicode="&#x146;" horiz-adv-x="1142" 
d="M997 692q0 -36 -12 -110l-102 -582h-105l107 588q10 65 10 90q0 108 -67.5 172.5t-180.5 64.5q-123 0 -211.5 -75t-111.5 -201l-115 -639h-103l175 989h98l-19 -117q119 138 306 138q149 0 239 -90q92 -89 92 -228zM344 -451l86 347h109l-111 -347h-84z" />
    <glyph glyph-name="Ncaron" unicode="&#x147;" horiz-adv-x="1445" 
d="M1290 1352h107l-242 -1372h-43l-694 1163l-197 -1143h-106l241 1372h41l695 -1167zM1198 1864h94l-366 -381h-60l-233 381h80l194 -265z" />
    <glyph glyph-name="ncaron" unicode="&#x148;" horiz-adv-x="1142" 
d="M997 692q0 -36 -12 -110l-102 -582h-105l107 588q10 65 10 90q0 108 -67.5 172.5t-180.5 64.5q-123 0 -211.5 -75t-111.5 -201l-115 -639h-103l175 989h98l-19 -117q119 138 306 138q149 0 239 -90q92 -89 92 -228zM995 1597h90l-356 -442h-59l-201 442h78l168 -311z" />
    <glyph glyph-name="Eng" unicode="&#x14a;" horiz-adv-x="1443" 
d="M1286 1352h107l-256 -1473q-23 -130 -102.5 -199t-207.5 -69q-83 0 -145 24l16 89q70 -15 123 -15q92 0 142.5 45.5t68.5 139.5l21 118l-633 1118l-197 -1130h-106l239 1372h41l684 -1202z" />
    <glyph glyph-name="eng" unicode="&#x14b;" horiz-adv-x="1142" 
d="M995 692q0 -48 -12 -110l-121 -695q-24 -139 -104.5 -207.5t-202.5 -68.5q-83 0 -145 24l16 86q56 -16 121 -16q90 0 143.5 47.5t71.5 151.5l121 684q10 65 10 88q0 109 -66.5 174t-181.5 65q-123 0 -211.5 -75t-111.5 -201l-113 -639h-103l173 989h100l-21 -117
q57 66 136.5 102t169.5 36q151 0 241 -88t90 -230z" />
    <glyph glyph-name="Omacron" unicode="&#x14c;" horiz-adv-x="1603" 
d="M145 623q-3 147 58 286.5t162.5 241.5t240.5 163t285 58q132 2 250.5 -47.5t203.5 -135.5t134 -206.5t47 -253.5q3 -147 -58 -286.5t-163.5 -241.5t-241.5 -163t-285 -58q-176 -3 -323 83t-230 235t-80 325zM1413 727q0 235 -150 391t-378 156q-168 3 -314.5 -85.5
t-232 -239t-82.5 -322.5q0 -235 149 -391t377 -156q124 -2 241.5 50t204 139.5t137.5 208.5t48 249zM705 1591l16 88h575l-16 -88h-575z" />
    <glyph glyph-name="omacron" unicode="&#x14d;" horiz-adv-x="1249" 
d="M111 467q-2 108 42 209t117.5 175t175 117.5t209.5 41.5q207 0 346.5 -140.5t139.5 -347.5q3 -144 -72 -270.5t-203 -200.5t-274 -71q-205 0 -343 140t-138 347zM1032 522q0 166 -108.5 278.5t-272.5 112.5q-180 0 -306 -130t-126 -316q0 -170 106.5 -280.5t270.5 -110.5
q182 0 309 130t127 316zM457 1327l16 88h535l-17 -88h-534z" />
    <glyph glyph-name="Obreve" unicode="&#x14e;" horiz-adv-x="1603" 
d="M145 623q-3 147 58 286.5t162.5 241.5t240.5 163t285 58q132 2 250.5 -47.5t203.5 -135.5t134 -206.5t47 -253.5q3 -147 -58 -286.5t-163.5 -241.5t-241.5 -163t-285 -58q-176 -3 -323 83t-230 235t-80 325zM1413 727q0 235 -150 391t-378 156q-168 3 -314.5 -85.5
t-232 -239t-82.5 -322.5q0 -235 149 -391t377 -156q124 -2 241.5 50t204 139.5t137.5 208.5t48 249zM737 1755q0 20 13 109h92q-13 -67 -13 -99q0 -84 50.5 -135t132.5 -51q85 0 143.5 56t71.5 153l12 76h92l-12 -76q-23 -136 -106 -214.5t-205 -78.5q-117 0 -194 74
t-77 186z" />
    <glyph glyph-name="obreve" unicode="&#x14f;" horiz-adv-x="1249" 
d="M111 467q-2 108 42 209t117.5 175t175 117.5t209.5 41.5q207 0 346.5 -140.5t139.5 -347.5q3 -144 -72 -270.5t-203 -200.5t-274 -71q-205 0 -343 140t-138 347zM1032 522q0 166 -108.5 278.5t-272.5 112.5q-180 0 -306 -130t-126 -316q0 -170 106.5 -280.5t270.5 -110.5
q182 0 309 130t127 316zM438 1436q0 38 15 114h92q-15 -76 -15 -104q0 -84 50.5 -134t132.5 -50q87 0 144.5 54t70.5 152l14 82h92l-14 -82q-23 -136 -106 -214t-205 -78q-117 0 -194 74t-77 186z" />
    <glyph glyph-name="Ohungarumlaut" unicode="&#x150;" horiz-adv-x="1603" 
d="M145 623q-3 147 58 286.5t162.5 241.5t240.5 163t285 58q132 2 250.5 -47.5t203.5 -135.5t134 -206.5t47 -253.5q3 -147 -58 -286.5t-163.5 -241.5t-241.5 -163t-285 -58q-176 -3 -323 83t-230 235t-80 325zM1413 727q0 235 -150 391t-378 156q-168 3 -314.5 -85.5
t-232 -239t-82.5 -322.5q0 -235 149 -391t377 -156q124 -2 241.5 50t204 139.5t137.5 208.5t48 249zM692 1483l254 381h123l-2 -19l-289 -362h-86zM1120 1483l254 381h123l-2 -19l-289 -362h-86z" />
    <glyph glyph-name="ohungarumlaut" unicode="&#x151;" horiz-adv-x="1249" 
d="M111 467q-2 108 42 209t117.5 175t175 117.5t209.5 41.5q207 0 346.5 -140.5t139.5 -347.5q3 -144 -72 -270.5t-203 -200.5t-274 -71q-205 0 -343 140t-138 347zM1032 522q0 166 -108.5 278.5t-272.5 112.5q-180 0 -306 -130t-126 -316q0 -170 106.5 -280.5t270.5 -110.5
q182 0 309 130t127 316zM449 1155l264 442h125l-4 -18l-299 -424h-86zM838 1155l264 442h125l-4 -18l-297 -424h-88z" />
    <glyph glyph-name="OE" unicode="&#x152;" horiz-adv-x="2338" 
d="M2365 1257h-739l-84 -481h576l-17 -92h-575l-105 -590h764l-16 -94h-866l49 274q-87 -137 -240 -215.5t-338 -78.5q-174 -3 -320 81.5t-229 232.5t-80 324q-4 151 56.5 292t163 243t243.5 162t293 57q201 0 361 -104.5t213 -266.5l61 351h846zM1423 768q0 221 -148 363.5
t-374 142.5q-172 3 -322.5 -85.5t-238.5 -239.5t-84 -324q0 -239 153 -393t388 -154q127 -2 244 52t201.5 146.5t133.5 221.5t47 270z" />
    <glyph glyph-name="oe" unicode="&#x153;" horiz-adv-x="2039" 
d="M1923 469h-813q0 -176 102 -287q105 -108 273 -108q187 0 332 139l55 -68q-73 -79 -176.5 -122t-214.5 -43q-152 0 -268 79t-166 215q-68 -135 -193.5 -214.5t-273.5 -79.5q-198 0 -333.5 140t-135.5 347q-2 106 41.5 207t116 175.5t171.5 118.5t203 42q148 0 263 -80.5
t165 -216.5q67 135 189.5 215t267.5 80q182 0 299 -117.5t117 -300.5q0 -66 -21 -121zM1010 520q0 166 -106.5 280.5t-262.5 114.5q-113 0 -210.5 -61t-154.5 -165.5t-57 -225.5q0 -167 104 -278t261 -111q114 0 212 60t156 163t58 223zM1118 563h719v31q0 146 -86 232.5
t-229 86.5q-149 0 -262 -98q-115 -100 -142 -252z" />
    <glyph glyph-name="Racute" unicode="&#x154;" horiz-adv-x="1257" 
d="M772 610l358 -610h-118l-355 606h-329l-107 -606h-106l237 1352h416q184 0 288.5 -91t104.5 -251q0 -161 -105 -269t-284 -131zM440 1257l-96 -557h356q161 0 255 82.5t94 223.5q0 122 -75 186.5t-216 64.5h-318zM672 1483l246 381h133l-2 -19l-293 -362h-84z" />
    <glyph glyph-name="racute" unicode="&#x155;" horiz-adv-x="716" 
d="M768 983l-16 -88q-41 8 -84 8q-132 0 -232 -80q-98 -79 -119 -209l-108 -614h-105l177 989h98l-23 -129q122 137 316 137q50 0 96 -14zM412 1155l264 442h133l-2 -18l-305 -424h-90z" />
    <glyph glyph-name="uni0156" unicode="&#x156;" horiz-adv-x="1257" 
d="M772 610l358 -610h-118l-355 606h-329l-107 -606h-106l237 1352h416q184 0 288.5 -91t104.5 -251q0 -161 -105 -269t-284 -131zM440 1257l-96 -557h356q161 0 255 82.5t94 223.5q0 122 -75 186.5t-216 64.5h-318zM389 -451l86 347h109l-111 -347h-84z" />
    <glyph glyph-name="uni0157" unicode="&#x157;" horiz-adv-x="716" 
d="M768 983l-16 -88q-41 8 -84 8q-132 0 -232 -80q-98 -79 -119 -209l-108 -614h-105l177 989h98l-23 -129q122 137 316 137q50 0 96 -14zM0 -451l86 347h109l-111 -347h-84z" />
    <glyph glyph-name="Rcaron" unicode="&#x158;" horiz-adv-x="1257" 
d="M772 610l358 -610h-118l-355 606h-329l-107 -606h-106l237 1352h416q184 0 288.5 -91t104.5 -251q0 -161 -105 -269t-284 -131zM440 1257l-96 -557h356q161 0 255 82.5t94 223.5q0 122 -75 186.5t-216 64.5h-318zM1018 1864h94l-367 -381h-59l-233 381h79l195 -265z" />
    <glyph glyph-name="rcaron" unicode="&#x159;" horiz-adv-x="716" 
d="M768 983l-16 -88q-41 8 -84 8q-132 0 -232 -80q-98 -79 -119 -209l-108 -614h-105l177 989h98l-23 -129q122 137 316 137q50 0 96 -14zM778 1597h90l-356 -442h-59l-201 442h78l168 -311z" />
    <glyph glyph-name="Sacute" unicode="&#x15a;" horiz-adv-x="1138" 
d="M57 299l88 51q151 -272 414 -272q135 0 219 72.5t84 189.5q0 80 -48.5 142.5t-156.5 125.5l-147 88q-244 142 -244 330q0 148 114 247t288 99q275 0 413 -237l-84 -52q-63 99 -143 145t-188 46q-130 0 -209.5 -66.5t-79.5 -175.5q0 -74 45 -131.5t153 -120.5l144 -84
q132 -79 194 -162t62 -186q0 -161 -119 -264.5t-301 -103.5q-160 0 -288 82t-210 237zM688 1483l246 381h133l-2 -19l-293 -362h-84z" />
    <glyph glyph-name="sacute" unicode="&#x15b;" horiz-adv-x="931" 
d="M66 203l79 61q66 -100 137.5 -145t163.5 -45q100 0 165 49.5t65 124.5q0 56 -39 95.5t-145 94.5l-86 45q-113 60 -161 120.5t-48 144.5q0 117 89 189.5t230 72.5q205 0 318 -168l-76 -62q-102 135 -250 135q-91 0 -147 -44.5t-56 -116.5q0 -57 34 -96.5t126 -88.5l86 -45
q126 -69 178.5 -128t52.5 -144q0 -122 -94 -197t-246 -75q-120 0 -217 58t-159 165zM487 1155l265 442h133l-2 -18l-305 -424h-91z" />
    <glyph glyph-name="Scircumflex" unicode="&#x15c;" horiz-adv-x="1138" 
d="M57 299l88 51q151 -272 414 -272q135 0 219 72.5t84 189.5q0 80 -48.5 142.5t-156.5 125.5l-147 88q-244 142 -244 330q0 148 114 247t288 99q275 0 413 -237l-84 -52q-63 99 -143 145t-188 46q-130 0 -209.5 -66.5t-79.5 -175.5q0 -74 45 -131.5t153 -120.5l144 -84
q132 -79 194 -162t62 -186q0 -161 -119 -264.5t-301 -103.5q-160 0 -288 82t-210 237zM1061 1483h-78l-199 264l-288 -264h-95l369 381h59z" />
    <glyph glyph-name="scircumflex" unicode="&#x15d;" horiz-adv-x="931" 
d="M66 203l79 61q66 -100 137.5 -145t163.5 -45q100 0 165 49.5t65 124.5q0 56 -39 95.5t-145 94.5l-86 45q-113 60 -161 120.5t-48 144.5q0 117 89 189.5t230 72.5q205 0 318 -168l-76 -62q-102 135 -250 135q-91 0 -147 -44.5t-56 -116.5q0 -57 34 -96.5t126 -88.5l86 -45
q126 -69 178.5 -128t52.5 -144q0 -122 -94 -197t-246 -75q-120 0 -217 58t-159 165zM858 1155h-78l-170 313l-278 -313h-90l356 442h59z" />
    <glyph glyph-name="Scedilla" unicode="&#x15e;" horiz-adv-x="1138" 
d="M57 299l88 51q151 -272 414 -272q135 0 219 72.5t84 189.5q0 80 -48.5 142.5t-156.5 125.5l-147 88q-244 142 -244 330q0 148 114 247t288 99q275 0 413 -237l-84 -52q-63 99 -143 145t-188 46q-130 0 -209.5 -66.5t-79.5 -175.5q0 -74 45 -131.5t153 -120.5l144 -84
q132 -79 194 -162t62 -186q0 -161 -119 -264.5t-301 -103.5q-160 0 -288 82t-210 237zM178 -360l15 77q76 -20 131 -20q82 0 130 45t48 123q0 41 -14.5 71.5t-51.5 69.5l43 25q55 -31 85 -79.5t30 -105.5q0 -101 -76 -168q-73 -67 -182 -67q-73 0 -158 29z" />
    <glyph glyph-name="scedilla" unicode="&#x15f;" horiz-adv-x="931" 
d="M66 203l79 61q66 -100 137.5 -145t163.5 -45q100 0 165 49.5t65 124.5q0 56 -39 95.5t-145 94.5l-86 45q-113 60 -161 120.5t-48 144.5q0 117 89 189.5t230 72.5q205 0 318 -168l-76 -62q-102 135 -250 135q-91 0 -147 -44.5t-56 -116.5q0 -57 34 -96.5t126 -88.5l86 -45
q126 -69 178.5 -128t52.5 -144q0 -122 -94 -197t-246 -75q-120 0 -217 58t-159 165zM139 -360l15 77q76 -20 131 -20q82 0 130 45t48 123q0 41 -14.5 71.5t-51.5 69.5l43 25q55 -31 85 -79.5t30 -105.5q0 -101 -76 -168q-73 -67 -182 -67q-73 0 -158 29z" />
    <glyph glyph-name="Scaron" unicode="&#x160;" horiz-adv-x="1138" 
d="M57 299l88 51q151 -272 414 -272q135 0 219 72.5t84 189.5q0 80 -48.5 142.5t-156.5 125.5l-147 88q-244 142 -244 330q0 148 114 247t288 99q275 0 413 -237l-84 -52q-63 99 -143 145t-188 46q-130 0 -209.5 -66.5t-79.5 -175.5q0 -74 45 -131.5t153 -120.5l144 -84
q132 -79 194 -162t62 -186q0 -161 -119 -264.5t-301 -103.5q-160 0 -288 82t-210 237zM1034 1864h94l-366 -381h-60l-233 381h80l194 -265z" />
    <glyph glyph-name="scaron" unicode="&#x161;" horiz-adv-x="931" 
d="M66 203l79 61q66 -100 137.5 -145t163.5 -45q100 0 165 49.5t65 124.5q0 56 -39 95.5t-145 94.5l-86 45q-113 60 -161 120.5t-48 144.5q0 117 89 189.5t230 72.5q205 0 318 -168l-76 -62q-102 135 -250 135q-91 0 -147 -44.5t-56 -116.5q0 -57 34 -96.5t126 -88.5l86 -45
q126 -69 178.5 -128t52.5 -144q0 -122 -94 -197t-246 -75q-120 0 -217 58t-159 165zM852 1597h90l-356 -442h-60l-200 442h77l168 -311z" />
    <glyph glyph-name="uni0162" unicode="&#x162;" horiz-adv-x="1198" 
d="M459 0l223 1257h-496l17 95h1095l-16 -95h-494l-223 -1257h-106zM219 -360l14 77q76 -20 132 -20q82 0 130 45t48 123q0 41 -14.5 71.5t-51.5 69.5l43 25q55 -31 85 -79.5t30 -105.5q0 -101 -76 -168q-73 -67 -182 -67q-73 0 -158 29z" />
    <glyph glyph-name="uni0163" unicode="&#x163;" horiz-adv-x="743" 
d="M406 895l-107 -598q-6 -27 -6 -59q0 -85 56.5 -124.5t170.5 -39.5q5 0 17.5 0.5t35.5 1.5t43 2l-16 -88q-48 -10 -106 -10q-146 0 -226 60.5t-80 184.5q0 39 9 74l104 596h-172l14 94h174l50 281h104l-49 -281h317l-14 -94h-319zM78 -360l14 77q76 -20 131 -20
q82 0 130 45t48 123q0 41 -14 72t-51 69l43 25q55 -31 85 -79.5t30 -105.5q0 -101 -76 -168q-73 -67 -182 -67q-73 0 -158 29z" />
    <glyph glyph-name="Tcaron" unicode="&#x164;" horiz-adv-x="1198" 
d="M459 0l223 1257h-496l17 95h1095l-16 -95h-494l-223 -1257h-106zM1075 1864h94l-366 -381h-60l-233 381h80l194 -265z" />
    <glyph glyph-name="tcaron" unicode="&#x165;" horiz-adv-x="743" 
d="M406 895l-107 -598q-6 -27 -6 -59q0 -85 56.5 -124.5t170.5 -39.5q5 0 17.5 0.5t35.5 1.5t43 2l-16 -88q-48 -10 -106 -10q-146 0 -226 60.5t-80 184.5q0 39 9 74l104 596h-172l14 94h174l50 281h104l-49 -281h317l-14 -94h-319zM631 1108l110 428h119l-147 -428h-82z
" />
    <glyph glyph-name="Tbar" unicode="&#x166;" horiz-adv-x="1198" 
d="M1282 1257h-494l-106 -604h416l-17 -90h-415l-101 -563h-106l100 563h-418l17 90h417l107 604h-496l17 95h1095z" />
    <glyph glyph-name="tbar" unicode="&#x167;" horiz-adv-x="778" 
d="M735 899h-309l-59 -334h315l-14 -92h-318l-31 -176q-6 -34 -6 -59q0 -88 58 -126t170 -38q5 0 17.5 0.5t35.5 1.5t43 2l-16 -88q-48 -10 -107 -10q-143 0 -224 59.5t-81 185.5q0 43 8 74l31 174h-176l14 92h178l58 334h-183l15 90h184l49 281h105l-50 -281h308z" />
    <glyph glyph-name="Utilde" unicode="&#x168;" horiz-adv-x="1396" 
d="M182 438q0 38 11 121l137 793h106l-139 -799q-8 -44 -8 -107q0 -161 107 -264.5t274 -103.5t286 104q122 110 152 283l154 887h106l-156 -895q-41 -221 -186 -348q-147 -129 -358 -129q-214 0 -350 128.5t-136 329.5zM907 1591l-65 47q-53 41 -86 41q-38 0 -58 -30.5
t-28 -94.5h-88q11 110 51 166t119 56q40 0 69.5 -13t71.5 -45l61 -49q53 -41 90 -41q38 0 57 30t27 97h89q-21 -221 -173 -221q-38 0 -64 12t-73 45z" />
    <glyph glyph-name="utilde" unicode="&#x169;" horiz-adv-x="1124" 
d="M152 324q0 48 8 79l100 586h105l-107 -598q-4 -28 -4 -63q0 -113 74 -183.5t192 -70.5q115 0 196.5 72t104.5 194l113 649h104l-114 -653q-26 -158 -144 -260q-116 -96 -268 -96q-157 0 -258.5 96.5t-101.5 247.5zM700 1300l-45 50q-24 28 -41 38.5t-39 10.5
q-38 0 -58 -32.5t-28 -102.5h-88q21 229 170 229q74 0 131 -63l46 -52q40 -49 79 -49q37 0 56 31.5t30 103.5h88q-21 -229 -170 -229q-75 0 -131 65z" />
    <glyph glyph-name="Umacron" unicode="&#x16a;" horiz-adv-x="1396" 
d="M182 438q0 38 11 121l137 793h106l-139 -799q-8 -44 -8 -107q0 -161 107 -264.5t274 -103.5t286 104q122 110 152 283l154 887h106l-156 -895q-41 -221 -186 -348q-147 -129 -358 -129q-214 0 -350 128.5t-136 329.5zM606 1591l17 88h575l-16 -88h-576z" />
    <glyph glyph-name="umacron" unicode="&#x16b;" horiz-adv-x="1124" 
d="M152 324q0 48 8 79l100 586h105l-107 -598q-4 -28 -4 -63q0 -113 74 -183.5t192 -70.5q115 0 196.5 72t104.5 194l113 649h104l-114 -653q-26 -158 -144 -260q-116 -96 -268 -96q-157 0 -258.5 96.5t-101.5 247.5zM430 1327l16 88h535l-16 -88h-535z" />
    <glyph glyph-name="Ubreve" unicode="&#x16c;" horiz-adv-x="1396" 
d="M182 438q0 38 11 121l137 793h106l-139 -799q-8 -44 -8 -107q0 -161 107 -264.5t274 -103.5t286 104q122 110 152 283l154 887h106l-156 -895q-41 -221 -186 -348q-147 -129 -358 -129q-214 0 -350 128.5t-136 329.5zM639 1755q0 27 12 109h92q-12 -62 -12 -99
q0 -84 50 -135t132 -51q85 0 143.5 56t71.5 153l13 76h92l-12 -76q-23 -136 -106.5 -214.5t-205.5 -78.5q-117 0 -193.5 73.5t-76.5 186.5z" />
    <glyph glyph-name="ubreve" unicode="&#x16d;" horiz-adv-x="1124" 
d="M152 324q0 48 8 79l100 586h105l-107 -598q-4 -28 -4 -63q0 -113 74 -183.5t192 -70.5q115 0 196.5 72t104.5 194l113 649h104l-114 -653q-26 -158 -144 -260q-116 -96 -268 -96q-157 0 -258.5 96.5t-101.5 247.5zM412 1436q0 43 14 114h92q-14 -71 -14 -104
q0 -84 50 -134t132 -50q87 0 144.5 54t70.5 152l14 82h93l-15 -82q-23 -136 -106 -214t-205 -78q-117 0 -193.5 73.5t-76.5 186.5z" />
    <glyph glyph-name="Uring" unicode="&#x16e;" horiz-adv-x="1396" 
d="M182 438q0 38 11 121l137 793h106l-139 -799q-8 -44 -8 -107q0 -161 107 -264.5t274 -103.5t286 104q122 110 152 283l154 887h106l-156 -895q-41 -221 -186 -348q-147 -129 -358 -129q-214 0 -350 128.5t-136 329.5zM696 1651q0 87 66 153q64 64 160 64q86 0 144 -57
t58 -142q0 -92 -67 -156q-63 -63 -158 -63q-86 0 -144.5 58t-58.5 143zM1034 1665q0 51 -34 85t-85 34q-54 0 -91.5 -37.5t-37.5 -91.5q0 -51 34 -86t83 -35q54 0 92.5 38.5t38.5 92.5z" />
    <glyph glyph-name="uring" unicode="&#x16f;" horiz-adv-x="1124" 
d="M152 324q0 48 8 79l100 586h105l-107 -598q-4 -28 -4 -63q0 -113 74 -183.5t192 -70.5q115 0 196.5 72t104.5 194l113 649h104l-114 -653q-26 -158 -144 -260q-116 -96 -268 -96q-157 0 -258.5 96.5t-101.5 247.5zM498 1356q0 88 65 153q66 66 158 66q86 0 144.5 -57
t58.5 -142q0 -89 -66 -155q-64 -64 -158 -64q-84 0 -143 58.5t-59 140.5zM834 1372q0 51 -33 85t-84 34q-54 0 -91.5 -38t-37.5 -93q0 -51 33.5 -85t83.5 -34q54 0 91.5 38t37.5 93z" />
    <glyph glyph-name="Uhungarumlaut" unicode="&#x170;" horiz-adv-x="1396" 
d="M182 438q0 38 11 121l137 793h106l-139 -799q-8 -44 -8 -107q0 -161 107 -264.5t274 -103.5t286 104q122 110 152 283l154 887h106l-156 -895q-41 -221 -186 -348q-147 -129 -358 -129q-214 0 -350 128.5t-136 329.5zM594 1483l254 381h123l-2 -19l-289 -362h-86z
M1022 1483l254 381h123l-2 -19l-289 -362h-86z" />
    <glyph glyph-name="uhungarumlaut" unicode="&#x171;" horiz-adv-x="1124" 
d="M152 324q0 48 8 79l100 586h105l-107 -598q-4 -28 -4 -63q0 -113 74 -183.5t192 -70.5q115 0 196.5 72t104.5 194l113 649h104l-114 -653q-26 -158 -144 -260q-116 -96 -268 -96q-157 0 -258.5 96.5t-101.5 247.5zM422 1155l264 442h125l-4 -18l-299 -424h-86zM811 1155
l264 442h125l-4 -18l-297 -424h-88z" />
    <glyph glyph-name="Uogonek" unicode="&#x172;" horiz-adv-x="1396" 
d="M182 438q0 38 11 121l137 793h106l-139 -799q-8 -44 -8 -107q0 -161 107 -264.5t274 -103.5t286 104q122 110 152 283l154 887h106l-156 -895q-41 -221 -186 -348q-147 -129 -358 -129q-214 0 -350 128.5t-136 329.5zM637 -236q3 58 32.5 106.5t90.5 105.5t203 174
l102 -5l-199 -188q-67 -63 -94 -102.5t-27 -75.5q0 -82 132 -82q39 0 92 6l-15 -82q-65 -10 -112 -10q-94 0 -149.5 40.5t-55.5 112.5z" />
    <glyph glyph-name="uogonek" unicode="&#x173;" horiz-adv-x="1124" 
d="M934 989h104l-114 -653q-20 -94 -47 -145t-74.5 -93.5t-163.5 -124.5q-103 -70 -143 -110q-37 -37 -37 -82q0 -84 133 -84q42 0 92 6l-12 -82q-65 -10 -113 -10q-94 0 -150.5 41t-56.5 115q0 60 38 108t130 105h-8q-157 0 -258 94q-100 93 -100 248q0 46 6 81l100 586
h105l-105 -598q-6 -30 -6 -63q0 -114 74.5 -184t191.5 -70q114 0 197.5 71.5t103.5 194.5z" />
    <glyph glyph-name="Wcircumflex" unicode="&#x174;" horiz-adv-x="2187" 
d="M2103 1352h119l-741 -1372h-43l-242 1173l-659 -1173h-41l-263 1372h109l211 -1147l655 1167h43l240 -1167zM1608 1483h-78l-199 264l-289 -264h-94l369 381h59z" />
    <glyph glyph-name="wcircumflex" unicode="&#x175;" horiz-adv-x="1730" 
d="M1622 989h115l-572 -1009h-43l-211 833l-510 -833h-43l-223 1009h107l170 -823l503 844h43l211 -842zM1268 1155h-78l-170 313l-279 -313h-90l357 442h59z" />
    <glyph glyph-name="Ycircumflex" unicode="&#x176;" horiz-adv-x="1255" 
d="M1290 1352l-606 -779l-100 -573h-107l101 575l-334 777h108l289 -680l526 680h123zM1116 1483h-78l-198 264l-289 -264h-94l368 381h60z" />
    <glyph glyph-name="ycircumflex" unicode="&#x177;" horiz-adv-x="1140" 
d="M934 989h104l-178 -999q-29 -176 -144.5 -277.5t-283.5 -101.5q-123 0 -228.5 60.5t-168.5 166.5l74 64q122 -197 325 -197q127 0 213 77t111 212l22 125q-117 -129 -297 -129q-149 0 -241 87.5t-92 229.5q0 41 12 111l100 571h105l-105 -577q-10 -62 -10 -88
q0 -109 67.5 -174.5t182.5 -65.5q120 0 208.5 75t112.5 203zM979 1155h-78l-170 313l-278 -313h-91l357 442h59z" />
    <glyph glyph-name="Ydieresis" unicode="&#x178;" horiz-adv-x="1255" 
d="M1290 1352l-606 -779l-100 -573h-107l101 575l-334 777h108l289 -680l526 680h123zM498 1655q0 36 26.5 61t63.5 25t62.5 -24.5t25.5 -61.5t-25.5 -62.5t-62.5 -25.5t-63.5 25.5t-26.5 62.5zM961 1653q0 37 26.5 62.5t63.5 25.5t62.5 -25.5t25.5 -62.5q0 -35 -25.5 -60.5
t-62.5 -25.5t-63.5 25.5t-26.5 60.5z" />
    <glyph glyph-name="Zacute" unicode="&#x179;" horiz-adv-x="1208" 
d="M1280 1352l-6 -35l-1098 -1223h885l-17 -94h-1054l6 35l1096 1222h-789l14 95h963zM741 1483l246 381h133l-2 -19l-293 -362h-84z" />
    <glyph glyph-name="zacute" unicode="&#x17a;" horiz-adv-x="921" 
d="M934 989l-6 -35l-762 -860h618l-14 -94h-788l6 35l760 860h-562l17 94h731zM514 1155l264 442h133l-2 -18l-305 -424h-90z" />
    <glyph glyph-name="Zdotaccent" unicode="&#x17b;" horiz-adv-x="1208" 
d="M1280 1352l-6 -35l-1098 -1223h885l-17 -94h-1054l6 35l1096 1222h-789l14 95h963zM725 1655q0 37 26 62.5t64 25.5q37 0 63.5 -25.5t26.5 -62.5q0 -38 -26.5 -64t-63.5 -26q-38 0 -64 26t-26 64z" />
    <glyph glyph-name="zdotaccent" unicode="&#x17c;" horiz-adv-x="921" 
d="M934 989l-6 -35l-762 -860h618l-14 -94h-788l6 35l760 860h-562l17 94h731zM528 1370q0 37 26.5 63.5t63.5 26.5q38 0 64.5 -26.5t26.5 -63.5t-26.5 -63.5t-64.5 -26.5q-37 0 -63.5 26.5t-26.5 63.5z" />
    <glyph glyph-name="Zcaron" unicode="&#x17d;" horiz-adv-x="1208" 
d="M1280 1352l-6 -35l-1098 -1223h885l-17 -94h-1054l6 35l1096 1222h-789l14 95h963zM1085 1864h95l-367 -381h-59l-234 381h80l195 -265z" />
    <glyph glyph-name="zcaron" unicode="&#x17e;" horiz-adv-x="921" 
d="M934 989l-6 -35l-762 -860h618l-14 -94h-788l6 35l760 860h-562l17 94h731zM879 1597h90l-357 -442h-59l-201 442h78l168 -311z" />
    <glyph glyph-name="uni018F" unicode="&#x18f;" horiz-adv-x="1499" 
d="M1421 750q3 -150 -54.5 -293.5t-154.5 -248.5t-229 -168t-270 -60q-260 0 -421 156t-161 409q0 54 16 155h1162q2 10 2 48q0 226 -149 376t-374 150q-136 0 -263 -57.5t-212 -157.5l-69 65q98 117 243.5 182.5t305.5 65.5q129 2 246.5 -46.5t201.5 -132t133 -200
t47 -243.5zM1296 604h-1050q-4 -62 -4 -65q0 -207 131 -334t342 -127q209 0 373.5 150t207.5 376z" />
    <glyph glyph-name="florin" unicode="&#x192;" horiz-adv-x="899" 
d="M1032 1354l-14 -84q-75 10 -111 10q-92 0 -147 -44.5t-84 -141.5l-88 -287h229l-18 -94h-240l-217 -717q-80 -268 -324 -268q-66 0 -133 18l15 84q75 -10 114 -10q88 0 144.5 46t85.5 142l213 705h-164l18 94h174l90 299q82 266 324 266q65 0 133 -18z" />
    <glyph glyph-name="uni01D4" unicode="&#x1d4;" horiz-adv-x="1124" 
d="M152 324q0 48 8 79l100 586h105l-107 -598q-4 -28 -4 -63q0 -113 74 -183.5t192 -70.5q115 0 196.5 72t104.5 194l113 649h104l-114 -653q-26 -158 -144 -260q-116 -96 -268 -96q-157 0 -258.5 96.5t-101.5 247.5zM965 1597h90l-357 -442h-59l-201 442h78l168 -311z" />
    <glyph glyph-name="AEacute" unicode="&#x1fc;" horiz-adv-x="1654" 
d="M1679 1257h-686v-479h439l-17 -96h-424v-588h510l-16 -94h-600v324h-590l-223 -324h-123l938 1352h809zM885 418l2 764l-527 -764h525zM944 1483l246 381h133l-2 -19l-293 -362h-84z" />
    <glyph glyph-name="aeacute" unicode="&#x1fd;" horiz-adv-x="1835" 
d="M1720 453h-819q3 -168 107 -275q104 -104 272 -104q187 0 332 139l55 -68q-75 -79 -178.5 -122t-216.5 -43q-148 0 -262.5 74t-169.5 200q-54 -128 -172 -201t-273 -73q-154 0 -244 70.5t-90 191.5q0 139 106.5 220t289.5 81h342l8 45q8 36 8 86q0 113 -67.5 177
t-188.5 64q-82 0 -154 -32.5t-147 -104.5l-55 72q165 160 368 160q130 0 217 -60t113 -166q75 106 185 166t237 60q181 0 298.5 -117t117.5 -299q0 -67 -19 -141zM907 543h723q2 14 2 55q0 146 -85.5 231.5t-231.5 85.5q-155 0 -268 -104t-140 -268zM770 360l14 93h-333
q-136 0 -208.5 -52t-72.5 -149q0 -86 62 -135t171 -49q141 0 242 82q104 82 125 210zM905 1155l264 442h134l-3 -18l-305 -424h-90z" />
    <glyph glyph-name="Oslashacute" unicode="&#x1fe;" horiz-adv-x="1576" 
d="M1554 1313l-180 -172q137 -171 137 -412q3 -146 -58 -286t-163 -242.5t-241 -163.5t-285 -57q-124 0 -235.5 42.5t-196.5 120.5l-178 -172l-66 68l180 172q-137 176 -137 412q-3 147 58 286.5t163.5 241.5t241.5 163t285 58q256 0 432 -162l178 170zM242 627
q0 -195 104 -340l887 850q-69 66 -163 101.5t-200 35.5q-124 2 -241 -50t-202.5 -139.5t-136 -208t-48.5 -249.5zM1401 727q0 193 -105 340l-890 -850q142 -139 362 -139q123 -3 241 50t204.5 141.5t138 209.5t49.5 248zM915 1483l246 381h133l-2 -19l-293 -362h-84z" />
    <glyph glyph-name="oslashacute" unicode="&#x1ff;" horiz-adv-x="1269" 
d="M1161 942l-119 -119q107 -128 107 -307q2 -105 -42 -204.5t-118.5 -173t-177 -117t-209.5 -41.5q-176 0 -305 104l-123 -121l-65 68l120 119q-110 128 -110 315q-3 106 41.5 206.5t119.5 174t176.5 117t207.5 41.5q181 0 315 -113l117 117zM227 465q0 -137 78 -244
l602 598q-104 88 -248 88q-177 0 -304.5 -129.5t-127.5 -312.5zM1040 514q0 132 -71 238l-602 -598q100 -80 237 -80q180 0 308 130t128 310zM672 1155l264 442h133l-2 -18l-305 -424h-90z" />
    <glyph glyph-name="uni0218" unicode="&#x218;" horiz-adv-x="1138" 
d="M57 299l88 51q151 -272 414 -272q135 0 219 72.5t84 189.5q0 80 -48.5 142.5t-156.5 125.5l-147 88q-244 142 -244 330q0 148 114 247t288 99q275 0 413 -237l-84 -52q-63 99 -143 145t-188 46q-130 0 -209.5 -66.5t-79.5 -175.5q0 -74 45 -131.5t153 -120.5l144 -84
q132 -79 194 -162t62 -186q0 -161 -119 -264.5t-301 -103.5q-160 0 -288 82t-210 237zM317 -451l86 347h109l-111 -347h-84z" />
    <glyph glyph-name="uni0219" unicode="&#x219;" horiz-adv-x="931" 
d="M66 203l79 61q66 -100 137.5 -145t163.5 -45q100 0 165 49.5t65 124.5q0 56 -39 95.5t-145 94.5l-86 45q-113 60 -161 120.5t-48 144.5q0 117 89 189.5t230 72.5q205 0 318 -168l-76 -62q-102 135 -250 135q-91 0 -147 -44.5t-56 -116.5q0 -57 34 -96.5t126 -88.5l86 -45
q126 -69 178.5 -128t52.5 -144q0 -122 -94 -197t-246 -75q-120 0 -217 58t-159 165zM279 -451l86 347h108l-111 -347h-83z" />
    <glyph glyph-name="uni021A" unicode="&#x21a;" horiz-adv-x="1198" 
d="M459 0l223 1257h-496l17 95h1095l-16 -95h-494l-223 -1257h-106zM358 -451l86 347h109l-111 -347h-84z" />
    <glyph glyph-name="uni021B" unicode="&#x21b;" horiz-adv-x="743" 
d="M406 895l-107 -598q-6 -27 -6 -59q0 -85 56.5 -124.5t170.5 -39.5q5 0 17.5 0.5t35.5 1.5t43 2l-16 -88q-48 -10 -106 -10q-146 0 -226 60.5t-80 184.5q0 39 9 74l104 596h-172l14 94h174l50 281h104l-49 -281h317l-14 -94h-319zM217 -451l86 347h109l-111 -347h-84z" />
    <glyph glyph-name="uni0237" unicode="&#x237;" horiz-adv-x="487" 
d="M-262 -365l14 86q59 -16 121 -16q180 0 215 189l193 1095h104l-197 -1108q-24 -136 -103 -203t-204 -67q-81 0 -143 24z" />
    <glyph glyph-name="uni0259" unicode="&#x259;" horiz-adv-x="1153" 
d="M1042 526q1 -109 -41.5 -211t-114.5 -176t-170 -117.5t-202 -41.5q-182 0 -301 113t-119 286q0 53 19 131h823v12q0 175 -104.5 284t-270.5 109q-178 0 -323 -139l-56 68q75 79 176 122.5t211 43.5q202 0 337.5 -138.5t135.5 -345.5zM926 416h-723q-2 -8 -2 -41
q0 -135 87.5 -218t229.5 -83q149 0 262 94q110 91 146 248z" />
    <glyph glyph-name="circumflex" unicode="&#x2c6;" horiz-adv-x="1024" 
d="M936 1155h-78l-170 313l-278 -313h-91l357 442h59z" />
    <glyph glyph-name="caron" unicode="&#x2c7;" horiz-adv-x="1024" 
d="M924 1597h90l-357 -442h-59l-201 442h78l168 -311z" />
    <glyph glyph-name="breve" unicode="&#x2d8;" horiz-adv-x="1024" 
d="M393 1436q0 38 15 114h92q-15 -76 -15 -104q0 -84 50.5 -134t132.5 -50q87 0 144.5 54t70.5 152l14 82h92l-14 -82q-23 -136 -106 -214t-205 -78q-117 0 -194 74t-77 186z" />
    <glyph glyph-name="dotaccent" unicode="&#x2d9;" horiz-adv-x="1024" 
d="M575 1370q0 37 27 63.5t64 26.5q38 0 64 -26.5t26 -63.5t-26 -63.5t-64 -26.5q-37 0 -64 26.5t-27 63.5z" />
    <glyph glyph-name="ring" unicode="&#x2da;" horiz-adv-x="1024" 
d="M453 1356q0 88 65 153q66 66 158 66q86 0 144.5 -57t58.5 -142q0 -89 -66 -155q-64 -64 -158 -64q-84 0 -143 58.5t-59 140.5zM788 1372q0 51 -32.5 85t-83.5 34q-54 0 -91.5 -38t-37.5 -93q0 -51 33 -85t83 -34q54 0 91.5 38t37.5 93z" />
    <glyph glyph-name="ogonek" unicode="&#x2db;" horiz-adv-x="1024" 
d="M213 -236q0 78 78 144q77 64 276 147l29 -55l-143 -78q-69 -37 -100 -71t-31 -72q0 -82 131 -82q39 0 92 6l-15 -82q-62 -10 -112 -10q-93 0 -149 42t-56 111z" />
    <glyph glyph-name="tilde" unicode="&#x2dc;" horiz-adv-x="1024" 
d="M664 1300l-46 50q-25 28 -41 38.5t-38 10.5q-38 0 -58 -32.5t-28 -102.5h-88q21 229 170 229q74 0 131 -63l45 -52q40 -49 80 -49q37 0 56 31.5t30 103.5h88q-21 -229 -170 -229q-75 0 -131 65z" />
    <glyph glyph-name="hungarumlaut" unicode="&#x2dd;" horiz-adv-x="1024" 
d="M279 1155l264 442h125l-4 -18l-299 -424h-86zM668 1155l264 442h125l-4 -18l-297 -424h-88z" />
    <glyph glyph-name="gravecomb" unicode="&#x300;" horiz-adv-x="0" 
d="M-354 1155l-84 424l6 18h115l38 -442h-75z" />
    <glyph glyph-name="acutecomb" unicode="&#x301;" horiz-adv-x="0" 
d="M-555 1155l264 442h133l-2 -18l-305 -424h-90z" />
    <glyph glyph-name="uni0302" unicode="&#x302;" horiz-adv-x="0" 
d="M-88 1155h-78l-170 313l-278 -313h-91l357 442h59z" />
    <glyph glyph-name="tildecomb" unicode="&#x303;" horiz-adv-x="0" 
d="M-358 1300l-45 50q-24 28 -41 38.5t-39 10.5q-38 0 -58 -32.5t-28 -102.5h-88q21 229 170 229q74 0 131 -63l45 -52q40 -49 80 -49q37 0 56 31.5t30 103.5h88q-21 -229 -170 -229q-75 0 -131 65z" />
    <glyph glyph-name="uni0304" unicode="&#x304;" horiz-adv-x="0" 
d="M-633 1327l17 88h534l-16 -88h-535z" />
    <glyph glyph-name="uni0306" unicode="&#x306;" horiz-adv-x="0" 
d="M-631 1436q0 38 15 114h92q-15 -76 -15 -104q0 -84 50.5 -134t132.5 -50q87 0 144.5 54t70.5 152l14 82h92l-14 -82q-23 -136 -106 -214t-205 -78q-117 0 -194 74t-77 186z" />
    <glyph glyph-name="uni0307" unicode="&#x307;" horiz-adv-x="0" 
d="M-449 1370q0 37 27 63.5t64 26.5q38 0 64 -26.5t26 -63.5t-26 -63.5t-64 -26.5q-37 0 -64 26.5t-27 63.5z" />
    <glyph glyph-name="uni0308" unicode="&#x308;" horiz-adv-x="0" 
d="M-662 1370q0 36 26 61t63 25t63.5 -25t26.5 -61t-26.5 -61t-63.5 -25t-63 25t-26 61zM-231 1370q0 36 26.5 61t63.5 25t62.5 -24.5t25.5 -61.5t-25.5 -61.5t-62.5 -24.5t-63.5 25t-26.5 61z" />
    <glyph glyph-name="uni030A" unicode="&#x30a;" horiz-adv-x="0" 
d="M-571 1356q0 88 65 153q66 66 158 66q86 0 144.5 -57t58.5 -142q0 -89 -66 -155q-64 -64 -158 -64q-84 0 -143 58.5t-59 140.5zM-236 1372q0 51 -32.5 85t-83.5 34q-54 0 -91.5 -38t-37.5 -93q0 -51 33 -85t83 -34q54 0 91.5 38t37.5 93z" />
    <glyph glyph-name="uni030B" unicode="&#x30b;" horiz-adv-x="0" 
d="M-745 1155l264 442h125l-4 -18l-299 -424h-86zM-356 1155l264 442h125l-4 -18l-297 -424h-88z" />
    <glyph glyph-name="uni030C" unicode="&#x30c;" horiz-adv-x="0" 
d="M-98 1597h90l-357 -442h-59l-201 442h78l168 -311z" />
    <glyph glyph-name="uni0326" unicode="&#x326;" horiz-adv-x="0" 
d="M-745 -451l86 347h108l-111 -347h-83z" />
    <glyph glyph-name="uni0327" unicode="&#x327;" horiz-adv-x="0" 
d="M-854 -360l14 77q76 -20 131 -20q82 0 130.5 45t48.5 123q0 41 -14.5 71.5t-51.5 69.5l43 25q55 -31 85 -79.5t30 -105.5q0 -100 -74 -168q-76 -67 -184 -67q-73 0 -158 29z" />
    <glyph glyph-name="uni0328" unicode="&#x328;" horiz-adv-x="0" 
d="M-811 -236q0 78 78 144q77 64 276 147l29 -55l-143 -78q-69 -37 -100 -71t-31 -72q0 -82 131 -82q39 0 92 6l-15 -82q-62 -10 -112 -10q-93 0 -149 42t-56 111z" />
    <glyph glyph-name="tonos" unicode="&#x384;" horiz-adv-x="1024" 
d="M541 1155l127 442h127l-4 -18l-166 -424h-84z" />
    <glyph glyph-name="dieresistonos" unicode="&#x385;" horiz-adv-x="1024" 
d="M553 1155l127 442h125l-2 -18l-166 -424h-84zM324 1370q0 37 25.5 61.5t62.5 24.5t62.5 -24.5t25.5 -61.5t-25.5 -61.5t-62.5 -24.5t-62.5 24.5t-25.5 61.5zM836 1370q0 37 25.5 61.5t62.5 24.5t62.5 -24.5t25.5 -61.5t-25.5 -61.5t-62.5 -24.5t-62.5 24.5t-25.5 61.5z
" />
    <glyph glyph-name="Alphatonos" unicode="&#x386;" horiz-adv-x="1361" 
d="M1096 0l-78 324h-705l-190 -324h-121l821 1372h41l338 -1372h-106zM995 418l-182 760l-444 -760h626zM190 924l111 428h119l-148 -428h-82z" />
    <glyph glyph-name="anoteleia" unicode="&#x387;" horiz-adv-x="575" 
d="M211 635q0 44 29 73t71 29t72.5 -29.5t30.5 -72.5q0 -42 -30.5 -70t-72.5 -28t-71 28t-29 70z" />
    <glyph glyph-name="Epsilontonos" unicode="&#x388;" horiz-adv-x="1155" 
d="M115 0l237 1352h846l-16 -95h-742l-86 -479h578l-17 -96h-575l-102 -588h763l-16 -94h-870zM-78 924l111 428h119l-148 -428h-82z" />
    <glyph glyph-name="Etatonos" unicode="&#x389;" horiz-adv-x="1445" 
d="M115 0l237 1352h107l-101 -574h832l100 574h107l-238 -1352h-106l118 682h-831l-119 -682h-106zM-76 924l111 428h119l-148 -428h-82z" />
    <glyph glyph-name="Iotatonos" unicode="&#x38a;" horiz-adv-x="505" 
d="M115 0l237 1352h107l-238 -1352h-106zM-78 924l111 428h119l-148 -428h-82z" />
    <glyph glyph-name="Omicrontonos" unicode="&#x38c;" horiz-adv-x="1603" 
d="M145 623q-3 147 58 286.5t162.5 241.5t240.5 163t285 58q132 2 250.5 -47.5t203.5 -135.5t134 -206.5t47 -253.5q3 -147 -58 -286.5t-163.5 -241.5t-241.5 -163t-285 -58q-176 -3 -323 83t-230 235t-80 325zM1413 727q0 235 -150 391t-378 156q-168 3 -314.5 -85.5
t-232 -239t-82.5 -322.5q0 -235 149 -391t377 -156q124 -2 241.5 50t204 139.5t137.5 208.5t48 249zM-6 924l110 428h119l-147 -428h-82z" />
    <glyph glyph-name="Upsilontonos" unicode="&#x38e;" horiz-adv-x="1255" 
d="M1290 1352l-606 -779l-100 -573h-107l101 575l-334 777h108l289 -680l526 680h123zM-127 924l111 428h118l-147 -428h-82z" />
    <glyph glyph-name="Omegatonos" unicode="&#x38f;" horiz-adv-x="1624" 
d="M1098 94h344l-17 -94h-542l16 98q260 103 396.5 267t136.5 374q0 236 -156 385.5t-402 149.5q-125 2 -239 -47.5t-196.5 -134.5t-130.5 -204t-46 -249q0 -165 92.5 -303.5t270.5 -237.5l-19 -98h-524l16 94h371q-152 100 -234.5 242t-82.5 303q-2 147 55.5 283.5
t154.5 236t231.5 158t278.5 55.5q191 3 345.5 -78.5t241 -227t83.5 -325.5q0 -204 -113.5 -369t-330.5 -278zM-4 924l110 428h119l-147 -428h-82z" />
    <glyph glyph-name="iotadieresistonos" unicode="&#x390;" horiz-adv-x="600" 
d="M135 190q0 32 10 97l127 702h103l-125 -702q-10 -62 -10 -82q0 -63 42 -97t117 -34q43 0 117 12l-16 -90q-56 -16 -119 -16q-116 0 -181 55.5t-65 154.5zM303 1155l127 442h125l-2 -18l-166 -424h-84zM74 1370q0 37 25.5 61.5t62.5 24.5t62.5 -24.5t25.5 -61.5
t-25.5 -61.5t-62.5 -24.5t-62.5 24.5t-25.5 61.5zM586 1370q0 37 25.5 61.5t62.5 24.5t62.5 -24.5t25.5 -61.5t-25.5 -61.5t-62.5 -24.5t-62.5 24.5t-25.5 61.5z" />
    <glyph glyph-name="Alpha" unicode="&#x391;" horiz-adv-x="1361" 
d="M1096 0l-78 324h-705l-190 -324h-121l821 1372h41l338 -1372h-106zM995 418l-182 760l-444 -760h626z" />
    <glyph glyph-name="Beta" unicode="&#x392;" horiz-adv-x="1253" 
d="M1135 399q0 -177 -131 -288t-342 -111h-547l237 1352h418q158 0 250 -82t92 -223q0 -108 -54 -190t-149 -124q107 -42 166.5 -129t59.5 -205zM750 1257h-308l-86 -483h359q129 0 207.5 73.5t78.5 192.5q0 103 -65 160t-186 57zM1024 401q0 125 -81 201t-216 76h-387
l-102 -584h419q166 0 266.5 84t100.5 223z" />
    <glyph glyph-name="Gamma" unicode="&#x393;" horiz-adv-x="1021" 
d="M115 0l237 1352h772l-16 -95h-668l-219 -1257h-106z" />
    <glyph glyph-name="uni0394" unicode="&#x394;" horiz-adv-x="1361" 
d="M864 1372l330 -1337l-6 -35h-1172l7 35l798 1337h43zM1073 94l-260 1080l-637 -1080h897z" />
    <glyph glyph-name="Epsilon" unicode="&#x395;" horiz-adv-x="1155" 
d="M115 0l237 1352h846l-16 -95h-742l-86 -479h578l-17 -96h-575l-102 -588h763l-16 -94h-870z" />
    <glyph glyph-name="Zeta" unicode="&#x396;" horiz-adv-x="1208" 
d="M1280 1352l-6 -35l-1098 -1223h885l-17 -94h-1054l6 35l1096 1222h-789l14 95h963z" />
    <glyph glyph-name="Eta" unicode="&#x397;" horiz-adv-x="1445" 
d="M115 0l237 1352h107l-101 -574h832l100 574h107l-238 -1352h-106l118 682h-831l-119 -682h-106z" />
    <glyph glyph-name="Theta" unicode="&#x398;" horiz-adv-x="1603" 
d="M145 623q-3 147 58 286.5t162.5 241.5t240.5 163t285 58q176 3 323 -82t230.5 -234t81.5 -327q3 -146 -58 -286t-163.5 -242.5t-241.5 -163.5t-285 -57q-174 -3 -321 82t-231 234t-81 327zM1413 729q0 235 -150.5 390t-377.5 155q-168 3 -314.5 -85.5t-232 -239
t-82.5 -322.5q0 -236 150 -392.5t376 -156.5q166 -4 313.5 85.5t234.5 242t83 323.5zM453 621l16 96h729l-14 -96h-731z" />
    <glyph glyph-name="Iota" unicode="&#x399;" horiz-adv-x="505" 
d="M115 0l237 1352h107l-238 -1352h-106z" />
    <glyph glyph-name="Kappa" unicode="&#x39a;" horiz-adv-x="1253" 
d="M352 1352h107l-238 -1352h-106zM1286 1352l-770 -631l582 -721h-127l-592 731l754 621h153z" />
    <glyph glyph-name="Lambda" unicode="&#x39b;" horiz-adv-x="1361" 
d="M1202 0h-106l-285 1178l-690 -1178h-119l819 1372h43z" />
    <glyph glyph-name="Mu" unicode="&#x39c;" horiz-adv-x="1607" 
d="M1522 1372h41l-242 -1372h-107l193 1094l-588 -672h-41l-362 692l-195 -1114h-106l241 1372h41l420 -805z" />
    <glyph glyph-name="Nu" unicode="&#x39d;" horiz-adv-x="1445" 
d="M1290 1352h107l-242 -1372h-43l-694 1163l-197 -1143h-106l241 1372h41l695 -1167z" />
    <glyph glyph-name="Xi" unicode="&#x39e;" horiz-adv-x="1247" 
d="M219 1255l17 97h1079l-17 -97h-1079zM264 635l17 96h772l-19 -96h-770zM-2 0l16 96h1080l-17 -96h-1079z" />
    <glyph glyph-name="Omicron" unicode="&#x39f;" horiz-adv-x="1603" 
d="M145 623q-3 147 58 286.5t162.5 241.5t240.5 163t285 58q132 2 250.5 -47.5t203.5 -135.5t134 -206.5t47 -253.5q3 -147 -58 -286.5t-163.5 -241.5t-241.5 -163t-285 -58q-176 -3 -323 83t-230 235t-80 325zM1413 727q0 235 -150 391t-378 156q-168 3 -314.5 -85.5
t-232 -239t-82.5 -322.5q0 -235 149 -391t377 -156q124 -2 241.5 50t204 139.5t137.5 208.5t48 249z" />
    <glyph glyph-name="Pi" unicode="&#x3a0;" horiz-adv-x="1386" 
d="M115 0l237 1352h985l-237 -1352h-107l221 1257h-774l-219 -1257h-106z" />
    <glyph glyph-name="Rho" unicode="&#x3a1;" horiz-adv-x="1163" 
d="M115 0l237 1352h416q183 0 288 -92t105 -252q0 -180 -129 -291t-338 -111h-366l-107 -606h-106zM344 700h356q160 0 254.5 82.5t94.5 223.5q0 122 -75 186.5t-216 64.5h-318z" />
    <glyph glyph-name="Sigma" unicode="&#x3a3;" horiz-adv-x="1140" 
d="M1184 1352l-17 -95h-741l352 -546l-6 -33l-536 -584h751l-16 -94h-936l6 31l618 674l-393 616l6 31h912z" />
    <glyph glyph-name="Tau" unicode="&#x3a4;" horiz-adv-x="1198" 
d="M459 0l223 1257h-496l17 95h1095l-16 -95h-494l-223 -1257h-106z" />
    <glyph glyph-name="Upsilon" unicode="&#x3a5;" horiz-adv-x="1255" 
d="M1290 1352l-606 -779l-100 -573h-107l101 575l-334 777h108l289 -680l526 680h123z" />
    <glyph glyph-name="Phi" unicode="&#x3a6;" horiz-adv-x="1673" 
d="M682 -80l25 137q-247 15 -405.5 172t-158.5 385q0 311 211 494.5t572 183.5l22 138h107l-23 -138q245 -15 403 -172t158 -385q0 -311 -210 -494.5t-570 -183.5l-25 -137h-106zM723 154l184 1042q-302 0 -477.5 -155.5t-175.5 -422.5q0 -194 131.5 -324.5t337.5 -139.5z
M1485 731q0 194 -132 325t-339 140l-185 -1042q304 0 480 155t176 422z" />
    <glyph glyph-name="Chi" unicode="&#x3a7;" horiz-adv-x="1196" 
d="M1245 1352l-547 -670l342 -682h-114l-301 608l-510 -608h-131l589 702l-319 650h115l280 -576l465 576h131z" />
    <glyph glyph-name="Psi" unicode="&#x3a8;" horiz-adv-x="1490" 
d="M606 0l56 317q-218 9 -349 134q-129 123 -129 321q0 51 13 111l82 469h106l-84 -471q-10 -85 -10 -105q0 -161 105 -259t282 -99l166 934h106l-166 -934q240 -2 369 108.5t172 354.5l82 471h106l-81 -469q-53 -298 -205 -427.5t-459 -138.5l-55 -317h-107z" />
    <glyph glyph-name="uni03A9" unicode="&#x3a9;" horiz-adv-x="1624" 
d="M1098 94h344l-17 -94h-542l16 98q260 103 396.5 267t136.5 374q0 236 -156 385.5t-402 149.5q-125 2 -239 -47.5t-196.5 -134.5t-130.5 -204t-46 -249q0 -165 92.5 -303.5t270.5 -237.5l-19 -98h-524l16 94h371q-152 100 -234.5 242t-82.5 303q-2 147 55.5 283.5
t154.5 236t231.5 158t278.5 55.5q191 3 345.5 -78.5t241 -227t83.5 -325.5q0 -204 -113.5 -369t-330.5 -278z" />
    <glyph glyph-name="Iotadieresis" unicode="&#x3aa;" horiz-adv-x="505" 
d="M115 0l237 1352h107l-238 -1352h-106zM137 1655q0 36 26.5 61t63.5 25t62.5 -24.5t25.5 -61.5t-25.5 -62.5t-62.5 -25.5t-63.5 25.5t-26.5 62.5zM600 1653q0 37 26.5 62.5t63.5 25.5t62.5 -25.5t25.5 -62.5q0 -35 -25.5 -60.5t-62.5 -25.5t-63.5 25.5t-26.5 60.5z" />
    <glyph glyph-name="Upsilondieresis" unicode="&#x3ab;" horiz-adv-x="1255" 
d="M1290 1352l-606 -779l-100 -573h-107l101 575l-334 777h108l289 -680l526 680h123zM494 1655q0 36 26.5 61t63.5 25t62.5 -24.5t25.5 -61.5t-25.5 -62.5t-62.5 -25.5t-63.5 25.5t-26.5 62.5zM956 1653q0 36 27 62t64 26t62.5 -25.5t25.5 -62.5q0 -35 -25.5 -60.5
t-62.5 -25.5t-64 25.5t-27 60.5z" />
    <glyph glyph-name="alphatonos" unicode="&#x3ac;" horiz-adv-x="1331" 
d="M1210 76l-16 -86q-21 -8 -68 -8q-82 0 -129 47t-49 129q-63 -84 -164.5 -131t-220.5 -47q-197 0 -325.5 135t-128.5 340q0 152 70.5 279.5t193 201.5t268.5 74q141 0 256 -74q113 -70 154 -186q16 90 55 241h98l-30 -135q-46 -204 -70 -332l-41 -256q-12 -77 -12 -94
q0 -48 26.5 -74t77.5 -26q41 0 55 2zM1001 549q0 164 -97 265t-257 101q-114 3 -215 -59t-159.5 -167.5t-55.5 -225.5q0 -169 103.5 -279t263.5 -110q112 0 208 64.5t152.5 174t56.5 236.5zM637 1155l127 442h127l-4 -18l-166 -424h-84z" />
    <glyph glyph-name="epsilontonos" unicode="&#x3ad;" horiz-adv-x="1028" 
d="M332 727q0 -82 51.5 -128t142.5 -46h211l-14 -92h-219q-136 0 -214.5 -54.5t-78.5 -148.5q0 -88 69.5 -136t198.5 -48q207 0 342 135l60 -70q-70 -74 -173 -116.5t-229 -42.5q-174 0 -275.5 72t-101.5 196q0 102 65.5 171.5t182.5 92.5q-61 32 -94 89.5t-33 129.5
q0 125 101.5 202t265.5 77q125 0 224 -41.5t147 -128.5l-76 -58q-79 133 -297 133q-118 0 -187 -51t-69 -137zM580 1157l127 442h127l-5 -18l-165 -424h-84z" />
    <glyph glyph-name="etatonos" unicode="&#x3ae;" horiz-adv-x="1179" 
d="M1032 692q0 -36 -12 -110l-166 -951h-102l168 953q10 65 10 94q0 109 -66.5 173t-181.5 64q-123 0 -211 -74t-111 -202l-114 -639h-103l127 721q11 71 11 90q0 52 -28 78t-77 26q-9 0 -55 -4l16 88q35 9 68 9q69 0 117.5 -37t58.5 -103q120 142 317 142q152 0 243 -88
t91 -230zM662 1155l126 442h127l-4 -18l-166 -424h-83z" />
    <glyph glyph-name="iotatonos" unicode="&#x3af;" horiz-adv-x="600" 
d="M135 190q0 32 10 97l127 702h103l-125 -702q-10 -62 -10 -82q0 -63 42 -97t117 -34q43 0 117 12l-16 -90q-56 -16 -119 -16q-116 0 -181 55.5t-65 154.5zM299 1155l127 442h127l-4 -18l-166 -424h-84z" />
    <glyph glyph-name="upsilondieresistonos" unicode="&#x3b0;" horiz-adv-x="1124" 
d="M152 324q0 48 8 79l100 586h105l-107 -598q-4 -28 -4 -63q0 -113 74 -183.5t192 -70.5q115 0 196.5 72t104.5 194l113 649h104l-114 -653q-26 -158 -144 -260q-116 -96 -268 -96q-157 0 -258.5 96.5t-101.5 247.5zM616 1155l127 442h125l-2 -18l-166 -424h-84zM387 1370
q0 37 25.5 61.5t62.5 24.5t62.5 -24.5t25.5 -61.5t-25.5 -61.5t-62.5 -24.5t-62.5 24.5t-25.5 61.5zM899 1370q0 37 25.5 61.5t62.5 24.5t62.5 -24.5t25.5 -61.5t-25.5 -61.5t-62.5 -24.5t-62.5 24.5t-25.5 61.5z" />
    <glyph glyph-name="alpha" unicode="&#x3b1;" horiz-adv-x="1331" 
d="M1210 76l-16 -86q-21 -8 -68 -8q-82 0 -129 47t-49 129q-63 -84 -164.5 -131t-220.5 -47q-197 0 -325.5 135t-128.5 340q0 152 70.5 279.5t193 201.5t268.5 74q141 0 256 -74q113 -70 154 -186q16 90 55 241h98l-30 -135q-46 -204 -70 -332l-41 -256q-12 -77 -12 -94
q0 -48 26.5 -74t77.5 -26q41 0 55 2zM1001 549q0 164 -97 265t-257 101q-114 3 -215 -59t-159.5 -167.5t-55.5 -225.5q0 -169 103.5 -279t263.5 -110q112 0 208 64.5t152.5 174t56.5 236.5z" />
    <glyph glyph-name="beta" unicode="&#x3b2;" horiz-adv-x="1228" 
d="M1110 471q0 -216 -131 -353.5t-334 -137.5q-204 0 -326 131t-122 348q0 59 12 129l92 524q37 213 160.5 327.5t314.5 114.5q160 0 257 -87.5t97 -233.5q0 -109 -65.5 -203t-204.5 -180q119 -60 184.5 -159t65.5 -220zM406 1108l-70 -383q363 123 524.5 242.5t161.5 265.5
q0 103 -70.5 164t-189.5 61q-143 0 -234 -89.5t-122 -260.5zM1004 465q0 106 -63 194.5t-173 139.5q-164 -83 -451 -178l-6 -35q-12 -70 -12 -123q0 -177 95 -283t253 -106q156 0 256.5 110t100.5 281z" />
    <glyph glyph-name="gamma" unicode="&#x3b3;" horiz-adv-x="1077" 
d="M1085 989l-589 -942l-74 -416h-103l74 418l-258 940h107l221 -831l504 831h118z" />
    <glyph glyph-name="delta" unicode="&#x3b4;" horiz-adv-x="1234" 
d="M1212 1536l-14 -98h-692l442 -508q95 -112 136.5 -204.5t41.5 -201.5q3 -145 -70.5 -272.5t-198.5 -201t-267 -70.5q-206 0 -342.5 135.5t-136.5 341.5q-2 107 41.5 209.5t117 177t173 118.5t204.5 42q53 0 113 -13l-451 510l4 35h899zM645 909q-180 0 -303 -130
t-123 -322q0 -166 104.5 -274.5t266.5 -108.5q180 0 305 130t125 316q0 167 -107 278t-268 111z" />
    <glyph glyph-name="epsilon" unicode="&#x3b5;" horiz-adv-x="1028" 
d="M332 727q0 -82 51.5 -128t142.5 -46h211l-14 -92h-219q-136 0 -214.5 -54.5t-78.5 -148.5q0 -88 69.5 -136t198.5 -48q207 0 342 135l60 -70q-70 -74 -173 -116.5t-229 -42.5q-174 0 -275.5 72t-101.5 196q0 102 65.5 171.5t182.5 92.5q-61 32 -94 89.5t-33 129.5
q0 125 101.5 202t265.5 77q125 0 224 -41.5t147 -128.5l-76 -58q-79 133 -297 133q-118 0 -187 -51t-69 -137z" />
    <glyph glyph-name="zeta" unicode="&#x3b6;" horiz-adv-x="950" 
d="M1010 1501l-461 -571q-194 -244 -253 -352.5t-63 -233.5q0 -93 61.5 -156t176.5 -88l94 -20q109 -23 169.5 -86t60.5 -154q0 -44 -21.5 -101t-56.5 -108h-105q74 109 74 203q0 119 -168 156l-94 20q-140 31 -218.5 118.5t-78.5 211.5q3 97 31.5 176t98 183.5t216.5 287.5
l363 453h-566l17 96h729z" />
    <glyph glyph-name="eta" unicode="&#x3b7;" horiz-adv-x="1179" 
d="M1032 692q0 -36 -12 -110l-166 -951h-102l168 953q10 65 10 94q0 109 -66.5 173t-181.5 64q-123 0 -211 -74t-111 -202l-114 -639h-103l127 721q11 71 11 90q0 52 -28 78t-77 26q-9 0 -55 -4l16 88q35 9 68 9q69 0 117.5 -37t58.5 -103q120 142 317 142q152 0 243 -88
t91 -230z" />
    <glyph glyph-name="theta" unicode="&#x3b8;" horiz-adv-x="1241" 
d="M1182 1047q3 -294 -80.5 -541.5t-229 -389t-317.5 -136.5q-195 0 -303.5 123t-108.5 346q0 128 35 303h105q-33 -182 -33 -301q0 -184 77.5 -280.5t225.5 -96.5q154 0 281 145q122 139 188 389q-643 102 -643 516q0 195 110 314q109 118 295 118q197 0 297.5 -128
t100.5 -381zM1044 705q31 161 31 339q0 210 -73.5 313t-223.5 103q-134 0 -213.5 -90t-79.5 -242q0 -173 138.5 -277.5t420.5 -145.5z" />
    <glyph glyph-name="iota" unicode="&#x3b9;" horiz-adv-x="600" 
d="M135 190q0 32 10 97l127 702h103l-125 -702q-10 -62 -10 -82q0 -63 42 -97t117 -34q43 0 117 12l-16 -90q-56 -16 -119 -16q-116 0 -181 55.5t-65 154.5z" />
    <glyph glyph-name="kappa" unicode="&#x3ba;" horiz-adv-x="985" 
d="M281 989h102l-174 -989h-105zM997 989l-536 -467l403 -522h-123l-407 532l518 457h145z" />
    <glyph glyph-name="lambda" unicode="&#x3bb;" horiz-adv-x="1099" 
d="M961 84l45 2l-15 -86q-44 -8 -76 -8q-117 0 -147 160l-139 718l-541 -870h-117l629 1006l-45 251q-19 106 -62 155.5t-116 49.5q-57 0 -88 -8l16 90q47 12 94 12q201 0 250 -251l217 -1121q11 -56 31.5 -78t63.5 -22z" />
    <glyph glyph-name="uni03BC" unicode="&#x3bc;" horiz-adv-x="1196" 
d="M1077 76l-16 -86q-31 -8 -68 -8q-69 0 -116.5 35.5t-59.5 101.5q-114 -139 -303 -139q-98 0 -173 40.5t-110 112.5l-88 -502h-104l242 1358h102l-102 -586q-11 -64 -11 -86q0 -110 68.5 -176.5t181.5 -66.5q121 0 209 75.5t111 200.5l112 639h105l-129 -725
q-10 -52 -10 -90q0 -100 104 -100q45 0 55 2z" />
    <glyph glyph-name="nu" unicode="&#x3bd;" horiz-adv-x="1079" 
d="M969 989h118l-630 -1009h-41l-281 1009h107l221 -831z" />
    <glyph glyph-name="xi" unicode="&#x3be;" horiz-adv-x="950" 
d="M416 1122q1 -127 75 -204.5t193 -77.5h190l-14 -92h-264q-161 0 -277 -109.5t-116 -261.5q0 -118 70.5 -192t199.5 -91l86 -10q114 -13 176 -77t62 -163q0 -112 -72 -213h-104q67 107 67 197q0 139 -166 160l-102 14q-152 20 -240 120.5t-88 250.5q0 162 107 284
q108 126 280 160q-170 86 -170 295q0 100 51 186t142 142h-238l19 96h790l-16 -96h-314q-138 0 -232.5 -92t-94.5 -226z" />
    <glyph glyph-name="omicron" unicode="&#x3bf;" horiz-adv-x="1249" 
d="M111 467q-2 108 42 209t117.5 175t175 117.5t209.5 41.5q207 0 346.5 -140.5t139.5 -347.5q3 -144 -72 -270.5t-203 -200.5t-274 -71q-205 0 -343 140t-138 347zM1032 522q0 166 -108.5 278.5t-272.5 112.5q-180 0 -306 -130t-126 -316q0 -170 106.5 -280.5t270.5 -110.5
q182 0 309 130t127 316z" />
    <glyph glyph-name="pi" unicode="&#x3c0;" horiz-adv-x="1189" 
d="M131 0l158 891h-164l18 100h1080l-19 -100h-164l-159 -891h-103l160 891h-545l-160 -891h-102z" />
    <glyph glyph-name="rho" unicode="&#x3c1;" horiz-adv-x="1269" 
d="M1161 530q3 -148 -68 -276t-193.5 -202.5t-262.5 -71.5q-136 0 -248.5 70t-157.5 179l-104 -598h-102l155 904q40 217 178 346t336 129q201 0 334 -137t133 -343zM1055 526q0 170 -103.5 278.5t-263.5 108.5q-115 0 -210 -63.5t-149.5 -174t-54.5 -243.5
q0 -155 103.5 -256.5t259.5 -101.5q172 0 295 132.5t123 319.5z" />
    <glyph glyph-name="uni03C2" unicode="&#x3c2;" horiz-adv-x="1071" 
d="M717 -172q0 63 -38.5 101t-123.5 61l-96 26q-170 47 -258 163t-88 294q0 150 70 273.5t192 193.5t270 70q130 0 239 -57t175 -160l-80 -54q-57 84 -144 129t-192 45q-182 0 -303 -125.5t-121 -312.5q0 -297 295 -371l80 -22q231 -62 231 -236q0 -115 -69 -215h-107
q68 103 68 197z" />
    <glyph glyph-name="sigma" unicode="&#x3c3;" horiz-adv-x="1265" 
d="M1327 989l-16 -100h-387q94 -56 146 -152t52 -217q2 -108 -41 -208.5t-117 -174t-175.5 -116.5t-210.5 -41q-200 0 -334.5 135.5t-134.5 339.5q0 232 159.5 383t403.5 151h655zM647 893q-183 0 -306.5 -123.5t-123.5 -306.5q0 -170 103.5 -279.5t263.5 -109.5
q182 0 307 129.5t125 318.5q0 166 -101.5 268.5t-267.5 102.5z" />
    <glyph glyph-name="tau" unicode="&#x3c4;" horiz-adv-x="946" 
d="M565 891l-102 -572q-8 -36 -8 -75q0 -170 231 -170q8 0 22 0.5t40 1.5t47 2l-17 -88q-58 -10 -119 -10q-152 0 -230.5 64t-78.5 187q0 28 10 93l101 567h-365l19 98h860l-19 -98h-391z" />
    <glyph glyph-name="upsilon" unicode="&#x3c5;" horiz-adv-x="1124" 
d="M152 324q0 48 8 79l100 586h105l-107 -598q-4 -28 -4 -63q0 -113 74 -183.5t192 -70.5q115 0 196.5 72t104.5 194l113 649h104l-114 -653q-26 -158 -144 -260q-116 -96 -268 -96q-157 0 -258.5 96.5t-101.5 247.5z" />
    <glyph glyph-name="phi" unicode="&#x3c6;" horiz-adv-x="1460" 
d="M694 -20l-61 -349h-105l64 349q-219 6 -352.5 130t-133.5 324q0 212 130 369t346 203l20 -93q-182 -44 -285.5 -170.5t-103.5 -300.5q0 -166 106 -265t289 -105l117 655q23 136 97.5 209.5t189.5 73.5q149 0 250.5 -117.5t101.5 -292.5q0 -131 -50.5 -245.5t-139 -196
t-213 -129.5t-267.5 -49zM1255 596q0 140 -69 228.5t-178 88.5q-149 0 -183 -196l-114 -645q238 3 391 150t153 374z" />
    <glyph glyph-name="chi" unicode="&#x3c7;" horiz-adv-x="1013" 
d="M809 -285q41 0 53 2l-16 -86q-21 -8 -78 -8q-67 0 -108 36.5t-66 115.5l-148 454l-446 -598h-123l531 701l-150 489q-24 84 -108 84q-44 0 -56 -2l17 88q27 6 71 6q66 0 107 -33.5t61 -105.5l133 -444l422 575h123l-504 -678l160 -493q20 -58 45.5 -80.5t79.5 -22.5z" />
    <glyph glyph-name="psi" unicode="&#x3c8;" horiz-adv-x="1458" 
d="M524 -369l62 344q-184 0 -304 115t-120 289q0 51 12 113l86 495h102l-86 -491q-10 -68 -10 -113q0 -139 94 -225t244 -86l223 1280h105l-225 -1280q193 0 318 108.5t157 308.5l88 500h102l-88 -506q-43 -246 -195.5 -377t-398.5 -131l-61 -344h-105z" />
    <glyph glyph-name="omega" unicode="&#x3c9;" horiz-adv-x="1576" 
d="M1464 541q0 -246 -115 -403.5t-296 -157.5q-111 0 -193.5 52t-114.5 144q-96 -196 -309 -196q-159 0 -246.5 110t-87.5 311q0 215 108.5 378.5t297.5 230.5l20 -90q-152 -69 -235.5 -206t-83.5 -317q0 -154 60.5 -237.5t170.5 -83.5q106 0 178.5 77.5t98.5 219.5l47 274
h100l-45 -254q-6 -37 -6 -78q0 -110 64 -174.5t174 -64.5q132 0 219.5 131t87.5 330q0 279 -197 387l45 86q258 -117 258 -469z" />
    <glyph glyph-name="iotadieresis" unicode="&#x3ca;" horiz-adv-x="600" 
d="M135 190q0 32 10 97l127 702h103l-125 -702q-10 -62 -10 -82q0 -63 42 -97t117 -34q43 0 117 12l-16 -90q-56 -16 -119 -16q-116 0 -181 55.5t-65 154.5zM121 1370q0 37 26.5 62.5t63.5 25.5t62.5 -25.5t25.5 -62.5q0 -35 -25.5 -60.5t-62.5 -25.5t-63.5 25.5t-26.5 60.5
zM473 1370q0 36 26 62t62 26q37 0 63.5 -25.5t26.5 -62.5q0 -35 -26.5 -60.5t-63.5 -25.5q-35 0 -61.5 25.5t-26.5 60.5z" />
    <glyph glyph-name="upsilondieresis" unicode="&#x3cb;" horiz-adv-x="1124" 
d="M152 324q0 48 8 79l100 586h105l-107 -598q-4 -28 -4 -63q0 -113 74 -183.5t192 -70.5q115 0 196.5 72t104.5 194l113 649h104l-114 -653q-26 -158 -144 -260q-116 -96 -268 -96q-157 0 -258.5 96.5t-101.5 247.5zM393 1370q0 37 25.5 61.5t62.5 24.5t63.5 -25t26.5 -61
t-26.5 -61t-63.5 -25t-62.5 24.5t-25.5 61.5zM823 1370q0 36 26.5 61t63.5 25t62.5 -24.5t25.5 -61.5t-25.5 -61.5t-62.5 -24.5t-63.5 25t-26.5 61z" />
    <glyph glyph-name="omicrontonos" unicode="&#x3cc;" horiz-adv-x="1249" 
d="M111 467q-2 108 42 209t117.5 175t175 117.5t209.5 41.5q207 0 346.5 -140.5t139.5 -347.5q3 -144 -72 -270.5t-203 -200.5t-274 -71q-205 0 -343 140t-138 347zM1032 522q0 166 -108.5 278.5t-272.5 112.5q-180 0 -306 -130t-126 -316q0 -170 106.5 -280.5t270.5 -110.5
q182 0 309 130t127 316zM641 1155l127 442h127l-4 -18l-166 -424h-84z" />
    <glyph glyph-name="upsilontonos" unicode="&#x3cd;" horiz-adv-x="1124" 
d="M152 324q0 48 8 79l100 586h105l-107 -598q-4 -28 -4 -63q0 -113 74 -183.5t192 -70.5q115 0 196.5 72t104.5 194l113 649h104l-114 -653q-26 -158 -144 -260q-116 -96 -268 -96q-157 0 -258.5 96.5t-101.5 247.5zM612 1155l127 442h127l-4 -18l-166 -424h-84z" />
    <glyph glyph-name="omegatonos" unicode="&#x3ce;" horiz-adv-x="1576" 
d="M1464 541q0 -246 -115 -403.5t-296 -157.5q-111 0 -193.5 52t-114.5 144q-96 -196 -309 -196q-159 0 -246.5 110t-87.5 311q0 215 108.5 378.5t297.5 230.5l20 -90q-152 -69 -235.5 -206t-83.5 -317q0 -154 60.5 -237.5t170.5 -83.5q106 0 178.5 77.5t98.5 219.5l47 274
h100l-45 -254q-6 -37 -6 -78q0 -110 64 -174.5t174 -64.5q132 0 219.5 131t87.5 330q0 279 -197 387l45 86q258 -117 258 -469zM852 1155l127 442h127l-4 -18l-166 -424h-84z" />
    <glyph glyph-name="uni0400" unicode="&#x400;" horiz-adv-x="1155" 
d="M115 0l237 1352h846l-16 -95h-742l-86 -479h578l-17 -96h-575l-102 -588h763l-16 -94h-870zM752 1483l-162 362l2 19h119l120 -381h-79z" />
    <glyph glyph-name="uni0401" unicode="&#x401;" horiz-adv-x="1155" 
d="M115 0l237 1352h846l-16 -95h-742l-86 -479h578l-17 -96h-575l-102 -588h763l-16 -94h-870zM496 1655q0 36 26.5 61t63.5 25t62.5 -24.5t25.5 -61.5t-25.5 -62.5t-62.5 -25.5t-63.5 25.5t-26.5 62.5zM958 1653q0 36 27 62t64 26t62.5 -25.5t25.5 -62.5q0 -35 -25.5 -60.5
t-62.5 -25.5t-64 25.5t-27 60.5z" />
    <glyph glyph-name="uni0402" unicode="&#x402;" horiz-adv-x="1511" 
d="M877 -20l-9 96q191 20 300.5 117.5t109.5 246.5q0 129 -85 205t-228 76q-185 0 -332 -68l-117 -653h-106l221 1255h-445l17 97h1067l-17 -97h-516l-88 -505q147 69 334 69q175 0 290.5 -105t115.5 -265q0 -192 -140 -320q-141 -129 -372 -149z" />
    <glyph glyph-name="uni0403" unicode="&#x403;" horiz-adv-x="1026" 
d="M115 0l237 1352h776l-14 -95h-674l-219 -1257h-106zM649 1483l246 381h133l-2 -19l-293 -362h-84z" />
    <glyph glyph-name="uni0404" unicode="&#x404;" horiz-adv-x="1456" 
d="M266 739h733l-14 -94h-729v-18q0 -238 151.5 -393.5t383.5 -155.5q136 0 259.5 56.5t217.5 160.5l73 -64q-106 -119 -253 -185t-306 -66q-132 -2 -251 47.5t-204.5 135.5t-134.5 206.5t-47 253.5q-4 146 57 286t164 242.5t243 163.5t286 57q174 0 314 -79t221 -226
l-87 -55q-74 128 -190 195t-264 67q-149 3 -285 -68.5t-226 -195.5t-112 -271z" />
    <glyph glyph-name="uni0405" unicode="&#x405;" horiz-adv-x="1138" 
d="M57 299l88 51q151 -272 414 -272q135 0 219 72.5t84 189.5q0 80 -48.5 142.5t-156.5 125.5l-147 88q-244 142 -244 330q0 148 114 247t288 99q275 0 413 -237l-84 -52q-63 99 -143 145t-188 46q-130 0 -209.5 -66.5t-79.5 -175.5q0 -74 45 -131.5t153 -120.5l144 -84
q132 -79 194 -162t62 -186q0 -161 -119 -264.5t-301 -103.5q-160 0 -288 82t-210 237z" />
    <glyph glyph-name="uni0406" unicode="&#x406;" horiz-adv-x="505" 
d="M115 0l237 1352h107l-238 -1352h-106z" />
    <glyph glyph-name="uni0407" unicode="&#x407;" horiz-adv-x="505" 
d="M115 0l237 1352h107l-238 -1352h-106zM137 1655q0 36 26.5 61t63.5 25t62.5 -24.5t25.5 -61.5t-25.5 -62.5t-62.5 -25.5t-63.5 25.5t-26.5 62.5zM600 1653q0 37 26.5 62.5t63.5 25.5t62.5 -25.5t25.5 -62.5q0 -35 -25.5 -60.5t-62.5 -25.5t-63.5 25.5t-26.5 60.5z" />
    <glyph glyph-name="uni0408" unicode="&#x408;" horiz-adv-x="751" 
d="M-29 12l19 92q104 -26 184 -26q103 0 161 52t77 161l186 1061h107l-191 -1076q-52 -296 -336 -296q-107 0 -207 32z" />
    <glyph glyph-name="uni0409" unicode="&#x409;" horiz-adv-x="1970" 
d="M1843 420q0 -189 -136 -304.5t-357 -115.5h-449l221 1255h-538l-45 -213q-81 -407 -160 -639q-73 -221 -162 -316t-219 -95q-40 0 -64 8l17 96q15 -6 53 -6q100 0 170 98q70 96 130.5 296.5t131.5 559.5l62 308h747l-98 -561h283q194 0 303.5 -98.5t109.5 -272.5z
M1735 416q0 136 -80.5 207t-233.5 71h-291l-104 -600h332q173 0 275 87t102 235z" />
    <glyph glyph-name="uni040A" unicode="&#x40a;" horiz-adv-x="1990" 
d="M115 0l237 1352h107l-101 -561h705l98 561h107l-99 -561h283q192 0 303 -97.5t111 -267.5q0 -189 -136.5 -307.5t-357.5 -118.5h-448l123 694h-705l-121 -694h-106zM1049 94h331q171 0 273 90t102 240q0 131 -80.5 200.5t-232.5 69.5h-291z" />
    <glyph glyph-name="uni040B" unicode="&#x40b;" horiz-adv-x="1611" 
d="M1391 430q0 -43 -11 -104l-57 -326h-106l57 319q10 68 10 103q0 145 -86.5 222t-245.5 77q-154 0 -321 -66l-115 -655h-106l221 1257h-445l17 95h1067l-17 -95h-516l-88 -503q160 65 322 65q193 0 306.5 -103.5t113.5 -285.5z" />
    <glyph glyph-name="uni040C" unicode="&#x40c;" horiz-adv-x="1253" 
d="M352 1352h107l-238 -1352h-106zM1286 1352l-770 -631l582 -721h-127l-592 731l754 621h153zM668 1483l245 381h134l-3 -19l-292 -362h-84z" />
    <glyph glyph-name="uni040D" unicode="&#x40d;" horiz-adv-x="1466" 
d="M1378 1372h43l-241 -1372h-107l201 1147l-1122 -1167h-41l241 1372h107l-205 -1155zM870 1483l-161 362l2 19h118l121 -381h-80z" />
    <glyph glyph-name="uni040E" unicode="&#x40e;" horiz-adv-x="1265" 
d="M1223 1352h120l-690 -1137q-78 -125 -160 -179t-194 -54q-81 0 -131 20l16 96q50 -16 115 -16q88 0 147.5 39t116.5 133l21 35l-334 1063h110l295 -949zM535 1755q0 27 12 109h94q-12 -82 -12 -99q0 -86 49 -137t131 -51q84 0 140 55.5t73 155.5l12 76h94l-12 -76
q-23 -137 -106.5 -215t-206.5 -78q-117 0 -192.5 73.5t-75.5 186.5z" />
    <glyph glyph-name="uni040F" unicode="&#x40f;" horiz-adv-x="1425" 
d="M1376 1352l-237 -1352h-461l-49 -289h-107l49 289h-456l237 1352h107l-221 -1256h811l221 1256h106z" />
    <glyph glyph-name="uni0410" unicode="&#x410;" horiz-adv-x="1361" 
d="M1096 0l-78 324h-705l-190 -324h-121l821 1372h41l338 -1372h-106zM995 418l-182 760l-444 -760h626z" />
    <glyph glyph-name="uni0411" unicode="&#x411;" horiz-adv-x="1181" 
d="M115 0l237 1352h770l-18 -95h-662l-86 -481h314q180 0 287.5 -101t107.5 -269q0 -187 -131 -297q-133 -109 -350 -109h-469zM238 94h352q167 0 266.5 83t99.5 224q0 130 -78.5 205.5t-215.5 75.5h-322z" />
    <glyph glyph-name="uni0412" unicode="&#x412;" horiz-adv-x="1253" 
d="M1135 399q0 -177 -131 -288t-342 -111h-547l237 1352h418q158 0 250 -82t92 -223q0 -108 -54 -190t-149 -124q107 -42 166.5 -129t59.5 -205zM750 1257h-308l-86 -483h359q129 0 207.5 73.5t78.5 192.5q0 103 -65 160t-186 57zM1024 401q0 125 -81 201t-216 76h-387
l-102 -584h419q166 0 266.5 84t100.5 223z" />
    <glyph glyph-name="uni0413" unicode="&#x413;" horiz-adv-x="1026" 
d="M115 0l237 1352h776l-14 -95h-674l-219 -1257h-106z" />
    <glyph glyph-name="uni0414" unicode="&#x414;" horiz-adv-x="1366" 
d="M1284 1352l-219 -1256h170l-70 -385h-106l51 289h-1069l-51 -289h-107l68 385h104q128 98 223.5 339.5t174.5 666.5l49 250h782zM178 96h780l203 1159h-577l-31 -141q-79 -419 -170.5 -667t-204.5 -351z" />
    <glyph glyph-name="uni0415" unicode="&#x415;" horiz-adv-x="1155" 
d="M115 0l237 1352h846l-16 -95h-742l-86 -479h578l-17 -96h-575l-102 -588h763l-16 -94h-870z" />
    <glyph glyph-name="uni0416" unicode="&#x416;" horiz-adv-x="1914" 
d="M399 1352l519 -621l-789 -731h-145l798 739l-514 613h131zM1057 1352h106l-237 -1352h-107zM1950 1352l-731 -633l540 -719h-127l-549 731l715 621h152z" />
    <glyph glyph-name="uni0417" unicode="&#x417;" horiz-adv-x="1185" 
d="M1067 418q0 -193 -137.5 -315.5t-351.5 -122.5q-179 0 -307 80.5t-197 238.5l90 51q62 -134 166 -203t243 -69q172 0 279 94q109 95 109 244q0 117 -82 190.5t-213 73.5h-193l14 94h152q156 0 254 76q100 75 100 197q0 106 -72.5 166.5t-201.5 60.5q-207 0 -352 -154
l-70 66q168 186 430 186q170 0 271.5 -87t101.5 -230q0 -114 -66 -200.5t-180 -125.5q100 -41 156.5 -123.5t56.5 -187.5z" />
    <glyph glyph-name="uni0418" unicode="&#x418;" horiz-adv-x="1466" 
d="M1378 1372h43l-241 -1372h-107l201 1147l-1122 -1167h-41l241 1372h107l-205 -1155z" />
    <glyph glyph-name="uni0419" unicode="&#x419;" horiz-adv-x="1466" 
d="M1378 1372h43l-241 -1372h-107l201 1147l-1122 -1167h-41l241 1372h107l-205 -1155zM649 1755q0 20 13 109h94q-13 -89 -13 -99q0 -86 49.5 -137t131.5 -51q84 0 140 55.5t73 155.5l12 76h94l-12 -76q-23 -137 -106.5 -215t-206.5 -78q-117 0 -193 73.5t-76 186.5z" />
    <glyph glyph-name="uni041A" unicode="&#x41a;" horiz-adv-x="1253" 
d="M352 1352h107l-238 -1352h-106zM1286 1352l-770 -631l582 -721h-127l-592 731l754 621h153z" />
    <glyph glyph-name="uni041B" unicode="&#x41b;" horiz-adv-x="1345" 
d="M502 1352h796l-237 -1352h-107l222 1255h-590l-41 -200q-50 -246 -95 -417.5t-92.5 -298.5t-101.5 -200.5t-115 -109.5t-139 -39q-41 0 -68 12l17 94q18 -6 53 -6q138 6 234.5 225t203.5 742z" />
    <glyph glyph-name="uni041C" unicode="&#x41c;" horiz-adv-x="1607" 
d="M1522 1372h41l-242 -1372h-107l193 1094l-588 -672h-41l-362 692l-195 -1114h-106l241 1372h41l420 -805z" />
    <glyph glyph-name="uni041D" unicode="&#x41d;" horiz-adv-x="1445" 
d="M115 0l237 1352h107l-103 -574h834l100 574h107l-238 -1352h-106l121 682h-832l-121 -682h-106z" />
    <glyph glyph-name="uni041E" unicode="&#x41e;" horiz-adv-x="1603" 
d="M145 623q-3 147 58 286.5t162.5 241.5t240.5 163t285 58q132 2 250.5 -47.5t203.5 -135.5t134 -206.5t47 -253.5q3 -147 -58 -286.5t-163.5 -241.5t-241.5 -163t-285 -58q-176 -3 -323 83t-230 235t-80 325zM1413 727q0 235 -150 391t-378 156q-168 3 -314.5 -85.5
t-232 -239t-82.5 -322.5q0 -235 149 -391t377 -156q124 -2 241.5 50t204 139.5t137.5 208.5t48 249z" />
    <glyph glyph-name="uni041F" unicode="&#x41f;" horiz-adv-x="1425" 
d="M115 0l237 1352h1024l-237 -1352h-107l221 1255h-811l-221 -1255h-106z" />
    <glyph glyph-name="uni0420" unicode="&#x420;" horiz-adv-x="1163" 
d="M115 0l237 1352h416q183 0 288 -92t105 -252q0 -180 -129 -291t-338 -111h-366l-107 -606h-106zM344 700h356q160 0 254.5 82.5t94.5 223.5q0 122 -75 186.5t-216 64.5h-318z" />
    <glyph glyph-name="uni0421" unicode="&#x421;" horiz-adv-x="1456" 
d="M145 623q-4 146 57 286t164 242.5t243 163.5t286 57q174 0 314 -79t221 -226l-87 -55q-74 128 -190 195t-264 67q-126 2 -244 -50t-204 -139.5t-137 -208.5t-48 -249q0 -238 151.5 -393.5t383.5 -155.5q136 0 259.5 56.5t217.5 160.5l73 -64q-106 -119 -253 -185
t-306 -66q-132 -2 -251 47.5t-204.5 135.5t-134.5 206.5t-47 253.5z" />
    <glyph glyph-name="uni0422" unicode="&#x422;" horiz-adv-x="1198" 
d="M459 0l223 1257h-496l17 95h1095l-16 -95h-494l-223 -1257h-106z" />
    <glyph glyph-name="uni0423" unicode="&#x423;" horiz-adv-x="1265" 
d="M1223 1352h120l-690 -1137q-78 -125 -160 -179t-194 -54q-81 0 -131 20l16 96q50 -16 115 -16q88 0 147.5 39t116.5 133l21 35l-334 1063h110l295 -949z" />
    <glyph glyph-name="uni0424" unicode="&#x424;" horiz-adv-x="1624" 
d="M666 -41l32 178q-234 0 -392.5 147.5t-158.5 364.5q0 170 89 302t250.5 205t369.5 73h35l29 164h106l-31 -164q150 2 277.5 -66t201 -187t70.5 -261q0 -171 -89 -302.5t-250 -203.5t-369 -72h-31l-33 -178h-106zM715 236l157 894h-30q-260 0 -421 -131.5t-161 -343.5
q0 -184 128 -301.5t327 -117.5zM821 236h29q261 0 421.5 131.5t160.5 343.5q0 184 -128 301.5t-325 117.5z" />
    <glyph glyph-name="uni0425" unicode="&#x425;" horiz-adv-x="1196" 
d="M1245 1352l-547 -670l342 -682h-114l-301 608l-510 -608h-131l589 702l-319 650h115l280 -576l465 576h131z" />
    <glyph glyph-name="uni0426" unicode="&#x426;" horiz-adv-x="1456" 
d="M1151 -291l51 289h-1087l237 1352h107l-221 -1256h811l221 1256h106l-221 -1256h170l-68 -385h-106z" />
    <glyph glyph-name="uni0427" unicode="&#x427;" horiz-adv-x="1337" 
d="M1182 1352h106l-237 -1352h-107l103 580q-160 -62 -326 -62q-228 0 -353.5 110t-125.5 308q0 60 14 145l49 271h107l-50 -273q-12 -71 -12 -137q0 -324 373 -324q187 0 342 64z" />
    <glyph glyph-name="uni0428" unicode="&#x428;" horiz-adv-x="1982" 
d="M115 0l237 1352h107l-221 -1256h630l222 1256h106l-221 -1256h631l221 1256h106l-237 -1352h-1581z" />
    <glyph glyph-name="uni0429" unicode="&#x429;" horiz-adv-x="2013" 
d="M1708 -289l51 289h-1644l237 1352h107l-221 -1256h630l222 1256h106l-221 -1256h631l221 1256h106l-221 -1256h170l-67 -385h-107z" />
    <glyph glyph-name="uni042A" unicode="&#x42a;" horiz-adv-x="1343" 
d="M276 0l222 1255h-316l19 97h420l-101 -561h283q198 0 306 -97.5t108 -275.5q0 -192 -133.5 -305t-360.5 -113h-447zM399 94h334q176 0 275.5 86t99.5 236q0 137 -79 207.5t-234 70.5h-291z" />
    <glyph glyph-name="uni042B" unicode="&#x42b;" horiz-adv-x="1642" 
d="M115 0l237 1352h107l-101 -561h283q198 0 306 -96t108 -273q0 -195 -133.5 -308.5t-360.5 -113.5h-446zM238 94h333q177 0 276 86t99 238q0 137 -79 206.5t-234 69.5h-291zM1251 0l238 1352h106l-237 -1352h-107z" />
    <glyph glyph-name="uni042C" unicode="&#x42c;" horiz-adv-x="1181" 
d="M115 0l237 1352h107l-101 -561h283q198 0 306 -96t108 -273q0 -195 -133.5 -308.5t-360.5 -113.5h-446zM238 94h333q177 0 276 86t99 238q0 137 -79 206.5t-234 69.5h-291z" />
    <glyph glyph-name="uni042D" unicode="&#x42d;" horiz-adv-x="1456" 
d="M1376 729q3 -147 -58 -286.5t-163 -242t-241.5 -163.5t-286.5 -57q-173 0 -311.5 79t-223.5 226l86 55q73 -127 190.5 -194.5t264.5 -67.5q158 0 295.5 75t225.5 204t108 286h-699l17 96h686q-3 232 -154.5 383.5t-380.5 151.5q-136 0 -259.5 -56.5t-217.5 -160.5l-74 63
q106 119 253 185.5t306 66.5q178 3 325.5 -82t231 -234t80.5 -327z" />
    <glyph glyph-name="uni042E" unicode="&#x42e;" horiz-adv-x="2033" 
d="M1954 729q3 -146 -56.5 -286t-159.5 -242.5t-236 -163.5t-279 -57q-170 -3 -313 82t-224.5 234t-79.5 327q0 45 2 59h-266l-121 -682h-106l237 1352h107l-103 -574h267q31 163 135.5 300.5t257.5 217t319 76.5q172 3 315.5 -82t225 -234t78.5 -327zM1843 727
q0 235 -146.5 391t-367.5 156q-164 3 -307.5 -85.5t-227.5 -239t-81 -322.5q0 -238 146.5 -393.5t369.5 -155.5q121 -2 235.5 50.5t198 141t133 209t47.5 248.5z" />
    <glyph glyph-name="uni042F" unicode="&#x42f;" horiz-adv-x="1239" 
d="M745 1352h447l-238 -1352h-106l96 555h-278q-33 0 -43 2l-476 -557h-127l488 575q-124 35 -192 126.5t-68 222.5q0 190 137 309t360 119zM678 651h283l108 606h-330q-176 0 -278.5 -90t-102.5 -239q0 -131 83 -204t237 -73z" />
    <glyph glyph-name="uni0430" unicode="&#x430;" horiz-adv-x="1292" 
d="M1085 989h103l-174 -989h-99l29 168q-62 -88 -164 -138t-223 -50q-190 0 -319 135.5t-129 337.5q-2 111 40.5 214.5t115 179.5t172.5 120.5t208 42.5q135 0 244.5 -65.5t159.5 -172.5zM1004 553q0 162 -98 262t-257 100q-85 1 -166 -36t-140.5 -99t-94.5 -147t-33 -174
q0 -167 104 -276t263 -109q111 -3 210 63t157 178t55 238z" />
    <glyph glyph-name="uni0431" unicode="&#x431;" horiz-adv-x="1277" 
d="M303 791v-5q66 100 174 157.5t232 57.5q198 0 328 -138t130 -345q2 -108 -40.5 -208.5t-115 -173t-172.5 -115.5t-208 -41q-203 0 -336 131.5t-133 334.5q0 85 53 377q30 162 78 271t130 186t195.5 121t280.5 69q149 20 234 37q69 14 141 47l-19 -100q-69 -34 -141 -49
q-69 -12 -223 -33q-104 -15 -180.5 -37t-137 -56t-102 -76t-74 -105t-54 -135t-40.5 -172zM268 459q0 -167 103.5 -276t263.5 -109q178 0 302 127t124 309q0 173 -105.5 284t-265.5 111q-178 0 -300 -129t-122 -317z" />
    <glyph glyph-name="uni0432" unicode="&#x432;" horiz-adv-x="1048" 
d="M915 297q0 -140 -115 -228.5t-298 -88.5q-189 0 -296.5 108t-107.5 297q0 57 25 201q35 206 156.5 315t314.5 109q152 0 244 -69.5t92 -184.5q0 -181 -201 -240q90 -26 138 -82.5t48 -136.5zM227 586l-4 -23h322q134 0 205 48t71 139q0 78 -62 123t-171 45
q-149 0 -240.5 -84t-120.5 -248zM807 291q0 84 -72.5 132t-197.5 48h-326q-6 -46 -6 -80q0 -152 78.5 -234.5t224.5 -82.5q135 0 217 59.5t82 157.5z" />
    <glyph glyph-name="uni0433" unicode="&#x433;" horiz-adv-x="931" 
d="M78 236q0 195 309 299l117 38q112 38 157.5 80.5t45.5 108.5q0 69 -52 111t-139 42q-145 0 -266 -106l-51 76q143 125 325 125q130 0 209.5 -68t79.5 -178q0 -100 -65 -168t-211 -117l-117 -39q-128 -43 -181 -89t-53 -115q0 -74 56.5 -118t154.5 -44q93 0 168 35.5
t154 119.5l59 -73q-154 -176 -379 -176q-146 0 -233.5 70t-87.5 186z" />
    <glyph glyph-name="uni0434" unicode="&#x434;" horiz-adv-x="1239" 
d="M1120 629q0 -306 -142 -477.5t-394 -171.5q-209 0 -342 132t-133 339q-2 108 39 207.5t111.5 171t167.5 113.5t202 40q127 0 229 -58t162 -163q-26 362 -155 526t-386 164q-92 0 -180 -16l16 98q85 18 166 18q327 0 483 -224.5t156 -698.5zM1001 510q0 162 -105.5 270.5
t-264.5 108.5q-174 0 -295 -126.5t-121 -309.5q0 -166 101.5 -272.5t261.5 -106.5q184 0 303.5 123.5t119.5 312.5z" />
    <glyph glyph-name="uni0435" unicode="&#x435;" horiz-adv-x="1155" 
d="M1040 471h-823v-2q0 -176 105 -287q108 -108 278 -108q187 0 332 139l57 -68q-78 -79 -181 -122t-216 -43q-207 0 -344 138t-137 345q-2 108 40.5 210t114 176t170 118t203.5 43q184 0 302 -117.5t118 -300.5q0 -69 -19 -121zM225 563h727v31q0 146 -87 233.5t-230 87.5
q-156 0 -268 -100q-115 -100 -142 -252z" />
    <glyph glyph-name="uni0436" unicode="&#x436;" horiz-adv-x="1486" 
d="M317 989l351 -461l-576 -528h-143l592 537l-351 452h127zM780 989h105l-176 -989h-103zM1477 989l-519 -469l408 -520h-127l-410 528l500 461h148z" />
    <glyph glyph-name="uni0437" unicode="&#x437;" horiz-adv-x="954" 
d="M772 287q0 -141 -99.5 -224t-266.5 -83q-250 0 -375 190l73 66q117 -160 314 -160q117 0 181.5 55.5t64.5 155.5q0 91 -60.5 139.5t-173.5 48.5h-127l16 94h138q117 0 181 49t64 140q0 75 -52 116t-148 41q-150 0 -271 -133l-59 66q134 162 338 162q136 0 217.5 -67.5
t81.5 -180.5q0 -86 -51.5 -151.5t-143.5 -96.5q76 -30 117 -88t41 -139z" />
    <glyph glyph-name="uni0438" unicode="&#x438;" horiz-adv-x="1140" 
d="M934 989h102l-172 -989h-100l20 117q-118 -137 -305 -137q-151 0 -242.5 88t-91.5 229q0 31 13 111l102 581h105l-105 -588q-10 -65 -10 -88q0 -111 66.5 -175t181.5 -64q120 0 209.5 75t113.5 201z" />
    <glyph glyph-name="uni0439" unicode="&#x439;" horiz-adv-x="1140" 
d="M934 989h102l-172 -989h-100l20 117q-118 -137 -305 -137q-151 0 -242.5 88t-91.5 229q0 31 13 111l102 581h105l-105 -588q-10 -65 -10 -88q0 -111 66.5 -175t181.5 -64q120 0 209.5 75t113.5 201zM440 1436q0 38 15 114h94q-14 -71 -14 -104q0 -86 49 -137.5t131 -51.5
q84 0 140 56t73 155l14 82h94l-14 -82q-23 -135 -106.5 -213.5t-206.5 -78.5q-117 0 -193 73.5t-76 186.5z" />
    <glyph glyph-name="uni043A" unicode="&#x43a;" horiz-adv-x="985" 
d="M281 989h102l-174 -989h-105zM997 989l-536 -467l403 -522h-123l-407 532l518 457h145z" />
    <glyph glyph-name="uni043B" unicode="&#x43b;" horiz-adv-x="1107" 
d="M-33 -2l17 90q8 -2 36 -2q100 0 160 101.5t121 377.5q25 102 45 166.5t47.5 114t52 74.5t69 41.5t87 21t117.5 6.5h285l-175 -989h-102l158 897h-158q-46 -1 -71.5 -3t-57 -8t-48.5 -15t-38 -28t-33.5 -43.5t-28.5 -63t-28.5 -86t-28.5 -113.5q-48 -217 -96 -331
t-112 -162t-167 -52q-33 0 -51 6z" />
    <glyph glyph-name="uni043C" unicode="&#x43c;" horiz-adv-x="1404" 
d="M1264 1010h43l-179 -1010h-104l137 770l-469 -489h-43l-303 510l-139 -791h-103l179 1010h41l362 -600z" />
    <glyph glyph-name="uni043D" unicode="&#x43d;" horiz-adv-x="1138" 
d="M104 0l175 989h104l-74 -409h553l72 409h102l-174 -989h-102l86 487h-551l-86 -487h-105z" />
    <glyph glyph-name="uni043E" unicode="&#x43e;" horiz-adv-x="1249" 
d="M111 467q-2 108 42 209t117.5 175t175 117.5t209.5 41.5q207 0 346.5 -140.5t139.5 -347.5q3 -144 -72 -270.5t-203 -200.5t-274 -71q-205 0 -343 140t-138 347zM1032 522q0 166 -108.5 278.5t-272.5 112.5q-180 0 -306 -130t-126 -316q0 -170 106.5 -280.5t270.5 -110.5
q182 0 309 130t127 316z" />
    <glyph glyph-name="uni043F" unicode="&#x43f;" horiz-adv-x="1142" 
d="M997 692q0 -36 -12 -110l-102 -582h-105l107 588q10 65 10 90q0 108 -67.5 172.5t-180.5 64.5q-123 0 -211.5 -75t-111.5 -201l-115 -639h-103l175 989h98l-19 -117q119 138 306 138q149 0 239 -90q92 -89 92 -228z" />
    <glyph glyph-name="uni0440" unicode="&#x440;" horiz-adv-x="1290" 
d="M1182 535q2 -112 -40 -216t-113.5 -178.5t-170.5 -118.5t-205 -42q-135 0 -247 67t-160 174l-103 -590h-104l242 1358h98l-29 -166q63 88 165 137.5t220 49.5q191 0 319 -135.5t128 -339.5zM711 913q-175 0 -300.5 -142.5t-125.5 -344.5q0 -153 101.5 -251.5t262.5 -98.5
q180 0 303 131.5t123 320.5q0 167 -103.5 276t-260.5 109z" />
    <glyph glyph-name="uni0441" unicode="&#x441;" horiz-adv-x="1138" 
d="M111 465q-3 146 71 273t200.5 201t270.5 71q130 0 236.5 -57t169.5 -160l-80 -54q-57 84 -141.5 129t-184.5 45q-182 0 -309 -128t-127 -314q0 -173 108 -284t273 -111q96 0 181 38.5t147 108.5l67 -63q-146 -180 -397 -180q-208 0 -346.5 137.5t-138.5 347.5z" />
    <glyph glyph-name="uni0442" unicode="&#x442;" horiz-adv-x="1775" 
d="M1630 692q0 -36 -12 -110l-102 -582h-105l107 588q10 80 10 88q0 109 -64.5 174t-173.5 65q-118 0 -205 -75t-108 -201l-115 -639h-102l104 588q10 58 10 88q0 110 -64 174.5t-173 64.5q-115 0 -202 -74t-111 -202l-115 -639h-103l175 989h98l-19 -115q120 136 297 136
q108 0 186.5 -51t110.5 -142q56 91 147.5 142t203.5 51q148 0 236.5 -88t88.5 -230z" />
    <glyph glyph-name="uni0443" unicode="&#x443;" horiz-adv-x="1140" 
d="M934 989h104l-178 -999q-29 -176 -144.5 -277.5t-283.5 -101.5q-123 0 -228.5 60.5t-168.5 166.5l74 64q122 -197 325 -197q127 0 213 77t111 212l22 125q-117 -129 -297 -129q-149 0 -241 87.5t-92 229.5q0 41 12 111l100 571h105l-105 -577q-10 -62 -10 -88
q0 -109 67.5 -174.5t182.5 -65.5q120 0 208.5 75t112.5 203z" />
    <glyph glyph-name="uni0444" unicode="&#x444;" horiz-adv-x="1427" 
d="M1319 541q0 -249 -174 -405t-451 -156h-18l-62 -349h-102l61 349q-205 9 -334.5 140t-129.5 329q0 249 174.5 405t451.5 156h17l94 526h102l-94 -526q207 -9 336 -139t129 -330zM588 74l147 841h-12q-227 0 -367.5 -127.5t-140.5 -334.5q0 -167 101.5 -270t271.5 -109z
M1212 537q0 167 -101 269.5t-273 108.5l-146 -841h15q226 0 365.5 128t139.5 335z" />
    <glyph glyph-name="uni0445" unicode="&#x445;" horiz-adv-x="980" 
d="M991 989l-434 -485l287 -504h-119l-242 432l-387 -432h-131l467 516l-264 473h117l221 -403l354 403h131z" />
    <glyph glyph-name="uni0446" unicode="&#x446;" horiz-adv-x="1187" 
d="M993 84h43l-65 -373h-99l50 283q-49 7 -81.5 39t-43.5 80q-57 -64 -139.5 -98.5t-178.5 -34.5q-151 0 -242.5 87.5t-91.5 229.5q0 31 13 111l102 581h105l-105 -588q-10 -65 -10 -88q0 -109 66.5 -174t181.5 -65q124 0 211 74t112 202l113 639h102l-133 -766
q-4 -36 -4 -45q0 -44 25 -69t69 -25z" />
    <glyph glyph-name="uni0447" unicode="&#x447;" horiz-adv-x="1036" 
d="M848 989h102l-174 -989h-104l76 430q-103 -47 -238 -47q-159 0 -248.5 85t-89.5 237q0 53 8 94l35 190h102l-34 -194q-11 -71 -11 -86q0 -112 65 -172t187 -60q135 0 242 49z" />
    <glyph glyph-name="uni0448" unicode="&#x448;" horiz-adv-x="1773" 
d="M1567 989h102l-172 -989h-98l18 117q-115 -137 -297 -137q-108 0 -187 51.5t-112 140.5q-56 -91 -146 -141.5t-202 -50.5q-148 0 -238 87.5t-90 229.5q0 35 13 111l102 581h105l-105 -588q-10 -62 -10 -88q0 -109 64 -174t173 -65q115 0 203 75.5t111 202.5l112 637h105
l-105 -588q-10 -62 -10 -88q0 -109 64 -174t174 -65q113 0 201 76t112 202z" />
    <glyph glyph-name="uni0449" unicode="&#x449;" horiz-adv-x="1820" 
d="M1626 84h43l-65 -373h-99l51 283q-51 7 -84.5 41t-41.5 84q-114 -139 -306 -139q-111 0 -190.5 50.5t-112.5 139.5q-56 -89 -146.5 -139.5t-199.5 -50.5q-149 0 -239.5 87.5t-90.5 229.5q0 31 13 111l102 581h105l-105 -588q-10 -65 -10 -88q0 -109 64.5 -174t174.5 -65
q115 0 202 74.5t110 201.5l112 639h105l-105 -588q-10 -65 -10 -88q0 -110 64 -174.5t174 -64.5q118 0 205.5 75.5t107.5 200.5l113 639h102l-133 -766q-4 -36 -4 -45q0 -94 94 -94z" />
    <glyph glyph-name="uni044A" unicode="&#x44a;" horiz-adv-x="1171" 
d="M1030 326q0 -158 -109 -252t-290 -94q-173 0 -265 75.5t-92 218.5q0 26 11 97l92 526h-256l16 92h359l-62 -352h225q177 0 274 -81.5t97 -229.5zM922 322q0 106 -73 164.5t-204 58.5h-227l-31 -180q-8 -41 -8 -80q0 -109 62 -161t190 -52q134 0 212.5 67.5t78.5 182.5z
" />
    <glyph glyph-name="uni044B" unicode="&#x44b;" horiz-adv-x="1388" 
d="M889 326q0 -155 -104.5 -250.5t-276.5 -95.5q-164 0 -256 77.5t-92 216.5q0 32 10 97l109 618h104l-61 -352h208q170 0 264.5 -81.5t94.5 -229.5zM1200 989h103l-175 -989h-104zM782 322q0 106 -69.5 164.5t-196.5 58.5h-211l-33 -180q-8 -31 -8 -80q0 -104 62.5 -158.5
t183.5 -54.5q123 0 197.5 68.5t74.5 181.5z" />
    <glyph glyph-name="uni044C" unicode="&#x44c;" horiz-adv-x="1056" 
d="M915 326q0 -158 -108 -252t-291 -94q-173 0 -264.5 75.5t-91.5 218.5q0 32 10 97l109 618h104l-61 -352h223q177 0 273.5 -81.5t96.5 -229.5zM809 322q0 106 -73 164.5t-206 58.5h-225l-33 -180q-8 -31 -8 -80q0 -213 252 -213q134 0 213.5 67.5t79.5 182.5z" />
    <glyph glyph-name="uni044D" unicode="&#x44d;" horiz-adv-x="1138" 
d="M1028 522q0 -148 -72.5 -273t-197.5 -197t-273 -72q-129 0 -236.5 57t-168.5 160l80 55q118 -178 327 -178q166 0 290 112.5t143 278.5h-502l16 94h486q-12 160 -116 258t-263 98q-95 0 -179 -39.5t-147 -109.5l-68 61q75 88 177.5 135.5t218.5 47.5q211 0 348 -138
t137 -350z" />
    <glyph glyph-name="uni044E" unicode="&#x44e;" horiz-adv-x="1630" 
d="M1522 530q2 -109 -41.5 -211.5t-117 -177.5t-174 -119t-206.5 -42q-204 0 -338.5 139.5t-134.5 347.5v4h-219l-82 -471h-105l177 991h102l-76 -428h211q34 190 186 318.5t345 128.5q200 0 336.5 -138t136.5 -342zM1042 915q-177 0 -302.5 -131.5t-125.5 -320.5
q0 -167 106 -278t267 -111q180 0 304 132.5t124 321.5q0 166 -106 276.5t-267 110.5z" />
    <glyph glyph-name="uni044F" unicode="&#x44f;" horiz-adv-x="1071" 
d="M612 989h357l-176 -989h-103l68 389h-230l-370 -389h-133l385 403q-97 29 -153 98t-56 161q0 150 111 238.5t300 88.5zM774 483l74 412h-242q-143 0 -221 -59t-78 -168q0 -85 62.5 -135t167.5 -50h237z" />
    <glyph glyph-name="uni0450" unicode="&#x450;" horiz-adv-x="1155" 
d="M1040 471h-823v-2q0 -176 105 -287q108 -108 278 -108q187 0 332 139l57 -68q-78 -79 -181 -122t-216 -43q-207 0 -344 138t-137 345q-2 108 40.5 210t114 176t170 118t203.5 43q184 0 302 -117.5t118 -300.5q0 -69 -19 -121zM225 563h727v31q0 146 -87 233.5t-230 87.5
q-156 0 -268 -100q-115 -100 -142 -252zM616 1155l-84 424l7 18h114l39 -442h-76z" />
    <glyph glyph-name="uni0451" unicode="&#x451;" horiz-adv-x="1155" 
d="M1040 471h-823v-2q0 -176 105 -287q108 -108 278 -108q187 0 332 139l57 -68q-78 -79 -181 -122t-216 -43q-207 0 -344 138t-137 345q-2 108 40.5 210t114 176t170 118t203.5 43q184 0 302 -117.5t118 -300.5q0 -69 -19 -121zM225 563h727v31q0 146 -87 233.5t-230 87.5
q-156 0 -268 -100q-115 -100 -142 -252zM393 1370q0 37 25.5 61.5t62.5 24.5t63.5 -25t26.5 -61t-26.5 -61t-63.5 -25t-62.5 24.5t-25.5 61.5zM823 1370q0 36 26.5 61t63.5 25t62.5 -24.5t25.5 -61.5t-25.5 -61.5t-62.5 -24.5t-63.5 25t-26.5 61z" />
    <glyph glyph-name="uni0452" unicode="&#x452;" horiz-adv-x="1144" 
d="M997 680q0 -51 -12 -111l-121 -680q-24 -139 -104.5 -208.5t-202.5 -69.5q-83 0 -145 24l16 86q56 -16 121 -16q90 0 143.5 47.5t71.5 151.5l121 671q10 65 10 89q0 109 -67.5 174t-182.5 65q-123 0 -210.5 -75t-110.5 -203l-113 -625h-102l213 1214h-175l17 95h174
l41 227h102l-39 -227h420l-16 -95h-420l-59 -346q119 131 297 131q151 0 242 -88.5t91 -230.5z" />
    <glyph glyph-name="uni0453" unicode="&#x453;" horiz-adv-x="931" 
d="M78 236q0 195 309 299l117 38q112 38 157.5 80.5t45.5 108.5q0 69 -52 111t-139 42q-145 0 -266 -106l-51 76q143 125 325 125q130 0 209.5 -68t79.5 -178q0 -100 -65 -168t-211 -117l-117 -39q-128 -43 -181 -89t-53 -115q0 -74 56.5 -118t154.5 -44q93 0 168 35.5
t154 119.5l59 -73q-154 -176 -379 -176q-146 0 -233.5 70t-87.5 186zM487 1157l265 442h133l-2 -18l-305 -424h-91z" />
    <glyph glyph-name="uni0454" unicode="&#x454;" horiz-adv-x="1134" 
d="M926 223l67 -61q-75 -88 -177.5 -135t-219.5 -47q-211 0 -348 137t-137 348q-3 146 71 273t200.5 201t270.5 71q129 0 237 -57t171 -160l-82 -54q-57 86 -141 131t-187 45q-158 0 -276 -100q-120 -102 -150 -256h504l-16 -94h-496q0 -169 109 -280t272 -111
q191 0 328 149z" />
    <glyph glyph-name="uni0455" unicode="&#x455;" horiz-adv-x="931" 
d="M66 203l79 61q66 -100 137.5 -145t163.5 -45q100 0 165 49.5t65 124.5q0 56 -39 95.5t-145 94.5l-86 45q-113 60 -161 120.5t-48 144.5q0 117 89 189.5t230 72.5q205 0 318 -168l-76 -62q-102 135 -250 135q-91 0 -147 -44.5t-56 -116.5q0 -57 34 -96.5t126 -88.5l86 -45
q126 -69 178.5 -128t52.5 -144q0 -122 -94 -197t-246 -75q-120 0 -217 58t-159 165z" />
    <glyph glyph-name="uni0456" unicode="&#x456;" horiz-adv-x="485" 
d="M104 0l175 989h104l-174 -989h-105zM309 1370q0 37 26.5 63.5t63.5 26.5q38 0 64 -26.5t26 -63.5t-26 -63.5t-64 -26.5q-37 0 -63.5 26.5t-26.5 63.5z" />
    <glyph glyph-name="uni0457" unicode="&#x457;" horiz-adv-x="489" 
d="M172 1370q0 37 24.5 62.5t59.5 25.5t59.5 -25.5t24.5 -62.5t-24.5 -61.5t-59.5 -24.5t-59.5 24.5t-24.5 61.5zM420 1370q0 37 24.5 62.5t59.5 25.5t60.5 -25.5t25.5 -62.5q0 -36 -25 -61t-61 -25q-35 0 -59.5 24.5t-24.5 61.5zM104 0l177 989h102l-174 -989h-105z" />
    <glyph glyph-name="uni0458" unicode="&#x458;" horiz-adv-x="487" 
d="M-262 -365l14 86q59 -16 121 -16q180 0 215 189l193 1095h104l-197 -1108q-24 -136 -103 -203t-204 -67q-81 0 -143 24zM309 1370q0 37 26.5 63.5t63.5 26.5q38 0 64 -26.5t26 -63.5t-26 -63.5t-64 -26.5q-37 0 -63.5 26.5t-26.5 63.5z" />
    <glyph glyph-name="uni0459" unicode="&#x459;" horiz-adv-x="1660" 
d="M1520 326q0 -158 -108.5 -252t-291.5 -94q-172 0 -263 75.5t-91 218.5q0 56 8 97l92 526h-129q-65 -3 -102.5 -7t-74.5 -19.5t-55.5 -35.5t-40.5 -63.5t-36 -95.5t-35 -139q-50 -221 -98 -333.5t-110.5 -159t-166.5 -50.5q-5 0 -51 4l17 92q46 -4 47 -4q95 0 153 108.5
t117 372.5q44 186 78 256q39 87 118.5 126.5t229.5 39.5h260l-61 -352h223q177 0 274 -81.5t97 -229.5zM1413 322q0 106 -72.5 164.5t-205.5 58.5h-226l-32 -180q-9 -47 -9 -80q0 -109 62 -161t190 -52q134 0 213.5 67.5t79.5 182.5z" />
    <glyph glyph-name="uni045A" unicode="&#x45a;" horiz-adv-x="1665" 
d="M1520 311q0 -152 -107 -241.5t-287 -89.5q-176 0 -268 76.5t-92 219.5q0 56 8 95l27 143h-504l-88 -514h-103l173 989h104l-70 -383h504l68 383h102l-67 -383h219q184 0 282.5 -76t98.5 -219zM1413 307q0 102 -73 154.5t-214 52.5h-223l-26 -149q-9 -47 -9 -80
q0 -213 256 -213q131 0 210 63.5t79 171.5z" />
    <glyph glyph-name="uni045B" unicode="&#x45b;" horiz-adv-x="1142" 
d="M993 670q0 -38 -12 -111l-98 -559h-103l99 565q10 58 10 88q0 109 -66.5 174.5t-181.5 65.5q-121 0 -210 -75.5t-112 -203.5l-108 -614h-105l213 1214h-172l17 95h172l39 227h104l-39 -227h422l-16 -95h-422l-64 -358q119 131 299 131q151 0 242.5 -88t91.5 -229z" />
    <glyph glyph-name="uni045C" unicode="&#x45c;" horiz-adv-x="985" 
d="M281 989h102l-174 -989h-105zM997 989l-536 -467l403 -522h-123l-407 532l518 457h145zM543 1155l264 442h133l-2 -18l-305 -424h-90z" />
    <glyph glyph-name="uni045D" unicode="&#x45d;" horiz-adv-x="1140" 
d="M934 989h102l-172 -989h-100l20 117q-118 -137 -305 -137q-151 0 -242.5 88t-91.5 229q0 31 13 111l102 581h105l-105 -588q-10 -65 -10 -88q0 -111 66.5 -175t181.5 -64q120 0 209.5 75t113.5 201zM635 1155l-84 424l6 18h115l39 -442h-76z" />
    <glyph glyph-name="uni045E" unicode="&#x45e;" horiz-adv-x="1140" 
d="M934 989h104l-178 -999q-29 -176 -144.5 -277.5t-283.5 -101.5q-123 0 -228.5 60.5t-168.5 166.5l74 64q122 -197 325 -197q127 0 213 77t111 212l22 125q-117 -129 -297 -129q-149 0 -241 87.5t-92 229.5q0 41 12 111l100 571h105l-105 -577q-10 -62 -10 -88
q0 -109 67.5 -174.5t182.5 -65.5q120 0 208.5 75t112.5 203zM430 1436q0 43 14 114h95q-15 -76 -15 -104q0 -86 49.5 -137.5t131.5 -51.5q84 0 140 56t73 155l14 82h94l-14 -82q-23 -135 -107 -213.5t-207 -78.5q-117 0 -192.5 73.5t-75.5 186.5z" />
    <glyph glyph-name="uni045F" unicode="&#x45f;" horiz-adv-x="1140" 
d="M934 989h102l-172 -989h-100l20 117q-118 -137 -305 -137q-151 0 -242.5 88t-91.5 229q0 31 13 111l102 581h105l-105 -588q-10 -65 -10 -88q0 -111 66.5 -175t181.5 -64q120 0 209.5 75t113.5 201zM360 -451l70 347h94l-57 -347h-107z" />
    <glyph glyph-name="uni0462" unicode="&#x462;" horiz-adv-x="1300" 
d="M236 0l182 1040h-273l15 93h272l41 219h107l-41 -219h422l-17 -93h-420l-49 -270h293q190 0 299 -93t109 -255q0 -191 -136 -306.5t-360 -115.5h-444zM358 94h330q172 0 273.5 88t101.5 236q0 124 -81 191t-230 67h-293z" />
    <glyph glyph-name="uni0463" unicode="&#x463;" horiz-adv-x="1724" 
d="M1583 326q0 -158 -109 -252t-290 -94q-173 0 -265 75.5t-92 218.5q0 29 11 97l39 217q10 65 10 90q0 109 -66.5 173t-179.5 64q-120 0 -207 -75t-110 -201l-115 -639h-103l175 989h98l-19 -115q120 136 302 136q148 0 237.5 -88.5t89.5 -229.5q0 -9 -4 -55h227
q177 0 274 -81.5t97 -229.5zM1475 322q0 106 -72 164.5t-205 58.5h-227l-31 -180q-8 -36 -8 -80q0 -213 252 -213q134 0 212.5 67.5t78.5 182.5z" />
    <glyph glyph-name="uni0472" unicode="&#x472;" horiz-adv-x="1603" 
d="M1526 729q3 -147 -58.5 -287t-164.5 -241.5t-242 -162.5t-283 -58q-180 0 -325.5 85.5t-226.5 232.5t-81 325q-4 148 57 288t163.5 242t241.5 162.5t284 56.5q177 3 324.5 -83.5t230 -235t80.5 -324.5zM262 719q172 69 313 69q64 0 118.5 -11.5t152.5 -41.5
q98 -29 150.5 -40t115.5 -11q133 0 301 64q-6 226 -154.5 376t-373.5 150q-154 0 -290 -74t-224.5 -201t-108.5 -280zM1409 649q-171 -65 -315 -65q-69 0 -127 12t-152 41q-155 51 -256 51q-129 0 -303 -65q0 -152 67.5 -276.5t188 -196.5t270.5 -72q116 0 225.5 45
t192.5 121.5t139 182t70 222.5z" />
    <glyph glyph-name="uni0473" unicode="&#x473;" horiz-adv-x="1249" 
d="M1141 522q3 -144 -72 -270.5t-203 -200.5t-274 -71q-205 0 -343 140t-138 347q-2 108 42 209t117.5 175t175 117.5t209.5 41.5q207 0 346.5 -140.5t139.5 -347.5zM225 549q107 39 203 39q90 0 203 -39q71 -21 110 -29t86 -8q88 0 203 41q-9 158 -115.5 260t-263.5 102
q-159 0 -278.5 -103.5t-147.5 -262.5zM1028 463q-109 -41 -207 -41q-90 0 -205 39q-124 37 -194 37q-97 0 -203 -41q3 -166 110 -274.5t267 -108.5q165 0 289 112t143 277z" />
    <glyph glyph-name="uni0474" unicode="&#x474;" horiz-adv-x="1417" 
d="M1556 1354l-16 -92q-50 4 -57 4q-60 0 -101.5 -28.5t-83.5 -96.5l-694 -1161h-41l-338 1372h109l280 -1166l594 1004q53 91 117.5 131.5t151.5 40.5q48 0 79 -8z" />
    <glyph glyph-name="uni0475" unicode="&#x475;" horiz-adv-x="1083" 
d="M1174 989l-17 -86q-14 2 -43 2q-84 0 -149 -108l-510 -817h-43l-277 1009h107l217 -831l420 688q91 151 227 151q41 0 68 -8z" />
    <glyph glyph-name="uni0490" unicode="&#x490;" horiz-adv-x="991" 
d="M115 0l237 1352h635l45 264h107l-62 -359h-637l-219 -1257h-106z" />
    <glyph glyph-name="uni0491" unicode="&#x491;" horiz-adv-x="870" 
d="M104 0l177 989h530l45 258h102l-61 -352h-530l-160 -895h-103z" />
    <glyph glyph-name="uni0492" unicode="&#x492;" horiz-adv-x="1026" 
d="M1124 1255h-663l-103 -575h369l-16 -92h-367l-104 -588h-107l103 588h-203l16 92h203l119 672h770z" />
    <glyph glyph-name="uni0493" unicode="&#x493;" horiz-adv-x="864" 
d="M915 895h-553l-65 -365h311l-16 -94h-311l-78 -436h-103l76 436h-170l17 94h172l79 459h658z" />
    <glyph glyph-name="uni0496" unicode="&#x496;" horiz-adv-x="1902" 
d="M399 1352l519 -621l-789 -731h-145l794 739l-510 613h131zM1057 1352h106l-237 -1352h-107zM1221 717l467 -623h153l-67 -383h-107l51 289h-90l-545 731l715 621h152z" />
    <glyph glyph-name="uni0497" unicode="&#x497;" horiz-adv-x="1601" 
d="M332 989l352 -461l-575 -528h-144l592 537l-350 452h125zM797 989h102l-172 -989h-104zM975 518l332 -424h147l-68 -383h-98l51 289h-84l-407 528l495 461h148z" />
    <glyph glyph-name="uni0498" unicode="&#x498;" horiz-adv-x="1185" 
d="M1067 418q0 -193 -137.5 -315.5t-351.5 -122.5q-179 0 -307 80.5t-197 238.5l90 51q62 -134 166 -203t243 -69q172 0 279 94q109 95 109 244q0 117 -82 190.5t-213 73.5h-193l14 94h152q156 0 254 76q100 75 100 197q0 106 -72.5 166.5t-201.5 60.5q-207 0 -352 -154
l-70 66q168 186 430 186q170 0 271.5 -87t101.5 -230q0 -114 -66 -200.5t-180 -125.5q100 -41 156.5 -123.5t56.5 -187.5zM240 -360l14 77q76 -20 131 -20q82 0 130 45t48 123q0 41 -14 72t-51 69l43 25q55 -30 84.5 -78.5t29.5 -106.5q0 -102 -75 -168q-73 -67 -183 -67
q-72 0 -157 29z" />
    <glyph glyph-name="uni0499" unicode="&#x499;" horiz-adv-x="954" 
d="M772 287q0 -141 -99.5 -224t-266.5 -83q-250 0 -375 190l73 66q117 -160 314 -160q117 0 181.5 55.5t64.5 155.5q0 91 -60.5 139.5t-173.5 48.5h-127l16 94h138q117 0 181 49t64 140q0 75 -52 116t-148 41q-150 0 -271 -133l-59 66q134 162 338 162q136 0 217.5 -67.5
t81.5 -180.5q0 -86 -51.5 -151.5t-143.5 -96.5q76 -30 117 -88t41 -139zM18 -360l15 77q76 -20 131 -20q82 0 130 45t48 123q0 41 -14.5 71.5t-51.5 69.5l43 25q55 -31 85 -79.5t30 -105.5q0 -101 -76 -168q-73 -67 -182 -67q-73 0 -158 29z" />
    <glyph glyph-name="uni049A" unicode="&#x49a;" horiz-adv-x="1239" 
d="M352 1352h107l-238 -1352h-106zM516 721l506 -627h156l-68 -383h-106l51 289h-86l-590 731l754 621h153z" />
    <glyph glyph-name="uni049B" unicode="&#x49b;" horiz-adv-x="1089" 
d="M281 989h102l-176 -989h-103zM461 518l332 -424h149l-68 -383h-98l51 289h-86l-407 528l495 461h148z" />
    <glyph glyph-name="uni04A0" unicode="&#x4a0;" horiz-adv-x="1609" 
d="M201 1352h612l-238 -1352h-106l221 1257h-506zM1640 1352l-768 -631l580 -721h-127l-592 731l756 621h151z" />
    <glyph glyph-name="uni04A1" unicode="&#x4a1;" horiz-adv-x="1153" 
d="M55 989h477l-174 -989h-104l160 897h-375zM1139 989l-527 -459l402 -530h-123l-408 541l508 448h148z" />
    <glyph glyph-name="uni04A2" unicode="&#x4a2;" horiz-adv-x="1476" 
d="M1171 -289l52 289h-170l121 682h-832l-121 -682h-106l237 1352h107l-103 -574h832l102 574h107l-221 -1258h170l-68 -383h-107z" />
    <glyph glyph-name="uni04A3" unicode="&#x4a3;" horiz-adv-x="1196" 
d="M883 -289l51 289h-162l86 485h-561l-88 -485h-103l175 989h102l-72 -409h561l74 409h103l-160 -897h160l-68 -381h-98z" />
    <glyph glyph-name="uni04AA" unicode="&#x4aa;" horiz-adv-x="1456" 
d="M145 623q-4 146 57 286t164 242.5t243 163.5t286 57q174 0 314 -79t221 -226l-87 -55q-74 128 -190 195t-264 67q-126 2 -244 -50t-204 -139.5t-137 -208.5t-48 -249q0 -238 151.5 -393.5t383.5 -155.5q136 0 259.5 56.5t217.5 160.5l73 -64q-106 -119 -253 -185
t-306 -66q-132 -2 -251 47.5t-204.5 135.5t-134.5 206.5t-47 253.5zM420 -360l14 77q76 -20 131 -20q82 0 130 45t48 123q0 41 -14 72t-51 69l43 25q55 -31 85 -79.5t30 -105.5q0 -101 -76 -168q-73 -67 -182 -67q-73 0 -158 29z" />
    <glyph glyph-name="uni04AB" unicode="&#x4ab;" horiz-adv-x="1138" 
d="M111 465q-3 146 71 273t200.5 201t270.5 71q130 0 236.5 -57t169.5 -160l-80 -54q-57 84 -141.5 129t-184.5 45q-182 0 -309 -128t-127 -314q0 -173 108 -284t273 -111q96 0 181 38.5t147 108.5l67 -63q-146 -180 -397 -180q-208 0 -346.5 137.5t-138.5 347.5zM229 -360
l15 77q76 -20 131 -20q82 0 130 45t48 123q0 41 -14.5 71.5t-51.5 69.5l43 25q55 -31 85 -79.5t30 -105.5q0 -101 -76 -168q-73 -67 -182 -67q-73 0 -158 29z" />
    <glyph glyph-name="uni04AE" unicode="&#x4ae;" horiz-adv-x="1255" 
d="M1290 1352l-606 -779l-100 -573h-107l101 575l-334 777h108l289 -680l526 680h123z" />
    <glyph glyph-name="uni04AF" unicode="&#x4af;" horiz-adv-x="1116" 
d="M1120 989l-598 -985l-65 -373h-105l68 375l-250 983h106l213 -872l512 872h119z" />
    <glyph glyph-name="uni04B0" unicode="&#x4b0;" horiz-adv-x="1265" 
d="M1309 1352l-607 -777h330l-16 -92h-332l-84 -483h-106l84 483h-330l14 92h332l-334 777h109l290 -678l527 678h123z" />
    <glyph glyph-name="uni04B1" unicode="&#x4b1;" horiz-adv-x="1116" 
d="M524 8l-2 -8h277l-17 -94h-276l-47 -275h-103l47 275h-280l16 94h281l-250 989h106l213 -872l512 872h119z" />
    <glyph glyph-name="uni04B2" unicode="&#x4b2;" horiz-adv-x="1204" 
d="M696 682l293 -588h154l-68 -383h-106l51 289h-98l-297 608l-510 -608h-131l589 702l-319 650h115l278 -574l467 574h131z" />
    <glyph glyph-name="uni04B3" unicode="&#x4b3;" horiz-adv-x="1073" 
d="M557 506l236 -412h133l-68 -383h-98l51 289h-86l-242 434l-387 -434h-131l467 516l-258 473h119l213 -405l352 405h131z" />
    <glyph glyph-name="uni04B6" unicode="&#x4b6;" horiz-adv-x="1370" 
d="M1288 1352l-219 -1258h170l-68 -383h-106l51 289h-172l103 580q-160 -62 -326 -62q-228 0 -353.5 110t-125.5 308q0 60 14 145l49 271h107l-50 -273q-12 -71 -12 -137q0 -324 373 -324q187 0 342 64l117 670h106z" />
    <glyph glyph-name="uni04B7" unicode="&#x4b7;" horiz-adv-x="1099" 
d="M952 989l-159 -895h159l-67 -383h-101l52 289h-162l76 430q-109 -47 -240 -47q-159 0 -248.5 85t-89.5 237q0 53 8 94l35 190h102l-34 -194q-9 -47 -9 -86q0 -113 64.5 -172.5t185.5 -59.5q128 0 242 49l82 463h104z" />
    <glyph glyph-name="uni04BA" unicode="&#x4ba;" horiz-adv-x="1337" 
d="M1161 416q0 -58 -14 -146l-49 -270h-107l49 274q13 76 13 136q0 161 -94 243t-279 82t-340 -63l-119 -672h-106l237 1352h107l-103 -580q160 62 326 62q228 0 353.5 -110t125.5 -308z" />
    <glyph glyph-name="uni04BB" unicode="&#x4bb;" horiz-adv-x="1142" 
d="M997 692q0 -28 -12 -110l-102 -582h-103l103 588q0 1 3.5 19.5t6 38t2.5 36.5q0 106 -68.5 169.5t-181.5 63.5q-123 0 -211.5 -75t-111.5 -201l-111 -639h-105l269 1536h104l-114 -657q115 131 299 131q149 0 241 -87.5t92 -230.5z" />
    <glyph glyph-name="uni04C0" unicode="&#x4c0;" horiz-adv-x="505" 
d="M115 0l237 1352h107l-238 -1352h-106z" />
    <glyph glyph-name="uni04C1" unicode="&#x4c1;" horiz-adv-x="1914" 
d="M399 1352l519 -621l-789 -731h-145l798 739l-514 613h131zM1057 1352h106l-237 -1352h-107zM1950 1352l-731 -633l540 -719h-127l-549 731l715 621h152zM874 1755q0 20 13 109h94q-12 -82 -12 -99q0 -86 49 -137t131 -51q84 0 140 55.5t73 155.5l12 76h94l-12 -76
q-23 -137 -106.5 -215t-206.5 -78q-117 0 -193 73.5t-76 186.5z" />
    <glyph glyph-name="uni04C2" unicode="&#x4c2;" horiz-adv-x="1486" 
d="M317 989l351 -461l-576 -528h-143l592 537l-351 452h127zM780 989h105l-176 -989h-103zM1477 989l-519 -469l408 -520h-127l-410 528l500 461h148zM614 1436q0 38 15 114h94q-14 -71 -14 -104q0 -86 49 -137.5t131 -51.5q84 0 140 56t73 155l14 82h94l-14 -82
q-23 -135 -106.5 -213.5t-206.5 -78.5q-117 0 -193 73.5t-76 186.5z" />
    <glyph glyph-name="uni04CF" unicode="&#x4cf;" horiz-adv-x="466" 
d="M104 0l271 1536h104l-270 -1536h-105z" />
    <glyph glyph-name="uni04D0" unicode="&#x4d0;" horiz-adv-x="1361" 
d="M1096 0l-78 324h-705l-190 -324h-121l821 1372h41l338 -1372h-106zM995 418l-182 760l-444 -760h626zM590 1755q0 27 12 109h94q-12 -82 -12 -99q0 -86 49 -137t131 -51q84 0 140 55.5t73 155.5l13 76h94l-13 -76q-23 -137 -106.5 -215t-206.5 -78q-117 0 -192.5 73.5
t-75.5 186.5z" />
    <glyph glyph-name="uni04D1" unicode="&#x4d1;" horiz-adv-x="1292" 
d="M1085 989h103l-174 -989h-99l29 168q-62 -88 -164 -138t-223 -50q-190 0 -319 135.5t-129 337.5q-2 111 40.5 214.5t115 179.5t172.5 120.5t208 42.5q135 0 244.5 -65.5t159.5 -172.5zM1004 553q0 162 -98 262t-257 100q-85 1 -166 -36t-140.5 -99t-94.5 -147t-33 -174
q0 -167 104 -276t263 -109q111 -3 210 63t157 178t55 238zM438 1436q0 38 15 114h94q-15 -76 -15 -104q0 -86 49.5 -137.5t131.5 -51.5q84 0 140 56t73 155l14 82h94l-14 -82q-23 -135 -106.5 -213.5t-206.5 -78.5q-117 0 -193 73.5t-76 186.5z" />
    <glyph glyph-name="uni04D4" unicode="&#x4d4;" horiz-adv-x="1654" 
d="M1679 1257h-686v-479h439l-17 -96h-424v-588h510l-16 -94h-600v324h-590l-223 -324h-123l938 1352h809zM885 418l2 764l-527 -764h525z" />
    <glyph glyph-name="uni04D5" unicode="&#x4d5;" horiz-adv-x="1835" 
d="M1720 453h-819q3 -168 107 -275q104 -104 272 -104q187 0 332 139l55 -68q-75 -79 -178.5 -122t-216.5 -43q-148 0 -262.5 74t-169.5 200q-54 -128 -172 -201t-273 -73q-154 0 -244 70.5t-90 191.5q0 139 106.5 220t289.5 81h342l8 45q8 36 8 86q0 113 -67.5 177
t-188.5 64q-82 0 -154 -32.5t-147 -104.5l-55 72q165 160 368 160q130 0 217 -60t113 -166q75 106 185 166t237 60q181 0 298.5 -117t117.5 -299q0 -67 -19 -141zM907 543h723q2 14 2 55q0 146 -85.5 231.5t-231.5 85.5q-155 0 -268 -104t-140 -268zM770 360l14 93h-333
q-136 0 -208.5 -52t-72.5 -149q0 -86 62 -135t171 -49q141 0 242 82q104 82 125 210z" />
    <glyph glyph-name="uni04D6" unicode="&#x4d6;" horiz-adv-x="1155" 
d="M115 0l237 1352h846l-16 -95h-742l-86 -479h578l-17 -96h-575l-102 -588h763l-16 -94h-870zM539 1755q0 27 12 109h94q-12 -82 -12 -99q0 -86 49 -137t131 -51q84 0 140 55.5t73 155.5l12 76h95l-13 -76q-23 -137 -106.5 -215t-206.5 -78q-117 0 -192.5 73.5t-75.5 186.5
z" />
    <glyph glyph-name="uni04D7" unicode="&#x4d7;" horiz-adv-x="1155" 
d="M1040 471h-823v-2q0 -176 105 -287q108 -108 278 -108q187 0 332 139l57 -68q-78 -79 -181 -122t-216 -43q-207 0 -344 138t-137 345q-2 108 40.5 210t114 176t170 118t203.5 43q184 0 302 -117.5t118 -300.5q0 -69 -19 -121zM225 563h727v31q0 146 -87 233.5t-230 87.5
q-156 0 -268 -100q-115 -100 -142 -252zM418 1436q0 43 14 114h94q-14 -71 -14 -104q0 -86 49 -137.5t131 -51.5q84 0 140 56t73 155l15 82h94l-15 -82q-23 -135 -106.5 -213.5t-206.5 -78.5q-117 0 -192.5 73.5t-75.5 186.5z" />
    <glyph glyph-name="uni04D8" unicode="&#x4d8;" horiz-adv-x="1499" 
d="M1421 750q3 -150 -54.5 -293.5t-154.5 -248.5t-229 -168t-270 -60q-260 0 -421 156t-161 409q0 54 16 155h1162q2 10 2 48q0 226 -149 376t-374 150q-136 0 -263 -57.5t-212 -157.5l-69 65q98 117 243.5 182.5t305.5 65.5q129 2 246.5 -46.5t201.5 -132t133 -200
t47 -243.5zM1296 604h-1050q-4 -62 -4 -65q0 -207 131 -334t342 -127q209 0 373.5 150t207.5 376z" />
    <glyph glyph-name="uni04D9" unicode="&#x4d9;" horiz-adv-x="1153" 
d="M1042 526q1 -109 -41.5 -211t-114.5 -176t-170 -117.5t-202 -41.5q-182 0 -301 113t-119 286q0 53 19 131h823v12q0 175 -104.5 284t-270.5 109q-178 0 -323 -139l-56 68q75 79 176 122.5t211 43.5q202 0 337.5 -138.5t135.5 -345.5zM926 416h-723q-2 -8 -2 -41
q0 -135 87.5 -218t229.5 -83q149 0 262 94q110 91 146 248z" />
    <glyph glyph-name="uni04E2" unicode="&#x4e2;" horiz-adv-x="1466" 
d="M1378 1372h43l-241 -1372h-107l201 1147l-1122 -1167h-41l241 1372h107l-205 -1155zM639 1591l16 88h576l-17 -88h-575z" />
    <glyph glyph-name="uni04E3" unicode="&#x4e3;" horiz-adv-x="1140" 
d="M934 989h102l-172 -989h-100l20 117q-118 -137 -305 -137q-151 0 -242.5 88t-91.5 229q0 31 13 111l102 581h105l-105 -588q-10 -65 -10 -88q0 -111 66.5 -175t181.5 -64q120 0 209.5 75t113.5 201zM449 1327l16 88h534l-16 -88h-534z" />
    <glyph glyph-name="uni04E6" unicode="&#x4e6;" horiz-adv-x="1603" 
d="M145 623q-3 147 58 286.5t162.5 241.5t240.5 163t285 58q132 2 250.5 -47.5t203.5 -135.5t134 -206.5t47 -253.5q3 -147 -58 -286.5t-163.5 -241.5t-241.5 -163t-285 -58q-176 -3 -323 83t-230 235t-80 325zM1413 727q0 235 -150 391t-378 156q-168 3 -314.5 -85.5
t-232 -239t-82.5 -322.5q0 -235 149 -391t377 -156q124 -2 241.5 50t204 139.5t137.5 208.5t48 249zM674 1655q0 36 26.5 61t63.5 25t62.5 -24.5t25.5 -61.5t-25.5 -62.5t-62.5 -25.5t-63.5 25.5t-26.5 62.5zM1137 1653q0 37 26.5 62.5t63.5 25.5t62.5 -25.5t25.5 -62.5
q0 -35 -25.5 -60.5t-62.5 -25.5t-63.5 25.5t-26.5 60.5z" />
    <glyph glyph-name="uni04E7" unicode="&#x4e7;" horiz-adv-x="1249" 
d="M111 467q-2 108 42 209t117.5 175t175 117.5t209.5 41.5q207 0 346.5 -140.5t139.5 -347.5q3 -144 -72 -270.5t-203 -200.5t-274 -71q-205 0 -343 140t-138 347zM1032 522q0 166 -108.5 278.5t-272.5 112.5q-180 0 -306 -130t-126 -316q0 -170 106.5 -280.5t270.5 -110.5
q182 0 309 130t127 316zM424 1370q0 37 25.5 61.5t62.5 24.5t63.5 -25t26.5 -61t-26.5 -61t-63.5 -25t-62.5 24.5t-25.5 61.5zM854 1370q0 36 26.5 61t63.5 25t62.5 -24.5t25.5 -61.5t-25.5 -61.5t-62.5 -24.5t-63.5 25t-26.5 61z" />
    <glyph glyph-name="uni04E8" unicode="&#x4e8;" horiz-adv-x="1603" 
d="M1526 729q3 -147 -58.5 -287t-164.5 -241.5t-242 -162.5t-283 -58q-176 -3 -323 83t-230 235t-80 325q-3 147 58 286.5t162.5 241.5t240.5 163t285 58q132 2 250.5 -47.5t203.5 -135.5t134 -206.5t47 -253.5zM264 733h1149q0 152 -68.5 275.5t-189.5 194.5t-270 71
q-230 0 -407 -155.5t-214 -385.5zM1407 639h-1151v-12q0 -155 68 -280.5t188.5 -197t269.5 -71.5q151 -3 289.5 72.5t228.5 206t107 282.5z" />
    <glyph glyph-name="uni04E9" unicode="&#x4e9;" horiz-adv-x="1249" 
d="M1141 522q4 -143 -72 -270t-204.5 -201t-272.5 -71q-133 0 -243.5 63.5t-174 175.5t-63.5 248q-2 108 42 209t117.5 175t175 117.5t209.5 41.5q132 2 245 -63t178.5 -178.5t62.5 -246.5zM225 549h807q-9 158 -117.5 262t-263.5 104q-158 0 -278 -103.5t-148 -262.5z
M1028 457h-809q3 -166 110 -274.5t267 -108.5q163 0 286.5 110t145.5 273z" />
    <glyph glyph-name="uni04EE" unicode="&#x4ee;" horiz-adv-x="1265" 
d="M1223 1352h120l-690 -1137q-78 -125 -160 -179t-194 -54q-81 0 -131 20l16 96q50 -16 115 -16q88 0 147.5 39t116.5 133l21 35l-334 1063h110l295 -949zM524 1591l17 88h575l-16 -88h-576z" />
    <glyph glyph-name="uni04EF" unicode="&#x4ef;" horiz-adv-x="1140" 
d="M934 989h104l-178 -999q-29 -176 -144.5 -277.5t-283.5 -101.5q-123 0 -228.5 60.5t-168.5 166.5l74 64q122 -197 325 -197q127 0 213 77t111 212l22 125q-117 -129 -297 -129q-149 0 -241 87.5t-92 229.5q0 41 12 111l100 571h105l-105 -577q-10 -62 -10 -88
q0 -109 67.5 -174.5t182.5 -65.5q120 0 208.5 75t112.5 203zM465 1327l16 88h535l-17 -88h-534z" />
    <glyph glyph-name="uni04F2" unicode="&#x4f2;" horiz-adv-x="1265" 
d="M1223 1352h120l-690 -1137q-78 -125 -160 -179t-194 -54q-81 0 -131 20l16 96q50 -16 115 -16q88 0 147.5 39t116.5 133l21 35l-334 1063h110l295 -949zM512 1483l254 381h123l-2 -19l-289 -362h-86zM940 1483l254 381h123l-2 -19l-289 -362h-86z" />
    <glyph glyph-name="uni04F3" unicode="&#x4f3;" horiz-adv-x="1140" 
d="M934 989h104l-178 -999q-29 -176 -144.5 -277.5t-283.5 -101.5q-123 0 -228.5 60.5t-168.5 166.5l74 64q122 -197 325 -197q127 0 213 77t111 212l22 125q-117 -129 -297 -129q-149 0 -241 87.5t-92 229.5q0 41 12 111l100 571h105l-105 -577q-10 -62 -10 -88
q0 -109 67.5 -174.5t182.5 -65.5q120 0 208.5 75t112.5 203zM459 1155l264 442h125l-4 -18l-299 -424h-86zM848 1155l264 442h125l-4 -18l-297 -424h-88z" />
    <glyph glyph-name="Wgrave" unicode="&#x1e80;" horiz-adv-x="2187" 
d="M2103 1352h119l-741 -1372h-43l-242 1173l-659 -1173h-41l-263 1372h109l211 -1147l655 1167h43l240 -1167zM1243 1483l-162 362l2 19h119l121 -381h-80z" />
    <glyph glyph-name="wgrave" unicode="&#x1e81;" horiz-adv-x="1730" 
d="M1622 989h115l-572 -1009h-43l-211 833l-510 -833h-43l-223 1009h107l170 -823l503 844h43l211 -842zM913 1155l-84 424l7 18h114l39 -442h-76z" />
    <glyph glyph-name="Wacute" unicode="&#x1e82;" horiz-adv-x="2187" 
d="M2103 1352h119l-741 -1372h-43l-242 1173l-659 -1173h-41l-263 1372h109l211 -1147l655 1167h43l240 -1167zM1235 1483l246 381h133l-2 -19l-293 -362h-84z" />
    <glyph glyph-name="wacute" unicode="&#x1e83;" horiz-adv-x="1730" 
d="M1622 989h115l-572 -1009h-43l-211 833l-510 -833h-43l-223 1009h107l170 -823l503 844h43l211 -842zM895 1155l264 442h133l-2 -18l-305 -424h-90z" />
    <glyph glyph-name="Wdieresis" unicode="&#x1e84;" horiz-adv-x="2187" 
d="M2103 1352h119l-741 -1372h-43l-242 1173l-659 -1173h-41l-263 1372h109l211 -1147l655 1167h43l240 -1167zM987 1655q0 36 26.5 61t63.5 25t62.5 -24.5t25.5 -61.5t-25.5 -62.5t-62.5 -25.5t-63.5 25.5t-26.5 62.5zM1450 1653q0 37 26.5 62.5t63.5 25.5t62.5 -25.5
t25.5 -62.5q0 -35 -25.5 -60.5t-62.5 -25.5t-63.5 25.5t-26.5 60.5z" />
    <glyph glyph-name="wdieresis" unicode="&#x1e85;" horiz-adv-x="1730" 
d="M1622 989h115l-572 -1009h-43l-211 833l-510 -833h-43l-223 1009h107l170 -823l503 844h43l211 -842zM690 1370q0 37 25.5 61.5t62.5 24.5t63.5 -25t26.5 -61t-26.5 -61t-63.5 -25t-62.5 24.5t-25.5 61.5zM1120 1370q0 36 26.5 61t63.5 25t62.5 -24.5t25.5 -61.5
t-25.5 -61.5t-62.5 -24.5t-63.5 25t-26.5 61z" />
    <glyph glyph-name="uni1E9E" unicode="&#x1e9e;" horiz-adv-x="1435" 
d="M1368 1352l-6 -35l-404 -494q154 -22 248 -135q99 -111 99 -262q0 -185 -133.5 -315.5t-321.5 -130.5q-109 0 -207 50t-170 142l70 70q125 -162 309 -162q142 0 242 99t100 239q0 141 -96.5 231t-249.5 90h-55l4 33l393 485h-750l-219 -1257h-106l237 1352h1016z" />
    <glyph glyph-name="Ygrave" unicode="&#x1ef2;" horiz-adv-x="1255" 
d="M1290 1352l-606 -779l-100 -573h-107l101 575l-334 777h108l289 -680l526 680h123zM752 1483l-162 362l2 19h119l120 -381h-79z" />
    <glyph glyph-name="ygrave" unicode="&#x1ef3;" horiz-adv-x="1140" 
d="M934 989h104l-178 -999q-29 -176 -144.5 -277.5t-283.5 -101.5q-123 0 -228.5 60.5t-168.5 166.5l74 64q122 -197 325 -197q127 0 213 77t111 212l22 125q-117 -129 -297 -129q-149 0 -241 87.5t-92 229.5q0 41 12 111l100 571h105l-105 -577q-10 -62 -10 -88
q0 -109 67.5 -174.5t182.5 -65.5q120 0 208.5 75t112.5 203zM625 1155l-84 424l6 18h115l38 -442h-75z" />
    <glyph glyph-name="uni2009" unicode="&#x2009;" horiz-adv-x="286" 
 />
    <glyph glyph-name="endash" unicode="&#x2013;" horiz-adv-x="1024" 
d="M115 592l16 90h832l-17 -90h-831z" />
    <glyph glyph-name="emdash" unicode="&#x2014;" horiz-adv-x="2048" 
d="M121 592l16 90h1843l-16 -90h-1843z" />
    <glyph glyph-name="uni2015" unicode="&#x2015;" horiz-adv-x="2048" 
d="M121 592l16 90h1843l-16 -90h-1843z" />
    <glyph glyph-name="quoteleft" unicode="&#x2018;" horiz-adv-x="557" 
d="M254 846l164 506h86l-121 -506h-129z" />
    <glyph glyph-name="quoteright" unicode="&#x2019;" horiz-adv-x="557" 
d="M268 846l121 506h127l-162 -506h-86z" />
    <glyph glyph-name="quotesinglbase" unicode="&#x201a;" horiz-adv-x="557" 
d="M55 -354l123 508h129l-166 -508h-86z" />
    <glyph glyph-name="quotedblleft" unicode="&#x201c;" horiz-adv-x="882" 
d="M254 846l164 506h86l-121 -506h-129zM580 846l163 506h86l-120 -506h-129z" />
    <glyph glyph-name="quotedblright" unicode="&#x201d;" horiz-adv-x="882" 
d="M268 846l121 506h127l-162 -506h-86zM594 846l121 506h127l-162 -506h-86z" />
    <glyph glyph-name="quotedblbase" unicode="&#x201e;" horiz-adv-x="882" 
d="M55 -354l123 508h129l-166 -508h-86zM381 -354l123 508h129l-166 -508h-86z" />
    <glyph glyph-name="dagger" unicode="&#x2020;" horiz-adv-x="897" 
d="M440 735l78 445h-254l17 92h254l45 264h104l-47 -264h254l-17 -92h-251l-80 -445h-103z" />
    <glyph glyph-name="daggerdbl" unicode="&#x2021;" horiz-adv-x="894" 
d="M424 653l37 203h-254l16 92h254l51 293h-254l17 92h254l35 203h102l-35 -203h254l-16 -92h-254l-51 -293h254l-17 -92h-254l-37 -203h-102z" />
    <glyph glyph-name="bullet" unicode="&#x2022;" horiz-adv-x="727" 
d="M131 543q0 103 72.5 171t169.5 68q98 0 168 -67q71 -68 71 -172t-71 -172q-72 -66 -168 -66q-97 0 -169.5 67.5t-72.5 170.5z" />
    <glyph glyph-name="ellipsis" unicode="&#x2026;" horiz-adv-x="1570" 
d="M612 78q0 44 29.5 73t71.5 29t72 -29t30 -73q0 -42 -30 -70t-72 -28t-71.5 28t-29.5 70zM113 78q0 44 29 73t71 29t72 -29t30 -73q0 -42 -30 -70t-72 -28t-71 28t-29 70zM1110 78q0 44 29 73t71 29t72.5 -29.5t30.5 -72.5q0 -42 -30.5 -70t-72.5 -28t-71 28t-29 70z" />
    <glyph glyph-name="perthousand" unicode="&#x2030;" horiz-adv-x="2441" 
d="M215 1036q0 138 99 237t237 99q131 0 221 -91t90 -224q0 -138 -99.5 -237t-238.5 -99q-129 0 -219 91t-90 224zM279 0l1058 1352h101l-1061 -1352h-98zM768 1057q0 103 -60 168t-157 65q-104 0 -174 -72t-70 -180q0 -103 62.5 -169t160.5 -66q103 0 170.5 72.5
t67.5 181.5zM1647 299q0 138 98.5 237t236.5 99q132 0 222 -92t90 -224q0 -138 -99.5 -236.5t-238.5 -98.5q-129 0 -219 91t-90 224zM846 295q0 138 99 237t237 99q132 0 221.5 -91t89.5 -225q0 -138 -99.5 -236.5t-238.5 -98.5q-129 0 -219 91t-90 224zM2202 317
q0 103 -61.5 168.5t-158.5 65.5q-103 0 -172 -72t-69 -180q0 -103 62.5 -168t160.5 -65q102 0 170 72.5t68 178.5zM1401 315q0 103 -60.5 168.5t-156.5 65.5q-104 0 -174 -72t-70 -180q0 -103 62.5 -168.5t160.5 -65.5q103 0 170.5 71.5t67.5 180.5z" />
    <glyph glyph-name="minute" unicode="&#x2032;" horiz-adv-x="464" 
d="M199 807l182 545h131l-227 -545h-86z" />
    <glyph glyph-name="second" unicode="&#x2033;" horiz-adv-x="790" 
d="M199 807l182 545h131l-227 -545h-86zM524 807l183 545h131l-228 -545h-86z" />
    <glyph glyph-name="guilsinglleft" unicode="&#x2039;" horiz-adv-x="591" 
d="M379 168l-285 367l6 34l406 367l63 -68l-350 -323l236 -320z" />
    <glyph glyph-name="guilsinglright" unicode="&#x203a;" horiz-adv-x="593" 
d="M109 168l-64 68l352 323l-237 322l76 55l284 -367l-6 -34z" />
    <glyph glyph-name="fraction" unicode="&#x2044;" horiz-adv-x="512" 
d="M-266 0l1011 1352h101l-1014 -1352h-98z" />
    <glyph glyph-name="uni2070" unicode="&#x2070;" horiz-adv-x="829" 
d="M215 1055q-1 69 11.5 142.5t42.5 149t72.5 134t108 95t144.5 34.5q126 0 192 -83t66 -237q1 -88 -20.5 -181.5t-64 -181t-119 -142.5t-173.5 -52q-126 0 -193 85.5t-67 236.5zM756 1290q0 119 -47 176.5t-125 57.5q-57 2 -104.5 -29.5t-77.5 -82t-50.5 -115.5
t-29.5 -126.5t-9 -117.5q0 -119 47 -176.5t125 -57.5q70 -3 125.5 45.5t85.5 124.5t45 153.5t15 147.5z" />
    <glyph glyph-name="uni2074" unicode="&#x2074;" horiz-adv-x="718" 
d="M766 989l-14 -84h-123l-29 -160h-90l27 160h-426l4 29l385 663h104l-354 -608h301l51 287h90l-49 -287h123z" />
    <glyph glyph-name="uni2075" unicode="&#x2075;" horiz-adv-x="749" 
d="M801 1511h-373l-41 -239q78 4 86 4q129 0 204 -65.5t75 -178.5q0 -133 -88 -215q-90 -84 -224 -84q-102 0 -177.5 51.5t-112.5 145.5l77 41q65 -152 213 -152q94 0 154.5 57.5t60.5 147.5q0 82 -52.5 127t-149.5 45h-172l69 401h467z" />
    <glyph glyph-name="uni2076" unicode="&#x2076;" horiz-adv-x="743" 
d="M750 1030q0 -122 -88.5 -209.5t-212.5 -87.5q-114 0 -195 78q-78 78 -78 195q0 55 19 104q21 50 43 78q20 29 86 110l245 299h121l-260 -313q33 10 64 10q110 0 182 -75q74 -77 74 -189zM653 1026q0 82 -49 133t-127 51q-87 0 -146 -59t-59 -147q0 -80 52 -132.5
t131 -52.5q85 0 141.5 59.5t56.5 147.5z" />
    <glyph glyph-name="uni2077" unicode="&#x2077;" horiz-adv-x="655" 
d="M246 1597h563l-6 -28l-570 -824h-108l532 766h-428z" />
    <glyph glyph-name="uni2078" unicode="&#x2078;" horiz-adv-x="772" 
d="M764 977q0 -104 -84 -173t-211 -69q-131 0 -213 62t-82 161q0 87 64 151t180 93q-125 73 -125 184q0 97 73 160.5t185 63.5q115 0 183.5 -55t68.5 -146q0 -160 -201 -225q162 -79 162 -207zM516 1233q103 29 151 69t48 97q0 60 -46 97.5t-118 37.5q-74 0 -122 -41
t-48 -104q0 -45 29 -78.5t106 -77.5zM670 977q0 51 -35 87t-133 87q-122 -31 -178 -75.5t-56 -110.5q0 -69 53.5 -110.5t143.5 -41.5q91 0 148 46t57 118z" />
    <glyph glyph-name="uni2079" unicode="&#x2079;" horiz-adv-x="743" 
d="M805 1337q0 -57 -21 -106q-19 -48 -45 -82q-27 -38 -82 -105l-245 -299h-121l258 312q-33 -8 -64 -8q-110 0 -182 75q-72 78 -72 189q0 122 88.5 209.5t212.5 87.5q117 0 195 -78t78 -195zM709 1337q0 82 -51.5 134.5t-131.5 52.5q-85 0 -141.5 -59.5t-56.5 -147.5
q0 -82 49 -133t127 -51q86 0 145.5 59t59.5 145z" />
    <glyph glyph-name="uni207A" unicode="&#x207a;" horiz-adv-x="874" 
d="M436 827l56 303h-297l14 84h297l53 306h92l-53 -306h297l-16 -84h-297l-54 -303h-92z" />
    <glyph glyph-name="uni207B" unicode="&#x207b;" horiz-adv-x="874" 
d="M209 1133l14 77h682l-14 -77h-682z" />
    <glyph glyph-name="uni207C" unicode="&#x207c;" horiz-adv-x="874" 
d="M250 1290l16 84h654l-15 -84h-655zM195 973l14 82h653l-14 -82h-653z" />
    <glyph glyph-name="uni207D" unicode="&#x207d;" horiz-adv-x="512" 
d="M231 989q-2 189 55.5 368t160 308.5t227.5 177.5l26 -61q-169 -86 -276 -307.5t-107 -485.5q0 -296 166 -434l-45 -55q-207 148 -207 489z" />
    <glyph glyph-name="uni207E" unicode="&#x207e;" horiz-adv-x="512" 
d="M80 502l-29 61q169 86 276 307.5t107 485.5q0 299 -166 434l45 55q207 -148 207 -489q2 -189 -55 -368t-159 -308.5t-226 -177.5z" />
    <glyph glyph-name="uni2080" unicode="&#x2080;" horiz-adv-x="829" 
d="M41 63q-1 69 11.5 142.5t42.5 149t72.5 134t108 95t144.5 34.5q126 0 192 -82.5t66 -236.5q1 -88 -20.5 -181.5t-64 -181t-119 -142.5t-173.5 -52q-126 0 -193 85t-67 236zM582 299q0 119 -47 176t-125 57q-57 2 -104.5 -29.5t-77.5 -82t-50.5 -115.5t-29.5 -126.5
t-9 -117.5q0 -119 47 -176t125 -57q70 -3 125.5 45.5t85.5 124.5t45 153.5t15 147.5z" />
    <glyph glyph-name="uni2081" unicode="&#x2081;" horiz-adv-x="708" 
d="M-27 -246l15 86h221l119 680h-217l14 86h311l-133 -766h197l-15 -86h-512z" />
    <glyph glyph-name="uni2082" unicode="&#x2082;" horiz-adv-x="743" 
d="M365 20l-224 -180h406l-17 -86h-585l6 25l362 305q101 87 146 154.5t45 134.5q0 73 -44 116t-118 43q-82 0 -133 -57.5t-51 -150.5q0 -27 2 -35h-94q-3 9 -3 39q0 127 80 208.5t203 81.5q116 0 185 -65t69 -174q0 -88 -54 -171t-181 -188z" />
    <glyph glyph-name="uni2083" unicode="&#x2083;" horiz-adv-x="720" 
d="M625 606l-4 -28l-275 -295q88 -19 144.5 -87.5t56.5 -158.5q0 -125 -89.5 -210t-221.5 -85q-101 0 -175 50.5t-110 146.5l76 41q65 -154 209 -154q94 0 154.5 58t60.5 149q0 82 -55.5 128t-153.5 46h-58l6 29l267 284h-353l17 86h504z" />
    <glyph glyph-name="uni2084" unicode="&#x2084;" horiz-adv-x="718" 
d="M592 -2l-14 -84h-123l-29 -160h-90l26 160h-425l4 29l385 663h104l-354 -608h301l51 287h90l-49 -287h123z" />
    <glyph glyph-name="uni2085" unicode="&#x2085;" horiz-adv-x="749" 
d="M627 520h-373l-41 -239q78 4 86 4q129 0 204 -65.5t75 -178.5q0 -132 -89 -215q-90 -84 -223 -84q-103 0 -178.5 51.5t-112.5 145.5l78 41q65 -152 213 -152q94 0 154.5 57.5t60.5 147.5q0 82 -52.5 127t-149.5 45h-173l70 401h467z" />
    <glyph glyph-name="uni2086" unicode="&#x2086;" horiz-adv-x="743" 
d="M575 39q0 -122 -88.5 -209.5t-212.5 -87.5q-113 0 -194 78q-78 78 -78 194q0 58 18 105q21 50 43 78q14 20 87 110l245 299h121l-260 -313q33 10 63 10q110 0 183 -76t73 -188zM479 35q0 82 -49 133t-127 51q-86 0 -145.5 -59.5t-59.5 -147.5q0 -80 52 -132t131 -52
q85 0 141.5 59.5t56.5 147.5z" />
    <glyph glyph-name="uni2087" unicode="&#x2087;" horiz-adv-x="655" 
d="M72 606h563l-6 -28l-570 -824h-108l532 766h-428z" />
    <glyph glyph-name="uni2088" unicode="&#x2088;" horiz-adv-x="772" 
d="M590 -14q0 -104 -84 -173t-211 -69q-131 0 -213 62t-82 161q0 87 64 151t180 93q-125 73 -125 184q0 97 73 160t185 63q115 0 183.5 -54.5t68.5 -145.5q0 -160 -201 -225q162 -79 162 -207zM342 242q103 29 151 69t48 97q0 60 -46 97.5t-118 37.5q-73 0 -121.5 -41.5
t-48.5 -104.5q0 -45 28.5 -78t106.5 -77zM496 -14q0 51 -35 87t-133 87q-121 -31 -177.5 -76t-56.5 -111q0 -69 53 -110t144 -41t148 46t57 118z" />
    <glyph glyph-name="uni2089" unicode="&#x2089;" horiz-adv-x="743" 
d="M631 346q0 -56 -21 -106q-19 -48 -45 -82q-27 -38 -82 -105l-245 -299h-121l258 312q-37 -9 -64 -9q-109 0 -182 76q-72 78 -72 189q0 122 88.5 209t212.5 87q117 0 195 -77.5t78 -194.5zM535 346q0 82 -51.5 134t-131.5 52q-85 0 -141.5 -59t-56.5 -147q0 -82 49 -133.5
t127 -51.5q86 0 145.5 59.5t59.5 145.5z" />
    <glyph glyph-name="uni208A" unicode="&#x208a;" horiz-adv-x="876" 
d="M262 -166l55 303h-297l15 84h297l53 305h92l-53 -305h297l-16 -84h-297l-54 -303h-92z" />
    <glyph glyph-name="uni208B" unicode="&#x208b;" horiz-adv-x="874" 
d="M35 139l14 78h682l-14 -78h-682z" />
    <glyph glyph-name="uni208C" unicode="&#x208c;" horiz-adv-x="876" 
d="M76 297l16 84h653l-14 -84h-655zM20 -20l15 81h653l-14 -81h-654z" />
    <glyph glyph-name="uni208D" unicode="&#x208d;" horiz-adv-x="512" 
d="M55 -4q-2 189 55.5 368t160 308.5t227.5 177.5l26 -62q-169 -86 -276 -307t-107 -485q0 -296 166 -434l-45 -56q-207 148 -207 490z" />
    <glyph glyph-name="uni208E" unicode="&#x208e;" horiz-adv-x="509" 
d="M-96 -492l-29 62q169 86 276 307t107 485q0 300 -166 435l45 55q207 -148 207 -490q2 -189 -55 -368t-159 -308.5t-226 -177.5z" />
    <glyph glyph-name="lira" unicode="&#x20a4;" horiz-adv-x="1042" 
d="M406 973q0 -78 40 -199h396l-17 -94h-350q31 -102 31 -188v-27h280l-16 -92h-278q-40 -172 -193 -279h578l-17 -94h-817l4 33q277 129 338 340h-262l16 92h260v20q0 92 -34 195h-187l17 94h139q-39 124 -39 207q0 170 111 280.5t280 110.5q154 0 254.5 -93.5
t120.5 -258.5l-100 -21q-19 133 -89.5 204t-183.5 71q-123 0 -202.5 -85t-79.5 -216z" />
    <glyph glyph-name="peseta" unicode="&#x20a7;" horiz-adv-x="1177" 
d="M1270 1012l-17 -94h-174q-29 -153 -155.5 -242.5t-317.5 -89.5h-254l-102 -586h-107l162 918h-172l17 94h172l59 340h303q185 0 291.5 -90.5t111.5 -249.5h183zM672 1257h-201l-43 -247h549q-5 122 -82 184.5t-223 62.5zM969 920h-557l-41 -240h239q147 0 241.5 63.5
t117.5 176.5z" />
    <glyph glyph-name="Euro" unicode="&#x20ac;" horiz-adv-x="1396" 
d="M1386 1147l-77 -57q-125 184 -377 184q-176 0 -316 -108.5t-208 -293.5h665l-41 -92h-651q-21 -99 -21 -188v-29h572l-41 -94h-520q35 -181 158 -286t305 -105q213 0 344 149l69 -63q-158 -184 -424 -184q-220 0 -376.5 135.5t-190.5 353.5h-244l17 94h219v23
q0 110 20 194h-196l16 92h205q73 222 246 361q174 139 391 139q149 0 266 -57.5t190 -167.5z" />
    <glyph glyph-name="uni20AE" unicode="&#x20ae;" horiz-adv-x="1196" 
d="M1282 1257h-494l-81 -456l415 143l-18 -100l-416 -146l-39 -221l418 148l-18 -101l-416 -147l-68 -377h-106l61 344l-411 -145l18 102l412 143l39 220l-412 -144l18 101l410 143l88 493h-496l17 95h1095z" />
    <glyph glyph-name="uni20B4" unicode="&#x20b4;" horiz-adv-x="1114" 
d="M670 690l-121 -63q-79 -39 -117 -64h637l-14 -88h-746q-61 -67 -61 -153q0 -110 78 -177t206 -67q225 0 410 221l68 -63q-98 -125 -223.5 -190.5t-264.5 -65.5q-169 0 -277 93t-108 240q0 100 45 162h-127l17 88h194q87 66 242 146l127 65l8 4h-530l16 90h668
q67 47 94 91t27 102q0 94 -75 154.5t-192 60.5q-173 0 -315 -154l-68 62q162 188 398 188q161 0 262.5 -85.5t101.5 -221.5q0 -116 -84 -197h174l-14 -90h-279q-112 -65 -157 -88z" />
    <glyph glyph-name="uni20B8" unicode="&#x20b8;" horiz-adv-x="1196" 
d="M186 1257l17 95h1095l-16 -95h-1096zM459 0l166 938h-496l18 94h1096l-16 -94h-496l-166 -938h-106z" />
    <glyph glyph-name="uni20B9" unicode="&#x20b9;" horiz-adv-x="1028" 
d="M1024 1352l-16 -92h-324q109 -74 121 -213h164l-17 -93h-149q-21 -157 -148 -252q-128 -96 -315 -96h-84l530 -606h-133l-532 606l18 94h197q152 0 244.5 66t109.5 188h-508l17 93h493q-12 104 -88 158.5t-211 54.5h-155l16 92h770z" />
    <glyph glyph-name="uni20BA" unicode="&#x20ba;" horiz-adv-x="1042" 
d="M946 432q0 -207 -145.5 -329.5t-394.5 -122.5q-87 0 -216 18l91 516l-226 -96l19 102l225 96l39 218l-227 -95l18 103l227 96l72 414h109l-66 -369l432 182l-16 -102l-434 -184l-39 -220l434 187l-19 -103l-434 -184l-84 -477q47 -6 99 -6q219 0 327 107t105 321h98
q0 -2 3 -28t3 -44z" />
    <glyph glyph-name="uni20BD" unicode="&#x20bd;" horiz-adv-x="1165" 
d="M143 0l54 307h-172l16 92h174l39 224h-172l14 92h174l111 637h379q180 0 281.5 -89t101.5 -247q0 -175 -125.5 -284t-329.5 -109h-328l-38 -224h546l-16 -92h-549l-53 -307h-107zM377 715h313q159 0 250.5 80t91.5 219q0 119 -74 182.5t-213 63.5h-272z" />
    <glyph glyph-name="uni20BF" unicode="&#x20bf;" horiz-adv-x="1185" 
d="M1051 426q0 -145 -98 -241.5t-261 -116.5l-45 -256h-98l43 251h-203l-45 -251h-98l43 251h-164l217 1227h160l43 248h98l-43 -248h160q33 0 43 -2l43 250h100l-47 -270q82 -29 127 -96t45 -160q0 -105 -54.5 -183t-152.5 -110q88 -38 137.5 -115.5t49.5 -177.5zM428 1196
l-78 -428h361q117 0 187.5 65.5t70.5 174.5q0 188 -226 188h-315zM948 428q0 113 -72.5 180.5t-193.5 67.5h-346l-92 -520h374q152 0 241 73.5t89 198.5z" />
    <glyph glyph-name="uni2113" unicode="&#x2113;" horiz-adv-x="796" 
d="M504 72q59 0 137 10l-14 -88q-63 -14 -142 -14q-149 0 -229 68.5t-80 197.5q0 42 12 119l11 53l-39 -29q-66 -51 -101 -72l-45 80q76 50 207 154l115 649q32 184 108 270t205 86q219 0 219 -235q0 -371 -553 -825l-24 -136q-12 -62 -12 -100q0 -188 225 -188zM438 1198
l-98 -561q428 381 428 680q0 75 -30 111t-93 36q-82 0 -132 -63.5t-75 -202.5z" />
    <glyph glyph-name="uni2116" unicode="&#x2116;" horiz-adv-x="2304" 
d="M1092 205l198 1147h107l-242 -1372h-43l-694 1163l-197 -1143h-106l241 1372h41zM2253 831q0 -138 -104 -241t-246 -103q-131 0 -219.5 88.5t-88.5 219.5q0 139 103.5 241.5t245.5 102.5q129 0 219 -89t90 -219zM2161 827q0 98 -62.5 164t-156.5 66q-108 0 -181 -76
q-71 -77 -71 -184q0 -99 61 -163.5t154 -64.5q106 0 180 74q76 76 76 184zM1511 231l15 84h624l-14 -84h-625z" />
    <glyph glyph-name="uni2117" unicode="&#x2117;" horiz-adv-x="1624" 
d="M150 647q-3 140 57 275t160 234t235 159t275 57q132 3 255.5 -50.5t213.5 -144t143 -215t51 -257.5q3 -140 -57.5 -275t-160.5 -234t-235.5 -159t-275.5 -57q-131 -3 -254 50.5t-213 144t-143 215t-51 257.5zM1450 707q3 156 -75.5 292.5t-213 216.5t-287.5 76
q-126 3 -244.5 -49t-205 -140t-138 -208.5t-48.5 -247.5q-2 -117 43.5 -226.5t123.5 -189.5t186 -127t224 -45q124 -2 242.5 51t205.5 141.5t138.5 209t48.5 246.5zM553 311l127 727h256q112 0 176 -56.5t64 -154.5q0 -112 -80 -180.5t-209 -68.5h-193l-47 -267h-94z
M709 659h186q87 0 136.5 43.5t49.5 118.5q0 66 -40 100.5t-115 34.5h-164z" />
    <glyph glyph-name="trademark" unicode="&#x2122;" horiz-adv-x="1933" 
d="M1913 1366h35l-164 -934h-96l118 684l-370 -416h-35l-236 435l-123 -703h-96l162 934h37l289 -541zM172 1266l14 86h754l-16 -86h-328l-147 -834h-95l146 834h-328z" />
    <glyph glyph-name="uni2126" unicode="&#x2126;" horiz-adv-x="1624" 
d="M1098 94h344l-17 -94h-542l16 98q260 103 396.5 267t136.5 374q0 236 -156 385.5t-402 149.5q-125 2 -239 -47.5t-196.5 -134.5t-130.5 -204t-46 -249q0 -165 92.5 -303.5t270.5 -237.5l-19 -98h-524l16 94h371q-152 100 -234.5 242t-82.5 303q-2 147 55.5 283.5
t154.5 236t231.5 158t278.5 55.5q191 3 345.5 -78.5t241 -227t83.5 -325.5q0 -204 -113.5 -369t-330.5 -278z" />
    <glyph glyph-name="estimated" unicode="&#x212e;" horiz-adv-x="1628" 
d="M1542 670h-1114v-418q75 -101 191 -157t260 -56q157 0 294 65t232 181l47 -41q-103 -125 -252.5 -194.5t-320.5 -69.5q-146 -3 -279 51t-228 147.5t-150.5 221.5t-53.5 268q-3 140 54 272t153 227t226.5 151.5t268.5 53.5q129 2 254 -45t220 -126t152 -190.5t54 -230.5
q0 -63 -8 -110zM428 1098v-369h862v399q-151 183 -411 183q-140 0 -257.5 -56t-193.5 -157z" />
    <glyph glyph-name="uni2150" unicode="&#x2150;" horiz-adv-x="1875" 
d="M104 500l15 86h221l119 680h-217l14 86h311l-133 -766h197l-15 -86h-512zM442 0l1012 1352h100l-1013 -1352h-99zM1335 852h563l-6 -29l-569 -823h-109l533 766h-428z" />
    <glyph glyph-name="uni2151" unicode="&#x2151;" horiz-adv-x="1900" 
d="M104 500l15 86h221l119 680h-217l14 86h311l-133 -766h197l-15 -86h-512zM442 0l1012 1352h100l-1013 -1352h-99zM1833 592q0 -58 -21 -107q-19 -48 -45 -82q-27 -39 -81 -104l-246 -299h-121l258 311q-33 -8 -64 -8q-109 0 -182 76q-71 77 -71 188q0 122 88.5 209.5
t212.5 87.5q117 0 194.5 -77.5t77.5 -194.5zM1737 592q0 82 -51.5 134t-131.5 52q-85 0 -141.5 -59.5t-56.5 -147.5q0 -82 49 -133t127 -51q86 0 145.5 59.5t59.5 145.5z" />
    <glyph glyph-name="uni2152" unicode="&#x2152;" horiz-adv-x="2756" 
d="M104 500l15 86h221l119 680h-217l14 86h311l-133 -766h197l-15 -86h-512zM442 0l1012 1352h100l-1013 -1352h-99zM1237 0l14 86h222l118 680h-217l15 86h311l-133 -766h196l-14 -86h-512zM2011 309q-1 69 11.5 142.5t42.5 149t72.5 134t108 95t144.5 34.5
q126 0 192 -82.5t66 -236.5q1 -88 -20.5 -181.5t-64 -181t-119 -142.5t-173.5 -52q-126 0 -193 85t-67 236zM2552 545q0 119 -47 176t-125 57q-57 2 -104.5 -29.5t-77.5 -82t-50.5 -115.5t-29.5 -126.5t-9 -117.5q0 -119 47 -176t125 -57q70 -3 125.5 45.5t85.5 124.5
t45 153.5t15 147.5z" />
    <glyph glyph-name="uni2153" unicode="&#x2153;" horiz-adv-x="1941" 
d="M104 500l15 86h221l119 680h-217l14 86h311l-133 -766h197l-15 -86h-512zM442 0l1012 1352h100l-1013 -1352h-99zM1888 852l-4 -29l-274 -295q88 -19 144 -87t56 -158q0 -125 -89.5 -210t-221.5 -85q-101 0 -175 50t-110 146l76 41q64 -153 209 -153q94 0 154.5 58
t60.5 149q0 82 -55.5 128t-153.5 46h-57l6 28l266 285h-352l16 86h504z" />
    </font>
</defs>
</svg>
