<?xml version="1.0" standalone="no"?>
<!DOCTYPE svg PUBLIC "-//W3C//DTD SVG 1.1//EN" "http://www.w3.org/Graphics/SVG/1.1/DTD/svg11.dtd" >
<svg xmlns="http://www.w3.org/2000/svg" xmlns:xlink="http://www.w3.org/1999/xlink" version="1.1">
<metadata>
Created by FontForge 20170731 at Mon Dec 21 18:11:31 2020
 By Aleksey,,,
Copyright (c) 2015, 2018 by Jakob Runge, under exclusive license to TypeMates. All rights reserved.
</metadata>
<defs>
<font id="CeraPro-Italic" horiz-adv-x="1146" >
  <font-face 
    font-family="Cera Pro"
    font-weight="400"
    font-style="italic"
    font-stretch="normal"
    units-per-em="2048"
    panose-1="0 0 5 0 0 0 0 0 0 0"
    ascent="1655"
    descent="-393"
    x-height="997"
    cap-height="1352"
    bbox="-868 -496 2701 2048"
    underline-thickness="133"
    underline-position="-337"
    slope="-10"
    unicode-range="U+0020-FB02"
  />
<missing-glyph horiz-adv-x="1447" 
d="M338 1352h1075l-237 -1352h-1076zM1075 104l201 1139h-842z" />
    <glyph glyph-name="fi" unicode="fi" horiz-adv-x="1155" 
d="M838 1530l-23 -127q-73 12 -119 12q-91 0 -141.5 -45.5t-69.5 -142.5l-41 -230h250l-26 -141h-248l-168 -952q-26 -143 -112.5 -219t-225.5 -76q-70 0 -162 29l23 126q55 -14 119 -14q91 0 139.5 47t66.5 144l162 915h-141l24 141h142l47 265q26 143 113.5 220t226.5 77
q82 0 164 -29zM739 0l176 997h158l-176 -997h-158zM944 1378q0 47 35 81t82 34q49 0 84 -34t35 -81q0 -49 -34.5 -81.5t-84.5 -32.5t-83.5 32.5t-33.5 81.5z" />
    <glyph glyph-name="fl" unicode="fl" horiz-adv-x="1155" 
d="M838 1530l-23 -127q-73 12 -119 12q-91 0 -141.5 -45.5t-69.5 -142.5l-41 -230h250l-26 -141h-248l-168 -952q-26 -143 -112.5 -219t-225.5 -76q-70 0 -162 29l23 126q55 -14 119 -14q91 0 139.5 47t66.5 144l162 915h-141l24 141h142l47 265q26 143 113.5 220t226.5 77
q82 0 164 -29zM739 0l271 1536h157l-270 -1536h-158z" />
    <glyph glyph-name=".notdef" horiz-adv-x="1447" 
d="M338 1352h1075l-237 -1352h-1076zM1075 104l201 1139h-842z" />
    <glyph glyph-name=".null" horiz-adv-x="0" 
 />
    <glyph glyph-name="nonmarkingreturn" horiz-adv-x="682" 
 />
    <glyph glyph-name="space" unicode=" " horiz-adv-x="573" 
 />
    <glyph glyph-name="exclam" unicode="!" horiz-adv-x="624" 
d="M233 428l132 924h194l-194 -924h-132zM115 106q0 55 37.5 92.5t91.5 37.5t91.5 -37.5t37.5 -92.5t-37.5 -92t-91.5 -37t-91.5 37t-37.5 92z" />
    <glyph glyph-name="quotedbl" unicode="&#x22;" horiz-adv-x="950" 
d="M254 825l119 527h184l-176 -527h-127zM629 825l119 527h184l-176 -527h-127z" />
    <glyph glyph-name="numbersign" unicode="#" horiz-adv-x="1159" 
d="M1176 860h-201l-66 -368h203l-22 -138h-205l-62 -354h-133l62 354h-392l-61 -354h-135l61 354h-196l24 138h197l65 368h-198l24 137h199l61 355h134l-62 -355h393l62 355h133l-62 -355h199zM385 492h391l66 368h-393z" />
    <glyph glyph-name="dollar" unicode="$" horiz-adv-x="1097" 
d="M936 395q0 -145 -106.5 -245.5t-270.5 -106.5l-41 -236h-158l43 254q-213 60 -327 277l125 74q131 -224 342 -224q104 0 167.5 53.5t63.5 141.5q0 60 -38 108t-126 99l-129 74q-117 66 -173 140.5t-56 166.5q0 138 106 232t267 97l41 236h157l-45 -256q157 -48 246 -207
l-123 -78q-54 84 -118 122t-152 38q-98 0 -157.5 -49t-59.5 -129q0 -55 35.5 -98.5t121.5 -94.5l129 -73q122 -66 179 -142.5t57 -173.5z" />
    <glyph glyph-name="percent" unicode="%" horiz-adv-x="1658" 
d="M205 1034q0 139 100.5 238.5t241.5 99.5q133 0 225 -92t92 -225q0 -139 -101 -239.5t-243 -100.5q-132 0 -223.5 92.5t-91.5 226.5zM264 0l1063 1352h143l-1064 -1352h-142zM733 1053q0 91 -51.5 146.5t-136.5 55.5q-90 0 -149.5 -62.5t-59.5 -156.5q0 -91 53 -148
t139 -57q90 0 147.5 62.5t57.5 159.5zM862 299q0 139 100.5 238.5t241.5 99.5q134 0 226 -92.5t92 -225.5q0 -139 -101 -239t-243 -100q-132 0 -224 93t-92 226zM1391 317q0 91 -52 147t-137 56q-90 0 -149.5 -62.5t-59.5 -156.5q0 -91 54 -148t139 -57q91 0 148 62t57 159z
" />
    <glyph glyph-name="ampersand" unicode="&#x26;" horiz-adv-x="1282" 
d="M977 244l160 -244h-179l-92 139q-188 -162 -385 -162q-172 0 -288.5 102t-116.5 251q0 120 84 221q79 98 293 221q-97 160 -97 275q0 138 95 232.5t233 94.5q128 0 207.5 -74.5t79.5 -195.5q0 -104 -72 -192.5t-237 -186.5l229 -350q61 69 110 127l97 112l28 35l117 -100
q-171 -210 -266 -305zM514 1051q0 -92 74 -213q121 72 174 133.5t53 130.5q0 57 -37 92t-100 35q-76 0 -120 -47t-44 -131zM782 266l-254 389q-171 -109 -227.5 -172.5t-56.5 -146.5q0 -91 66.5 -151t170.5 -60q142 0 301 141z" />
    <glyph glyph-name="quotesingle" unicode="'" horiz-adv-x="575" 
d="M254 825l119 527h184l-176 -527h-127z" />
    <glyph glyph-name="parenleft" unicode="(" horiz-adv-x="692" 
d="M164 387q-3 252 74 488.5t214.5 403t303.5 222.5l47 -110q-142 -65 -252 -214t-171 -356.5t-61 -439.5q0 -384 207 -555l-80 -96q-139 93 -210.5 260.5t-71.5 396.5z" />
    <glyph glyph-name="parenright" unicode=")" horiz-adv-x="692" 
d="M-20 -270l-48 110q142 65 252 214t171 356.5t61 439.5q0 384 -207 555l80 96q139 -93 210.5 -260.5t71.5 -396.5q3 -252 -74 -488.5t-214 -403t-303 -222.5z" />
    <glyph glyph-name="asterisk" unicode="*" horiz-adv-x="839" 
d="M885 1260l-215 -95l166 -161l-62 -76l-186 135l-58 -225l-94 16l23 233l-228 -63l-34 92l213 94l-168 164l63 74l193 -139l57 229l94 -16l-22 -234l221 64z" />
    <glyph glyph-name="plus" unicode="+" 
d="M444 180l70 395h-383l23 140h385l69 389h156l-70 -389h373l-23 -140h-374l-70 -395h-156z" />
    <glyph glyph-name="comma" unicode="," horiz-adv-x="573" 
d="M31 -367l123 551h186l-180 -551h-129z" />
    <glyph glyph-name="hyphen" unicode="-" horiz-adv-x="696" 
d="M125 578l25 133h479l-25 -133h-479z" />
    <glyph glyph-name="period" unicode="." horiz-adv-x="573" 
d="M90 106q0 55 37.5 92.5t91.5 37.5t91.5 -37.5t37.5 -92.5t-37.5 -92t-91.5 -37t-91.5 37t-37.5 92z" />
    <glyph glyph-name="slash" unicode="/" horiz-adv-x="1261" 
d="M-117 -248l1385 1845h174l-1387 -1845h-172z" />
    <glyph glyph-name="zero" unicode="0" horiz-adv-x="1259" 
d="M150 492q0 181 59 385q58 205 194 350q138 147 355 147q201 0 309.5 -136.5t108.5 -377.5q0 -176 -60 -387q-59 -204 -196 -350t-351 -146q-201 0 -310 137t-109 378zM1014 858q0 189 -75 280t-200 91q-155 0 -250 -127q-98 -131 -137 -297q-41 -172 -41 -311
q0 -189 75.5 -280t201.5 -91q156 0 250 125t135 297q41 175 41 313z" />
    <glyph glyph-name="one" unicode="1" horiz-adv-x="780" 
d="M651 1352h60l-238 -1352h-160l205 1178l-309 -70l-14 141z" />
    <glyph glyph-name="two" unicode="2" 
d="M692 424l-342 -281h625l-25 -143h-940l6 45l582 483q156 133 226.5 236.5t70.5 214.5q0 115 -66.5 181.5t-179.5 66.5q-128 0 -208.5 -91t-80.5 -237q0 -43 2 -55h-163q-2 10 -2 63q0 201 130 334t328 133q180 0 293 -107.5t113 -277.5q0 -144 -86.5 -273.5
t-282.5 -291.5z" />
    <glyph glyph-name="three" unicode="3" horiz-adv-x="1101" 
d="M1102 1352l-10 -47l-433 -467q141 -31 228.5 -138t87.5 -249q0 -202 -143.5 -338t-354.5 -136q-164 0 -281.5 82t-177.5 238l132 68q54 -123 135 -182.5t196 -59.5q143 0 237.5 90.5t94.5 228.5q0 125 -88 198t-240 73h-94l8 47l414 448h-547l27 144h809z" />
    <glyph glyph-name="four" unicode="4" horiz-adv-x="1122" 
d="M1059 391l-25 -139h-196l-45 -252h-160l45 252h-678l8 47l619 1053h172l-566 -961h467l80 451h160l-80 -451h199z" />
    <glyph glyph-name="five" unicode="5" horiz-adv-x="1136" 
d="M1081 1208h-583l-66 -372q88 12 146 12q194 0 315 -109q119 -107 119 -282q0 -206 -142 -343t-358 -137q-165 0 -285 83t-180 237l125 68q57 -125 139.5 -183.5t200.5 -58.5q148 0 244 90q94 91 94 231q0 125 -85 195t-237 70h-274l111 643h741z" />
    <glyph glyph-name="six" unicode="6" horiz-adv-x="1130" 
d="M1016 451q2 -124 -64.5 -234t-179.5 -175t-240 -62q-188 0 -315 124t-127 310q0 108 49 202q53 102 187 263l395 473h203l-422 -496q41 14 100 14q175 0 294.5 -121t119.5 -298zM854 449q0 127 -79 206.5t-204 79.5q-135 0 -227 -92.5t-92 -228.5q0 -127 80 -208t205 -81
q134 0 225.5 93t91.5 231z" />
    <glyph glyph-name="seven" unicode="7" horiz-adv-x="1026" 
d="M223 1352h901l-8 -47l-909 -1305h-178l854 1210h-686z" />
    <glyph glyph-name="eight" unicode="8" horiz-adv-x="1181" 
d="M1042 367q0 -165 -136 -276t-337 -111q-212 0 -347.5 99.5t-135.5 254.5q0 137 103.5 239.5t285.5 145.5q-103 63 -151 134t-48 159q0 155 121 258.5t301 103.5q179 0 295 -90q113 -88 113 -237q0 -245 -313 -353q121 -61 185 -145.5t64 -181.5zM438 1016
q0 -69 44.5 -120.5t162.5 -117.5q157 44 228 105.5t71 150.5q0 91 -66.5 144t-179.5 53q-118 0 -189 -59t-71 -156zM881 367q0 78 -58 133q-52 55 -211 133q-188 -44 -276 -112.5t-88 -168.5q0 -104 86 -166.5t229 -62.5q142 0 230 67.5t88 176.5z" />
    <glyph glyph-name="nine" unicode="9" horiz-adv-x="1130" 
d="M1104 940q0 -111 -49 -205q-52 -99 -187 -262l-393 -473h-203l422 496q-44 -15 -102 -15q-175 0 -294.5 121.5t-119.5 298.5q0 126 66 234.5t178 172.5t242 64q189 0 314.5 -123.5t125.5 -308.5zM942 938q0 127 -79 208t-204 81q-135 0 -227 -93t-92 -231q0 -127 80 -207
t205 -80q136 0 226.5 92.5t90.5 229.5z" />
    <glyph glyph-name="colon" unicode=":" horiz-adv-x="573" 
d="M225 879q0 55 37.5 92t91.5 37t91.5 -37t37.5 -92t-37.5 -92t-91.5 -37t-91.5 37t-37.5 92zM90 106q0 55 37.5 92.5t91.5 37.5t91.5 -37.5t37.5 -92.5t-37.5 -92t-91.5 -37t-91.5 37t-37.5 92z" />
    <glyph glyph-name="semicolon" unicode=";" horiz-adv-x="573" 
d="M225 879q0 55 37.5 92t91.5 37t91.5 -37t37.5 -92t-37.5 -92t-91.5 -37t-91.5 37t-37.5 92zM31 -367l123 551h186l-180 -551h-129z" />
    <glyph glyph-name="less" unicode="&#x3c;" 
d="M1100 1055l-25 -156l-663 -262l569 -264l-23 -133l-829 383l6 49z" />
    <glyph glyph-name="equal" unicode="=" 
d="M188 786l25 142h874l-24 -142h-875zM115 362l22 140h875l-23 -140h-874z" />
    <glyph glyph-name="greater" unicode="&#x3e;" 
d="M244 1053l829 -383l-6 -49l-965 -383l25 155l666 260l-572 267z" />
    <glyph glyph-name="question" unicode="?" horiz-adv-x="911" 
d="M535 768q91 75 127 111q92 89 92 180q0 78 -51 124t-132 46q-148 0 -245 -174l-119 73q64 118 160.5 182t218.5 64q143 0 236 -84t93 -223q0 -85 -34 -149t-80 -107q-48 -45 -142 -121q-92 -77 -129.5 -129t-50.5 -133h-141q5 101 47 176t150 164zM250 106q0 56 37 93
t92 37q54 0 91.5 -37.5t37.5 -92.5t-37.5 -92t-91.5 -37t-91.5 37t-37.5 92z" />
    <glyph glyph-name="at" unicode="@" horiz-adv-x="1898" 
d="M1812 629q0 -256 -155 -406.5t-418 -150.5h-98l16 92q-105 -111 -280 -111q-161 0 -269 115.5t-108 288.5q0 195 131 330t319 135q104 0 187.5 -43t126.5 -117l26 143h142l-123 -698q170 4 265 115.5t95 304.5q0 266 -175 424.5t-468 158.5q-212 4 -392 -97.5
t-283 -278.5t-99 -385q-2 -135 51 -256.5t146 -208.5t223 -137t276 -48q125 0 230 31l20 -121q-107 -43 -266 -43q-171 -2 -326 58t-266 163.5t-175 248.5t-61 306q-4 181 69.5 349.5t198.5 290.5t296.5 194.5t355.5 69.5q223 3 405 -90t284 -258.5t99 -368.5zM1225 535
q0 112 -70.5 178.5t-187.5 66.5q-134 0 -219 -88q-86 -89 -86 -223q0 -123 70 -198.5t183 -75.5q126 0 218 101t92 239z" />
    <glyph glyph-name="A" unicode="A" horiz-adv-x="1357" 
d="M1053 0l-68 274h-657l-164 -274h-180l827 1374h57l346 -1374h-161zM948 418l-153 655l-383 -655h536z" />
    <glyph glyph-name="B" unicode="B" horiz-adv-x="1259" 
d="M1149 401q0 -175 -133.5 -288t-343.5 -113h-572l238 1352h424q165 0 263.5 -87.5t98.5 -234.5q0 -100 -45.5 -179t-130.5 -126q94 -43 147.5 -128.5t53.5 -195.5zM733 1208h-260l-74 -420h301q117 0 187.5 63t70.5 169q0 90 -59.5 139t-165.5 49zM983 406
q0 110 -69.5 173.5t-190.5 63.5h-350l-88 -500h379q146 0 232.5 72t86.5 191z" />
    <glyph glyph-name="C" unicode="C" horiz-adv-x="1462" 
d="M135 625q-3 147 58.5 286.5t164.5 241.5t244.5 163t290.5 58q179 0 322.5 -84.5t228.5 -238.5l-131 -80q-69 125 -179 190.5t-251 65.5q-116 2 -225 -45.5t-187.5 -128.5t-125 -192t-44.5 -230q0 -221 139.5 -363.5t354.5 -142.5q267 0 452 215l111 -92
q-109 -129 -259 -200t-317 -71q-183 0 -331 84t-232 232.5t-84 331.5z" />
    <glyph glyph-name="D" unicode="D" horiz-adv-x="1429" 
d="M100 0l238 1352h340q302 0 492 -174t190 -449q3 -207 -101.5 -375t-291 -262.5t-416.5 -91.5h-451zM285 143h276q184 0 328.5 72.5t224.5 203.5t80 298q0 222 -145 356.5t-383 134.5h-195z" />
    <glyph glyph-name="E" unicode="E" horiz-adv-x="1161" 
d="M100 0l238 1352h866l-26 -144h-707l-76 -413h543l-25 -144h-540l-88 -508h731l-25 -143h-891z" />
    <glyph glyph-name="F" unicode="F" horiz-adv-x="1073" 
d="M100 0l238 1352h846l-27 -144h-686l-82 -465h569l-24 -145h-569l-105 -598h-160z" />
    <glyph glyph-name="G" unicode="G" horiz-adv-x="1531" 
d="M135 625q-3 147 58.5 286.5t164.5 241.5t244.5 163t290.5 58q173 0 315 -79.5t228 -225.5l-123 -90q-145 248 -430 248q-116 2 -225 -45.5t-187.5 -128.5t-125 -192t-44.5 -230q0 -222 138.5 -364t357.5 -142q123 0 236.5 52t199.5 149l39 219h-459l27 143h618l-72 -403
q-100 -143 -262 -225.5t-342 -82.5q-183 0 -331 84t-232 232.5t-84 331.5z" />
    <glyph glyph-name="H" unicode="H" horiz-adv-x="1449" 
d="M100 0l238 1352h160l-99 -557h760l96 557h160l-237 -1352h-160l115 651h-760l-113 -651h-160z" />
    <glyph glyph-name="I" unicode="I" horiz-adv-x="530" 
d="M100 0l238 1352h160l-238 -1352h-160z" />
    <glyph glyph-name="J" unicode="J" horiz-adv-x="765" 
d="M-35 14l27 138q119 -25 186 -25q92 0 145 47.5t70 147.5l180 1030h160l-186 -1057q-26 -155 -118.5 -236.5t-240.5 -81.5q-116 0 -223 37z" />
    <glyph glyph-name="K" unicode="K" horiz-adv-x="1292" 
d="M338 1352h160l-238 -1352h-160zM1333 1352l-725 -643l543 -709h-190l-555 725l704 627h223z" />
    <glyph glyph-name="L" unicode="L" horiz-adv-x="1038" 
d="M100 0l238 1352h160l-213 -1209h643l-27 -143h-801z" />
    <glyph glyph-name="M" unicode="M" horiz-adv-x="1615" 
d="M1528 1374h57l-242 -1374h-159l170 963l-525 -580h-57l-338 614l-174 -997h-160l242 1374h57l424 -780z" />
    <glyph glyph-name="N" unicode="N" horiz-adv-x="1449" 
d="M1255 1352h160l-241 -1375h-58l-678 1057l-178 -1034h-160l242 1374h57l678 -1059z" />
    <glyph glyph-name="O" unicode="O" horiz-adv-x="1601" 
d="M135 625q-3 149 58.5 289t164.5 241.5t243.5 161.5t287.5 57q135 2 255.5 -48t206 -137t134.5 -207.5t47 -254.5q3 -148 -59 -288t-165.5 -242.5t-243.5 -163t-286 -56.5q-135 -2 -255.5 48.5t-206 137.5t-134.5 207.5t-47 254.5zM1366 723q0 216 -138 360t-351 144
q-154 3 -289 -78t-214 -219.5t-75 -296.5q0 -219 137.5 -363.5t349.5 -144.5q153 -3 288.5 79t215 221.5t76.5 297.5z" />
    <glyph glyph-name="P" unicode="P" horiz-adv-x="1181" 
d="M100 0l238 1352h428q194 0 306 -98.5t112 -266.5q0 -189 -136.5 -305.5t-359.5 -116.5h-330l-98 -565h-160zM385 709h322q146 0 228.5 72t82.5 200q0 111 -66.5 169t-193.5 58h-287z" />
    <glyph glyph-name="Q" unicode="Q" horiz-adv-x="1601" 
d="M1962 -272l-20 -127q-97 -17 -183 -17q-252 0 -453.5 108.5t-326.5 311.5q-102 -27 -201 -27q-178 -3 -327 82t-234 235.5t-82 330.5q-3 147 58.5 286.5t164.5 241.5t243.5 163t287.5 58q178 3 327 -82t234 -235t82 -330q0 -210 -115 -393q-114 -182 -299 -275
q118 -176 288.5 -255.5t422.5 -79.5q35 0 133 4zM786 125q114 -2 222 46t186.5 129.5t125 193t44.5 229.5q0 220 -137.5 362t-349.5 142q-154 3 -288.5 -78t-213.5 -219.5t-76 -296.5q0 -220 137.5 -364t349.5 -144z" />
    <glyph glyph-name="R" unicode="R" horiz-adv-x="1273" 
d="M817 580l338 -580h-178l-334 567h-285l-98 -567h-160l238 1352h428q194 0 306 -97.5t112 -263.5q0 -159 -98 -269t-269 -142zM471 1208l-86 -497h322q146 0 228.5 71.5t82.5 198.5q0 111 -66.5 169t-193.5 58h-287z" />
    <glyph glyph-name="S" unicode="S" horiz-adv-x="1140" 
d="M47 303l127 78q145 -256 389 -256q119 0 191.5 61.5t72.5 163.5q0 71 -45 125.5t-143 110.5l-145 82q-122 67 -185 156t-63 188q0 156 119.5 259t302.5 103q291 0 426 -250l-127 -75q-60 94 -132.5 136t-172.5 42q-116 0 -183 -55.5t-67 -151.5q0 -65 39.5 -113.5
t138.5 -109.5l143 -82q133 -75 196.5 -161t63.5 -192q0 -167 -122.5 -276t-311.5 -109q-164 0 -295.5 84t-216.5 242z" />
    <glyph glyph-name="T" unicode="T" horiz-adv-x="1202" 
d="M434 0l213 1208h-475l25 144h1112l-27 -144h-475l-213 -1208h-160z" />
    <glyph glyph-name="U" unicode="U" horiz-adv-x="1406" 
d="M170 446q0 54 12 125l135 781h160l-137 -787q-10 -68 -10 -106q0 -145 99 -239.5t251 -94.5q149 0 262 96q110 98 137 258l152 873h160l-156 -883q-41 -227 -193 -358q-152 -134 -370 -134q-221 0 -361.5 131t-140.5 338z" />
    <glyph glyph-name="V" unicode="V" horiz-adv-x="1357" 
d="M1253 1352h187l-828 -1375h-57l-344 1375h166l256 -1053z" />
    <glyph glyph-name="W" unicode="W" horiz-adv-x="2164" 
d="M2038 1352h180l-754 -1375h-57l-236 1067l-620 -1067h-57l-273 1375h166l193 -1026l614 1048h57l232 -1048z" />
    <glyph glyph-name="X" unicode="X" horiz-adv-x="1212" 
d="M1278 1352l-541 -674l336 -678h-172l-274 561l-459 -561h-199l584 707l-313 645h170l252 -533l417 533h199z" />
    <glyph glyph-name="Y" unicode="Y" horiz-adv-x="1261" 
d="M1321 1352l-610 -797l-97 -555h-159l98 561l-330 791h166l262 -639l482 639h188z" />
    <glyph glyph-name="Z" unicode="Z" horiz-adv-x="1206" 
d="M1286 1352l-10 -47l-1012 -1162h811l-24 -143h-1074l9 47l1007 1161h-710l22 144h981z" />
    <glyph glyph-name="bracketleft" unicode="[" horiz-adv-x="710" 
d="M76 -268l309 1761h391l-22 -139h-240l-262 -1479h240l-25 -143h-391z" />
    <glyph glyph-name="backslash" unicode="\" horiz-adv-x="1267" 
d="M971 -248l-762 1845h149l764 -1845h-151z" />
    <glyph glyph-name="bracketright" unicode="]" horiz-adv-x="710" 
d="M-25 -268l25 139h240l260 1479h-238l23 143h391l-309 -1761h-392z" />
    <glyph glyph-name="asciicircum" unicode="^" horiz-adv-x="1044" 
d="M137 582l512 790h56l235 -790h-145l-156 528l-340 -528h-162z" />
    <glyph glyph-name="underscore" unicode="_" horiz-adv-x="1024" 
d="M-47 -287l22 133h848l-24 -133h-846z" />
    <glyph glyph-name="grave" unicode="`" horiz-adv-x="1024" 
d="M659 1159l-102 410l10 28h176l29 -438h-113z" />
    <glyph glyph-name="a" unicode="a" horiz-adv-x="1288" 
d="M1047 997h157l-176 -997h-147l24 133q-63 -74 -157.5 -115t-202.5 -41q-192 0 -320.5 135.5t-128.5 338.5q-2 115 40.5 221.5t116 183t174.5 121.5t210 43q123 0 224 -52t157 -141zM965 557q0 141 -88 229t-230 88q-161 0 -275 -121.5t-114 -291.5q0 -149 92 -244
q91 -94 238 -94q157 0 267 126t110 308z" />
    <glyph glyph-name="b" unicode="b" horiz-adv-x="1290" 
d="M1194 539q2 -114 -40 -218.5t-113.5 -180t-171 -120t-207.5 -43.5q-123 0 -225 53t-158 144l-31 -174h-158l268 1536h158l-119 -664q142 148 348 148q192 0 320.5 -137t128.5 -344zM1032 524q0 155 -92 252.5t-240 97.5q-157 0 -266.5 -125t-109.5 -303q0 -140 90 -233
q93 -90 235 -90q159 0 271 117t112 284z" />
    <glyph glyph-name="c" unicode="c" horiz-adv-x="1142" 
d="M98 467q-2 111 42.5 214t119.5 178t178.5 119t214.5 42q135 0 245.5 -63t172.5 -173l-121 -79q-108 169 -301 169q-164 0 -276.5 -116.5t-112.5 -282.5q0 -155 96.5 -254.5t243.5 -99.5q88 0 167 37t136 106l103 -94q-78 -100 -177.5 -146.5t-234.5 -46.5
q-140 0 -253.5 63.5t-178 176t-64.5 250.5z" />
    <glyph glyph-name="d" unicode="d" horiz-adv-x="1290" 
d="M1143 1536h157l-270 -1536h-147l24 133q-63 -74 -157.5 -115t-202.5 -41q-193 0 -321 136t-128 342q-3 153 69.5 284.5t197.5 207t270 73.5q124 0 225.5 -52t155.5 -143zM967 547q0 147 -89.5 237t-232.5 90q-157 0 -271 -119t-114 -286q0 -155 92 -250q93 -96 238 -96
q157 0 267 123.5t110 300.5z" />
    <glyph glyph-name="e" unicode="e" horiz-adv-x="1153" 
d="M1044 451h-784q7 -152 100.5 -240t247.5 -88q159 0 307 121l80 -107q-168 -160 -401 -160q-216 0 -356 138.5t-140 351.5q-2 109 41.5 212t116.5 178.5t174 120t209 42.5q191 0 310.5 -122.5t119.5 -319.5q0 -66 -25 -127zM272 590h637q-1 135 -75 211t-203 76
q-133 0 -230 -78t-129 -209z" />
    <glyph glyph-name="f" unicode="f" horiz-adv-x="620" 
d="M838 1530l-23 -127q-73 12 -119 12q-91 0 -141.5 -45.5t-69.5 -142.5l-41 -230h250l-26 -141h-248l-168 -952q-26 -143 -112.5 -219t-225.5 -76q-70 0 -162 29l23 126q55 -14 119 -14q91 0 139.5 47t66.5 144l162 915h-141l24 141h142l47 265q26 143 113.5 220t226.5 77
q82 0 164 -29z" />
    <glyph glyph-name="g" unicode="g" horiz-adv-x="1290" 
d="M1047 997h157l-166 -942q-37 -209 -178 -327.5t-352 -118.5q-142 0 -267 60t-210 169l102 99q68 -88 164 -135.5t211 -47.5q152 0 251 82t124 225l14 82q-67 -64 -158 -98.5t-194 -34.5q-195 0 -322 126.5t-127 318.5q-2 152 71.5 283.5t199.5 208t272 73.5
q123 0 223.5 -53t155.5 -142zM971 555q0 141 -90.5 230t-233.5 89q-164 0 -276.5 -117t-112.5 -286q0 -141 90 -228t238 -87q164 0 274.5 114.5t110.5 284.5z" />
    <glyph glyph-name="h" unicode="h" horiz-adv-x="1159" 
d="M1030 692q0 -42 -12 -110l-103 -582h-157l104 586q10 65 10 84q0 97 -58 152t-161 55q-115 0 -195 -66.5t-100 -179.5l-110 -631h-158l268 1536h158l-108 -623q119 107 282 107q152 0 246 -90t94 -238z" />
    <glyph glyph-name="i" unicode="i" horiz-adv-x="503" 
d="M88 0l176 997h158l-176 -997h-158zM293 1378q0 47 35 81t82 34q49 0 83.5 -34t34.5 -81q0 -49 -34 -81.5t-84 -32.5t-83.5 32.5t-33.5 81.5z" />
    <glyph glyph-name="j" unicode="j" horiz-adv-x="505" 
d="M-262 -362l22 126q59 -12 115 -12q87 0 135.5 41.5t65.5 134.5l190 1069h158l-195 -1091q-24 -147 -110.5 -222t-222.5 -75q-76 0 -158 29zM293 1378q0 47 35 81t82 34q49 0 83.5 -34t34.5 -81q0 -49 -34 -81.5t-84 -32.5t-83.5 32.5t-33.5 81.5z" />
    <glyph glyph-name="k" unicode="k" horiz-adv-x="1036" 
d="M358 1536h158l-270 -1536h-158zM1061 997l-514 -458l377 -539h-183l-376 553l481 444h215z" />
    <glyph glyph-name="l" unicode="l" horiz-adv-x="503" 
d="M88 0l270 1536h158l-270 -1536h-158z" />
    <glyph glyph-name="m" unicode="m" horiz-adv-x="1789" 
d="M1661 692q0 -40 -12 -110l-103 -582h-157l104 586q10 68 10 84q0 98 -56 152.5t-155 54.5q-107 0 -186.5 -66.5t-97.5 -179.5l-111 -631h-158l105 586q10 68 10 84q0 96 -57 151.5t-154 55.5q-107 0 -187 -66.5t-98 -179.5l-110 -631h-158l174 997h148l-17 -96
q119 119 287 119q102 0 178 -43.5t115 -122.5q62 79 152.5 122.5t193.5 43.5q154 0 247 -90.5t93 -237.5z" />
    <glyph glyph-name="n" unicode="n" horiz-adv-x="1159" 
d="M1030 692q0 -40 -12 -110l-103 -582h-157l104 586q10 62 10 84q0 97 -59 152t-160 55q-113 0 -195 -66.5t-100 -179.5l-110 -631h-158l174 997h148l-17 -96q119 119 295 119q153 0 246.5 -90.5t93.5 -237.5z" />
    <glyph glyph-name="o" unicode="o" horiz-adv-x="1247" 
d="M100 473q-2 108 42.5 209.5t120 176.5t178.5 119t212 42q139 0 253 -65t179.5 -179t65.5 -252q3 -144 -73 -271.5t-206.5 -203t-277.5 -72.5q-211 0 -352.5 142t-141.5 354zM989 524q0 149 -97.5 249.5t-244.5 100.5q-161 0 -273 -117t-112 -284q0 -154 94 -252t244 -98
q164 0 276.5 116.5t112.5 284.5z" />
    <glyph glyph-name="p" unicode="p" horiz-adv-x="1290" 
d="M1194 535q3 -150 -69.5 -280t-197 -205.5t-268.5 -72.5q-124 0 -228 55t-155 148l-96 -549h-157l241 1366h148l-25 -135q63 75 156.5 116.5t201.5 41.5q193 0 321 -137.5t128 -347.5zM1032 520q0 156 -94 254q-90 100 -238 100q-157 0 -266.5 -125.5t-109.5 -308.5
q0 -139 90 -229q91 -88 235 -88q158 0 270.5 116.5t112.5 280.5z" />
    <glyph glyph-name="q" unicode="q" horiz-adv-x="1290" 
d="M1049 997h157l-241 -1366h-158l88 488q-63 -68 -154 -105t-194 -37q-192 0 -320.5 137.5t-128.5 344.5q-3 152 69 282t197 205.5t271 73.5q122 0 224.5 -52t160.5 -141zM967 567q0 132 -90 219q-88 88 -232 88q-160 0 -272.5 -119t-112.5 -286q0 -155 92 -250
q93 -96 238 -96q156 0 266.5 131t110.5 313z" />
    <glyph glyph-name="r" unicode="r" horiz-adv-x="741" 
d="M793 993l-25 -137q-44 8 -90 8q-128 0 -219 -77t-111 -201l-102 -586h-158l176 997h148l-19 -108q115 121 295 121q52 0 105 -17z" />
    <glyph glyph-name="s" unicode="s" horiz-adv-x="933" 
d="M45 195l115 98q74 -92 137 -131t141 -39q91 0 145 38t54 101q0 49 -31 81t-125 79l-90 45q-112 55 -161.5 118.5t-49.5 151.5q0 128 93.5 205.5t248.5 77.5q223 0 336 -174l-110 -90q-87 118 -238 118q-80 0 -124 -33t-44 -93q0 -45 29 -77t108 -73l86 -45
q130 -69 182 -129t52 -154q0 -131 -100 -212t-261 -81q-125 0 -227.5 57t-165.5 161z" />
    <glyph glyph-name="t" unicode="t" horiz-adv-x="776" 
d="M438 856l-94 -530q-6 -30 -6 -56q0 -82 56 -116.5t167 -34.5q6 0 18 0.5t34.5 1.5t41.5 2l-24 -135q-71 -11 -115 -11q-155 0 -245.5 65.5t-90.5 205.5q0 39 8 80l93 528h-164l20 141h170l47 273h158l-49 -273h313l-24 -141h-314z" />
    <glyph glyph-name="u" unicode="u" horiz-adv-x="1144" 
d="M141 340q0 40 9 86l98 571h158l-105 -591q-4 -28 -4 -60q0 -98 67 -160.5t171 -62.5q105 0 178.5 63.5t93.5 169.5l111 641h157l-112 -645q-30 -170 -150 -272q-121 -103 -287 -103q-169 0 -277 102.5t-108 260.5z" />
    <glyph glyph-name="v" unicode="v" horiz-adv-x="1097" 
d="M940 997h180l-649 -1020h-57l-291 1020h160l198 -745z" />
    <glyph glyph-name="w" unicode="w" horiz-adv-x="1738" 
d="M1583 997h176l-600 -1020h-57l-199 750l-477 -750h-57l-246 1020h160l159 -739l471 760h60l198 -752z" />
    <glyph glyph-name="x" unicode="x" horiz-adv-x="1013" 
d="M1034 997l-430 -489l283 -508h-180l-211 401l-349 -401h-194l463 522l-256 475h182l184 -364l316 364h192z" />
    <glyph glyph-name="y" unicode="y" horiz-adv-x="1155" 
d="M913 997h158l-174 -989q-32 -184 -155 -291.5t-300 -107.5q-130 0 -242.5 60.5t-181.5 168.5l105 101q129 -185 319 -185q119 0 196.5 68t100.5 192l17 97q-116 -107 -281 -107q-152 0 -245 89t-93 237q0 34 13 110l98 557h158l-103 -561q-10 -62 -10 -84
q0 -96 59 -150.5t162 -54.5q111 0 192 65.5t101 178.5z" />
    <glyph glyph-name="z" unicode="z" horiz-adv-x="929" 
d="M956 997l-8 -47l-698 -811h563l-25 -139h-819l8 47l697 809h-506l22 141h766z" />
    <glyph glyph-name="braceleft" unicode="{" horiz-adv-x="811" 
d="M760 1493h123l-23 -139h-102q-106 0 -152.5 -64t-46.5 -211v-207q0 -122 -40 -186.5t-126 -81.5q96 -24 96 -125q0 -40 -13 -87t-50 -152q-68 -179 -68 -252q0 -60 34 -88.5t106 -28.5h100l-23 -139h-122q-117 0 -183.5 60t-66.5 165q0 57 15.5 114t57.5 177
q58 146 58 207q0 44 -26 65t-81 21h-121l23 139h121q88 0 123 43t35 149v220q0 204 86 302.5t266 98.5z" />
    <glyph glyph-name="bar" unicode="|" horiz-adv-x="679" 
d="M305 -248v1845h135v-1845h-135z" />
    <glyph glyph-name="braceright" unicode="}" horiz-adv-x="813" 
d="M627 682h121l-25 -139h-119q-88 0 -123 -42.5t-35 -148.5v-219q0 -204 -86 -302.5t-266 -98.5h-125l25 139h102q109 0 154 62.5t45 211.5v207q0 122 40 187t126 82q-96 24 -96 124q0 40 13.5 88t49.5 152q68 179 68 252q0 60 -34 88.5t-106 28.5h-100l23 139h122
q117 0 183.5 -60t66.5 -165q0 -57 -15.5 -114t-57.5 -177q-58 -146 -58 -207q0 -88 107 -88z" />
    <glyph glyph-name="asciitilde" unicode="~" 
d="M657 512l-168 113q-52 34 -74.5 44.5t-49.5 10.5q-42 0 -65 -33.5t-30 -107.5h-129q6 141 62.5 219t150.5 78q84 0 187 -70l168 -113q44 -32 69.5 -43.5t55.5 -11.5q42 0 64.5 33.5t29.5 107.5h129q-6 -141 -62.5 -219t-150.5 -78q-84 0 -187 70z" />
    <glyph glyph-name="uni00A0" unicode="&#xa0;" horiz-adv-x="573" 
 />
    <glyph glyph-name="exclamdown" unicode="&#xa1;" horiz-adv-x="624" 
d="M252 893q0 55 37 91t92 36q56 0 92.5 -36t36.5 -91q0 -59 -36.5 -95t-92.5 -36q-55 0 -92 37t-37 94zM68 -369l190 938h135l-133 -938h-192z" />
    <glyph glyph-name="cent" unicode="&#xa2;" horiz-adv-x="1138" 
d="M918 442l104 -88q-75 -98 -183.5 -150t-236.5 -52h-2l-61 -345h-158l65 367q-156 48 -250 174.5t-94 292.5q0 140 69.5 262.5t190 198.5t263.5 86l61 348h158l-64 -358q101 -23 179.5 -81t125.5 -145l-118 -78q-112 170 -308 170q-165 0 -280 -116t-115 -281
q0 -152 99 -251t247 -99q90 0 170.5 38t137.5 107z" />
    <glyph glyph-name="sterling" unicode="&#xa3;" horiz-adv-x="1081" 
d="M446 950q0 -42 9.5 -82.5t36.5 -117.5q24 -70 34 -109h324l-25 -139h-278v-2q0 -109 -45.5 -202t-130.5 -159h551l-23 -139h-868l4 43q350 179 350 451v8h-252l23 139h206q-18 61 -28 88q-42 141 -48 184q-3 27 -3 56q0 175 118 290t297 115q168 0 274 -97t126 -273
l-148 -37q-13 127 -78 194.5t-170 67.5q-112 0 -184 -78.5t-72 -200.5z" />
    <glyph glyph-name="currency" unicode="&#xa4;" horiz-adv-x="1366" 
d="M1094 338l194 -219l-100 -92l-199 221q-137 -90 -299 -90q-192 0 -328 112l-247 -243l-92 100l247 242q-88 125 -88 282q0 210 142 365l-183 209l99 92l186 -213q137 90 297 90q192 0 334 -117l258 240l92 -100l-258 -240q84 -125 84 -277q0 -207 -139 -362zM1071 694
q0 149 -99.5 252t-246.5 103q-157 0 -269 -114.5t-112 -275.5q0 -151 99 -253.5t245 -102.5q158 0 270.5 115t112.5 276z" />
    <glyph glyph-name="yen" unicode="&#xa5;" horiz-adv-x="1132" 
d="M1268 1352l-541 -615h365l-25 -139h-401l-33 -188h401l-24 -142h-402l-47 -268h-160l48 268h-396l25 142h395l33 188h-395l24 139h361l-326 615h166l282 -533l463 533h187z" />
    <glyph glyph-name="brokenbar" unicode="&#xa6;" horiz-adv-x="679" 
d="M305 983v614h135v-614h-135zM305 -248v615h135v-615h-135z" />
    <glyph glyph-name="section" unicode="&#xa7;" horiz-adv-x="1157" 
d="M1061 401q0 -112 -79 -193t-210 -106q4 -46 4 -51q0 -127 -97.5 -213t-240.5 -86q-115 0 -203 54.5t-135 154.5l113 84q39 -70 98.5 -108.5t130.5 -38.5q75 0 123.5 43t48.5 110q0 47 -29 93t-96 106l-170 153q-104 90 -151 168t-47 156q0 115 79 194.5t214 104.5
q-6 27 -6 53q0 128 96 213.5t241 85.5q112 0 201.5 -55.5t136.5 -153.5l-114 -84q-38 69 -98.5 108.5t-129.5 39.5q-75 0 -123.5 -43.5t-48.5 -110.5q0 -49 27.5 -93.5t95.5 -104.5l170 -154q105 -93 152 -170.5t47 -155.5zM899 391q0 49 -29.5 95t-107.5 118l-184 168
q-86 86 -121 146q-78 -13 -126 -63t-48 -116q0 -50 30.5 -97t108.5 -116l182 -170q81 -78 123 -145q78 17 125 65.5t47 114.5z" />
    <glyph glyph-name="dieresis" unicode="&#xa8;" horiz-adv-x="1024" 
d="M328 1378q0 44 33.5 76.5t78.5 32.5q47 0 81 -32.5t34 -76.5t-34 -76t-81 -32q-45 0 -78.5 32t-33.5 76zM782 1378q0 44 34 76.5t81 32.5t80 -32t33 -77q0 -44 -33 -76t-80 -32t-81 32t-34 76z" />
    <glyph glyph-name="copyright" unicode="&#xa9;" horiz-adv-x="1622" 
d="M139 647q-4 141 56.5 276.5t161.5 235t239 159.5t281 56q135 3 260 -50.5t215 -144t143 -215t51 -257.5q3 -141 -57.5 -277t-161.5 -236t-238 -160t-280 -57q-135 -3 -260 50t-216 144t-144 216t-50 260zM1423 709q3 150 -71 278.5t-202 203t-278 71.5
q-120 2 -233.5 -47.5t-196.5 -133t-132.5 -198t-47.5 -236.5q0 -154 73 -282t199.5 -201.5t278.5 -73.5q120 -2 233.5 48t196.5 134.5t132.5 199.5t47.5 237zM455 657q0 169 122.5 289.5t292.5 120.5q202 0 312 -172l-113 -82q-76 123 -209 123q-108 0 -182 -80
q-74 -77 -74 -192q0 -108 66 -177t166 -69q117 0 204 100l97 -88q-61 -69 -141.5 -106t-168.5 -37q-157 0 -264.5 106t-107.5 264z" />
    <glyph glyph-name="ordfeminine" unicode="&#xaa;" horiz-adv-x="860" 
d="M707 1135h137l-113 -635h-123l10 78q-78 -91 -212 -91q-121 0 -199 84t-78 213q0 152 98.5 257.5t237.5 105.5q73 0 131 -28.5t94 -80.5zM655 842q0 82 -50 134t-128 52q-89 0 -153 -67q-62 -68 -62 -162q0 -88 50.5 -140.5t136.5 -52.5q87 0 146.5 68.5t59.5 167.5z" />
    <glyph glyph-name="guillemotleft" unicode="&#xab;" horiz-adv-x="1030" 
d="M383 145l-299 385l8 48l426 387l92 -99l-346 -319l232 -318zM788 145l-299 385l9 48l426 387l92 -99l-346 -319l231 -318z" />
    <glyph glyph-name="logicalnot" unicode="&#xac;" 
d="M758 197l67 378h-694l23 140h854l-90 -518h-160z" />
    <glyph glyph-name="uni00AD" unicode="&#xad;" horiz-adv-x="696" 
d="M125 578l25 133h479l-25 -133h-479z" />
    <glyph glyph-name="registered" unicode="&#xae;" horiz-adv-x="1196" 
d="M1178 895q2 -101 -42.5 -199.5t-118 -171t-173 -116t-201.5 -41.5q-132 0 -244.5 65t-178.5 176.5t-66 243.5q-2 103 41.5 202t117 171.5t173 115.5t204.5 41q98 2 189 -36.5t157 -104.5t105 -157t37 -189zM1071 897q0 162 -110.5 272.5t-272.5 110.5
q-177 0 -302.5 -125.5t-125.5 -300.5q0 -164 110.5 -274.5t276.5 -110.5q114 0 211.5 57.5t155 156t57.5 214.5zM772 823l115 -190h-127l-105 172h-73l-31 -172h-119l90 514h197q73 0 121.5 -46.5t48.5 -115.5q0 -113 -117 -162zM623 1042l-25 -135h76q44 0 69 19.5t25 54.5
q0 26 -19.5 43.5t-50.5 17.5h-75z" />
    <glyph glyph-name="overscore" unicode="&#xaf;" horiz-adv-x="1024" 
d="M377 1315l22 127h562l-23 -127h-561z" />
    <glyph glyph-name="degree" unicode="&#xb0;" horiz-adv-x="733" 
d="M164 1065q0 127 92 217t223 90q123 0 210 -85.5t87 -205.5q0 -126 -94 -217.5t-223 -91.5q-124 0 -209.5 85.5t-85.5 207.5zM643 1079q0 74 -46 121t-118 47q-77 0 -129.5 -52.5t-52.5 -127.5q0 -74 47.5 -122t120.5 -48q75 0 126.5 52t51.5 130z" />
    <glyph glyph-name="plusminus" unicode="&#xb1;" 
d="M463 307l57 328h-360l26 139h361l55 324h158l-55 -324h356l-25 -139h-358l-57 -328h-158zM49 0l25 139h874l-22 -139h-877z" />
    <glyph glyph-name="uni00B2" unicode="&#xb2;" horiz-adv-x="755" 
d="M551 999l-160 -131h346l-22 -123h-598l6 31l358 314q95 86 134.5 144.5t39.5 117.5q0 61 -38 98t-101 37q-72 0 -111.5 -47.5t-39.5 -132.5v-25h-136v33q0 131 82 214t211 83q122 0 195.5 -68.5t73.5 -183.5q0 -88 -54.5 -170t-185.5 -191z" />
    <glyph glyph-name="uni00B3" unicode="&#xb3;" horiz-adv-x="724" 
d="M813 1597l-6 -38l-254 -283q80 -23 130 -89.5t50 -152.5q0 -128 -92 -215.5t-227 -87.5q-109 0 -186 54.5t-109 154.5l106 57q32 -73 77.5 -107t111.5 -34q82 0 132 47t50 125q0 69 -47 106t-135 37h-78l6 39l236 265h-310l23 122h522z" />
    <glyph glyph-name="acute" unicode="&#xb4;" horiz-adv-x="1024" 
d="M440 1159l252 438h201l-4 -28l-318 -410h-131z" />
    <glyph glyph-name="uni00B5" unicode="&#xb5;" horiz-adv-x="1212" 
d="M1106 119l-25 -131q-36 -8 -77 -8q-72 0 -122.5 30.5t-70.5 87.5q-112 -121 -287 -121q-86 0 -155 33.5t-107 93.5l-82 -473h-157l241 1366h158l-103 -581q-10 -70 -10 -80q0 -97 61.5 -156t164.5 -59q109 0 186.5 66t97.5 178l113 632h158l-125 -702q-11 -68 -11 -84
q0 -94 99 -94q43 0 53 2z" />
    <glyph glyph-name="paragraph" unicode="&#xb6;" horiz-adv-x="1341" 
d="M160 920q0 192 135 312t352 120h123v-869h-123q-213 0 -350 122.5t-137 314.5zM549 -369v136q107 -13 133 -13q107 0 159 47.5t52 159.5v1391h158v-1403q0 -173 -88 -256.5t-252 -83.5q-72 0 -162 22z" />
    <glyph glyph-name="middot" unicode="&#xb7;" horiz-adv-x="573" 
d="M184 643q0 55 37.5 92t91.5 37t91.5 -37t37.5 -92t-37.5 -92t-91.5 -37t-91.5 37t-37.5 92z" />
    <glyph glyph-name="cedilla" unicode="&#xb8;" horiz-adv-x="1024" 
d="M158 -360l18 110q82 -16 129 -16q79 0 122.5 40.5t43.5 114.5q0 70 -45 127l63 29q54 -31 83.5 -80t29.5 -106q0 -106 -80 -178t-198 -72q-84 0 -166 31z" />
    <glyph glyph-name="uni00B9" unicode="&#xb9;" horiz-adv-x="720" 
d="M139 745l23 123h211l108 607h-202l22 122h338l-129 -729h184l-20 -123h-535z" />
    <glyph glyph-name="ordmasculine" unicode="&#xba;" horiz-adv-x="817" 
d="M131 797q0 142 104.5 245t249.5 103q135 0 225.5 -89.5t90.5 -221.5q0 -142 -105 -245.5t-250 -103.5q-135 0 -225 90t-90 222zM666 831q0 84 -51.5 136.5t-133.5 52.5q-92 0 -153.5 -63.5t-61.5 -157.5q0 -84 51.5 -136.5t133.5 -52.5q92 0 153.5 63.5t61.5 157.5z" />
    <glyph glyph-name="guillemotright" unicode="&#xbb;" horiz-adv-x="1030" 
d="M532 145l-92 97l346 321l-233 318l115 84l297 -385l-7 -50zM129 145l-92 97l346 321l-233 318l114 84l297 -385l-6 -50z" />
    <glyph glyph-name="onequarter" unicode="&#xbc;" horiz-adv-x="1853" 
d="M96 500l23 123h211l108 606h-202l22 123h338l-129 -729h184l-20 -123h-535zM440 0l1012 1352h139l-1013 -1352h-138zM1778 266l-23 -116h-110l-25 -150h-129l27 150h-424l6 38l366 664h150l-326 -586h246l47 260h127l-45 -260h113z" />
    <glyph glyph-name="onehalf" unicode="&#xbd;" horiz-adv-x="1927" 
d="M96 500l23 123h211l108 606h-202l22 123h338l-129 -729h184l-20 -123h-535zM440 0l1012 1352h139l-1013 -1352h-138zM1591 254l-159 -131h346l-23 -123h-598l6 31l359 313q95 86 134.5 144.5t39.5 117.5q0 61 -38.5 98t-101.5 37q-72 0 -111.5 -47.5t-39.5 -132.5v-24
h-135v32q0 131 82 214t211 83q122 0 195 -68.5t73 -183.5q0 -88 -54.5 -169.5t-185.5 -190.5z" />
    <glyph glyph-name="threequarters" unicode="&#xbe;" horiz-adv-x="1785" 
d="M770 1352l-6 -39l-254 -283q80 -23 130 -89.5t50 -152.5q0 -128 -92 -215.5t-227 -87.5q-109 0 -186 54.5t-109 154.5l106 58q32 -74 77.5 -108t111.5 -34q82 0 132 47t50 125q0 69 -47 106.5t-135 37.5h-78l6 39l236 264h-310l23 123h522zM373 0l1011 1352h140
l-1014 -1352h-137zM1710 266l-22 -116h-111l-25 -150h-129l27 150h-424l6 38l367 664h149l-325 -586h245l48 260h126l-45 -260h113z" />
    <glyph glyph-name="questiondown" unicode="&#xbf;" horiz-adv-x="911" 
d="M406 891q0 55 37.5 92t91.5 37q55 0 92 -36.5t37 -92.5t-37 -92.5t-92 -36.5q-54 0 -91.5 37t-37.5 92zM-6 -88q0 101 51.5 175.5t206.5 199.5q90 72 128.5 126t51.5 136h139q-5 -102 -46 -177t-148 -163q-139 -115 -180 -167.5t-41 -121.5q0 -75 50 -120.5t132 -45.5
q152 0 246 174l121 -73q-63 -118 -161.5 -182t-217.5 -64q-148 0 -240 84t-92 219z" />
    <glyph glyph-name="Agrave" unicode="&#xc0;" horiz-adv-x="1357" 
d="M1053 0l-68 274h-657l-164 -274h-180l827 1374h57l346 -1374h-161zM948 418l-153 655l-383 -655h536zM791 1483l-177 352l4 29h181l108 -381h-116z" />
    <glyph glyph-name="Aacute" unicode="&#xc1;" horiz-adv-x="1357" 
d="M1053 0l-68 274h-657l-164 -274h-180l827 1374h57l346 -1374h-161zM948 418l-153 655l-383 -655h536zM780 1483l232 381h200l-4 -29l-303 -352h-125z" />
    <glyph glyph-name="Acircumflex" unicode="&#xc2;" horiz-adv-x="1357" 
d="M1053 0l-68 274h-657l-164 -274h-180l827 1374h57l346 -1374h-161zM948 418l-153 655l-383 -655h536zM1194 1483h-113l-186 221l-264 -221h-135l368 381h97z" />
    <glyph glyph-name="Atilde" unicode="&#xc3;" horiz-adv-x="1357" 
d="M1053 0l-68 274h-657l-164 -274h-180l827 1374h57l346 -1374h-161zM948 418l-153 655l-383 -655h536zM868 1575l-63 41q-56 39 -86 39q-32 0 -49 -27.5t-23 -87.5h-127q11 132 57 195t136 63q80 0 157 -55l62 -43q51 -39 88 -39q34 0 49 26t23 91h127q-11 -130 -58 -194
t-137 -64q-43 0 -75 12.5t-81 42.5z" />
    <glyph glyph-name="Adieresis" unicode="&#xc4;" horiz-adv-x="1357" 
d="M1053 0l-68 274h-657l-164 -274h-180l827 1374h57l346 -1374h-161zM948 418l-153 655l-383 -655h536zM524 1659q0 44 34 76t79 32q47 0 80 -32t33 -76q0 -45 -33 -77t-80 -32q-45 0 -79 32.5t-34 76.5zM1001 1657q0 45 33 77.5t80 32.5t80 -32.5t33 -77.5t-33 -77
t-80 -32t-80 32t-33 77z" />
    <glyph glyph-name="Aring" unicode="&#xc5;" horiz-adv-x="1357" 
d="M1053 0l-68 274h-657l-164 -274h-180l827 1374h57l346 -1374h-161zM948 418l-153 655l-383 -655h536zM653 1640q0 97 70 164q71 68 170 68q94 0 155.5 -60t61.5 -151q0 -92 -72 -164q-70 -67 -168 -67q-94 0 -155.5 59.5t-61.5 150.5zM985 1655q0 43 -27.5 70.5
t-70.5 27.5q-45 0 -77 -31t-32 -75q0 -42 28.5 -70.5t70.5 -28.5q44 0 76 31.5t32 75.5z" />
    <glyph glyph-name="AE" unicode="&#xc6;" horiz-adv-x="1685" 
d="M1700 1208h-660l-4 -413h426l-24 -144h-402l-4 -508h508l-27 -143h-645l2 276h-553l-188 -276h-188l933 1352h850zM877 1094l-461 -674h454z" />
    <glyph glyph-name="Ccedilla" unicode="&#xc7;" horiz-adv-x="1462" 
d="M135 625q-3 147 58.5 286.5t164.5 241.5t244.5 163t290.5 58q179 0 322.5 -84.5t228.5 -238.5l-131 -80q-69 125 -179 190.5t-251 65.5q-116 2 -225 -45.5t-187.5 -128.5t-125 -192t-44.5 -230q0 -221 139.5 -363.5t354.5 -142.5q267 0 452 215l111 -92
q-109 -129 -259 -200t-317 -71q-183 0 -331 84t-232 232.5t-84 331.5zM408 -360l18 110q82 -16 129 -16q79 0 122.5 40.5t43.5 114.5q0 70 -45 127l63 29q54 -31 83.5 -80t29.5 -106q0 -106 -80.5 -178t-198.5 -72q-83 0 -165 31z" />
    <glyph glyph-name="Egrave" unicode="&#xc8;" horiz-adv-x="1161" 
d="M100 0l238 1352h866l-26 -144h-707l-76 -413h543l-25 -144h-540l-88 -508h731l-25 -143h-891zM727 1483l-176 352l4 29h180l109 -381h-117z" />
    <glyph glyph-name="Eacute" unicode="&#xc9;" horiz-adv-x="1161" 
d="M100 0l238 1352h866l-26 -144h-707l-76 -413h543l-25 -144h-540l-88 -508h731l-25 -143h-891zM717 1483l231 381h201l-4 -29l-303 -352h-125z" />
    <glyph glyph-name="Ecircumflex" unicode="&#xca;" horiz-adv-x="1161" 
d="M100 0l238 1352h866l-26 -144h-707l-76 -413h543l-25 -144h-540l-88 -508h731l-25 -143h-891zM1130 1483h-112l-187 221l-264 -221h-135l369 381h96z" />
    <glyph glyph-name="Edieresis" unicode="&#xcb;" horiz-adv-x="1161" 
d="M100 0l238 1352h866l-26 -144h-707l-76 -413h543l-25 -144h-540l-88 -508h731l-25 -143h-891zM461 1659q0 44 33.5 76t78.5 32q47 0 80 -32t33 -76q0 -45 -33 -77t-80 -32q-45 0 -78.5 32.5t-33.5 76.5zM938 1657q0 45 33 77.5t80 32.5t79.5 -32.5t32.5 -77.5t-32.5 -77
t-79.5 -32t-80 32t-33 77z" />
    <glyph glyph-name="Igrave" unicode="&#xcc;" horiz-adv-x="530" 
d="M100 0l238 1352h160l-238 -1352h-160zM385 1483l-176 352l4 29h180l109 -381h-117z" />
    <glyph glyph-name="Iacute" unicode="&#xcd;" horiz-adv-x="530" 
d="M100 0l238 1352h160l-238 -1352h-160zM373 1483l231 381h201l-4 -29l-303 -352h-125z" />
    <glyph glyph-name="Icircumflex" unicode="&#xce;" horiz-adv-x="530" 
d="M100 0l238 1352h160l-238 -1352h-160zM788 1483h-112l-187 221l-264 -221h-135l369 381h96z" />
    <glyph glyph-name="Idieresis" unicode="&#xcf;" horiz-adv-x="530" 
d="M100 0l238 1352h160l-238 -1352h-160zM119 1659q0 44 33.5 76t78.5 32q47 0 80 -32t33 -76q0 -45 -33 -77t-80 -32q-45 0 -78.5 32.5t-33.5 76.5zM596 1657q0 45 33 77.5t80 32.5t79.5 -32.5t32.5 -77.5t-32.5 -77t-79.5 -32t-80 32t-33 77z" />
    <glyph glyph-name="Eth" unicode="&#xd0;" horiz-adv-x="1437" 
d="M1366 729q2 -157 -58 -293.5t-166.5 -233t-258 -150.5t-326.5 -52h-453l99 561h-199l25 135h198l115 656h342q302 0 492 -174t190 -449zM1200 717q0 222 -145 356.5t-383 134.5h-195l-90 -512h264l-24 -135h-262l-74 -418h274q183 0 328 72.5t226 203.5t81 298z" />
    <glyph glyph-name="Ntilde" unicode="&#xd1;" horiz-adv-x="1449" 
d="M1255 1352h160l-241 -1375h-58l-678 1057l-178 -1034h-160l242 1374h57l678 -1059zM922 1575l-64 41q-56 39 -86 39q-32 0 -49 -27.5t-23 -87.5h-127q11 132 57 195t136 63q81 0 158 -55l61 -43q51 -39 88 -39q34 0 49 26t23 91h127q-11 -130 -58 -194t-137 -64
q-43 0 -74 12t-81 43z" />
    <glyph glyph-name="Ograve" unicode="&#xd2;" horiz-adv-x="1601" 
d="M135 625q-3 149 58.5 289t164.5 241.5t243.5 161.5t287.5 57q135 2 255.5 -48t206 -137t134.5 -207.5t47 -254.5q3 -148 -59 -288t-165.5 -242.5t-243.5 -163t-286 -56.5q-135 -2 -255.5 48.5t-206 137.5t-134.5 207.5t-47 254.5zM1366 723q0 216 -138 360t-351 144
q-154 3 -289 -78t-214 -219.5t-75 -296.5q0 -219 137.5 -363.5t349.5 -144.5q153 -3 288.5 79t215 221.5t76.5 297.5zM911 1483l-176 352l4 29h181l108 -381h-117z" />
    <glyph glyph-name="Oacute" unicode="&#xd3;" horiz-adv-x="1601" 
d="M135 625q-3 149 58.5 289t164.5 241.5t243.5 161.5t287.5 57q135 2 255.5 -48t206 -137t134.5 -207.5t47 -254.5q3 -148 -59 -288t-165.5 -242.5t-243.5 -163t-286 -56.5q-135 -2 -255.5 48.5t-206 137.5t-134.5 207.5t-47 254.5zM1366 723q0 216 -138 360t-351 144
q-154 3 -289 -78t-214 -219.5t-75 -296.5q0 -219 137.5 -363.5t349.5 -144.5q153 -3 288.5 79t215 221.5t76.5 297.5zM899 1483l231 381h201l-4 -29l-303 -352h-125z" />
    <glyph glyph-name="Ocircumflex" unicode="&#xd4;" horiz-adv-x="1601" 
d="M135 625q-3 149 58.5 289t164.5 241.5t243.5 161.5t287.5 57q135 2 255.5 -48t206 -137t134.5 -207.5t47 -254.5q3 -148 -59 -288t-165.5 -242.5t-243.5 -163t-286 -56.5q-135 -2 -255.5 48.5t-206 137.5t-134.5 207.5t-47 254.5zM1366 723q0 216 -138 360t-351 144
q-154 3 -289 -78t-214 -219.5t-75 -296.5q0 -219 137.5 -363.5t349.5 -144.5q153 -3 288.5 79t215 221.5t76.5 297.5zM1313 1483h-113l-186 221l-264 -221h-136l369 381h96z" />
    <glyph glyph-name="Otilde" unicode="&#xd5;" horiz-adv-x="1601" 
d="M135 625q-3 149 58.5 289t164.5 241.5t243.5 161.5t287.5 57q135 2 255.5 -48t206 -137t134.5 -207.5t47 -254.5q3 -148 -59 -288t-165.5 -242.5t-243.5 -163t-286 -56.5q-135 -2 -255.5 48.5t-206 137.5t-134.5 207.5t-47 254.5zM1366 723q0 216 -138 360t-351 144
q-154 3 -289 -78t-214 -219.5t-75 -296.5q0 -219 137.5 -363.5t349.5 -144.5q153 -3 288.5 79t215 221.5t76.5 297.5zM987 1575l-63 41q-56 39 -86 39q-32 0 -49 -27.5t-23 -87.5h-127q11 132 56.5 195t135.5 63q81 0 158 -55l62 -43q51 -39 88 -39q34 0 48.5 25.5
t22.5 91.5h127q-11 -131 -57.5 -194.5t-136.5 -63.5q-43 0 -75 12.5t-81 42.5z" />
    <glyph glyph-name="Odieresis" unicode="&#xd6;" horiz-adv-x="1601" 
d="M135 625q-3 149 58.5 289t164.5 241.5t243.5 161.5t287.5 57q135 2 255.5 -48t206 -137t134.5 -207.5t47 -254.5q3 -148 -59 -288t-165.5 -242.5t-243.5 -163t-286 -56.5q-135 -2 -255.5 48.5t-206 137.5t-134.5 207.5t-47 254.5zM1366 723q0 216 -138 360t-351 144
q-154 3 -289 -78t-214 -219.5t-75 -296.5q0 -219 137.5 -363.5t349.5 -144.5q153 -3 288.5 79t215 221.5t76.5 297.5zM643 1659q0 44 34 76t79 32q47 0 79.5 -31.5t32.5 -76.5t-32.5 -77t-79.5 -32q-45 0 -79 32.5t-34 76.5zM1120 1657q0 45 33 77.5t80 32.5t80 -32.5
t33 -77.5t-33 -77t-80 -32t-80 32t-33 77z" />
    <glyph glyph-name="multiply" unicode="&#xd7;" 
d="M860 215l-272 334l-369 -301l-84 104l369 303l-271 334l107 86l272 -334l367 299l84 -104l-369 -299l271 -338z" />
    <glyph glyph-name="Oslash" unicode="&#xd8;" horiz-adv-x="1570" 
d="M1556 1290l-170 -162q130 -173 130 -401q3 -146 -58.5 -286t-164.5 -243t-243.5 -164t-287.5 -57q-238 0 -420 148l-170 -164l-96 100l170 164q-127 174 -127 400q-3 147 58.5 286.5t164 241.5t243 163t287.5 58q240 0 418 -145l170 162zM283 633q0 -164 82 -295l813 778
q-132 111 -318 111q-115 2 -222.5 -45.5t-186 -128t-124.5 -191.5t-44 -229zM1350 723q0 169 -82 291l-813 -778q132 -111 315 -111q153 -3 288.5 79t215 221.5t76.5 297.5z" />
    <glyph glyph-name="Ugrave" unicode="&#xd9;" horiz-adv-x="1406" 
d="M170 446q0 54 12 125l135 781h160l-137 -787q-10 -68 -10 -106q0 -145 99 -239.5t251 -94.5q149 0 262 96q110 98 137 258l152 873h160l-156 -883q-41 -227 -193 -358q-152 -134 -370 -134q-221 0 -361.5 131t-140.5 338zM823 1483l-176 352l4 29h180l109 -381h-117z" />
    <glyph glyph-name="Uacute" unicode="&#xda;" horiz-adv-x="1406" 
d="M170 446q0 54 12 125l135 781h160l-137 -787q-10 -68 -10 -106q0 -145 99 -239.5t251 -94.5q149 0 262 96q110 98 137 258l152 873h160l-156 -883q-41 -227 -193 -358q-152 -134 -370 -134q-221 0 -361.5 131t-140.5 338zM813 1483l231 381h201l-4 -29l-303 -352h-125z
" />
    <glyph glyph-name="Ucircumflex" unicode="&#xdb;" horiz-adv-x="1406" 
d="M170 446q0 54 12 125l135 781h160l-137 -787q-10 -68 -10 -106q0 -145 99 -239.5t251 -94.5q149 0 262 96q110 98 137 258l152 873h160l-156 -883q-41 -227 -193 -358q-152 -134 -370 -134q-221 0 -361.5 131t-140.5 338zM1227 1483h-113l-186 221l-264 -221h-136
l369 381h96z" />
    <glyph glyph-name="Udieresis" unicode="&#xdc;" horiz-adv-x="1406" 
d="M170 446q0 54 12 125l135 781h160l-137 -787q-10 -68 -10 -106q0 -145 99 -239.5t251 -94.5q149 0 262 96q110 98 137 258l152 873h160l-156 -883q-41 -227 -193 -358q-152 -134 -370 -134q-221 0 -361.5 131t-140.5 338zM557 1659q0 44 34 76t79 32q47 0 79.5 -31.5
t32.5 -76.5t-32.5 -77t-79.5 -32q-45 0 -79 32.5t-34 76.5zM1034 1657q0 45 33 77.5t80 32.5t80 -32.5t33 -77.5t-33 -77t-80 -32t-80 32t-33 77z" />
    <glyph glyph-name="Yacute" unicode="&#xdd;" horiz-adv-x="1261" 
d="M1321 1352l-610 -797l-97 -555h-159l98 561l-330 791h166l262 -639l482 639h188zM727 1483l231 381h201l-4 -29l-303 -352h-125z" />
    <glyph glyph-name="Thorn" unicode="&#xde;" horiz-adv-x="1173" 
d="M1130 737q0 -195 -136 -313.5t-359 -118.5h-322l-53 -305h-160l238 1352h160l-43 -242h258q192 0 304.5 -100.5t112.5 -272.5zM965 731q0 113 -68 174.5t-192 61.5h-275l-92 -518h315q141 0 226.5 76.5t85.5 205.5z" />
    <glyph glyph-name="germandbls" unicode="&#xdf;" horiz-adv-x="1257" 
d="M457 141l90 111q69 -67 133.5 -98t136.5 -31q86 0 134 37t48 100q0 38 -19 62t-81 67q-25 22 -49 37q-101 75 -139.5 123t-38.5 106q0 77 63 191l127 221q68 124 68 188q0 73 -52 115.5t-139 42.5q-117 0 -194.5 -76t-102.5 -215l-194 -1122h-158l199 1139
q35 194 157 305q127 115 306 115q152 0 245 -77t93 -200q0 -113 -70 -238l-123 -219q-59 -109 -59 -149q0 -31 21 -55.5t87 -73.5l39 -29q94 -71 134 -125t40 -125q0 -125 -99.5 -208t-248.5 -83q-210 0 -354 164z" />
    <glyph glyph-name="agrave" unicode="&#xe0;" horiz-adv-x="1288" 
d="M1047 997h157l-176 -997h-147l24 133q-63 -74 -157.5 -115t-202.5 -41q-192 0 -320.5 135.5t-128.5 338.5q-2 115 40.5 221.5t116 183t174.5 121.5t210 43q123 0 224 -52t157 -141zM965 557q0 141 -88 229t-230 88q-161 0 -275 -121.5t-114 -291.5q0 -149 92 -244
q91 -94 238 -94q157 0 267 126t110 308zM594 1159l-102 410l10 28h176l29 -438h-113z" />
    <glyph glyph-name="aacute" unicode="&#xe1;" horiz-adv-x="1288" 
d="M1047 997h157l-176 -997h-147l24 133q-63 -74 -157.5 -115t-202.5 -41q-192 0 -320.5 135.5t-128.5 338.5q-2 115 40.5 221.5t116 183t174.5 121.5t210 43q123 0 224 -52t157 -141zM965 557q0 141 -88 229t-230 88q-161 0 -275 -121.5t-114 -291.5q0 -149 92 -244
q91 -94 238 -94q157 0 267 126t110 308zM592 1159l252 438h200l-4 -28l-317 -410h-131z" />
    <glyph glyph-name="acircumflex" unicode="&#xe2;" horiz-adv-x="1288" 
d="M1047 997h157l-176 -997h-147l24 133q-63 -74 -157.5 -115t-202.5 -41q-192 0 -320.5 135.5t-128.5 338.5q-2 115 40.5 221.5t116 183t174.5 121.5t210 43q123 0 224 -52t157 -141zM965 557q0 141 -88 229t-230 88q-161 0 -275 -121.5t-114 -291.5q0 -149 92 -244
q91 -94 238 -94q157 0 267 126t110 308zM1004 1159h-113l-158 264l-254 -264h-127l355 438h96z" />
    <glyph glyph-name="atilde" unicode="&#xe3;" horiz-adv-x="1288" 
d="M1047 997h157l-176 -997h-147l24 133q-63 -74 -157.5 -115t-202.5 -41q-192 0 -320.5 135.5t-128.5 338.5q-2 115 40.5 221.5t116 183t174.5 121.5t210 43q123 0 224 -52t157 -141zM965 557q0 141 -88 229t-230 88q-161 0 -275 -121.5t-114 -291.5q0 -149 92 -244
q91 -94 238 -94q157 0 267 126t110 308zM709 1280l-50 45q-28 26 -43.5 35.5t-33.5 9.5q-34 0 -51 -29t-25 -94h-127q24 264 194 264q79 0 144 -59l49 -45q27 -26 43.5 -35.5t34.5 -9.5q34 0 51 29t25 94h127q-12 -126 -60.5 -195t-132.5 -69q-77 0 -145 59z" />
    <glyph glyph-name="adieresis" unicode="&#xe4;" horiz-adv-x="1288" 
d="M1047 997h157l-176 -997h-147l24 133q-63 -74 -157.5 -115t-202.5 -41q-192 0 -320.5 135.5t-128.5 338.5q-2 115 40.5 221.5t116 183t174.5 121.5t210 43q123 0 224 -52t157 -141zM965 557q0 141 -88 229t-230 88q-161 0 -275 -121.5t-114 -291.5q0 -149 92 -244
q91 -94 238 -94q157 0 267 126t110 308zM371 1378q0 44 33.5 76.5t78.5 32.5q47 0 81 -32.5t34 -76.5t-34 -76t-81 -32q-45 0 -78.5 32t-33.5 76zM825 1378q0 44 34 76.5t81 32.5t80 -32t33 -77q0 -44 -33 -76t-80 -32t-81 32t-34 76z" />
    <glyph glyph-name="aring" unicode="&#xe5;" horiz-adv-x="1288" 
d="M1047 997h157l-176 -997h-147l24 133q-63 -74 -157.5 -115t-202.5 -41q-192 0 -320.5 135.5t-128.5 338.5q-2 115 40.5 221.5t116 183t174.5 121.5t210 43q123 0 224 -52t157 -141zM965 557q0 141 -88 229t-230 88q-161 0 -275 -121.5t-114 -291.5q0 -149 92 -244
q91 -94 238 -94q157 0 267 126t110 308zM504 1358q0 97 67 164q70 67 170 67q93 0 154 -59.5t61 -149.5q0 -98 -69 -165.5t-168 -67.5q-92 0 -153.5 60t-61.5 151zM831 1374q0 43 -27 72t-69 29q-44 0 -76 -33t-32 -78q0 -43 27.5 -71.5t70.5 -28.5t74.5 31.5t31.5 78.5z
" />
    <glyph glyph-name="ae" unicode="&#xe6;" horiz-adv-x="1822" 
d="M1712 430h-780q11 -141 103 -224t241 -83q159 0 307 121l80 -107q-168 -160 -401 -160q-138 0 -248.5 63.5t-171.5 174.5q-60 -111 -177.5 -174.5t-265.5 -63.5q-164 0 -255 71.5t-91 199.5q0 146 109.5 229.5t298.5 83.5h319l2 10q9 47 9 105q0 94 -61 146t-171 52
q-78 0 -145.5 -29t-145.5 -95l-78 114q170 156 388 156q127 0 214.5 -51t122.5 -144q73 91 177.5 143t220.5 52q185 0 304.5 -122.5t119.5 -311.5q0 -92 -25 -156zM938 561h639v35q0 131 -74 206t-203 75q-138 0 -237 -87t-125 -229zM745 358l13 72h-297q-246 0 -246 -166
q0 -73 54.5 -115.5t148.5 -42.5q118 0 215 72q94 70 112 180z" />
    <glyph glyph-name="ccedilla" unicode="&#xe7;" horiz-adv-x="1142" 
d="M98 467q-2 111 42.5 214t119.5 178t178.5 119t214.5 42q135 0 245.5 -63t172.5 -173l-121 -79q-108 169 -301 169q-164 0 -276.5 -116.5t-112.5 -282.5q0 -155 96.5 -254.5t243.5 -99.5q88 0 167 37t136 106l103 -94q-78 -100 -177.5 -146.5t-234.5 -46.5
q-140 0 -253.5 63.5t-178 176t-64.5 250.5zM219 -360l19 110q82 -16 129 -16q79 0 122 40.5t43 114.5q0 70 -45 127l64 29q54 -31 83.5 -80t29.5 -106q0 -106 -80.5 -178t-198.5 -72q-84 0 -166 31z" />
    <glyph glyph-name="egrave" unicode="&#xe8;" horiz-adv-x="1153" 
d="M1044 451h-784q7 -152 100.5 -240t247.5 -88q159 0 307 121l80 -107q-168 -160 -401 -160q-216 0 -356 138.5t-140 351.5q-2 109 41.5 212t116.5 178.5t174 120t209 42.5q191 0 310.5 -122.5t119.5 -319.5q0 -66 -25 -127zM272 590h637q-1 135 -75 211t-203 76
q-133 0 -230 -78t-129 -209zM582 1159l-103 410l10 28h177l28 -438h-112z" />
    <glyph glyph-name="eacute" unicode="&#xe9;" horiz-adv-x="1153" 
d="M1044 451h-784q7 -152 100.5 -240t247.5 -88q159 0 307 121l80 -107q-168 -160 -401 -160q-216 0 -356 138.5t-140 351.5q-2 109 41.5 212t116.5 178.5t174 120t209 42.5q191 0 310.5 -122.5t119.5 -319.5q0 -66 -25 -127zM272 590h637q-1 135 -75 211t-203 76
q-133 0 -230 -78t-129 -209zM582 1159l252 438h200l-4 -28l-317 -410h-131z" />
    <glyph glyph-name="ecircumflex" unicode="&#xea;" horiz-adv-x="1153" 
d="M1044 451h-784q7 -152 100.5 -240t247.5 -88q159 0 307 121l80 -107q-168 -160 -401 -160q-216 0 -356 138.5t-140 351.5q-2 109 41.5 212t116.5 178.5t174 120t209 42.5q191 0 310.5 -122.5t119.5 -319.5q0 -66 -25 -127zM272 590h637q-1 135 -75 211t-203 76
q-133 0 -230 -78t-129 -209zM991 1159h-112l-158 264l-254 -264h-127l354 438h97z" />
    <glyph glyph-name="edieresis" unicode="&#xeb;" horiz-adv-x="1153" 
d="M1044 451h-784q7 -152 100.5 -240t247.5 -88q159 0 307 121l80 -107q-168 -160 -401 -160q-216 0 -356 138.5t-140 351.5q-2 109 41.5 212t116.5 178.5t174 120t209 42.5q191 0 310.5 -122.5t119.5 -319.5q0 -66 -25 -127zM272 590h637q-1 135 -75 211t-203 76
q-133 0 -230 -78t-129 -209zM358 1378q0 44 34 76.5t79 32.5q47 0 81 -32.5t34 -76.5t-34 -76t-81 -32q-45 0 -79 32t-34 76zM813 1378q0 44 34 76.5t81 32.5t79.5 -32t32.5 -77t-32.5 -76.5t-79.5 -31.5t-81 32t-34 76z" />
    <glyph glyph-name="igrave" unicode="&#xec;" horiz-adv-x="503" 
d="M88 0l176 997h158l-176 -997h-158zM311 1159l-106 410l4 28h184l37 -438h-119z" />
    <glyph glyph-name="iacute" unicode="&#xed;" horiz-adv-x="503" 
d="M88 0l176 997h158l-176 -997h-158zM309 1159l191 438h200l-4 -28l-260 -410h-127z" />
    <glyph glyph-name="icircumflex" unicode="&#xee;" horiz-adv-x="503" 
d="M88 0l176 997h158l-176 -997h-158zM690 1159h-112l-158 264l-254 -264h-127l354 438h96z" />
    <glyph glyph-name="idieresis" unicode="&#xef;" horiz-adv-x="503" 
d="M88 0l176 997h158l-176 -997h-158zM94 1380q0 44 34 76.5t81 32.5t80 -32t33 -77q0 -44 -33 -76t-80 -32t-81 32t-34 76zM475 1380q0 44 34 76.5t79 32.5q47 0 80.5 -32.5t33.5 -76.5t-33.5 -76t-80.5 -32q-45 0 -79 32t-34 76z" />
    <glyph glyph-name="eth" unicode="&#xf0;" horiz-adv-x="1159" 
d="M1053 477q3 -129 -68 -246.5t-191 -187t-253 -66.5q-192 0 -320.5 126t-128.5 315q-2 95 38 185.5t108 157t161 105.5t191 37q70 0 137 -20l-178 293l-324 -132l-43 121l301 121l-116 193l129 80l131 -216l329 134l43 -117l-307 -125l189 -309q95 -158 133.5 -256.5
t38.5 -192.5zM891 469q0 127 -84 211t-211 84q-141 0 -241.5 -100.5t-100.5 -241.5q0 -130 84 -214.5t213 -84.5q142 0 241 101.5t99 244.5z" />
    <glyph glyph-name="ntilde" unicode="&#xf1;" horiz-adv-x="1159" 
d="M1030 692q0 -40 -12 -110l-103 -582h-157l104 586q10 62 10 84q0 97 -59 152t-160 55q-113 0 -195 -66.5t-100 -179.5l-110 -631h-158l174 997h148l-17 -96q119 119 295 119q153 0 246.5 -90.5t93.5 -237.5zM719 1280l-49 45q-27 26 -43.5 35.5t-34.5 9.5q-34 0 -51 -29
t-25 -94h-127q24 264 195 264q78 0 143 -59l49 -45q27 -26 43.5 -35.5t34.5 -9.5q34 0 51 29t25 94h127q-12 -126 -60.5 -195t-132.5 -69q-77 0 -145 59z" />
    <glyph glyph-name="ograve" unicode="&#xf2;" horiz-adv-x="1247" 
d="M100 473q-2 108 42.5 209.5t120 176.5t178.5 119t212 42q139 0 253 -65t179.5 -179t65.5 -252q3 -144 -73 -271.5t-206.5 -203t-277.5 -72.5q-211 0 -352.5 142t-141.5 354zM989 524q0 149 -97.5 249.5t-244.5 100.5q-161 0 -273 -117t-112 -284q0 -154 94 -252t244 -98
q164 0 276.5 116.5t112.5 284.5zM594 1159l-102 410l10 28h176l29 -438h-113z" />
    <glyph glyph-name="oacute" unicode="&#xf3;" horiz-adv-x="1247" 
d="M100 473q-2 108 42.5 209.5t120 176.5t178.5 119t212 42q139 0 253 -65t179.5 -179t65.5 -252q3 -144 -73 -271.5t-206.5 -203t-277.5 -72.5q-211 0 -352.5 142t-141.5 354zM989 524q0 149 -97.5 249.5t-244.5 100.5q-161 0 -273 -117t-112 -284q0 -154 94 -252t244 -98
q164 0 276.5 116.5t112.5 284.5zM594 1159l252 438h201l-5 -28l-317 -410h-131z" />
    <glyph glyph-name="ocircumflex" unicode="&#xf4;" horiz-adv-x="1247" 
d="M100 473q-2 108 42.5 209.5t120 176.5t178.5 119t212 42q139 0 253 -65t179.5 -179t65.5 -252q3 -144 -73 -271.5t-206.5 -203t-277.5 -72.5q-211 0 -352.5 142t-141.5 354zM989 524q0 149 -97.5 249.5t-244.5 100.5q-161 0 -273 -117t-112 -284q0 -154 94 -252t244 -98
q164 0 276.5 116.5t112.5 284.5zM1004 1159h-113l-158 264l-254 -264h-127l355 438h96z" />
    <glyph glyph-name="otilde" unicode="&#xf5;" horiz-adv-x="1247" 
d="M100 473q-2 108 42.5 209.5t120 176.5t178.5 119t212 42q139 0 253 -65t179.5 -179t65.5 -252q3 -144 -73 -271.5t-206.5 -203t-277.5 -72.5q-211 0 -352.5 142t-141.5 354zM989 524q0 149 -97.5 249.5t-244.5 100.5q-161 0 -273 -117t-112 -284q0 -154 94 -252t244 -98
q164 0 276.5 116.5t112.5 284.5zM709 1280l-50 45q-28 26 -43.5 35.5t-33.5 9.5q-34 0 -51 -29t-25 -94h-127q24 264 194 264q79 0 144 -59l49 -45q27 -26 43.5 -35.5t34.5 -9.5q34 0 51 29t25 94h127q-12 -126 -60.5 -195t-132.5 -69q-77 0 -145 59z" />
    <glyph glyph-name="odieresis" unicode="&#xf6;" horiz-adv-x="1247" 
d="M100 473q-2 108 42.5 209.5t120 176.5t178.5 119t212 42q139 0 253 -65t179.5 -179t65.5 -252q3 -144 -73 -271.5t-206.5 -203t-277.5 -72.5q-211 0 -352.5 142t-141.5 354zM989 524q0 149 -97.5 249.5t-244.5 100.5q-161 0 -273 -117t-112 -284q0 -154 94 -252t244 -98
q164 0 276.5 116.5t112.5 284.5zM371 1378q0 44 33.5 76.5t78.5 32.5q47 0 81 -32.5t34 -76.5t-34 -76t-81 -32q-45 0 -78.5 32t-33.5 76zM825 1378q0 44 34 76.5t81 32.5t80 -32t33 -77q0 -44 -33 -76t-80 -32t-81 32t-34 76z" />
    <glyph glyph-name="divide" unicode="&#xf7;" 
d="M553 1006q0 47 32.5 78.5t80.5 31.5q47 0 79.5 -31.5t32.5 -78.5q0 -45 -32.5 -77t-79.5 -32t-80 32t-33 77zM131 575l23 140h913l-23 -140h-913zM424 276q0 47 32.5 78t80.5 31t80 -31t32 -78q0 -45 -32.5 -76.5t-79.5 -31.5t-80 32t-33 76z" />
    <glyph glyph-name="oslash" unicode="&#xf8;" horiz-adv-x="1257" 
d="M1174 928l-121 -119q98 -128 98 -293q3 -142 -74 -268t-207 -200t-276 -71q-167 0 -297 95l-119 -119l-96 98l117 115q-97 129 -97 295q-2 106 43 206.5t120 174.5t177.5 117.5t210.5 41.5q169 0 303 -96l123 119zM264 465q0 -110 53 -193l533 523q-84 63 -203 63
q-158 0 -270.5 -115.5t-112.5 -277.5zM987 510q0 107 -51 190l-530 -522q80 -57 194 -57q160 0 273.5 114t113.5 275z" />
    <glyph glyph-name="ugrave" unicode="&#xf9;" horiz-adv-x="1144" 
d="M141 340q0 40 9 86l98 571h158l-105 -591q-4 -28 -4 -60q0 -98 67 -160.5t171 -62.5q105 0 178.5 63.5t93.5 169.5l111 641h157l-112 -645q-30 -170 -150 -272q-121 -103 -287 -103q-169 0 -277 102.5t-108 260.5zM600 1159l-102 410l10 28h176l29 -438h-113z" />
    <glyph glyph-name="uacute" unicode="&#xfa;" horiz-adv-x="1144" 
d="M141 340q0 40 9 86l98 571h158l-105 -591q-4 -28 -4 -60q0 -98 67 -160.5t171 -62.5q105 0 178.5 63.5t93.5 169.5l111 641h157l-112 -645q-30 -170 -150 -272q-121 -103 -287 -103q-169 0 -277 102.5t-108 260.5zM600 1159l252 438h201l-4 -28l-318 -410h-131z" />
    <glyph glyph-name="ucircumflex" unicode="&#xfb;" horiz-adv-x="1144" 
d="M141 340q0 40 9 86l98 571h158l-105 -591q-4 -28 -4 -60q0 -98 67 -160.5t171 -62.5q105 0 178.5 63.5t93.5 169.5l111 641h157l-112 -645q-30 -170 -150 -272q-121 -103 -287 -103q-169 0 -277 102.5t-108 260.5zM1010 1159h-113l-158 264l-254 -264h-127l355 438h96z
" />
    <glyph glyph-name="udieresis" unicode="&#xfc;" horiz-adv-x="1144" 
d="M141 340q0 40 9 86l98 571h158l-105 -591q-4 -28 -4 -60q0 -98 67 -160.5t171 -62.5q105 0 178.5 63.5t93.5 169.5l111 641h157l-112 -645q-30 -170 -150 -272q-121 -103 -287 -103q-169 0 -277 102.5t-108 260.5zM377 1378q0 44 33.5 76.5t78.5 32.5q47 0 81 -32.5
t34 -76.5t-34 -76t-81 -32q-45 0 -78.5 32t-33.5 76zM831 1378q0 44 34 76.5t81 32.5t80 -32t33 -77q0 -44 -33 -76t-80 -32t-81 32t-34 76z" />
    <glyph glyph-name="yacute" unicode="&#xfd;" horiz-adv-x="1155" 
d="M913 997h158l-174 -989q-32 -184 -155 -291.5t-300 -107.5q-130 0 -242.5 60.5t-181.5 168.5l105 101q129 -185 319 -185q119 0 196.5 68t100.5 192l17 97q-116 -107 -281 -107q-152 0 -245 89t-93 237q0 34 13 110l98 557h158l-103 -561q-10 -62 -10 -84
q0 -96 59 -150.5t162 -54.5q111 0 192 65.5t101 178.5zM592 1159l252 438h200l-4 -28l-317 -410h-131z" />
    <glyph glyph-name="thorn" unicode="&#xfe;" horiz-adv-x="1290" 
d="M1194 541q3 -152 -69.5 -283.5t-197 -207.5t-268.5 -73q-124 0 -228 55t-155 148l-96 -549h-157l335 1905h158l-117 -662q62 68 153 107t193 39q192 0 320.5 -137.5t128.5 -341.5zM1032 526q0 151 -93 249.5t-239 98.5q-156 0 -266 -125.5t-110 -302.5q0 -142 91 -232.5
t234 -90.5q158 0 270.5 118.5t112.5 284.5z" />
    <glyph glyph-name="ydieresis" unicode="&#xff;" horiz-adv-x="1155" 
d="M913 997h158l-174 -989q-32 -184 -155 -291.5t-300 -107.5q-130 0 -242.5 60.5t-181.5 168.5l105 101q129 -185 319 -185q119 0 196.5 68t100.5 192l17 97q-116 -107 -281 -107q-152 0 -245 89t-93 237q0 34 13 110l98 557h158l-103 -561q-10 -62 -10 -84
q0 -96 59 -150.5t162 -54.5q111 0 192 65.5t101 178.5zM369 1378q0 44 33.5 76.5t78.5 32.5q47 0 81 -32.5t34 -76.5t-34 -76t-81 -32q-45 0 -78.5 32t-33.5 76zM823 1378q0 44 34 76.5t81 32.5t80 -32t33 -77q0 -44 -33 -76t-80 -32t-81 32t-34 76z" />
    <glyph glyph-name="Amacron" unicode="&#x100;" horiz-adv-x="1357" 
d="M1053 0l-68 274h-657l-164 -274h-180l827 1374h57l346 -1374h-161zM948 418l-153 655l-383 -655h536zM563 1577l23 129h602l-23 -129h-602z" />
    <glyph glyph-name="amacron" unicode="&#x101;" horiz-adv-x="1288" 
d="M1047 997h157l-176 -997h-147l24 133q-63 -74 -157.5 -115t-202.5 -41q-192 0 -320.5 135.5t-128.5 338.5q-2 115 40.5 221.5t116 183t174.5 121.5t210 43q123 0 224 -52t157 -141zM965 557q0 141 -88 229t-230 88q-161 0 -275 -121.5t-114 -291.5q0 -149 92 -244
q91 -94 238 -94q157 0 267 126t110 308zM430 1315l23 127h561l-23 -127h-561z" />
    <glyph glyph-name="Abreve" unicode="&#x102;" horiz-adv-x="1357" 
d="M1053 0l-68 274h-657l-164 -274h-180l827 1374h57l346 -1374h-161zM948 418l-153 655l-383 -655h536zM594 1765q0 23 12 99h129q-10 -65 -10 -86q0 -75 45.5 -121.5t120.5 -46.5q76 0 128.5 50t65.5 140l11 64h129l-11 -64q-23 -146 -110.5 -229.5t-216.5 -83.5
q-128 0 -210.5 78.5t-82.5 199.5z" />
    <glyph glyph-name="abreve" unicode="&#x103;" horiz-adv-x="1288" 
d="M1047 997h157l-176 -997h-147l24 133q-63 -74 -157.5 -115t-202.5 -41q-192 0 -320.5 135.5t-128.5 338.5q-2 115 40.5 221.5t116 183t174.5 121.5t210 43q123 0 224 -52t157 -141zM965 557q0 141 -88 229t-230 88q-161 0 -275 -121.5t-114 -291.5q0 -149 92 -244
q91 -94 238 -94q157 0 267 126t110 308zM414 1450q0 40 14 111h129q-12 -61 -12 -99q0 -75 45.5 -120.5t120.5 -45.5t126 49.5t68 139.5l13 76h129l-13 -76q-25 -146 -111.5 -228.5t-215.5 -82.5q-128 0 -210.5 77.5t-82.5 198.5z" />
    <glyph glyph-name="Aogonek" unicode="&#x104;" horiz-adv-x="1357" 
d="M1053 0l-68 274h-657l-164 -274h-180l827 1374h57l346 -1374h-161zM948 418l-153 655l-383 -655h536zM803 -223q0 84 80 149q85 69 278 146l51 -72l-135 -70q-112 -60 -112 -127q0 -35 27 -51t87 -16q2 0 88 4l-20 -117q-57 -14 -125 -14q-102 0 -160.5 45t-58.5 123z
" />
    <glyph glyph-name="aogonek" unicode="&#x105;" horiz-adv-x="1288" 
d="M1047 997h157l-176 -997h-147l24 133q-63 -74 -157.5 -115t-202.5 -41q-192 0 -320.5 135.5t-128.5 338.5q-2 115 40.5 221.5t116 183t174.5 121.5t210 43q123 0 224 -52t157 -141zM965 557q0 141 -88 229t-230 88q-161 0 -275 -121.5t-114 -291.5q0 -149 92 -244
q91 -94 238 -94q157 0 267 126t110 308zM618 -223q0 84 80 149q84 68 279 146l51 -72l-135 -70q-113 -61 -113 -127q0 -35 27.5 -51t87.5 -16q2 0 88 4l-20 -117q-57 -14 -125 -14q-103 0 -161.5 45t-58.5 123z" />
    <glyph glyph-name="Cacute" unicode="&#x106;" horiz-adv-x="1462" 
d="M135 625q-3 147 58.5 286.5t164.5 241.5t244.5 163t290.5 58q179 0 322.5 -84.5t228.5 -238.5l-131 -80q-69 125 -179 190.5t-251 65.5q-116 2 -225 -45.5t-187.5 -128.5t-125 -192t-44.5 -230q0 -221 139.5 -363.5t354.5 -142.5q267 0 452 215l111 -92
q-109 -129 -259 -200t-317 -71q-183 0 -331 84t-232 232.5t-84 331.5zM911 1483l232 381h200l-4 -29l-303 -352h-125z" />
    <glyph glyph-name="cacute" unicode="&#x107;" horiz-adv-x="1142" 
d="M98 467q-2 111 42.5 214t119.5 178t178.5 119t214.5 42q135 0 245.5 -63t172.5 -173l-121 -79q-108 169 -301 169q-164 0 -276.5 -116.5t-112.5 -282.5q0 -155 96.5 -254.5t243.5 -99.5q88 0 167 37t136 106l103 -94q-78 -100 -177.5 -146.5t-234.5 -46.5
q-140 0 -253.5 63.5t-178 176t-64.5 250.5zM594 1159l252 438h201l-5 -28l-317 -410h-131z" />
    <glyph glyph-name="Ccircumflex" unicode="&#x108;" horiz-adv-x="1462" 
d="M135 625q-3 147 58.5 286.5t164.5 241.5t244.5 163t290.5 58q179 0 322.5 -84.5t228.5 -238.5l-131 -80q-69 125 -179 190.5t-251 65.5q-116 2 -225 -45.5t-187.5 -128.5t-125 -192t-44.5 -230q0 -221 139.5 -363.5t354.5 -142.5q267 0 452 215l111 -92
q-109 -129 -259 -200t-317 -71q-183 0 -331 84t-232 232.5t-84 331.5zM1325 1483h-113l-186 221l-264 -221h-135l368 381h97z" />
    <glyph glyph-name="ccircumflex" unicode="&#x109;" horiz-adv-x="1142" 
d="M98 467q-2 111 42.5 214t119.5 178t178.5 119t214.5 42q135 0 245.5 -63t172.5 -173l-121 -79q-108 169 -301 169q-164 0 -276.5 -116.5t-112.5 -282.5q0 -155 96.5 -254.5t243.5 -99.5q88 0 167 37t136 106l103 -94q-78 -100 -177.5 -146.5t-234.5 -46.5
q-140 0 -253.5 63.5t-178 176t-64.5 250.5zM1004 1159h-113l-158 264l-254 -264h-127l355 438h96z" />
    <glyph glyph-name="Cdotaccent" unicode="&#x10a;" horiz-adv-x="1462" 
d="M135 625q-3 147 58.5 286.5t164.5 241.5t244.5 163t290.5 58q179 0 322.5 -84.5t228.5 -238.5l-131 -80q-69 125 -179 190.5t-251 65.5q-116 2 -225 -45.5t-187.5 -128.5t-125 -192t-44.5 -230q0 -221 139.5 -363.5t354.5 -142.5q267 0 452 215l111 -92
q-109 -129 -259 -200t-317 -71q-183 0 -331 84t-232 232.5t-84 331.5zM891 1659q0 47 35 81t82 34q49 0 83.5 -34t34.5 -81q0 -49 -34 -82t-84 -33t-83.5 33t-33.5 82z" />
    <glyph glyph-name="cdotaccent" unicode="&#x10b;" horiz-adv-x="1142" 
d="M98 467q-2 111 42.5 214t119.5 178t178.5 119t214.5 42q135 0 245.5 -63t172.5 -173l-121 -79q-108 169 -301 169q-164 0 -276.5 -116.5t-112.5 -282.5q0 -155 96.5 -254.5t243.5 -99.5q88 0 167 37t136 106l103 -94q-78 -100 -177.5 -146.5t-234.5 -46.5
q-140 0 -253.5 63.5t-178 176t-64.5 250.5zM606 1378q0 47 35 81t82 34q49 0 84 -34t35 -81q0 -49 -34.5 -81.5t-84.5 -32.5t-83.5 32.5t-33.5 81.5z" />
    <glyph glyph-name="Ccaron" unicode="&#x10c;" horiz-adv-x="1462" 
d="M135 625q-3 147 58.5 286.5t164.5 241.5t244.5 163t290.5 58q179 0 322.5 -84.5t228.5 -238.5l-131 -80q-69 125 -179 190.5t-251 65.5q-116 2 -225 -45.5t-187.5 -128.5t-125 -192t-44.5 -230q0 -221 139.5 -363.5t354.5 -142.5q267 0 452 215l111 -92
q-109 -129 -259 -200t-317 -71q-183 0 -331 84t-232 232.5t-84 331.5zM1257 1864h136l-369 -381h-96l-234 381h115l180 -224z" />
    <glyph glyph-name="ccaron" unicode="&#x10d;" horiz-adv-x="1142" 
d="M98 467q-2 111 42.5 214t119.5 178t178.5 119t214.5 42q135 0 245.5 -63t172.5 -173l-121 -79q-108 169 -301 169q-164 0 -276.5 -116.5t-112.5 -282.5q0 -155 96.5 -254.5t243.5 -99.5q88 0 167 37t136 106l103 -94q-78 -100 -177.5 -146.5t-234.5 -46.5
q-140 0 -253.5 63.5t-178 176t-64.5 250.5zM961 1597h126l-354 -438h-96l-201 438h111l158 -264z" />
    <glyph glyph-name="Dcaron" unicode="&#x10e;" horiz-adv-x="1429" 
d="M100 0l238 1352h340q302 0 492 -174t190 -449q3 -207 -101.5 -375t-291 -262.5t-416.5 -91.5h-451zM285 143h276q184 0 328.5 72.5t224.5 203.5t80 298q0 222 -145 356.5t-383 134.5h-195zM1028 1864h135l-368 -381h-97l-233 381h115l180 -224z" />
    <glyph glyph-name="dcaron" unicode="&#x10f;" horiz-adv-x="1527" 
d="M1143 1536h157l-270 -1536h-147l24 133q-63 -74 -157.5 -115t-202.5 -41q-193 0 -321 136t-128 342q-3 153 69.5 284.5t197.5 207t270 73.5q124 0 225.5 -52t155.5 -143zM967 547q0 147 -89.5 237t-232.5 90q-157 0 -271 -119t-114 -286q0 -155 92 -250q93 -96 238 -96
q157 0 267 123.5t110 300.5zM1440 1112l102 424h170l-156 -424h-116z" />
    <glyph glyph-name="Dcroat" unicode="&#x110;" horiz-adv-x="1437" 
d="M1366 729q2 -157 -58 -293.5t-166.5 -233t-258 -150.5t-326.5 -52h-453l99 561h-199l25 135h198l115 656h342q302 0 492 -174t190 -449zM1200 717q0 222 -145 356.5t-383 134.5h-195l-90 -512h264l-24 -135h-262l-74 -418h274q183 0 328 72.5t226 203.5t81 298z" />
    <glyph glyph-name="dslash" unicode="&#x111;" horiz-adv-x="1296" 
d="M1432 1321l-23 -131h-172l-209 -1190h-147l22 131q-63 -74 -155.5 -114t-200.5 -40q-197 0 -324 133.5t-127 338.5q0 148 71 272.5t194.5 196t271.5 71.5q126 0 225.5 -55t149.5 -150l73 406h-446l22 131h447l39 215h155l-36 -215h170zM967 537q0 140 -90 226.5
t-236 86.5q-158 0 -268.5 -113t-110.5 -274q0 -154 89 -249t235 -95q101 0 189 57t140 154t52 207z" />
    <glyph glyph-name="Emacron" unicode="&#x112;" horiz-adv-x="1161" 
d="M100 0l238 1352h866l-26 -144h-707l-76 -413h543l-25 -144h-540l-88 -508h731l-25 -143h-891zM500 1577l22 129h602l-22 -129h-602z" />
    <glyph glyph-name="emacron" unicode="&#x113;" horiz-adv-x="1153" 
d="M1044 451h-784q7 -152 100.5 -240t247.5 -88q159 0 307 121l80 -107q-168 -160 -401 -160q-216 0 -356 138.5t-140 351.5q-2 109 41.5 212t116.5 178.5t174 120t209 42.5q191 0 310.5 -122.5t119.5 -319.5q0 -66 -25 -127zM272 590h637q-1 135 -75 211t-203 76
q-133 0 -230 -78t-129 -209zM418 1315l22 127h561l-22 -127h-561z" />
    <glyph glyph-name="Ebreve" unicode="&#x114;" horiz-adv-x="1161" 
d="M100 0l238 1352h866l-26 -144h-707l-76 -413h543l-25 -144h-540l-88 -508h731l-25 -143h-891zM530 1765q0 16 13 99h129q-10 -65 -10 -86q0 -75 45 -121.5t120 -46.5q76 0 129 50.5t66 139.5l10 64h129l-10 -64q-23 -146 -111 -229.5t-217 -83.5q-128 0 -210.5 78.5
t-82.5 199.5z" />
    <glyph glyph-name="ebreve" unicode="&#x115;" horiz-adv-x="1153" 
d="M1044 451h-784q7 -152 100.5 -240t247.5 -88q159 0 307 121l80 -107q-168 -160 -401 -160q-216 0 -356 138.5t-140 351.5q-2 109 41.5 212t116.5 178.5t174 120t209 42.5q191 0 310.5 -122.5t119.5 -319.5q0 -66 -25 -127zM272 590h637q-1 135 -75 211t-203 76
q-133 0 -230 -78t-129 -209zM403 1450q0 34 15 111h129q-12 -61 -12 -99q0 -75 45 -120.5t120 -45.5t126.5 49.5t68.5 139.5l12 76h129l-12 -76q-25 -146 -112 -228.5t-216 -82.5q-128 0 -210.5 77.5t-82.5 198.5z" />
    <glyph glyph-name="Edotaccent" unicode="&#x116;" horiz-adv-x="1161" 
d="M100 0l238 1352h866l-26 -144h-707l-76 -413h543l-25 -144h-540l-88 -508h731l-25 -143h-891zM696 1659q0 47 35 81t82 34q49 0 84 -34t35 -81q0 -49 -34.5 -82t-84.5 -33t-83.5 33t-33.5 82z" />
    <glyph glyph-name="edotaccent" unicode="&#x117;" horiz-adv-x="1153" 
d="M1044 451h-784q7 -152 100.5 -240t247.5 -88q159 0 307 121l80 -107q-168 -160 -401 -160q-216 0 -356 138.5t-140 351.5q-2 109 41.5 212t116.5 178.5t174 120t209 42.5q191 0 310.5 -122.5t119.5 -319.5q0 -66 -25 -127zM272 590h637q-1 135 -75 211t-203 76
q-133 0 -230 -78t-129 -209zM594 1378q0 47 35 81t82 34q49 0 83.5 -34t34.5 -81q0 -49 -34 -81.5t-84 -32.5t-83.5 32.5t-33.5 81.5z" />
    <glyph glyph-name="Eogonek" unicode="&#x118;" horiz-adv-x="1161" 
d="M100 0l238 1352h866l-26 -144h-707l-76 -413h543l-25 -144h-540l-88 -508h731l-25 -143h-891zM580 -223q0 85 79 149q84 68 279 146l51 -72l-135 -70q-113 -61 -113 -127q0 -35 27.5 -51t87.5 -16q2 0 88 4l-20 -117q-57 -14 -125 -14q-102 0 -160.5 45t-58.5 123z" />
    <glyph glyph-name="eogonek" unicode="&#x119;" horiz-adv-x="1153" 
d="M1044 451h-784q7 -152 100.5 -240t247.5 -88q159 0 307 121l80 -107q-168 -160 -401 -160q-216 0 -356 138.5t-140 351.5q-2 109 41.5 212t116.5 178.5t174 120t209 42.5q191 0 310.5 -122.5t119.5 -319.5q0 -66 -25 -127zM272 590h637q-1 135 -75 211t-203 76
q-133 0 -230 -78t-129 -209zM547 -223q0 73 74.5 160t230.5 202l143 -2l-188 -186q-57 -57 -76.5 -87t-19.5 -61q0 -36 28 -51.5t86 -15.5q2 0 88 4l-20 -117q-60 -14 -125 -14q-103 0 -162 44.5t-59 123.5z" />
    <glyph glyph-name="Ecaron" unicode="&#x11a;" horiz-adv-x="1161" 
d="M100 0l238 1352h866l-26 -144h-707l-76 -413h543l-25 -144h-540l-88 -508h731l-25 -143h-891zM1063 1864h135l-369 -381h-96l-233 381h114l181 -224z" />
    <glyph glyph-name="ecaron" unicode="&#x11b;" horiz-adv-x="1153" 
d="M1044 451h-784q7 -152 100.5 -240t247.5 -88q159 0 307 121l80 -107q-168 -160 -401 -160q-216 0 -356 138.5t-140 351.5q-2 109 41.5 212t116.5 178.5t174 120t209 42.5q191 0 310.5 -122.5t119.5 -319.5q0 -66 -25 -127zM272 590h637q-1 135 -75 211t-203 76
q-133 0 -230 -78t-129 -209zM948 1597h127l-354 -438h-96l-201 438h111l157 -264z" />
    <glyph glyph-name="Gcircumflex" unicode="&#x11c;" horiz-adv-x="1531" 
d="M135 625q-3 147 58.5 286.5t164.5 241.5t244.5 163t290.5 58q173 0 315 -79.5t228 -225.5l-123 -90q-145 248 -430 248q-116 2 -225 -45.5t-187.5 -128.5t-125 -192t-44.5 -230q0 -222 138.5 -364t357.5 -142q123 0 236.5 52t199.5 149l39 219h-459l27 143h618l-72 -403
q-100 -143 -262 -225.5t-342 -82.5q-183 0 -331 84t-232 232.5t-84 331.5zM1323 1483h-113l-186 221l-264 -221h-135l368 381h97z" />
    <glyph glyph-name="gcircumflex" unicode="&#x11d;" horiz-adv-x="1290" 
d="M1047 997h157l-166 -942q-37 -209 -178 -327.5t-352 -118.5q-142 0 -267 60t-210 169l102 99q68 -88 164 -135.5t211 -47.5q152 0 251 82t124 225l14 82q-67 -64 -158 -98.5t-194 -34.5q-195 0 -322 126.5t-127 318.5q-2 152 71.5 283.5t199.5 208t272 73.5
q123 0 223.5 -53t155.5 -142zM971 555q0 141 -90.5 230t-233.5 89q-164 0 -276.5 -117t-112.5 -286q0 -141 90 -228t238 -87q164 0 274.5 114.5t110.5 284.5zM981 1159h-113l-157 264l-254 -264h-127l354 438h96z" />
    <glyph glyph-name="Gbreve" unicode="&#x11e;" horiz-adv-x="1531" 
d="M135 625q-3 147 58.5 286.5t164.5 241.5t244.5 163t290.5 58q173 0 315 -79.5t228 -225.5l-123 -90q-145 248 -430 248q-116 2 -225 -45.5t-187.5 -128.5t-125 -192t-44.5 -230q0 -222 138.5 -364t357.5 -142q123 0 236.5 52t199.5 149l39 219h-459l27 143h618l-72 -403
q-100 -143 -262 -225.5t-342 -82.5q-183 0 -331 84t-232 232.5t-84 331.5zM723 1765q0 23 12 99h129q-10 -65 -10 -86q0 -75 45.5 -121.5t120.5 -46.5q76 0 128.5 50t65.5 140l11 64h129l-11 -64q-23 -146 -110.5 -229.5t-216.5 -83.5q-128 0 -210.5 78.5t-82.5 199.5z" />
    <glyph glyph-name="gbreve" unicode="&#x11f;" horiz-adv-x="1290" 
d="M1047 997h157l-166 -942q-37 -209 -178 -327.5t-352 -118.5q-142 0 -267 60t-210 169l102 99q68 -88 164 -135.5t211 -47.5q152 0 251 82t124 225l14 82q-67 -64 -158 -98.5t-194 -34.5q-195 0 -322 126.5t-127 318.5q-2 152 71.5 283.5t199.5 208t272 73.5
q123 0 223.5 -53t155.5 -142zM971 555q0 141 -90.5 230t-233.5 89q-164 0 -276.5 -117t-112.5 -286q0 -141 90 -228t238 -87q164 0 274.5 114.5t110.5 284.5zM393 1450q0 34 15 111h129q-13 -67 -13 -99q0 -75 45.5 -120.5t120.5 -45.5t126.5 49.5t68.5 139.5l12 76h129
l-12 -76q-25 -146 -112 -228.5t-216 -82.5q-128 0 -210.5 77.5t-82.5 198.5z" />
    <glyph glyph-name="Gdotaccent" unicode="&#x120;" horiz-adv-x="1531" 
d="M135 625q-3 147 58.5 286.5t164.5 241.5t244.5 163t290.5 58q173 0 315 -79.5t228 -225.5l-123 -90q-145 248 -430 248q-116 2 -225 -45.5t-187.5 -128.5t-125 -192t-44.5 -230q0 -222 138.5 -364t357.5 -142q123 0 236.5 52t199.5 149l39 219h-459l27 143h618l-72 -403
q-100 -143 -262 -225.5t-342 -82.5q-183 0 -331 84t-232 232.5t-84 331.5zM889 1659q0 47 35 81t82 34q49 0 83.5 -34t34.5 -81q0 -49 -34 -82t-84 -33t-83.5 33t-33.5 82z" />
    <glyph glyph-name="gdotaccent" unicode="&#x121;" horiz-adv-x="1290" 
d="M1047 997h157l-166 -942q-37 -209 -178 -327.5t-352 -118.5q-142 0 -267 60t-210 169l102 99q68 -88 164 -135.5t211 -47.5q152 0 251 82t124 225l14 82q-67 -64 -158 -98.5t-194 -34.5q-195 0 -322 126.5t-127 318.5q-2 152 71.5 283.5t199.5 208t272 73.5
q123 0 223.5 -53t155.5 -142zM971 555q0 141 -90.5 230t-233.5 89q-164 0 -276.5 -117t-112.5 -286q0 -141 90 -228t238 -87q164 0 274.5 114.5t110.5 284.5zM584 1378q0 47 34.5 81t81.5 34q49 0 84 -34t35 -81q0 -49 -34.5 -81.5t-84.5 -32.5t-83 32.5t-33 81.5z" />
    <glyph glyph-name="uni0122" unicode="&#x122;" horiz-adv-x="1531" 
d="M135 625q-3 147 58.5 286.5t164.5 241.5t244.5 163t290.5 58q173 0 315 -79.5t228 -225.5l-123 -90q-145 248 -430 248q-116 2 -225 -45.5t-187.5 -128.5t-125 -192t-44.5 -230q0 -222 138.5 -364t357.5 -142q123 0 236.5 52t199.5 149l39 219h-459l27 143h618l-72 -403
q-100 -143 -262 -225.5t-342 -82.5q-183 0 -331 84t-232 232.5t-84 331.5zM541 -451l82 351h153l-112 -351h-123z" />
    <glyph glyph-name="uni0123" unicode="&#x123;" horiz-adv-x="1290" 
d="M1047 997h157l-166 -942q-37 -209 -178 -327.5t-352 -118.5q-142 0 -267 60t-210 169l102 99q68 -88 164 -135.5t211 -47.5q152 0 251 82t124 225l14 82q-67 -64 -158 -98.5t-194 -34.5q-195 0 -322 126.5t-127 318.5q-2 152 71.5 283.5t199.5 208t272 73.5
q123 0 223.5 -53t155.5 -142zM971 555q0 141 -90.5 230t-233.5 89q-164 0 -276.5 -117t-112.5 -286q0 -141 90 -228t238 -87q164 0 274.5 114.5t110.5 284.5zM578 1159l141 438h119l-103 -438h-157z" />
    <glyph glyph-name="Hcircumflex" unicode="&#x124;" horiz-adv-x="1449" 
d="M100 0l238 1352h160l-99 -557h760l96 557h160l-237 -1352h-160l115 651h-760l-113 -651h-160zM1247 1483h-112l-187 221l-264 -221h-135l369 381h96z" />
    <glyph glyph-name="hcircumflex" unicode="&#x125;" horiz-adv-x="1159" 
d="M1030 692q0 -42 -12 -110l-103 -582h-157l104 586q10 65 10 84q0 97 -58 152t-161 55q-115 0 -195 -66.5t-100 -179.5l-110 -631h-158l268 1536h158l-108 -623q119 107 282 107q152 0 246 -90t94 -238zM803 1667h-113l-186 221l-264 -221h-136l369 381h96z" />
    <glyph glyph-name="Hbar" unicode="&#x126;" horiz-adv-x="1476" 
d="M1583 1077l-22 -135h-205l-166 -942h-160l90 518h-760l-90 -518h-159l165 942h-204l24 135h203l49 275h160l-49 -275h760l49 275h159l-49 -275h205zM1147 664l49 278h-760l-49 -278h760z" />
    <glyph glyph-name="hbar" unicode="&#x127;" horiz-adv-x="1165" 
d="M1030 664q0 -38 -12 -111l-96 -553h-158l98 557q10 75 10 84q0 96 -59 150.5t-160 54.5q-113 0 -195 -65.5t-100 -178.5l-106 -602h-158l207 1186h-166l25 139h166l36 211h158l-37 -211h416l-27 -139h-411l-53 -301q118 106 282 106q153 0 246.5 -90t93.5 -237z" />
    <glyph glyph-name="Itilde" unicode="&#x128;" horiz-adv-x="530" 
d="M100 0l238 1352h160l-238 -1352h-160zM463 1575l-64 41q-56 39 -86 39q-32 0 -48.5 -27t-22.5 -88h-127q11 132 56.5 195t135.5 63q81 0 158 -55l61 -43q51 -39 88 -39q34 0 49 26t23 91h127q-11 -130 -58 -194t-137 -64q-43 0 -74 12t-81 43z" />
    <glyph glyph-name="itilde" unicode="&#x129;" horiz-adv-x="503" 
d="M88 0l176 997h158l-176 -997h-158zM393 1288l-35 39q-21 24 -35 33.5t-32 9.5q-31 0 -45.5 -27.5t-22.5 -95.5h-127q26 264 193 264q76 0 137 -67l35 -39q22 -25 34.5 -34t30.5 -9q31 0 44 25.5t26 97.5h125q-26 -264 -189 -264q-79 0 -139 67z" />
    <glyph glyph-name="Imacron" unicode="&#x12a;" horiz-adv-x="530" 
d="M100 0l238 1352h160l-238 -1352h-160zM158 1577l22 129h602l-22 -129h-602z" />
    <glyph glyph-name="imacron" unicode="&#x12b;" horiz-adv-x="503" 
d="M88 0l176 997h158l-176 -997h-158zM172 1313l23 131h452l-22 -131h-453z" />
    <glyph glyph-name="Ibreve" unicode="&#x12c;" horiz-adv-x="530" 
d="M100 0l238 1352h160l-238 -1352h-160zM186 1765q0 16 13 99h129q-11 -72 -11 -86q0 -75 45.5 -121.5t120.5 -46.5q76 0 129 50.5t66 139.5l10 64h129l-10 -64q-23 -146 -111 -229.5t-217 -83.5q-128 0 -210.5 78.5t-82.5 199.5z" />
    <glyph glyph-name="ibreve" unicode="&#x12d;" horiz-adv-x="503" 
d="M88 0l176 997h158l-176 -997h-158zM100 1450q0 34 15 111h129q-13 -67 -13 -99q0 -75 45.5 -120.5t120.5 -45.5t126.5 49.5t68.5 139.5l12 76h129l-12 -76q-25 -146 -112 -228.5t-216 -82.5q-128 0 -210.5 77.5t-82.5 198.5z" />
    <glyph glyph-name="Iogonek" unicode="&#x12e;" horiz-adv-x="530" 
d="M100 0l238 1352h160l-238 -1352h-160zM-152 -223q0 84 80 149q84 68 279 146l51 -72l-135 -70q-113 -61 -113 -127q0 -35 27.5 -51t87.5 -16q2 0 88 4l-20 -117q-57 -14 -125 -14q-103 0 -161.5 45t-58.5 123z" />
    <glyph glyph-name="iogonek" unicode="&#x12f;" horiz-adv-x="503" 
d="M88 0l176 997h158l-176 -997h-158zM293 1378q0 47 35 81t82 34q49 0 83.5 -34t34.5 -81q0 -49 -34 -81.5t-84 -32.5t-83.5 32.5t-33.5 81.5zM-166 -223q0 84 80 149q84 68 279 146l51 -72l-135 -70q-113 -61 -113 -127q0 -35 27.5 -51t87.5 -16q2 0 88 4l-21 -117
q-57 -14 -125 -14q-102 0 -160.5 45t-58.5 123z" />
    <glyph glyph-name="Idot" unicode="&#x130;" horiz-adv-x="530" 
d="M100 0l238 1352h160l-238 -1352h-160zM354 1659q0 47 35 81t82 34q49 0 84 -34t35 -81q0 -49 -34.5 -82t-84.5 -33t-83.5 33t-33.5 82z" />
    <glyph glyph-name="dotlessi" unicode="&#x131;" horiz-adv-x="503" 
d="M88 0l176 997h158l-176 -997h-158z" />
    <glyph glyph-name="IJ" unicode="&#x132;" horiz-adv-x="1298" 
d="M100 0l238 1352h160l-238 -1352h-160zM496 14l26 138q119 -25 187 -25q92 0 145 47.5t70 147.5l180 1030h160l-187 -1057q-26 -155 -118 -236.5t-240 -81.5q-116 0 -223 37z" />
    <glyph glyph-name="ij" unicode="&#x133;" horiz-adv-x="1011" 
d="M88 0l176 997h158l-176 -997h-158zM293 1378q0 47 35 81t82 34q49 0 83.5 -34t34.5 -81q0 -49 -34 -81.5t-84 -32.5t-83.5 32.5t-33.5 81.5zM242 -362l22 126q59 -12 115 -12q87 0 135.5 41.5t65.5 134.5l190 1069h158l-195 -1091q-24 -147 -111 -222t-223 -75
q-75 0 -157 29zM797 1378q0 47 34.5 81t81.5 34q49 0 84 -34t35 -81q0 -49 -34.5 -81.5t-84.5 -32.5t-83 32.5t-33 81.5z" />
    <glyph glyph-name="Jcircumflex" unicode="&#x134;" horiz-adv-x="765" 
d="M-35 14l27 138q119 -25 186 -25q92 0 145 47.5t70 147.5l180 1030h160l-186 -1057q-26 -155 -118.5 -236.5t-240.5 -81.5q-116 0 -223 37zM1004 1483h-113l-186 221l-265 -221h-135l369 381h96z" />
    <glyph glyph-name="jcircumflex" unicode="&#x135;" horiz-adv-x="505" 
d="M-262 -362l22 126q59 -12 115 -12q87 0 135.5 41.5t65.5 134.5l190 1069h158l-195 -1091q-24 -147 -110.5 -222t-222.5 -75q-76 0 -158 29zM690 1159h-112l-158 264l-254 -264h-127l354 438h96z" />
    <glyph glyph-name="uni0136" unicode="&#x136;" horiz-adv-x="1292" 
d="M338 1352h160l-238 -1352h-160zM1333 1352l-725 -643l543 -709h-190l-555 725l704 627h223zM385 -451l82 351h154l-113 -351h-123z" />
    <glyph glyph-name="uni0137" unicode="&#x137;" horiz-adv-x="1036" 
d="M358 1536h158l-270 -1536h-158zM1061 997l-514 -458l377 -539h-183l-376 553l481 444h215zM262 -451l82 351h154l-113 -351h-123z" />
    <glyph glyph-name="Lacute" unicode="&#x139;" horiz-adv-x="1038" 
d="M100 0l238 1352h160l-213 -1209h643l-27 -143h-801zM373 1483l231 381h201l-4 -29l-303 -352h-125z" />
    <glyph glyph-name="lacute" unicode="&#x13a;" horiz-adv-x="503" 
d="M88 0l270 1536h158l-270 -1536h-158zM393 1667l232 381h200l-4 -29l-303 -352h-125z" />
    <glyph glyph-name="uni013B" unicode="&#x13b;" horiz-adv-x="1038" 
d="M100 0l238 1352h160l-213 -1209h643l-27 -143h-801zM319 -451l82 351h154l-113 -351h-123z" />
    <glyph glyph-name="uni013C" unicode="&#x13c;" horiz-adv-x="503" 
d="M88 0l270 1536h158l-270 -1536h-158zM-8 -451l82 351h153l-112 -351h-123z" />
    <glyph glyph-name="Lcaron" unicode="&#x13d;" horiz-adv-x="1038" 
d="M100 0l238 1352h160l-213 -1209h643l-27 -143h-801zM801 928l102 424h170l-155 -424h-117z" />
    <glyph glyph-name="lcaron" unicode="&#x13e;" horiz-adv-x="727" 
d="M88 0l270 1536h158l-270 -1536h-158zM639 1112l102 424h170l-155 -424h-117z" />
    <glyph glyph-name="Ldot" unicode="&#x13f;" horiz-adv-x="1038" 
d="M100 0l238 1352h160l-213 -1209h643l-27 -143h-801zM700 756q0 55 37.5 92t91.5 37t91.5 -37t37.5 -92t-37.5 -92t-91.5 -37t-91.5 37t-37.5 92z" />
    <glyph glyph-name="ldot" unicode="&#x140;" horiz-adv-x="641" 
d="M88 0l270 1536h158l-270 -1536h-158zM467 643q0 55 37.5 92t91.5 37t91.5 -37t37.5 -92t-37.5 -92t-91.5 -37t-91.5 37t-37.5 92z" />
    <glyph glyph-name="Lslash" unicode="&#x141;" horiz-adv-x="1038" 
d="M285 143h643l-27 -143h-801l90 518l-170 -72l25 150l172 72l121 684h160l-111 -623l492 207l-25 -150l-492 -206z" />
    <glyph glyph-name="lslash" unicode="&#x142;" horiz-adv-x="522" 
d="M586 924l-27 -148l-190 -82l-123 -694h-158l111 631l-172 -74l24 150l174 73l133 756h158l-123 -696z" />
    <glyph glyph-name="Nacute" unicode="&#x143;" horiz-adv-x="1449" 
d="M1255 1352h160l-241 -1375h-58l-678 1057l-178 -1034h-160l242 1374h57l678 -1059zM834 1483l231 381h201l-4 -29l-304 -352h-124z" />
    <glyph glyph-name="nacute" unicode="&#x144;" horiz-adv-x="1159" 
d="M1030 692q0 -40 -12 -110l-103 -582h-157l104 586q10 62 10 84q0 97 -59 152t-160 55q-113 0 -195 -66.5t-100 -179.5l-110 -631h-158l174 997h148l-17 -96q119 119 295 119q153 0 246.5 -90.5t93.5 -237.5zM604 1159l252 438h201l-4 -28l-318 -410h-131z" />
    <glyph glyph-name="uni0145" unicode="&#x145;" horiz-adv-x="1449" 
d="M1255 1352h160l-241 -1375h-58l-678 1057l-178 -1034h-160l242 1374h57l678 -1059zM465 -451l82 351h153l-112 -351h-123z" />
    <glyph glyph-name="uni0146" unicode="&#x146;" horiz-adv-x="1159" 
d="M1030 692q0 -40 -12 -110l-103 -582h-157l104 586q10 62 10 84q0 97 -59 152t-160 55q-113 0 -195 -66.5t-100 -179.5l-110 -631h-158l174 997h148l-17 -96q119 119 295 119q153 0 246.5 -90.5t93.5 -237.5zM336 -451l82 351h153l-112 -351h-123z" />
    <glyph glyph-name="Ncaron" unicode="&#x147;" horiz-adv-x="1449" 
d="M1255 1352h160l-241 -1375h-58l-678 1057l-178 -1034h-160l242 1374h57l678 -1059zM1180 1864h135l-369 -381h-96l-234 381h115l180 -224z" />
    <glyph glyph-name="ncaron" unicode="&#x148;" horiz-adv-x="1159" 
d="M1030 692q0 -40 -12 -110l-103 -582h-157l104 586q10 62 10 84q0 97 -59 152t-160 55q-113 0 -195 -66.5t-100 -179.5l-110 -631h-158l174 997h148l-17 -96q119 119 295 119q153 0 246.5 -90.5t93.5 -237.5zM971 1597h127l-355 -438h-96l-201 438h111l158 -264z" />
    <glyph glyph-name="Eng" unicode="&#x14a;" horiz-adv-x="1449" 
d="M1251 1352h160l-252 -1450q-25 -141 -112 -217t-224 -76q-79 0 -161 29l24 133q68 -15 121 -15q171 0 197 172l16 99l-582 989l-176 -1016h-160l240 1374h57l662 -1118z" />
    <glyph glyph-name="eng" unicode="&#x14b;" horiz-adv-x="1161" 
d="M1028 692q0 -42 -12 -110l-117 -680q-24 -144 -112.5 -218.5t-221.5 -74.5q-77 0 -159 29l22 126q58 -12 115 -12q88 0 136.5 40.5t65.5 135.5l115 658q10 65 10 84q0 97 -57.5 152t-159.5 55q-115 0 -195.5 -67.5t-99.5 -178.5l-110 -631h-158l174 997h148l-17 -98
q121 121 295 121q152 0 245 -90t93 -238z" />
    <glyph glyph-name="Omacron" unicode="&#x14c;" horiz-adv-x="1601" 
d="M135 625q-3 149 58.5 289t164.5 241.5t243.5 161.5t287.5 57q135 2 255.5 -48t206 -137t134.5 -207.5t47 -254.5q3 -148 -59 -288t-165.5 -242.5t-243.5 -163t-286 -56.5q-135 -2 -255.5 48.5t-206 137.5t-134.5 207.5t-47 254.5zM1366 723q0 216 -138 360t-351 144
q-154 3 -289 -78t-214 -219.5t-75 -296.5q0 -219 137.5 -363.5t349.5 -144.5q153 -3 288.5 79t215 221.5t76.5 297.5zM682 1577l23 129h602l-23 -129h-602z" />
    <glyph glyph-name="omacron" unicode="&#x14d;" horiz-adv-x="1247" 
d="M100 473q-2 108 42.5 209.5t120 176.5t178.5 119t212 42q139 0 253 -65t179.5 -179t65.5 -252q3 -144 -73 -271.5t-206.5 -203t-277.5 -72.5q-211 0 -352.5 142t-141.5 354zM989 524q0 149 -97.5 249.5t-244.5 100.5q-161 0 -273 -117t-112 -284q0 -154 94 -252t244 -98
q164 0 276.5 116.5t112.5 284.5zM430 1315l23 127h561l-23 -127h-561z" />
    <glyph glyph-name="Obreve" unicode="&#x14e;" horiz-adv-x="1601" 
d="M135 625q-3 149 58.5 289t164.5 241.5t243.5 161.5t287.5 57q135 2 255.5 -48t206 -137t134.5 -207.5t47 -254.5q3 -148 -59 -288t-165.5 -242.5t-243.5 -163t-286 -56.5q-135 -2 -255.5 48.5t-206 137.5t-134.5 207.5t-47 254.5zM1366 723q0 216 -138 360t-351 144
q-154 3 -289 -78t-214 -219.5t-75 -296.5q0 -219 137.5 -363.5t349.5 -144.5q153 -3 288.5 79t215 221.5t76.5 297.5zM713 1765q0 23 12 99h129q-10 -65 -10 -86q0 -75 45.5 -121.5t120.5 -46.5q76 0 128.5 50t65.5 140l10 64h129l-10 -64q-23 -146 -110.5 -229.5
t-216.5 -83.5q-128 0 -210.5 78.5t-82.5 199.5z" />
    <glyph glyph-name="obreve" unicode="&#x14f;" horiz-adv-x="1247" 
d="M100 473q-2 108 42.5 209.5t120 176.5t178.5 119t212 42q139 0 253 -65t179.5 -179t65.5 -252q3 -144 -73 -271.5t-206.5 -203t-277.5 -72.5q-211 0 -352.5 142t-141.5 354zM989 524q0 149 -97.5 249.5t-244.5 100.5q-161 0 -273 -117t-112 -284q0 -154 94 -252t244 -98
q164 0 276.5 116.5t112.5 284.5zM416 1450q0 40 14 111h129q-12 -61 -12 -99q0 -75 45.5 -120.5t120.5 -45.5t126 49.5t68 139.5l13 76h129l-13 -76q-25 -146 -111.5 -228.5t-215.5 -82.5q-128 0 -210.5 77.5t-82.5 198.5z" />
    <glyph glyph-name="Ohungarumlaut" unicode="&#x150;" horiz-adv-x="1601" 
d="M135 625q-3 149 58.5 289t164.5 241.5t243.5 161.5t287.5 57q135 2 255.5 -48t206 -137t134.5 -207.5t47 -254.5q3 -148 -59 -288t-165.5 -242.5t-243.5 -163t-286 -56.5q-135 -2 -255.5 48.5t-206 137.5t-134.5 207.5t-47 254.5zM1366 723q0 216 -138 360t-351 144
q-154 3 -289 -78t-214 -219.5t-75 -296.5q0 -219 137.5 -363.5t349.5 -144.5q153 -3 288.5 79t215 221.5t76.5 297.5zM659 1483l244 381h178l-2 -29l-297 -352h-123zM1102 1483l241 381h181l-4 -29l-297 -352h-121z" />
    <glyph glyph-name="ohungarumlaut" unicode="&#x151;" horiz-adv-x="1247" 
d="M100 473q-2 108 42.5 209.5t120 176.5t178.5 119t212 42q139 0 253 -65t179.5 -179t65.5 -252q3 -144 -73 -271.5t-206.5 -203t-277.5 -72.5q-211 0 -352.5 142t-141.5 354zM989 524q0 149 -97.5 249.5t-244.5 100.5q-161 0 -273 -117t-112 -284q0 -154 94 -252t244 -98
q164 0 276.5 116.5t112.5 284.5zM416 1159l252 438h180l-4 -28l-305 -410h-123zM823 1159l250 438h182l-6 -28l-303 -410h-123z" />
    <glyph glyph-name="OE" unicode="&#x152;" horiz-adv-x="2314" 
d="M2329 1208h-705l-72 -417h541l-25 -136h-540l-92 -512h733l-27 -143h-878l41 223q-88 -116 -230 -181t-311 -65q-130 -2 -248 47.5t-202 135t-132.5 205t-46.5 251.5q-3 151 57 292.5t162 244.5t243 163.5t292 57.5q187 0 335 -83.5t216 -221.5l49 283h866zM1374 756
q0 205 -135.5 338t-347.5 133q-118 2 -228.5 -45.5t-190 -128.5t-126.5 -192.5t-45 -231.5q0 -220 140.5 -362t357.5 -142q156 -3 289.5 81.5t211 231t74.5 318.5z" />
    <glyph glyph-name="oe" unicode="&#x153;" horiz-adv-x="2007" 
d="M1898 449h-782q11 -153 102 -239.5t244 -86.5q159 0 307 121l80 -107q-83 -76 -186 -118t-211 -42q-141 0 -253 68t-173 188q-73 -118 -191.5 -187t-256.5 -69q-201 0 -339.5 143t-138.5 353q-2 108 41.5 209.5t117 176.5t174 119t206.5 42q137 0 248 -69.5t168 -190.5
q69 119 188.5 188.5t255.5 69.5q185 0 304.5 -121.5t119.5 -310.5q0 -70 -25 -137zM965 522q0 149 -95 250.5t-233 101.5q-155 0 -265 -119t-110 -286q0 -148 93.5 -247t232.5 -99q154 0 265.5 118t111.5 281zM1128 588h635v8q0 130 -73.5 204t-204.5 74
q-130 0 -227.5 -78.5t-129.5 -207.5z" />
    <glyph glyph-name="Racute" unicode="&#x154;" horiz-adv-x="1273" 
d="M817 580l338 -580h-178l-334 567h-285l-98 -567h-160l238 1352h428q194 0 306 -97.5t112 -263.5q0 -159 -98 -269t-269 -142zM471 1208l-86 -497h322q146 0 228.5 71.5t82.5 198.5q0 111 -66.5 169t-193.5 58h-287zM651 1483l232 381h200l-4 -29l-303 -352h-125z" />
    <glyph glyph-name="racute" unicode="&#x155;" horiz-adv-x="741" 
d="M793 993l-25 -137q-44 8 -90 8q-128 0 -219 -77t-111 -201l-102 -586h-158l176 997h148l-19 -108q115 121 295 121q52 0 105 -17zM414 1159l252 438h200l-4 -28l-317 -410h-131z" />
    <glyph glyph-name="uni0156" unicode="&#x156;" horiz-adv-x="1273" 
d="M817 580l338 -580h-178l-334 567h-285l-98 -567h-160l238 1352h428q194 0 306 -97.5t112 -263.5q0 -159 -98 -269t-269 -142zM471 1208l-86 -497h322q146 0 228.5 71.5t82.5 198.5q0 111 -66.5 169t-193.5 58h-287zM383 -451l82 351h153l-112 -351h-123z" />
    <glyph glyph-name="uni0157" unicode="&#x157;" horiz-adv-x="741" 
d="M793 993l-25 -137q-44 8 -90 8q-128 0 -219 -77t-111 -201l-102 -586h-158l176 997h148l-19 -108q115 121 295 121q52 0 105 -17zM-8 -451l82 351h153l-112 -351h-123z" />
    <glyph glyph-name="Rcaron" unicode="&#x158;" horiz-adv-x="1273" 
d="M817 580l338 -580h-178l-334 567h-285l-98 -567h-160l238 1352h428q194 0 306 -97.5t112 -263.5q0 -159 -98 -269t-269 -142zM471 1208l-86 -497h322q146 0 228.5 71.5t82.5 198.5q0 111 -66.5 169t-193.5 58h-287zM997 1864h136l-369 -381h-96l-234 381h115l180 -224z
" />
    <glyph glyph-name="rcaron" unicode="&#x159;" horiz-adv-x="741" 
d="M793 993l-25 -137q-44 8 -90 8q-128 0 -219 -77t-111 -201l-102 -586h-158l176 997h148l-19 -108q115 121 295 121q52 0 105 -17zM780 1597h127l-354 -438h-96l-201 438h111l157 -264z" />
    <glyph glyph-name="Sacute" unicode="&#x15a;" horiz-adv-x="1140" 
d="M47 303l127 78q145 -256 389 -256q119 0 191.5 61.5t72.5 163.5q0 71 -45 125.5t-143 110.5l-145 82q-122 67 -185 156t-63 188q0 156 119.5 259t302.5 103q291 0 426 -250l-127 -75q-60 94 -132.5 136t-172.5 42q-116 0 -183 -55.5t-67 -151.5q0 -65 39.5 -113.5
t138.5 -109.5l143 -82q133 -75 196.5 -161t63.5 -192q0 -167 -122.5 -276t-311.5 -109q-164 0 -295.5 84t-216.5 242zM664 1483l231 381h201l-4 -29l-304 -352h-124z" />
    <glyph glyph-name="sacute" unicode="&#x15b;" horiz-adv-x="933" 
d="M45 195l115 98q74 -92 137 -131t141 -39q91 0 145 38t54 101q0 49 -31 81t-125 79l-90 45q-112 55 -161.5 118.5t-49.5 151.5q0 128 93.5 205.5t248.5 77.5q223 0 336 -174l-110 -90q-87 118 -238 118q-80 0 -124 -33t-44 -93q0 -45 29 -77t108 -73l86 -45
q130 -69 182 -129t52 -154q0 -131 -100 -212t-261 -81q-125 0 -227.5 57t-165.5 161zM463 1159l252 438h200l-4 -28l-317 -410h-131z" />
    <glyph glyph-name="Scircumflex" unicode="&#x15c;" horiz-adv-x="1140" 
d="M47 303l127 78q145 -256 389 -256q119 0 191.5 61.5t72.5 163.5q0 71 -45 125.5t-143 110.5l-145 82q-122 67 -185 156t-63 188q0 156 119.5 259t302.5 103q291 0 426 -250l-127 -75q-60 94 -132.5 136t-172.5 42q-116 0 -183 -55.5t-67 -151.5q0 -65 39.5 -113.5
t138.5 -109.5l143 -82q133 -75 196.5 -161t63.5 -192q0 -167 -122.5 -276t-311.5 -109q-164 0 -295.5 84t-216.5 242zM1077 1483h-112l-187 221l-264 -221h-135l369 381h96z" />
    <glyph glyph-name="scircumflex" unicode="&#x15d;" horiz-adv-x="933" 
d="M45 195l115 98q74 -92 137 -131t141 -39q91 0 145 38t54 101q0 49 -31 81t-125 79l-90 45q-112 55 -161.5 118.5t-49.5 151.5q0 128 93.5 205.5t248.5 77.5q223 0 336 -174l-110 -90q-87 118 -238 118q-80 0 -124 -33t-44 -93q0 -45 29 -77t108 -73l86 -45
q130 -69 182 -129t52 -154q0 -131 -100 -212t-261 -81q-125 0 -227.5 57t-165.5 161zM872 1159h-112l-158 264l-254 -264h-127l354 438h97z" />
    <glyph glyph-name="Scedilla" unicode="&#x15e;" horiz-adv-x="1140" 
d="M47 303l127 78q145 -256 389 -256q119 0 191.5 61.5t72.5 163.5q0 71 -45 125.5t-143 110.5l-145 82q-122 67 -185 156t-63 188q0 156 119.5 259t302.5 103q291 0 426 -250l-127 -75q-60 94 -132.5 136t-172.5 42q-116 0 -183 -55.5t-67 -151.5q0 -65 39.5 -113.5
t138.5 -109.5l143 -82q133 -75 196.5 -161t63.5 -192q0 -167 -122.5 -276t-311.5 -109q-164 0 -295.5 84t-216.5 242zM166 -360l18 110q82 -16 129 -16q79 0 122.5 40.5t43.5 114.5q0 70 -45 127l64 29q54 -31 83 -80t29 -106q0 -106 -80 -178t-198 -72q-84 0 -166 31z" />
    <glyph glyph-name="scedilla" unicode="&#x15f;" horiz-adv-x="933" 
d="M45 195l115 98q74 -92 137 -131t141 -39q91 0 145 38t54 101q0 49 -31 81t-125 79l-90 45q-112 55 -161.5 118.5t-49.5 151.5q0 128 93.5 205.5t248.5 77.5q223 0 336 -174l-110 -90q-87 118 -238 118q-80 0 -124 -33t-44 -93q0 -45 29 -77t108 -73l86 -45
q130 -69 182 -129t52 -154q0 -131 -100 -212t-261 -81q-125 0 -227.5 57t-165.5 161zM123 -360l18 110q82 -16 129 -16q79 0 122.5 40.5t43.5 114.5q0 70 -45 127l64 29q54 -31 83 -80t29 -106q0 -106 -80 -178t-198 -72q-84 0 -166 31z" />
    <glyph glyph-name="Scaron" unicode="&#x160;" horiz-adv-x="1140" 
d="M47 303l127 78q145 -256 389 -256q119 0 191.5 61.5t72.5 163.5q0 71 -45 125.5t-143 110.5l-145 82q-122 67 -185 156t-63 188q0 156 119.5 259t302.5 103q291 0 426 -250l-127 -75q-60 94 -132.5 136t-172.5 42q-116 0 -183 -55.5t-67 -151.5q0 -65 39.5 -113.5
t138.5 -109.5l143 -82q133 -75 196.5 -161t63.5 -192q0 -167 -122.5 -276t-311.5 -109q-164 0 -295.5 84t-216.5 242zM1010 1864h135l-369 -381h-96l-234 381h115l180 -224z" />
    <glyph glyph-name="scaron" unicode="&#x161;" horiz-adv-x="933" 
d="M45 195l115 98q74 -92 137 -131t141 -39q91 0 145 38t54 101q0 49 -31 81t-125 79l-90 45q-112 55 -161.5 118.5t-49.5 151.5q0 128 93.5 205.5t248.5 77.5q223 0 336 -174l-110 -90q-87 118 -238 118q-80 0 -124 -33t-44 -93q0 -45 29 -77t108 -73l86 -45
q130 -69 182 -129t52 -154q0 -131 -100 -212t-261 -81q-125 0 -227.5 57t-165.5 161zM829 1597h127l-354 -438h-96l-201 438h111l157 -264z" />
    <glyph glyph-name="uni0162" unicode="&#x162;" horiz-adv-x="1202" 
d="M434 0l213 1208h-475l25 144h1112l-27 -144h-475l-213 -1208h-160zM205 -360l18 110q82 -16 129 -16q79 0 122.5 40.5t43.5 114.5q0 70 -45 127l64 29q54 -31 83 -80t29 -106q0 -106 -80 -178t-198 -72q-84 0 -166 31z" />
    <glyph glyph-name="uni0163" unicode="&#x163;" horiz-adv-x="776" 
d="M438 856l-94 -530q-6 -30 -6 -56q0 -82 56 -116.5t167 -34.5q6 0 18 0.5t34.5 1.5t41.5 2l-24 -135q-71 -11 -115 -11q-155 0 -245.5 65.5t-90.5 205.5q0 39 8 80l93 528h-164l20 141h170l47 273h158l-49 -273h313l-24 -141h-314zM68 -360l18 110q82 -16 129 -16
q79 0 122.5 40.5t43.5 114.5q0 70 -45 127l63 29q54 -31 83.5 -80t29.5 -106q0 -106 -80.5 -178t-198.5 -72q-83 0 -165 31z" />
    <glyph glyph-name="Tcaron" unicode="&#x164;" horiz-adv-x="1202" 
d="M434 0l213 1208h-475l25 144h1112l-27 -144h-475l-213 -1208h-160zM1055 1864h135l-369 -381h-96l-233 381h114l180 -224z" />
    <glyph glyph-name="tcaron" unicode="&#x165;" horiz-adv-x="776" 
d="M438 856l-94 -530q-6 -30 -6 -56q0 -82 56 -116.5t167 -34.5q6 0 18 0.5t34.5 1.5t41.5 2l-24 -135q-71 -11 -115 -11q-155 0 -245.5 65.5t-90.5 205.5q0 39 8 80l93 528h-164l20 141h170l47 273h158l-49 -273h313l-24 -141h-314zM676 1112l102 424h170l-155 -424h-117z
" />
    <glyph glyph-name="Tbar" unicode="&#x166;" horiz-adv-x="1202" 
d="M1282 1208h-475l-96 -540h399l-25 -136h-397l-94 -532h-160l94 532h-399l23 136h399l96 540h-475l25 144h1112z" />
    <glyph glyph-name="tbar" unicode="&#x167;" horiz-adv-x="811" 
d="M774 862h-313l-47 -264h311l-23 -137h-313l-24 -135q-7 -35 -7 -56q0 -83 56 -117t168 -34q6 0 18 0.5t34.5 1.5t41.5 2l-25 -135q-71 -11 -114 -11q-155 0 -245.5 65.5t-90.5 205.5q0 39 8 80l22 133h-165l24 137h166l47 264h-166l23 135h168l47 273h157l-49 -273h312z
" />
    <glyph glyph-name="Utilde" unicode="&#x168;" horiz-adv-x="1406" 
d="M170 446q0 54 12 125l135 781h160l-137 -787q-10 -68 -10 -106q0 -145 99 -239.5t251 -94.5q149 0 262 96q110 98 137 258l152 873h160l-156 -883q-41 -227 -193 -358q-152 -134 -370 -134q-221 0 -361.5 131t-140.5 338zM901 1575l-63 41q-56 39 -86 39q-32 0 -49 -27.5
t-23 -87.5h-127q11 132 56.5 195t135.5 63q81 0 158 -55l62 -43q51 -39 88 -39q34 0 48.5 25.5t22.5 91.5h127q-11 -131 -57.5 -194.5t-136.5 -63.5q-43 0 -75 12.5t-81 42.5z" />
    <glyph glyph-name="utilde" unicode="&#x169;" horiz-adv-x="1144" 
d="M141 340q0 40 9 86l98 571h158l-105 -591q-4 -28 -4 -60q0 -98 67 -160.5t171 -62.5q105 0 178.5 63.5t93.5 169.5l111 641h157l-112 -645q-30 -170 -150 -272q-121 -103 -287 -103q-169 0 -277 102.5t-108 260.5zM715 1280l-49 45q-27 26 -43.5 35.5t-34.5 9.5
q-34 0 -51 -29t-25 -94h-127q24 264 195 264q78 0 143 -59l49 -45q27 -26 43.5 -35.5t34.5 -9.5q34 0 51 29t25 94h127q-12 -126 -60.5 -195t-132.5 -69q-77 0 -145 59z" />
    <glyph glyph-name="Umacron" unicode="&#x16a;" horiz-adv-x="1406" 
d="M170 446q0 54 12 125l135 781h160l-137 -787q-10 -68 -10 -106q0 -145 99 -239.5t251 -94.5q149 0 262 96q110 98 137 258l152 873h160l-156 -883q-41 -227 -193 -358q-152 -134 -370 -134q-221 0 -361.5 131t-140.5 338zM596 1577l22 129h603l-23 -129h-602z" />
    <glyph glyph-name="umacron" unicode="&#x16b;" horiz-adv-x="1144" 
d="M141 340q0 40 9 86l98 571h158l-105 -591q-4 -28 -4 -60q0 -98 67 -160.5t171 -62.5q105 0 178.5 63.5t93.5 169.5l111 641h157l-112 -645q-30 -170 -150 -272q-121 -103 -287 -103q-169 0 -277 102.5t-108 260.5zM436 1315l23 127h561l-23 -127h-561z" />
    <glyph glyph-name="Ubreve" unicode="&#x16c;" horiz-adv-x="1406" 
d="M170 446q0 54 12 125l135 781h160l-137 -787q-10 -68 -10 -106q0 -145 99 -239.5t251 -94.5q149 0 262 96q110 98 137 258l152 873h160l-156 -883q-41 -227 -193 -358q-152 -134 -370 -134q-221 0 -361.5 131t-140.5 338zM627 1765q0 23 12 99h129q-10 -65 -10 -86
q0 -75 45.5 -121.5t120.5 -46.5q76 0 128.5 50t65.5 140l10 64h129l-10 -64q-23 -146 -110.5 -229.5t-216.5 -83.5q-128 0 -210.5 78.5t-82.5 199.5z" />
    <glyph glyph-name="ubreve" unicode="&#x16d;" horiz-adv-x="1144" 
d="M141 340q0 40 9 86l98 571h158l-105 -591q-4 -28 -4 -60q0 -98 67 -160.5t171 -62.5q105 0 178.5 63.5t93.5 169.5l111 641h157l-112 -645q-30 -170 -150 -272q-121 -103 -287 -103q-169 0 -277 102.5t-108 260.5zM422 1450q0 40 14 111h129q-12 -61 -12 -99
q0 -75 45.5 -120.5t120.5 -45.5t126 49.5t68 139.5l13 76h129l-13 -76q-25 -146 -111.5 -228.5t-215.5 -82.5q-128 0 -210.5 77.5t-82.5 198.5z" />
    <glyph glyph-name="Uring" unicode="&#x16e;" horiz-adv-x="1406" 
d="M170 446q0 54 12 125l135 781h160l-137 -787q-10 -68 -10 -106q0 -145 99 -239.5t251 -94.5q149 0 262 96q110 98 137 258l152 873h160l-156 -883q-41 -227 -193 -358q-152 -134 -370 -134q-221 0 -361.5 131t-140.5 338zM686 1640q0 97 70 164q71 68 170 68
q94 0 155.5 -60t61.5 -151q0 -92 -72 -164q-70 -67 -168 -67q-94 0 -155.5 59.5t-61.5 150.5zM1018 1655q0 43 -27.5 70.5t-70.5 27.5q-45 0 -77 -31t-32 -75q0 -43 28.5 -71t69.5 -28q44 0 76.5 31.5t32.5 75.5z" />
    <glyph glyph-name="uring" unicode="&#x16f;" horiz-adv-x="1144" 
d="M141 340q0 40 9 86l98 571h158l-105 -591q-4 -28 -4 -60q0 -98 67 -160.5t171 -62.5q105 0 178.5 63.5t93.5 169.5l111 641h157l-112 -645q-30 -170 -150 -272q-121 -103 -287 -103q-169 0 -277 102.5t-108 260.5zM512 1358q0 96 68 164q70 67 170 67q93 0 154 -59.5
t61 -149.5q0 -98 -69.5 -165.5t-168.5 -67.5q-92 0 -153.5 60t-61.5 151zM840 1374q0 43 -27.5 72t-69.5 29q-44 0 -76 -33t-32 -78q0 -43 27.5 -71.5t70.5 -28.5t75 32t32 78z" />
    <glyph glyph-name="Uhungarumlaut" unicode="&#x170;" horiz-adv-x="1406" 
d="M170 446q0 54 12 125l135 781h160l-137 -787q-10 -68 -10 -106q0 -145 99 -239.5t251 -94.5q149 0 262 96q110 98 137 258l152 873h160l-156 -883q-41 -227 -193 -358q-152 -134 -370 -134q-221 0 -361.5 131t-140.5 338zM573 1483l244 381h178l-2 -29l-297 -352h-123z
M1016 1483l241 381h181l-4 -29l-297 -352h-121z" />
    <glyph glyph-name="uhungarumlaut" unicode="&#x171;" horiz-adv-x="1144" 
d="M141 340q0 40 9 86l98 571h158l-105 -591q-4 -28 -4 -60q0 -98 67 -160.5t171 -62.5q105 0 178.5 63.5t93.5 169.5l111 641h157l-112 -645q-30 -170 -150 -272q-121 -103 -287 -103q-169 0 -277 102.5t-108 260.5zM422 1159l252 438h180l-4 -28l-305 -410h-123zM829 1159
l250 438h183l-7 -28l-303 -410h-123z" />
    <glyph glyph-name="Uogonek" unicode="&#x172;" horiz-adv-x="1406" 
d="M170 446q0 54 12 125l135 781h160l-137 -787q-10 -68 -10 -106q0 -145 99 -239.5t251 -94.5q149 0 262 96q110 98 137 258l152 873h160l-156 -883q-41 -227 -193 -358q-152 -134 -370 -134q-221 0 -361.5 131t-140.5 338zM625 -223q0 73 74.5 160t230.5 202l143 -2
l-188 -186q-57 -57 -77 -87t-20 -61q0 -36 28 -51.5t87 -15.5q2 0 88 4l-20 -117q-60 -14 -125 -14q-103 0 -162 44.5t-59 123.5z" />
    <glyph glyph-name="uogonek" unicode="&#x173;" 
d="M918 997h157l-110 -645q-11 -50 -18.5 -75.5t-22 -58.5t-31 -53.5t-49.5 -52.5t-73 -62.5t-105 -76.5q-91 -62 -123.5 -97t-32.5 -73q0 -36 28.5 -51.5t90.5 -15.5q2 0 88 4l-21 -117q-60 -14 -125 -14q-103 0 -162 44.5t-59 123.5q0 61 33.5 107t114.5 93
q-156 9 -256 109q-99 102 -99 252q0 38 9 88l96 571h158l-103 -591q-4 -28 -4 -60q0 -99 67 -161t171 -62q102 0 178 63t94 170z" />
    <glyph glyph-name="Wcircumflex" unicode="&#x174;" horiz-adv-x="2164" 
d="M2038 1352h180l-754 -1375h-57l-236 1067l-620 -1067h-57l-273 1375h166l193 -1026l614 1048h57l232 -1048zM1612 1483h-113l-186 221l-264 -221h-136l369 381h96z" />
    <glyph glyph-name="wcircumflex" unicode="&#x175;" horiz-adv-x="1738" 
d="M1583 997h176l-600 -1020h-57l-199 750l-477 -750h-57l-246 1020h160l159 -739l471 760h60l198 -752zM1286 1159h-112l-158 264l-254 -264h-127l354 438h96z" />
    <glyph glyph-name="Ycircumflex" unicode="&#x176;" horiz-adv-x="1261" 
d="M1321 1352l-610 -797l-97 -555h-159l98 561l-330 791h166l262 -639l482 639h188zM1141 1483h-113l-186 221l-264 -221h-136l369 381h96z" />
    <glyph glyph-name="ycircumflex" unicode="&#x177;" horiz-adv-x="1155" 
d="M913 997h158l-174 -989q-32 -184 -155 -291.5t-300 -107.5q-130 0 -242.5 60.5t-181.5 168.5l105 101q129 -185 319 -185q119 0 196.5 68t100.5 192l17 97q-116 -107 -281 -107q-152 0 -245 89t-93 237q0 34 13 110l98 557h158l-103 -561q-10 -62 -10 -84
q0 -96 59 -150.5t162 -54.5q111 0 192 65.5t101 178.5zM1001 1159h-112l-158 264l-254 -264h-127l355 438h96z" />
    <glyph glyph-name="Ydieresis" unicode="&#x178;" horiz-adv-x="1261" 
d="M1321 1352l-610 -797l-97 -555h-159l98 561l-330 791h166l262 -639l482 639h188zM471 1659q0 44 34 76t79 32q47 0 79.5 -31.5t32.5 -76.5t-32.5 -77t-79.5 -32q-45 0 -79 32.5t-34 76.5zM948 1657q0 45 33 77.5t80 32.5t80 -32.5t33 -77.5t-33 -77t-80 -32t-80 32
t-33 77z" />
    <glyph glyph-name="Zacute" unicode="&#x179;" horiz-adv-x="1206" 
d="M1286 1352l-10 -47l-1012 -1162h811l-24 -143h-1074l9 47l1007 1161h-710l22 144h981zM719 1483l231 381h201l-4 -29l-303 -352h-125z" />
    <glyph glyph-name="zacute" unicode="&#x17a;" horiz-adv-x="929" 
d="M956 997l-8 -47l-698 -811h563l-25 -139h-819l8 47l697 809h-506l22 141h766zM504 1159l252 438h200l-4 -28l-317 -410h-131z" />
    <glyph glyph-name="Zdotaccent" unicode="&#x17b;" horiz-adv-x="1206" 
d="M1286 1352l-10 -47l-1012 -1162h811l-24 -143h-1074l9 47l1007 1161h-710l22 144h981zM698 1659q0 47 35 81t82 34q49 0 84 -34t35 -81q0 -49 -34.5 -82t-84.5 -33t-83.5 33t-33.5 82z" />
    <glyph glyph-name="zdotaccent" unicode="&#x17c;" horiz-adv-x="929" 
d="M956 997l-8 -47l-698 -811h563l-25 -139h-819l8 47l697 809h-506l22 141h766zM516 1378q0 47 35 81t82 34q49 0 84 -34t35 -81q0 -49 -34.5 -81.5t-84.5 -32.5t-83.5 32.5t-33.5 81.5z" />
    <glyph glyph-name="Zcaron" unicode="&#x17d;" horiz-adv-x="1206" 
d="M1286 1352l-10 -47l-1012 -1162h811l-24 -143h-1074l9 47l1007 1161h-710l22 144h981zM1065 1864h135l-369 -381h-96l-233 381h114l181 -224z" />
    <glyph glyph-name="zcaron" unicode="&#x17e;" horiz-adv-x="929" 
d="M956 997l-8 -47l-698 -811h563l-25 -139h-819l8 47l697 809h-506l22 141h766zM872 1597h127l-354 -438h-96l-201 438h111l157 -264z" />
    <glyph glyph-name="uni018F" unicode="&#x18f;" horiz-adv-x="1505" 
d="M1436 741q3 -151 -55 -293t-155 -245.5t-229.5 -164.5t-271.5 -58q-267 0 -434.5 159t-167.5 412q0 80 20 174h1127v10q0 212 -137.5 352t-346.5 140q-129 0 -247.5 -55t-198.5 -152l-104 96q102 123 249.5 190.5t309.5 67.5q174 3 323 -82t235 -232t83 -319zM1253 582
h-964q-2 -10 -2 -41q0 -183 122.5 -298.5t317.5 -115.5q187 0 333.5 128.5t192.5 326.5z" />
    <glyph glyph-name="florin" unicode="&#x192;" horiz-adv-x="907" 
d="M1047 1350l-23 -127q-49 8 -106 8q-92 0 -145 -40.5t-79 -131.5l-73 -242h217l-27 -141h-231l-199 -658q-88 -290 -352 -290q-76 0 -150 22l23 129q75 -10 112 -10q85 0 136.5 41.5t80.5 132.5l191 633h-160l27 141h176l80 266q88 291 352 291q73 0 150 -24z" />
    <glyph glyph-name="uni01D4" unicode="&#x1d4;" horiz-adv-x="1144" 
d="M141 340q0 40 9 86l98 571h158l-105 -591q-4 -28 -4 -60q0 -98 67 -160.5t171 -62.5q105 0 178.5 63.5t93.5 169.5l111 641h157l-112 -645q-30 -170 -150 -272q-121 -103 -287 -103q-169 0 -277 102.5t-108 260.5zM967 1597h127l-355 -438h-96l-201 438h111l158 -264z
" />
    <glyph glyph-name="AEacute" unicode="&#x1fc;" horiz-adv-x="1685" 
d="M1700 1208h-660l-4 -413h426l-24 -144h-402l-4 -508h508l-27 -143h-645l2 276h-553l-188 -276h-188l933 1352h850zM877 1094l-461 -674h454zM934 1483l231 381h201l-4 -29l-303 -352h-125z" />
    <glyph glyph-name="aeacute" unicode="&#x1fd;" horiz-adv-x="1822" 
d="M1712 430h-780q11 -141 103 -224t241 -83q159 0 307 121l80 -107q-168 -160 -401 -160q-138 0 -248.5 63.5t-171.5 174.5q-60 -111 -177.5 -174.5t-265.5 -63.5q-164 0 -255 71.5t-91 199.5q0 146 109.5 229.5t298.5 83.5h319l2 10q9 47 9 105q0 94 -61 146t-171 52
q-78 0 -145.5 -29t-145.5 -95l-78 114q170 156 388 156q127 0 214.5 -51t122.5 -144q73 91 177.5 143t220.5 52q185 0 304.5 -122.5t119.5 -311.5q0 -92 -25 -156zM938 561h639v35q0 131 -74 206t-203 75q-138 0 -237 -87t-125 -229zM745 358l13 72h-297q-246 0 -246 -166
q0 -73 54.5 -115.5t148.5 -42.5q118 0 215 72q94 70 112 180zM887 1159l252 438h200l-4 -28l-317 -410h-131z" />
    <glyph glyph-name="Oslashacute" unicode="&#x1fe;" horiz-adv-x="1570" 
d="M1556 1290l-170 -162q130 -173 130 -401q3 -146 -58.5 -286t-164.5 -243t-243.5 -164t-287.5 -57q-238 0 -420 148l-170 -164l-96 100l170 164q-127 174 -127 400q-3 147 58.5 286.5t164 241.5t243 163t287.5 58q240 0 418 -145l170 162zM283 633q0 -164 82 -295l813 778
q-132 111 -318 111q-115 2 -222.5 -45.5t-186 -128t-124.5 -191.5t-44 -229zM1350 723q0 169 -82 291l-813 -778q132 -111 315 -111q153 -3 288.5 79t215 221.5t76.5 297.5zM883 1483l231 381h201l-4 -29l-303 -352h-125z" />
    <glyph glyph-name="oslashacute" unicode="&#x1ff;" horiz-adv-x="1257" 
d="M1174 928l-121 -119q98 -128 98 -293q3 -142 -74 -268t-207 -200t-276 -71q-167 0 -297 95l-119 -119l-96 98l117 115q-97 129 -97 295q-2 106 43 206.5t120 174.5t177.5 117.5t210.5 41.5q169 0 303 -96l123 119zM264 465q0 -110 53 -193l533 523q-84 63 -203 63
q-158 0 -270.5 -115.5t-112.5 -277.5zM987 510q0 107 -51 190l-530 -522q80 -57 194 -57q160 0 273.5 114t113.5 275zM645 1159l252 438h201l-4 -28l-318 -410h-131z" />
    <glyph glyph-name="uni0218" unicode="&#x218;" horiz-adv-x="1140" 
d="M47 303l127 78q145 -256 389 -256q119 0 191.5 61.5t72.5 163.5q0 71 -45 125.5t-143 110.5l-145 82q-122 67 -185 156t-63 188q0 156 119.5 259t302.5 103q291 0 426 -250l-127 -75q-60 94 -132.5 136t-172.5 42q-116 0 -183 -55.5t-67 -151.5q0 -65 39.5 -113.5
t138.5 -109.5l143 -82q133 -75 196.5 -161t63.5 -192q0 -167 -122.5 -276t-311.5 -109q-164 0 -295.5 84t-216.5 242zM301 -451l82 351h154l-113 -351h-123z" />
    <glyph glyph-name="uni0219" unicode="&#x219;" horiz-adv-x="933" 
d="M45 195l115 98q74 -92 137 -131t141 -39q91 0 145 38t54 101q0 49 -31 81t-125 79l-90 45q-112 55 -161.5 118.5t-49.5 151.5q0 128 93.5 205.5t248.5 77.5q223 0 336 -174l-110 -90q-87 118 -238 118q-80 0 -124 -33t-44 -93q0 -45 29 -77t108 -73l86 -45
q130 -69 182 -129t52 -154q0 -131 -100 -212t-261 -81q-125 0 -227.5 57t-165.5 161zM258 -451l82 351h154l-113 -351h-123z" />
    <glyph glyph-name="uni021A" unicode="&#x21a;" horiz-adv-x="1202" 
d="M434 0l213 1208h-475l25 144h1112l-27 -144h-475l-213 -1208h-160zM340 -451l82 351h153l-112 -351h-123z" />
    <glyph glyph-name="uni021B" unicode="&#x21b;" horiz-adv-x="776" 
d="M438 856l-94 -530q-6 -30 -6 -56q0 -82 56 -116.5t167 -34.5q6 0 18 0.5t34.5 1.5t41.5 2l-24 -135q-71 -11 -115 -11q-155 0 -245.5 65.5t-90.5 205.5q0 39 8 80l93 528h-164l20 141h170l47 273h158l-49 -273h313l-24 -141h-314zM203 -451l82 351h153l-112 -351h-123z
" />
    <glyph glyph-name="uni0237" unicode="&#x237;" horiz-adv-x="505" 
d="M-262 -362l22 126q59 -12 115 -12q87 0 135.5 41.5t65.5 134.5l190 1069h158l-195 -1091q-24 -147 -110.5 -222t-222.5 -75q-76 0 -158 29z" />
    <glyph glyph-name="uni0259" unicode="&#x259;" horiz-adv-x="1150" 
d="M1055 532q3 -148 -71 -277.5t-200 -205t-270 -72.5q-186 0 -308 117t-122 297q0 75 25 148h784q-4 158 -92.5 246.5t-241.5 88.5q-159 0 -305 -120l-80 104q81 78 185.5 120t213.5 42q210 0 346 -137.5t136 -350.5zM877 399h-633v-18q0 -121 75 -191.5t203 -70.5t224 76
t131 204z" />
    <glyph glyph-name="circumflex" unicode="&#x2c6;" horiz-adv-x="1024" 
d="M954 1159h-112l-158 264l-254 -264h-127l354 438h97z" />
    <glyph glyph-name="caron" unicode="&#x2c7;" horiz-adv-x="1024" 
d="M905 1597h127l-354 -438h-96l-201 438h111l157 -264z" />
    <glyph glyph-name="breve" unicode="&#x2d8;" horiz-adv-x="1024" 
d="M377 1450q0 40 14 111h129q-12 -61 -12 -99q0 -75 45.5 -120.5t120.5 -45.5t126 49.5t68 139.5l13 76h129l-13 -76q-25 -146 -111.5 -228.5t-215.5 -82.5q-128 0 -210.5 77.5t-82.5 198.5z" />
    <glyph glyph-name="dotaccent" unicode="&#x2d9;" horiz-adv-x="1024" 
d="M549 1378q0 47 35 81t82 34q49 0 83.5 -34t34.5 -81q0 -49 -34 -81.5t-84 -32.5t-83.5 32.5t-33.5 81.5z" />
    <glyph glyph-name="ring" unicode="&#x2da;" horiz-adv-x="1024" 
d="M440 1358q0 96 68 164q70 67 170 67q93 0 154 -59.5t61 -149.5q0 -98 -69.5 -165.5t-168.5 -67.5q-92 0 -153.5 60t-61.5 151zM768 1374q0 43 -27 72t-69 29q-44 0 -76.5 -33.5t-32.5 -77.5q0 -43 28 -71.5t71 -28.5t74.5 31.5t31.5 78.5z" />
    <glyph glyph-name="ogonek" unicode="&#x2db;" horiz-adv-x="1024" 
d="M201 -223q0 84 80 149q85 69 278 146l51 -72l-135 -70q-113 -61 -113 -127q0 -35 27.5 -51t87.5 -16q2 0 88 4l-20 -117q-57 -14 -125 -14q-102 0 -160.5 45t-58.5 123z" />
    <glyph glyph-name="tilde" unicode="&#x2dc;" horiz-adv-x="1024" 
d="M662 1280l-50 45q-28 26 -43.5 35.5t-33.5 9.5q-34 0 -51 -29t-25 -94h-127q24 264 194 264q79 0 144 -59l49 -45q27 -26 43.5 -35.5t34.5 -9.5q34 0 50.5 29t24.5 94h127q-26 -264 -192 -264q-77 0 -145 59z" />
    <glyph glyph-name="hungarumlaut" unicode="&#x2dd;" horiz-adv-x="1024" 
d="M248 1159l252 438h180l-4 -28l-305 -410h-123zM655 1159l250 438h182l-6 -28l-303 -410h-123z" />
    <glyph glyph-name="gravecomb" unicode="&#x300;" horiz-adv-x="0" 
d="M-365 1159l-102 410l10 28h176l29 -438h-113z" />
    <glyph glyph-name="acutecomb" unicode="&#x301;" horiz-adv-x="0" 
d="M-584 1159l252 438h201l-4 -28l-318 -410h-131z" />
    <glyph glyph-name="uni0302" unicode="&#x302;" horiz-adv-x="0" 
d="M-70 1159h-112l-158 264l-254 -264h-127l354 438h97z" />
    <glyph glyph-name="tildecomb" unicode="&#x303;" horiz-adv-x="0" 
d="M-362 1280l-50 45q-28 26 -43.5 35.5t-33.5 9.5q-34 0 -51 -29t-25 -94h-127q24 264 194 264q79 0 144 -59l49 -45q27 -26 43.5 -35.5t34.5 -9.5q34 0 50.5 29t24.5 94h127q-26 -264 -192 -264q-77 0 -145 59z" />
    <glyph glyph-name="uni0304" unicode="&#x304;" horiz-adv-x="0" 
d="M-649 1315l22 127h561l-22 -127h-561z" />
    <glyph glyph-name="uni0306" unicode="&#x306;" horiz-adv-x="0" 
d="M-649 1450q0 40 14 111h129q-12 -61 -12 -99q0 -75 45.5 -120.5t120.5 -45.5t126 49.5t68 139.5l13 76h129l-13 -76q-25 -146 -111.5 -228.5t-215.5 -82.5q-128 0 -210.5 77.5t-82.5 198.5z" />
    <glyph glyph-name="uni0307" unicode="&#x307;" horiz-adv-x="0" 
d="M-475 1378q0 47 35 81t82 34q49 0 83.5 -34t34.5 -81q0 -49 -34 -81.5t-84 -32.5t-83.5 32.5t-33.5 81.5z" />
    <glyph glyph-name="uni0308" unicode="&#x308;" horiz-adv-x="0" 
d="M-698 1378q0 44 33.5 76.5t78.5 32.5q47 0 81 -32.5t34 -76.5t-34 -76t-81 -32q-45 0 -78.5 32t-33.5 76zM-244 1378q0 44 34 76.5t81 32.5t80 -32t33 -77q0 -44 -33 -76t-80 -32t-81 32t-34 76z" />
    <glyph glyph-name="uni030A" unicode="&#x30a;" horiz-adv-x="0" 
d="M-584 1358q0 97 70 164q67 67 168 67q93 0 154 -59.5t61 -149.5q0 -98 -69.5 -165.5t-168.5 -67.5q-92 0 -153.5 60t-61.5 151zM-256 1374q0 43 -27 72t-69 29q-44 0 -76.5 -33.5t-32.5 -77.5q0 -43 28 -71.5t71 -28.5t74.5 31.5t31.5 78.5z" />
    <glyph glyph-name="uni030B" unicode="&#x30b;" horiz-adv-x="0" 
d="M-776 1159l252 438h180l-4 -28l-305 -410h-123zM-369 1159l250 438h182l-6 -28l-303 -410h-123z" />
    <glyph glyph-name="uni030C" unicode="&#x30c;" horiz-adv-x="0" 
d="M-119 1597h127l-354 -438h-96l-201 438h111l157 -264z" />
    <glyph glyph-name="uni0326" unicode="&#x326;" horiz-adv-x="0" 
d="M-768 -451l82 351h154l-113 -351h-123z" />
    <glyph glyph-name="uni0327" unicode="&#x327;" horiz-adv-x="0" 
d="M-868 -360l18 110q82 -16 129 -16q79 0 122.5 40.5t43.5 114.5q0 70 -45 127l63 29q54 -31 83.5 -80t29.5 -106q0 -106 -80 -178t-198 -72q-84 0 -166 31z" />
    <glyph glyph-name="uni0328" unicode="&#x328;" horiz-adv-x="0" 
d="M-823 -223q0 84 80 149q85 69 278 146l51 -72l-135 -70q-113 -61 -113 -127q0 -35 27.5 -51t87.5 -16q2 0 88 4l-20 -117q-57 -14 -125 -14q-102 0 -160.5 45t-58.5 123z" />
    <glyph glyph-name="tonos" unicode="&#x384;" horiz-adv-x="1024" 
d="M502 1159l139 438h190l-6 -28l-200 -410h-123z" />
    <glyph glyph-name="dieresistonos" unicode="&#x385;" horiz-adv-x="1024" 
d="M518 1159l139 438h189l-4 -28l-201 -410h-123zM287 1378q0 44 33.5 76.5t78.5 32.5q47 0 81 -32.5t34 -76.5t-34 -76t-81 -32q-45 0 -78.5 32t-33.5 76zM823 1378q0 44 34 76.5t81 32.5t80 -32t33 -77q0 -44 -33 -76t-80 -32t-81 32t-34 76z" />
    <glyph glyph-name="Alphatonos" unicode="&#x386;" horiz-adv-x="1357" 
d="M1053 0l-68 274h-657l-164 -274h-180l827 1374h57l346 -1374h-161zM948 418l-153 655l-383 -655h536zM131 928l102 424h170l-155 -424h-117z" />
    <glyph glyph-name="anoteleia" unicode="&#x387;" horiz-adv-x="573" 
d="M184 643q0 55 37.5 92t91.5 37t91.5 -37t37.5 -92t-37.5 -92t-91.5 -37t-91.5 37t-37.5 92z" />
    <glyph glyph-name="Epsilontonos" unicode="&#x388;" horiz-adv-x="1161" 
d="M100 0l238 1352h866l-26 -144h-707l-76 -413h543l-25 -144h-540l-88 -508h731l-25 -143h-891zM-121 928l103 424h170l-156 -424h-117z" />
    <glyph glyph-name="Etatonos" unicode="&#x389;" horiz-adv-x="1449" 
d="M100 0l238 1352h160l-99 -557h760l96 557h160l-237 -1352h-160l115 651h-760l-113 -651h-160zM-119 928l103 424h170l-156 -424h-117z" />
    <glyph glyph-name="Iotatonos" unicode="&#x38a;" horiz-adv-x="530" 
d="M100 0l238 1352h160l-238 -1352h-160zM-121 928l103 424h170l-156 -424h-117z" />
    <glyph glyph-name="Omicrontonos" unicode="&#x38c;" horiz-adv-x="1601" 
d="M135 625q-3 149 58.5 289t164.5 241.5t243.5 161.5t287.5 57q135 2 255.5 -48t206 -137t134.5 -207.5t47 -254.5q3 -148 -59 -288t-165.5 -242.5t-243.5 -163t-286 -56.5q-135 -2 -255.5 48.5t-206 137.5t-134.5 207.5t-47 254.5zM1366 723q0 216 -138 360t-351 144
q-154 3 -289 -78t-214 -219.5t-75 -296.5q0 -219 137.5 -363.5t349.5 -144.5q153 -3 288.5 79t215 221.5t76.5 297.5zM-27 928l103 424h170l-156 -424h-117z" />
    <glyph glyph-name="Upsilontonos" unicode="&#x38e;" horiz-adv-x="1261" 
d="M1321 1352l-610 -797l-97 -555h-159l98 561l-330 791h166l262 -639l482 639h188zM-170 926l102 424h170l-155 -424h-117z" />
    <glyph glyph-name="Omegatonos" unicode="&#x38f;" horiz-adv-x="1619" 
d="M1180 143h276l-24 -143h-562l25 145q238 94 363.5 246.5t125.5 347.5q0 216 -143 352t-369 136q-115 2 -221 -43.5t-182 -124t-120 -186t-42 -224.5q0 -154 84 -283t244 -221l-27 -145h-536l26 143h312q-127 96 -198 231.5t-71 278.5q-3 142 55.5 276.5t157 232.5
t233.5 156.5t279 55.5q192 3 350.5 -80t247.5 -229t86 -322q0 -184 -95.5 -339t-274.5 -261zM-29 928l103 424h170l-156 -424h-117z" />
    <glyph glyph-name="iotadieresistonos" unicode="&#x390;" horiz-adv-x="616" 
d="M123 209q0 35 10 100l125 688h158l-123 -678q-8 -41 -8 -79q0 -58 37 -88.5t108 -30.5q49 0 107 10l-23 -133q-64 -21 -121 -21q-125 0 -197.5 62t-72.5 170zM289 1159l139 438h188l-4 -28l-200 -410h-123zM57 1378q0 44 34 76.5t79 32.5q47 0 81 -32.5t34 -76.5t-34 -76
t-81 -32q-45 0 -79 32t-34 76zM594 1378q0 44 34 76.5t81 32.5t79.5 -32t32.5 -77t-32.5 -76.5t-79.5 -31.5t-81 32t-34 76z" />
    <glyph glyph-name="Alpha" unicode="&#x391;" horiz-adv-x="1357" 
d="M1053 0l-68 274h-657l-164 -274h-180l827 1374h57l346 -1374h-161zM948 418l-153 655l-383 -655h536z" />
    <glyph glyph-name="Beta" unicode="&#x392;" horiz-adv-x="1259" 
d="M1149 401q0 -175 -133.5 -288t-343.5 -113h-572l238 1352h424q165 0 263.5 -87.5t98.5 -234.5q0 -100 -45.5 -179t-130.5 -126q94 -43 147.5 -128.5t53.5 -195.5zM733 1208h-260l-74 -420h301q117 0 187.5 63t70.5 169q0 90 -59.5 139t-165.5 49zM983 406
q0 110 -69.5 173.5t-190.5 63.5h-350l-88 -500h379q146 0 232.5 72t86.5 191z" />
    <glyph glyph-name="Gamma" unicode="&#x393;" horiz-adv-x="1038" 
d="M100 0l238 1352h801l-23 -144h-645l-211 -1208h-160z" />
    <glyph glyph-name="uni0394" unicode="&#x394;" horiz-adv-x="1357" 
d="M868 1374l334 -1327l-8 -47h-1192l8 47l799 1327h59zM1016 143l-223 922l-545 -922h768z" />
    <glyph glyph-name="Epsilon" unicode="&#x395;" horiz-adv-x="1161" 
d="M100 0l238 1352h866l-26 -144h-707l-76 -413h543l-25 -144h-540l-88 -508h731l-25 -143h-891z" />
    <glyph glyph-name="Zeta" unicode="&#x396;" horiz-adv-x="1206" 
d="M1286 1352l-10 -47l-1012 -1162h811l-24 -143h-1074l9 47l1007 1161h-710l22 144h981z" />
    <glyph glyph-name="Eta" unicode="&#x397;" horiz-adv-x="1449" 
d="M100 0l238 1352h160l-99 -557h760l96 557h160l-237 -1352h-160l115 651h-760l-113 -651h-160z" />
    <glyph glyph-name="Theta" unicode="&#x398;" horiz-adv-x="1601" 
d="M135 625q-3 147 58.5 286.5t164.5 241.5t243.5 163t287.5 58q178 3 327 -82t234 -235t82 -330q3 -146 -58.5 -286t-164.5 -243t-243.5 -164t-287.5 -57q-178 -3 -327 82t-234 235.5t-82 330.5zM1364 725q0 218 -137.5 360t-349.5 142q-154 3 -289 -78t-214 -220t-75 -298
q0 -219 137.5 -362.5t349.5 -143.5q114 -2 221.5 46t186 129.5t125.5 193.5t45 231zM496 600l24 143h647l-22 -143h-649z" />
    <glyph glyph-name="Iota" unicode="&#x399;" horiz-adv-x="530" 
d="M100 0l238 1352h160l-238 -1352h-160z" />
    <glyph glyph-name="Kappa" unicode="&#x39a;" horiz-adv-x="1292" 
d="M338 1352h160l-238 -1352h-160zM1333 1352l-725 -643l543 -709h-190l-555 725l704 627h223z" />
    <glyph glyph-name="Lambda" unicode="&#x39b;" horiz-adv-x="1357" 
d="M1214 0h-163l-263 1067l-626 -1067h-178l825 1374h59z" />
    <glyph glyph-name="Mu" unicode="&#x39c;" horiz-adv-x="1615" 
d="M1528 1374h57l-242 -1374h-159l170 963l-525 -580h-57l-338 614l-174 -997h-160l242 1374h57l424 -780z" />
    <glyph glyph-name="Nu" unicode="&#x39d;" horiz-adv-x="1449" 
d="M1255 1352h160l-241 -1375h-58l-678 1057l-178 -1034h-160l242 1374h57l678 -1059z" />
    <glyph glyph-name="Xi" unicode="&#x39e;" horiz-adv-x="1265" 
d="M211 1208l25 144h1095l-22 -144h-1098zM244 610l24 144h824l-27 -144h-821zM-2 0l27 143h1095l-26 -143h-1096z" />
    <glyph glyph-name="Omicron" unicode="&#x39f;" horiz-adv-x="1601" 
d="M135 625q-3 149 58.5 289t164.5 241.5t243.5 161.5t287.5 57q135 2 255.5 -48t206 -137t134.5 -207.5t47 -254.5q3 -148 -59 -288t-165.5 -242.5t-243.5 -163t-286 -56.5q-135 -2 -255.5 48.5t-206 137.5t-134.5 207.5t-47 254.5zM1366 723q0 216 -138 360t-351 144
q-154 3 -289 -78t-214 -219.5t-75 -296.5q0 -219 137.5 -363.5t349.5 -144.5q153 -3 288.5 79t215 221.5t76.5 297.5z" />
    <glyph glyph-name="Pi" unicode="&#x3a0;" horiz-adv-x="1394" 
d="M100 0l238 1352h1022l-238 -1352h-159l213 1208h-705l-211 -1208h-160z" />
    <glyph glyph-name="Rho" unicode="&#x3a1;" horiz-adv-x="1181" 
d="M100 0l238 1352h428q194 0 306 -98.5t112 -266.5q0 -189 -136.5 -305.5t-359.5 -116.5h-330l-98 -565h-160zM385 709h322q146 0 228.5 72t82.5 200q0 111 -66.5 169t-193.5 58h-287z" />
    <glyph glyph-name="Sigma" unicode="&#x3a3;" horiz-adv-x="1175" 
d="M1219 1352l-27 -144h-672l299 -493l-6 -41l-467 -531h682l-22 -143h-959l6 41l586 672l-363 598l9 41h934z" />
    <glyph glyph-name="Tau" unicode="&#x3a4;" horiz-adv-x="1202" 
d="M434 0l213 1208h-475l25 144h1112l-27 -144h-475l-213 -1208h-160z" />
    <glyph glyph-name="Upsilon" unicode="&#x3a5;" horiz-adv-x="1261" 
d="M1321 1352l-610 -797l-97 -555h-159l98 561l-330 791h166l262 -639l482 639h188z" />
    <glyph glyph-name="Phi" unicode="&#x3a6;" horiz-adv-x="1695" 
d="M668 -82l22 133q-244 12 -400.5 170.5t-156.5 390.5q0 306 214 494.5t564 191.5l23 134h160l-23 -134q243 -12 399 -170.5t156 -390.5q0 -202 -96.5 -357t-273 -241t-406.5 -88l-23 -133h-159zM713 195l172 960q-263 0 -425.5 -147.5t-162.5 -386.5q0 -183 118.5 -304.5
t297.5 -121.5zM1462 729q0 185 -117.5 305.5t-300.5 120.5l-170 -960q265 0 426.5 147t161.5 387z" />
    <glyph glyph-name="Chi" unicode="&#x3a7;" horiz-adv-x="1212" 
d="M1278 1352l-541 -674l336 -678h-172l-274 561l-459 -561h-199l584 707l-313 645h170l252 -533l417 533h199z" />
    <glyph glyph-name="Psi" unicode="&#x3a8;" horiz-adv-x="1529" 
d="M600 0l53 311q-213 26 -334.5 159.5t-121.5 338.5q0 57 12 125l74 418h159l-75 -426q-11 -71 -11 -109q0 -160 87.5 -255.5t236.5 -100.5l156 891h159l-155 -891q197 -2 313.5 113t159.5 352l78 426h159l-75 -418q-55 -316 -207 -458.5t-455 -164.5l-53 -311h-160z" />
    <glyph glyph-name="uni03A9" unicode="&#x3a9;" horiz-adv-x="1619" 
d="M1180 143h276l-24 -143h-562l25 145q238 94 363.5 246.5t125.5 347.5q0 216 -143 352t-369 136q-115 2 -221 -43.5t-182 -124t-120 -186t-42 -224.5q0 -154 84 -283t244 -221l-27 -145h-536l26 143h312q-127 96 -198 231.5t-71 278.5q-3 142 55.5 276.5t157 232.5
t233.5 156.5t279 55.5q192 3 350.5 -80t247.5 -229t86 -322q0 -184 -95.5 -339t-274.5 -261z" />
    <glyph glyph-name="Iotadieresis" unicode="&#x3aa;" horiz-adv-x="530" 
d="M100 0l238 1352h160l-238 -1352h-160zM119 1659q0 44 33.5 76t78.5 32q47 0 80 -32t33 -76q0 -45 -33 -77t-80 -32q-45 0 -78.5 32.5t-33.5 76.5zM596 1657q0 45 33 77.5t80 32.5t79.5 -32.5t32.5 -77.5t-32.5 -77t-79.5 -32t-80 32t-33 77z" />
    <glyph glyph-name="Upsilondieresis" unicode="&#x3ab;" horiz-adv-x="1261" 
d="M1321 1352l-610 -797l-97 -555h-159l98 561l-330 791h166l262 -639l482 639h188zM467 1659q0 44 34 76t79 32q47 0 79.5 -31.5t32.5 -76.5t-32.5 -77t-79.5 -32q-45 0 -79 32.5t-34 76.5zM944 1657q0 45 33 77.5t80 32.5t79.5 -32.5t32.5 -77.5t-32.5 -77t-79.5 -32
t-80 32t-33 77z" />
    <glyph glyph-name="alphatonos" unicode="&#x3ac;" horiz-adv-x="1329" 
d="M1223 119l-25 -131q-24 -8 -82 -8q-163 0 -198 147q-66 -72 -160.5 -111t-204.5 -39q-198 0 -327.5 135t-129.5 341q-3 154 69.5 286t197 208t268.5 73q130 0 237 -59t158 -156q7 35 45 196h148l-15 -59q-38 -168 -49 -223q-23 -113 -37 -197l-37 -221q-12 -74 -12 -90
q0 -94 100 -94q42 0 54 2zM965 547q0 146 -88.5 236.5t-231.5 90.5q-160 0 -273.5 -119t-113.5 -286q0 -152 93.5 -249t236.5 -97q157 0 267 123.5t110 300.5zM627 1159l139 438h190l-6 -28l-200 -410h-123z" />
    <glyph glyph-name="epsilontonos" unicode="&#x3ad;" horiz-adv-x="1036" 
d="M819 248l84 -111q-70 -74 -184.5 -117t-247.5 -43q-178 0 -287.5 77t-109.5 200q0 98 63.5 167.5t179.5 98.5q-112 74 -112 213q0 129 109.5 208t289.5 79q128 0 230 -45.5t153 -126.5l-106 -90q-38 55 -114 87t-167 32q-110 0 -170.5 -42.5t-60.5 -117.5q0 -63 45.5 -99
t124.5 -36h204l-20 -140h-240q-112 0 -178.5 -45.5t-66.5 -120.5q0 -72 64 -112.5t177 -40.5q209 0 340 125zM545 1159l139 438h190l-6 -28l-200 -410h-123z" />
    <glyph glyph-name="etatonos" unicode="&#x3ae;" horiz-adv-x="1198" 
d="M1069 692q0 -40 -12 -110l-168 -951h-158l168 944q12 65 12 99q0 93 -59.5 148t-159.5 55q-112 0 -192.5 -65.5t-100.5 -180.5l-112 -631h-158l123 696q10 62 10 84q0 99 -98 99q-6 0 -14.5 -1t-20 -2t-20.5 -2l24 134q38 10 80 10q72 0 123.5 -33t71.5 -90
q125 125 315 125q159 0 252.5 -89.5t93.5 -238.5zM647 1159l139 438h191l-6 -28l-201 -410h-123z" />
    <glyph glyph-name="iotatonos" unicode="&#x3af;" horiz-adv-x="616" 
d="M123 209q0 35 10 100l125 688h158l-123 -678q-8 -41 -8 -79q0 -58 37 -88.5t108 -30.5q49 0 107 10l-23 -133q-64 -21 -121 -21q-125 0 -197.5 62t-72.5 170zM285 1159l139 438h190l-6 -28l-200 -410h-123z" />
    <glyph glyph-name="upsilondieresistonos" unicode="&#x3b0;" horiz-adv-x="1144" 
d="M141 340q0 40 9 86l98 571h158l-105 -591q-4 -28 -4 -60q0 -98 67 -160.5t171 -62.5q105 0 178.5 63.5t93.5 169.5l111 641h157l-112 -645q-30 -170 -150 -272q-121 -103 -287 -103q-169 0 -277 102.5t-108 260.5zM580 1159l139 438h188l-4 -28l-201 -410h-122zM348 1378
q0 44 34 76.5t79 32.5q47 0 80.5 -32.5t33.5 -76.5t-33.5 -76t-80.5 -32q-45 0 -79 32t-34 76zM885 1378q0 44 33.5 76.5t80.5 32.5t80 -32t33 -77q0 -44 -33 -76t-80 -32t-80.5 32t-33.5 76z" />
    <glyph glyph-name="alpha" unicode="&#x3b1;" horiz-adv-x="1329" 
d="M1223 119l-25 -131q-24 -8 -82 -8q-163 0 -198 147q-66 -72 -160.5 -111t-204.5 -39q-198 0 -327.5 135t-129.5 341q-3 154 69.5 286t197 208t268.5 73q130 0 237 -59t158 -156q7 35 45 196h148l-15 -59q-38 -168 -49 -223q-23 -113 -37 -197l-37 -221q-12 -74 -12 -90
q0 -94 100 -94q42 0 54 2zM965 547q0 146 -88.5 236.5t-231.5 90.5q-160 0 -273.5 -119t-113.5 -286q0 -152 93.5 -249t236.5 -97q157 0 267 123.5t110 300.5z" />
    <glyph glyph-name="beta" unicode="&#x3b2;" horiz-adv-x="1245" 
d="M1141 483q0 -221 -140.5 -363.5t-357.5 -142.5q-199 0 -332 135.5t-133 338.5q0 49 10 114l91 520q38 221 172 344t337 123q167 0 274 -93.5t107 -241.5q0 -110 -58.5 -201.5t-184.5 -169.5q104 -63 159.5 -157.5t55.5 -205.5zM434 1081l-57 -323q346 123 488.5 225
t142.5 227q0 85 -68.5 141t-171.5 56q-134 0 -221 -84t-113 -242zM979 475q0 185 -188 295q-197 -96 -443 -170l-6 -39q-10 -62 -10 -100q0 -145 90.5 -241.5t228.5 -96.5q148 0 236 98q92 100 92 254z" />
    <glyph glyph-name="gamma" unicode="&#x3b3;" horiz-adv-x="1095" 
d="M1118 997l-579 -909l-78 -457h-158l80 455l-260 911h162l202 -751l455 751h176z" />
    <glyph glyph-name="delta" unicode="&#x3b4;" horiz-adv-x="1220" 
d="M1202 1536l-18 -150h-606l352 -434q104 -128 147 -227q43 -93 43 -207q2 -108 -41 -209t-116 -174t-173 -116.5t-206 -41.5q-212 0 -348 131.5t-136 335.5q-2 111 42 214.5t118.5 179.5t177 120.5t211.5 42.5h33l-406 488l5 47h921zM637 860q-163 0 -269 -117t-106 -297
q0 -148 86 -235.5t232 -87.5q165 0 271.5 112.5t106.5 286.5q0 153 -87.5 245.5t-233.5 92.5z" />
    <glyph glyph-name="epsilon" unicode="&#x3b5;" horiz-adv-x="1036" 
d="M819 248l84 -111q-70 -74 -184.5 -117t-247.5 -43q-178 0 -287.5 77t-109.5 200q0 98 63.5 167.5t179.5 98.5q-112 74 -112 213q0 129 109.5 208t289.5 79q128 0 230 -45.5t153 -126.5l-106 -90q-38 55 -114 87t-167 32q-110 0 -170.5 -42.5t-60.5 -117.5q0 -63 45.5 -99
t124.5 -36h204l-20 -140h-240q-112 0 -178.5 -45.5t-66.5 -120.5q0 -72 64 -112.5t177 -40.5q209 0 340 125z" />
    <glyph glyph-name="zeta" unicode="&#x3b6;" horiz-adv-x="997" 
d="M1038 1489l-526 -649q-152 -186 -200 -280t-48 -202q0 -168 217 -217l103 -22q110 -25 176.5 -95.5t66.5 -164.5q0 -101 -86 -228h-157q80 109 80 215q0 57 -36 90t-118 52l-104 24q-143 32 -223.5 122.5t-80.5 219.5q0 125 57 232.5t244 337.5l371 465h-512l25 147h757z
" />
    <glyph glyph-name="eta" unicode="&#x3b7;" horiz-adv-x="1198" 
d="M1069 692q0 -40 -12 -110l-168 -951h-158l168 944q12 65 12 99q0 93 -59.5 148t-159.5 55q-112 0 -192.5 -65.5t-100.5 -180.5l-112 -631h-158l123 696q10 62 10 84q0 99 -98 99q-6 0 -14.5 -1t-20 -2t-20.5 -2l24 134q38 10 80 10q72 0 123.5 -33t71.5 -90
q125 125 315 125q159 0 252.5 -89.5t93.5 -238.5z" />
    <glyph glyph-name="theta" unicode="&#x3b8;" horiz-adv-x="1263" 
d="M1235 1032q2 -295 -82.5 -539t-234.5 -382.5t-332 -133.5q-209 0 -331 133.5t-122 362.5q0 97 29 258h157q-28 -179 -28 -256q0 -170 74.5 -261t214.5 -91q142 0 258 125t178 342q-321 35 -489.5 167t-168.5 347q0 201 125 328t320 127q211 0 321.5 -135t110.5 -392z
M1049 735q24 135 24 293q0 385 -278 385q-123 0 -198 -82.5t-75 -216.5q0 -161 135 -258.5t392 -120.5z" />
    <glyph glyph-name="iota" unicode="&#x3b9;" horiz-adv-x="616" 
d="M123 209q0 35 10 100l125 688h158l-123 -678q-8 -41 -8 -79q0 -58 37 -88.5t108 -30.5q49 0 107 10l-23 -133q-64 -21 -121 -21q-125 0 -197.5 62t-72.5 170z" />
    <glyph glyph-name="kappa" unicode="&#x3ba;" horiz-adv-x="1036" 
d="M264 997h158l-176 -997h-158zM1061 997l-516 -473l379 -524h-187l-375 537l482 460h217z" />
    <glyph glyph-name="lambda" unicode="&#x3bb;" horiz-adv-x="1122" 
d="M997 127h31l-22 -129q-31 -8 -84 -8q-63 0 -107 49t-63 141l-127 633l-480 -813h-180l617 1018l-35 203q-35 194 -178 194q-53 0 -90 -6l24 133q70 17 111 17q103 0 177 -71t99 -194l211 -1067q10 -54 32.5 -77t63.5 -23z" />
    <glyph glyph-name="uni03BC" unicode="&#x3bc;" horiz-adv-x="1212" 
d="M1106 119l-25 -131q-36 -8 -77 -8q-72 0 -122.5 30.5t-70.5 87.5q-112 -121 -287 -121q-86 0 -155 33.5t-107 93.5l-82 -473h-157l241 1366h158l-103 -581q-10 -70 -10 -80q0 -97 61.5 -156t164.5 -59q109 0 186.5 66t97.5 178l113 632h158l-125 -702q-11 -68 -11 -84
q0 -94 99 -94q43 0 53 2z" />
    <glyph glyph-name="nu" unicode="&#x3bd;" horiz-adv-x="1097" 
d="M940 997h180l-649 -1020h-57l-291 1020h160l198 -745z" />
    <glyph glyph-name="xi" unicode="&#x3be;" horiz-adv-x="968" 
d="M467 1102q0 -106 67 -173t173 -67h190l-23 -139h-264q-138 0 -243 -100.5t-105 -231.5q0 -109 60 -174t176 -82l77 -12q114 -19 176 -84.5t62 -163.5q0 -57 -22.5 -122.5t-63.5 -121.5h-156q78 122 78 209q0 63 -32 97.5t-101 44.5l-94 14q-155 23 -241.5 126t-86.5 263
q0 152 97 269.5t262 168.5q-69 43 -107.5 109t-38.5 145q0 195 164 312h-197l25 147h791l-25 -147h-297q-130 0 -215 -82q-86 -83 -86 -205z" />
    <glyph glyph-name="omicron" unicode="&#x3bf;" horiz-adv-x="1247" 
d="M100 473q-2 108 42.5 209.5t120 176.5t178.5 119t212 42q139 0 253 -65t179.5 -179t65.5 -252q3 -144 -73 -271.5t-206.5 -203t-277.5 -72.5q-211 0 -352.5 142t-141.5 354zM989 524q0 149 -97.5 249.5t-244.5 100.5q-161 0 -273 -117t-112 -284q0 -154 94 -252t244 -98
q164 0 276.5 116.5t112.5 284.5z" />
    <glyph glyph-name="pi" unicode="&#x3c0;" horiz-adv-x="1191" 
d="M109 0l151 852h-149l24 149h1098l-27 -149h-151l-152 -852h-155l151 852h-481l-152 -852h-157z" />
    <glyph glyph-name="rho" unicode="&#x3c1;" horiz-adv-x="1263" 
d="M1167 535q3 -152 -68 -281.5t-193.5 -204t-264.5 -72.5q-122 0 -223.5 53t-157.5 144l-94 -543h-158l156 887q41 233 181 367.5t341 134.5q210 0 345.5 -137t135.5 -348zM1006 526q0 155 -90 251.5t-236 96.5q-155 0 -261 -121t-106 -296q0 -144 90 -240q88 -94 232 -94
q155 0 263 118.5t108 284.5z" />
    <glyph glyph-name="uni03C2" unicode="&#x3c2;" horiz-adv-x="1075" 
d="M705 -164q0 54 -33.5 87.5t-106.5 53.5l-119 33q-166 47 -256 166.5t-90 292.5q0 154 71 280.5t195.5 198.5t276.5 72q136 0 249.5 -63t176.5 -173l-121 -79q-111 169 -309 169q-165 0 -271 -112.5t-106 -290.5q0 -131 70.5 -212t222.5 -122l82 -22q110 -31 169.5 -94.5
t59.5 -151.5q0 -110 -86 -238h-155q80 118 80 205z" />
    <glyph glyph-name="sigma" unicode="&#x3c3;" horiz-adv-x="1277" 
d="M1335 997l-24 -149h-338q160 -114 160 -336q2 -106 -42.5 -206t-120 -172.5t-178.5 -115.5t-212 -41q-207 0 -344.5 137.5t-137.5 346.5q0 238 161 387t419 149h657zM971 520q0 152 -90 243t-238 91q-163 0 -273 -111t-110 -276q0 -152 90 -248q93 -96 238 -96
q161 0 272 115t111 282z" />
    <glyph glyph-name="tau" unicode="&#x3c4;" horiz-adv-x="976" 
d="M584 848l-86 -496q-6 -35 -6 -67q0 -85 58 -125.5t179 -40.5q15 0 125 4l-25 -133q-70 -13 -145 -13q-170 0 -261 75t-91 212q0 49 8 90l86 494h-334l29 149h878l-28 -149h-387z" />
    <glyph glyph-name="upsilon" unicode="&#x3c5;" horiz-adv-x="1144" 
d="M141 340q0 40 9 86l98 571h158l-105 -591q-4 -28 -4 -60q0 -98 67 -160.5t171 -62.5q105 0 178.5 63.5t93.5 169.5l111 641h157l-112 -645q-30 -170 -150 -272q-121 -103 -287 -103q-169 0 -277 102.5t-108 260.5z" />
    <glyph glyph-name="phi" unicode="&#x3c6;" horiz-adv-x="1488" 
d="M735 -23l-61 -346h-158l62 346q-217 6 -350.5 132.5t-133.5 326.5q0 220 136 378.5t362 201.5l24 -142q-168 -41 -265 -153.5t-97 -267.5q0 -148 96 -239.5t254 -96.5l105 585q26 155 107 236.5t210 81.5q167 0 272 -117.5t105 -306.5q3 -170 -84.5 -313t-242.5 -225
t-341 -81zM1239 584q0 135 -59 211.5t-162 76.5q-66 0 -102.5 -41.5t-53.5 -138.5l-102 -575q205 3 342 136.5t137 330.5z" />
    <glyph glyph-name="chi" unicode="&#x3c7;" horiz-adv-x="1038" 
d="M805 -240q37 0 49 2l-23 -131q-35 -12 -81 -12q-134 0 -191 170l-127 389l-397 -547h-187l519 699l-146 456q-27 84 -106 84q-37 0 -49 -2l24 133q37 11 84 11q72 0 113.5 -37t70.5 -129l121 -385l379 536h184l-501 -690l153 -454q17 -50 42.5 -71.5t68.5 -21.5z" />
    <glyph glyph-name="psi" unicode="&#x3c8;" horiz-adv-x="1511" 
d="M526 -369l62 346q-192 0 -314 117.5t-122 300.5q0 51 10 99l86 503h155l-86 -495q-8 -47 -8 -96q0 -130 82.5 -207.5t222.5 -77.5l215 1231h158l-215 -1231q360 0 428 391l84 485h156l-86 -497q-45 -266 -193 -394.5t-416 -128.5l-61 -346h-158z" />
    <glyph glyph-name="omega" unicode="&#x3c9;" horiz-adv-x="1609" 
d="M1509 549q0 -248 -120 -410t-304 -162q-108 0 -192 46.5t-127 126.5q-110 -173 -315 -173q-171 0 -265 114t-94 323q0 230 127 395q124 164 344 211l21 -139q-155 -47 -242.5 -171.5t-87.5 -297.5q0 -142 51.5 -215.5t151.5 -73.5q96 0 162.5 69t89.5 191l49 279h149
l-41 -234q-8 -52 -8 -92q0 -103 54 -158t157 -55q124 0 201.5 115.5t77.5 300.5q0 143 -45 226.5t-144 121.5l64 133q146 -54 216 -170t70 -301z" />
    <glyph glyph-name="iotadieresis" unicode="&#x3ca;" horiz-adv-x="616" 
d="M123 209q0 35 10 100l125 688h158l-123 -678q-8 -41 -8 -79q0 -58 37 -88.5t108 -30.5q49 0 107 10l-23 -133q-64 -21 -121 -21q-125 0 -197.5 62t-72.5 170zM88 1380q0 44 34 76.5t81 32.5t79.5 -32t32.5 -77t-32.5 -76.5t-79.5 -31.5t-81 32t-34 76zM469 1380
q0 44 34 76.5t79 32.5q47 0 80.5 -32.5t33.5 -76.5t-33.5 -76t-80.5 -32q-45 0 -79 32t-34 76z" />
    <glyph glyph-name="upsilondieresis" unicode="&#x3cb;" horiz-adv-x="1144" 
d="M141 340q0 40 9 86l98 571h158l-105 -591q-4 -28 -4 -60q0 -98 67 -160.5t171 -62.5q105 0 178.5 63.5t93.5 169.5l111 641h157l-112 -645q-30 -170 -150 -272q-121 -103 -287 -103q-169 0 -277 102.5t-108 260.5zM342 1378q0 44 34 76.5t79 32.5q47 0 80.5 -32.5
t33.5 -76.5t-33.5 -76t-80.5 -32q-45 0 -79 32t-34 76zM797 1378q0 44 33.5 76.5t80.5 32.5t80 -32t33 -77q0 -44 -33 -76t-80 -32t-80.5 32t-33.5 76z" />
    <glyph glyph-name="omicrontonos" unicode="&#x3cc;" horiz-adv-x="1247" 
d="M100 473q-2 108 42.5 209.5t120 176.5t178.5 119t212 42q139 0 253 -65t179.5 -179t65.5 -252q3 -144 -73 -271.5t-206.5 -203t-277.5 -72.5q-211 0 -352.5 142t-141.5 354zM989 524q0 149 -97.5 249.5t-244.5 100.5q-161 0 -273 -117t-112 -284q0 -154 94 -252t244 -98
q164 0 276.5 116.5t112.5 284.5zM606 1159l139 438h191l-6 -28l-201 -410h-123z" />
    <glyph glyph-name="upsilontonos" unicode="&#x3cd;" horiz-adv-x="1144" 
d="M141 340q0 40 9 86l98 571h158l-105 -591q-4 -28 -4 -60q0 -98 67 -160.5t171 -62.5q105 0 178.5 63.5t93.5 169.5l111 641h157l-112 -645q-30 -170 -150 -272q-121 -103 -287 -103q-169 0 -277 102.5t-108 260.5zM575 1159l140 438h190l-6 -28l-201 -410h-123z" />
    <glyph glyph-name="omegatonos" unicode="&#x3ce;" horiz-adv-x="1609" 
d="M1509 549q0 -248 -120 -410t-304 -162q-108 0 -192 46.5t-127 126.5q-110 -173 -315 -173q-171 0 -265 114t-94 323q0 230 127 395q124 164 344 211l21 -139q-155 -47 -242.5 -171.5t-87.5 -297.5q0 -142 51.5 -215.5t151.5 -73.5q96 0 162.5 69t89.5 191l49 279h149
l-41 -234q-8 -52 -8 -92q0 -103 54 -158t157 -55q124 0 201.5 115.5t77.5 300.5q0 143 -45 226.5t-144 121.5l64 133q146 -54 216 -170t70 -301zM844 1159l139 438h191l-7 -28l-200 -410h-123z" />
    <glyph glyph-name="uni0400" unicode="&#x400;" horiz-adv-x="1161" 
d="M100 0l238 1352h866l-26 -144h-707l-76 -413h543l-25 -144h-540l-88 -508h731l-25 -143h-891zM727 1483l-176 352l4 29h180l109 -381h-117z" />
    <glyph glyph-name="uni0401" unicode="&#x401;" horiz-adv-x="1161" 
d="M100 0l238 1352h866l-26 -144h-707l-76 -413h543l-25 -144h-540l-88 -508h731l-25 -143h-891zM461 1659q0 44 33.5 76t78.5 32q47 0 80 -32t33 -76q0 -45 -33 -77t-80 -32q-45 0 -78.5 32.5t-33.5 76.5zM938 1657q0 45 33 77.5t80 32.5t79.5 -32.5t32.5 -77.5t-32.5 -77
t-79.5 -32t-80 32t-33 77z" />
    <glyph glyph-name="uni0402" unicode="&#x402;" horiz-adv-x="1501" 
d="M872 -23l-8 144q164 11 260.5 92.5t96.5 210.5q0 118 -72 181t-207 63q-180 0 -299 -52l-111 -616h-159l215 1208h-416l25 144h1071l-27 -144h-493l-80 -446q119 49 299 49q185 0 304.5 -104.5t119.5 -268.5q0 -196 -139.5 -320t-379.5 -141z" />
    <glyph glyph-name="uni0403" unicode="&#x403;" horiz-adv-x="1040" 
d="M100 0l238 1352h805l-23 -144h-649l-211 -1208h-160zM643 1483l231 381h201l-4 -29l-303 -352h-125z" />
    <glyph glyph-name="uni0404" unicode="&#x404;" horiz-adv-x="1462" 
d="M1247 340l111 -92q-109 -129 -259 -200t-317 -71q-183 0 -331 84t-232 232.5t-84 331.5q-3 147 58.5 286.5t164.5 241.5t244.5 163t290.5 58q179 0 322.5 -84.5t228.5 -238.5l-131 -80q-69 125 -179 190.5t-251 65.5q-207 0 -366 -132t-202 -333h727l-24 -144h-717
q3 -215 142.5 -354t351.5 -139q267 0 452 215z" />
    <glyph glyph-name="uni0405" unicode="&#x405;" horiz-adv-x="1140" 
d="M47 303l127 78q145 -256 389 -256q119 0 191.5 61.5t72.5 163.5q0 71 -45 125.5t-143 110.5l-145 82q-122 67 -185 156t-63 188q0 156 119.5 259t302.5 103q291 0 426 -250l-127 -75q-60 94 -132.5 136t-172.5 42q-116 0 -183 -55.5t-67 -151.5q0 -65 39.5 -113.5
t138.5 -109.5l143 -82q133 -75 196.5 -161t63.5 -192q0 -167 -122.5 -276t-311.5 -109q-164 0 -295.5 84t-216.5 242z" />
    <glyph glyph-name="uni0406" unicode="&#x406;" horiz-adv-x="530" 
d="M100 0l238 1352h160l-238 -1352h-160z" />
    <glyph glyph-name="uni0407" unicode="&#x407;" horiz-adv-x="530" 
d="M100 0l238 1352h160l-238 -1352h-160zM119 1659q0 44 33.5 76t78.5 32q47 0 80 -32t33 -76q0 -45 -33 -77t-80 -32q-45 0 -78.5 32.5t-33.5 76.5zM596 1657q0 45 33 77.5t80 32.5t79.5 -32.5t32.5 -77.5t-32.5 -77t-79.5 -32t-80 32t-33 77z" />
    <glyph glyph-name="uni0408" unicode="&#x408;" horiz-adv-x="765" 
d="M-35 14l27 138q119 -25 186 -25q92 0 145 47.5t70 147.5l180 1030h160l-186 -1057q-26 -155 -118.5 -236.5t-240.5 -81.5q-116 0 -223 37z" />
    <glyph glyph-name="uni0409" unicode="&#x409;" horiz-adv-x="1955" 
d="M1841 424q0 -193 -140.5 -308.5t-375.5 -115.5h-467l211 1208h-479l-12 -63q-88 -452 -175 -727q-76 -241 -170 -338q-88 -94 -235 -94q-59 0 -84 14l23 139q12 -6 63 -6q106 0 174 103q67 105 117 299q54 211 133 612l39 205h792l-94 -529h246q204 0 319 -105t115 -294z
M1679 416q0 129 -71 196.5t-207 67.5h-264l-95 -537h304q158 0 245.5 72t87.5 201z" />
    <glyph glyph-name="uni040A" unicode="&#x40a;" horiz-adv-x="1978" 
d="M100 0l238 1352h160l-97 -529h625l94 529h160l-94 -529h246q201 0 317.5 -102.5t116.5 -280.5q0 -195 -143 -317.5t-373 -122.5h-467l118 680h-622l-119 -680h-160zM1067 143h303q153 0 243.5 79.5t90.5 213.5q0 117 -72 180.5t-207 63.5h-264z" />
    <glyph glyph-name="uni040B" unicode="&#x40b;" horiz-adv-x="1609" 
d="M1401 414q0 -55 -10 -113l-54 -301h-159l51 289q10 58 10 108q0 271 -303 271q-156 0 -293 -52l-111 -616h-159l215 1208h-416l25 144h1071l-27 -144h-493l-80 -448q140 51 299 51q200 0 317 -105t117 -292z" />
    <glyph glyph-name="uni040C" unicode="&#x40c;" horiz-adv-x="1292" 
d="M338 1352h160l-238 -1352h-160zM1333 1352l-725 -643l543 -709h-190l-555 725l704 627h223zM748 1483l231 381h201l-4 -29l-304 -352h-124z" />
    <glyph glyph-name="uni040D" unicode="&#x40d;" horiz-adv-x="1470" 
d="M1382 1374h58l-242 -1374h-160l185 1044l-1069 -1067h-58l242 1375h160l-187 -1047zM856 1483l-176 352l4 29h180l109 -381h-117z" />
    <glyph glyph-name="uni040E" unicode="&#x40e;" horiz-adv-x="1284" 
d="M1192 1352h186l-676 -1119q-85 -139 -173.5 -196t-219.5 -57q-82 0 -129 20l23 143q41 -14 108 -14q86 0 138 34.5t108 127.5l2 2l-321 1059h168l264 -885zM526 1765q0 16 13 99h133q-13 -76 -13 -86q0 -79 45 -125.5t119 -46.5q78 0 129 50.5t64 143.5l10 64h131
l-10 -64q-23 -146 -112 -229.5t-220 -83.5q-123 0 -207 78q-82 79 -82 200z" />
    <glyph glyph-name="uni040F" unicode="&#x40f;" horiz-adv-x="1429" 
d="M1395 1352l-238 -1352h-448l-52 -289h-159l51 289h-449l238 1352h160l-213 -1209h739l211 1209h160z" />
    <glyph glyph-name="uni0410" unicode="&#x410;" horiz-adv-x="1357" 
d="M1053 0l-68 274h-657l-164 -274h-180l827 1374h57l346 -1374h-161zM948 418l-153 655l-383 -655h536z" />
    <glyph glyph-name="uni0411" unicode="&#x411;" horiz-adv-x="1193" 
d="M100 0l238 1352h803l-25 -144h-643l-74 -409h279q184 0 294.5 -105.5t110.5 -279.5q0 -192 -132 -303t-359 -111h-492zM285 143h319q152 0 235 69t83 194q0 119 -66.5 184t-187.5 65h-293z" />
    <glyph glyph-name="uni0412" unicode="&#x412;" horiz-adv-x="1259" 
d="M1149 401q0 -175 -133.5 -288t-343.5 -113h-572l238 1352h424q165 0 263.5 -87.5t98.5 -234.5q0 -100 -45.5 -179t-130.5 -126q94 -43 147.5 -128.5t53.5 -195.5zM733 1208h-260l-74 -420h301q117 0 187.5 63t70.5 169q0 90 -59.5 139t-165.5 49zM983 406
q0 110 -69.5 173.5t-190.5 63.5h-350l-88 -500h379q146 0 232.5 72t86.5 191z" />
    <glyph glyph-name="uni0413" unicode="&#x413;" horiz-adv-x="1040" 
d="M100 0l238 1352h805l-23 -144h-649l-211 -1208h-160z" />
    <glyph glyph-name="uni0414" unicode="&#x414;" horiz-adv-x="1382" 
d="M1307 1352l-211 -1209h164l-78 -432h-160l51 289h-981l-51 -289h-160l78 432h104q131 103 222 349q97 252 172 690l30 170h820zM240 143h696l186 1065h-514q-146 -831 -368 -1065z" />
    <glyph glyph-name="uni0415" unicode="&#x415;" horiz-adv-x="1161" 
d="M100 0l238 1352h866l-26 -144h-707l-76 -413h543l-25 -144h-540l-88 -508h731l-25 -143h-891z" />
    <glyph glyph-name="uni0416" unicode="&#x416;" horiz-adv-x="1964" 
d="M449 1352l479 -627l-746 -725h-213l766 739l-475 613h189zM1055 1352h159l-237 -1352h-160zM2009 1352l-692 -639l508 -713h-187l-514 725l666 627h219z" />
    <glyph glyph-name="uni0417" unicode="&#x417;" horiz-adv-x="1191" 
d="M1077 422q0 -192 -142.5 -318.5t-359.5 -126.5q-178 0 -311.5 86.5t-202.5 245.5l125 72q62 -125 160 -190.5t225 -65.5q155 0 249.5 79.5t94.5 209.5q0 105 -70 168t-186 63h-180l23 141h141q143 0 227 63.5t84 172.5q0 97 -64.5 151t-180.5 54q-206 0 -351 -154
l-100 96q177 205 467 205q173 0 282 -95t109 -243q0 -105 -57.5 -191t-157.5 -130q83 -45 129.5 -121t46.5 -172z" />
    <glyph glyph-name="uni0418" unicode="&#x418;" horiz-adv-x="1470" 
d="M1382 1374h58l-242 -1374h-160l185 1044l-1069 -1067h-58l242 1375h160l-187 -1047z" />
    <glyph glyph-name="uni0419" unicode="&#x419;" horiz-adv-x="1470" 
d="M1382 1374h58l-242 -1374h-160l185 1044l-1069 -1067h-58l242 1375h160l-187 -1047zM635 1765q0 23 12 99h133q-12 -70 -12 -86q0 -79 45 -125.5t119 -46.5q78 0 128.5 50.5t63.5 143.5l11 64h131l-11 -64q-23 -146 -111.5 -229.5t-219.5 -83.5q-123 0 -207 78
q-82 79 -82 200z" />
    <glyph glyph-name="uni041A" unicode="&#x41a;" horiz-adv-x="1292" 
d="M338 1352h160l-238 -1352h-160zM1333 1352l-725 -643l543 -709h-190l-555 725l704 627h223z" />
    <glyph glyph-name="uni041B" unicode="&#x41b;" horiz-adv-x="1349" 
d="M465 1352h850l-238 -1352h-159l215 1208h-541l-12 -61q-89 -454 -170 -713q-75 -241 -170.5 -344.5t-241.5 -103.5q-59 0 -84 14l23 139q12 -6 63 -6q98 0 166 105q69 106 125 315q58 207 135 596z" />
    <glyph glyph-name="uni041C" unicode="&#x41c;" horiz-adv-x="1615" 
d="M1528 1374h57l-242 -1374h-159l170 963l-525 -580h-57l-338 614l-174 -997h-160l242 1374h57l424 -780z" />
    <glyph glyph-name="uni041D" unicode="&#x41d;" horiz-adv-x="1449" 
d="M100 0l238 1352h160l-101 -557h760l98 557h160l-237 -1352h-160l117 651h-760l-115 -651h-160z" />
    <glyph glyph-name="uni041E" unicode="&#x41e;" horiz-adv-x="1601" 
d="M135 625q-3 149 58.5 289t164.5 241.5t243.5 161.5t287.5 57q135 2 255.5 -48t206 -137t134.5 -207.5t47 -254.5q3 -148 -59 -288t-165.5 -242.5t-243.5 -163t-286 -56.5q-135 -2 -255.5 48.5t-206 137.5t-134.5 207.5t-47 254.5zM1366 723q0 216 -138 360t-351 144
q-154 3 -289 -78t-214 -219.5t-75 -296.5q0 -219 137.5 -363.5t349.5 -144.5q153 -3 288.5 79t215 221.5t76.5 297.5z" />
    <glyph glyph-name="uni041F" unicode="&#x41f;" horiz-adv-x="1429" 
d="M100 0l238 1352h1057l-238 -1352h-160l215 1208h-739l-213 -1208h-160z" />
    <glyph glyph-name="uni0420" unicode="&#x420;" horiz-adv-x="1181" 
d="M100 0l238 1352h428q194 0 306 -98.5t112 -266.5q0 -189 -136.5 -305.5t-359.5 -116.5h-330l-98 -565h-160zM385 709h322q146 0 228.5 72t82.5 200q0 111 -66.5 169t-193.5 58h-287z" />
    <glyph glyph-name="uni0421" unicode="&#x421;" horiz-adv-x="1462" 
d="M135 625q-3 147 58.5 286.5t164.5 241.5t244.5 163t290.5 58q179 0 322.5 -84.5t228.5 -238.5l-131 -80q-69 125 -179 190.5t-251 65.5q-116 2 -225 -45.5t-187.5 -128.5t-125 -192t-44.5 -230q0 -221 139.5 -363.5t354.5 -142.5q267 0 452 215l111 -92
q-109 -129 -259 -200t-317 -71q-183 0 -331 84t-232 232.5t-84 331.5z" />
    <glyph glyph-name="uni0422" unicode="&#x422;" horiz-adv-x="1202" 
d="M434 0l213 1208h-475l25 144h1112l-27 -144h-475l-213 -1208h-160z" />
    <glyph glyph-name="uni0423" unicode="&#x423;" horiz-adv-x="1284" 
d="M1192 1352h186l-676 -1119q-85 -139 -173.5 -196t-219.5 -57q-82 0 -129 20l23 143q41 -14 108 -14q86 0 138 34.5t108 127.5l2 2l-321 1059h168l264 -885z" />
    <glyph glyph-name="uni0424" unicode="&#x424;" horiz-adv-x="1658" 
d="M655 -41l31 174q-150 -2 -277.5 66t-201 187t-70.5 259q0 262 198.5 426t516.5 164h31l26 158h160l-29 -158q231 0 389 -148.5t158 -365.5q0 -262 -197.5 -425t-515.5 -163h-28l-31 -174h-160zM713 276l145 816h-29q-230 0 -377 -123t-147 -316q0 -167 114 -272t294 -105
zM872 276h23q235 0 380.5 121t145.5 316q0 166 -113 272.5t-292 106.5z" />
    <glyph glyph-name="uni0425" unicode="&#x425;" horiz-adv-x="1212" 
d="M1278 1352l-541 -674l336 -678h-172l-274 561l-459 -561h-199l584 707l-313 645h170l252 -533l417 533h199z" />
    <glyph glyph-name="uni0426" unicode="&#x426;" horiz-adv-x="1470" 
d="M1112 -289l51 289h-1063l238 1352h160l-213 -1209h739l211 1209h160l-211 -1209h164l-76 -432h-160z" />
    <glyph glyph-name="uni0427" unicode="&#x427;" horiz-adv-x="1325" 
d="M1133 1352h159l-237 -1352h-160l96 545q-54 -23 -138.5 -39.5t-150.5 -16.5q-229 0 -361 113.5t-132 310.5q0 64 16 158l49 281h160l-49 -281q-16 -101 -16 -149q0 -285 338 -285q181 0 309 53z" />
    <glyph glyph-name="uni0428" unicode="&#x428;" horiz-adv-x="1974" 
d="M100 0l238 1352h160l-213 -1209h563l211 1209h160l-211 -1209h561l213 1209h160l-238 -1352h-1604z" />
    <glyph glyph-name="uni0429" unicode="&#x429;" horiz-adv-x="2017" 
d="M1657 -289l51 289h-1608l238 1352h160l-213 -1209h563l211 1209h160l-211 -1209h561l213 1209h160l-213 -1209h165l-77 -432h-160z" />
    <glyph glyph-name="uni042A" unicode="&#x42a;" horiz-adv-x="1359" 
d="M262 0l213 1208h-309l24 144h469l-94 -529h246q204 0 319 -106t115 -295q0 -193 -140.5 -307.5t-375.5 -114.5h-467zM446 143h304q158 0 245.5 72t87.5 201t-71 196.5t-207 67.5h-264z" />
    <glyph glyph-name="uni042B" unicode="&#x42b;" horiz-adv-x="1671" 
d="M100 0l238 1352h160l-95 -529h246q204 0 319 -104.5t115 -290.5q0 -198 -139 -313t-377 -115h-467zM285 143h303q160 0 247 73t87 206q0 127 -71 192.5t-208 65.5h-264zM1241 0l238 1352h159l-237 -1352h-160z" />
    <glyph glyph-name="uni042C" unicode="&#x42c;" horiz-adv-x="1196" 
d="M100 0l238 1352h160l-95 -529h246q204 0 319 -104.5t115 -290.5q0 -198 -139 -313t-377 -115h-467zM285 143h303q160 0 247 73t87 206q0 127 -71 192.5t-208 65.5h-264z" />
    <glyph glyph-name="uni042D" unicode="&#x42d;" horiz-adv-x="1462" 
d="M1391 727q3 -147 -58 -287t-164 -242t-244 -163t-290 -58q-180 0 -324.5 85t-226.5 239l131 80q69 -125 179 -190.5t251 -65.5q214 0 375.5 138.5t198.5 350.5h-641l26 144h621q-12 207 -149.5 338t-342.5 131q-267 0 -452 -215l-113 92q109 129 259.5 199.5t317.5 70.5
q181 3 330.5 -82t234 -234.5t81.5 -330.5z" />
    <glyph glyph-name="uni042E" unicode="&#x42e;" horiz-adv-x="2004" 
d="M1935 727q3 -147 -56 -287t-158.5 -242t-235 -163t-279.5 -58q-129 -2 -245 47.5t-199 136t-130.5 208t-45.5 256.5v26h-211l-115 -651h-160l238 1352h160l-101 -557h207q56 249 256.5 414t452.5 165q172 3 316.5 -83t226.5 -236t79 -328zM1769 723q0 219 -133 361.5
t-336 142.5q-148 3 -277.5 -78t-205 -219.5t-72.5 -296.5q0 -222 133 -365t336 -143q111 -2 214.5 45.5t178.5 128.5t119.5 192.5t42.5 231.5z" />
    <glyph glyph-name="uni042F" unicode="&#x42f;" horiz-adv-x="1267" 
d="M776 1352h457l-238 -1352h-159l90 512h-234q-43 0 -55 2l-438 -514h-187l465 549q-110 44 -169.5 136t-59.5 216q0 200 144.5 325.5t383.5 125.5zM950 655l101 553h-295q-159 0 -250.5 -82t-91.5 -215q0 -123 73.5 -189.5t214.5 -66.5h248z" />
    <glyph glyph-name="uni0430" unicode="&#x430;" horiz-adv-x="1288" 
d="M1047 997h157l-176 -997h-147l24 133q-63 -74 -157.5 -115t-202.5 -41q-192 0 -320.5 135.5t-128.5 338.5q-2 115 40.5 221.5t116 183t174.5 121.5t210 43q123 0 224 -52t157 -141zM965 557q0 141 -88 229t-230 88q-161 0 -275 -121.5t-114 -291.5q0 -149 92 -244
q91 -94 238 -94q157 0 267 126t110 308z" />
    <glyph glyph-name="uni0431" unicode="&#x431;" horiz-adv-x="1265" 
d="M336 815q66 87 165.5 134.5t215.5 47.5q197 0 323.5 -133t126.5 -340q0 -150 -72 -275t-197 -197t-275 -72q-208 0 -344 131t-136 333q0 102 50 369q32 165 80.5 273.5t133 187.5t202.5 124.5t296 76.5q104 16 230 41q71 14 137 43l-27 -150q-67 -30 -135 -45
q-66 -12 -221 -33q-147 -24 -237 -56t-153.5 -93.5t-98 -144.5t-64.5 -222zM301 463q0 -149 91.5 -244.5t234.5 -95.5q159 0 269 112.5t110 276.5q0 148 -93 245t-235 97q-157 0 -267 -114t-110 -277z" />
    <glyph glyph-name="uni0432" unicode="&#x432;" horiz-adv-x="1052" 
d="M932 315q0 -150 -123 -244t-320 -94q-189 0 -295 108.5t-106 303.5q0 63 23 201q35 204 162 317t323 113q161 0 256.5 -70t95.5 -188q0 -176 -186 -240q170 -59 170 -207zM270 590h254q125 0 192.5 42t67.5 120q0 127 -196 127q-135 0 -211.5 -70.5t-106.5 -218.5z
M770 305q0 68 -70.5 107t-191.5 39h-258q-2 -12 -2 -52q0 -135 66.5 -207.5t189.5 -72.5t194.5 50.5t71.5 135.5z" />
    <glyph glyph-name="uni0433" unicode="&#x433;" horiz-adv-x="929" 
d="M61 250q0 100 82 181t236 132l119 39q93 30 131.5 65t38.5 87q0 57 -42 88.5t-120 31.5q-130 0 -254 -100l-70 123q153 123 336 123q142 0 225.5 -72.5t83.5 -195.5q0 -103 -71.5 -177.5t-220.5 -123.5l-119 -39q-100 -32 -146.5 -71t-46.5 -93q0 -60 47 -92.5t133 -32.5
q152 0 304 143l86 -116q-162 -173 -387 -173q-155 0 -250 75t-95 198z" />
    <glyph glyph-name="uni0434" unicode="&#x434;" horiz-adv-x="1234" 
d="M1126 621q0 -302 -143.5 -473t-396.5 -171q-217 0 -353.5 134t-136.5 346q-2 105 39.5 203.5t112.5 170t168 114t200 40.5q104 0 193.5 -38t151.5 -107q-41 290 -162.5 422.5t-347.5 132.5q-51 0 -156 -11l27 150q78 10 129 10q342 0 508.5 -227.5t166.5 -695.5zM956 504
q0 152 -90 244t-239 92q-157 0 -263 -109t-106 -274q0 -152 88 -243t234 -91q161 0 268.5 109.5t107.5 271.5z" />
    <glyph glyph-name="uni0435" unicode="&#x435;" horiz-adv-x="1153" 
d="M1044 451h-784q7 -152 100.5 -240t247.5 -88q159 0 307 121l80 -107q-168 -160 -401 -160q-216 0 -356 138.5t-140 351.5q-2 109 41.5 212t116.5 178.5t174 120t209 42.5q191 0 310.5 -122.5t119.5 -319.5q0 -66 -25 -127zM272 590h637q-1 135 -75 211t-203 76
q-133 0 -230 -78t-129 -209z" />
    <glyph glyph-name="uni0436" unicode="&#x436;" horiz-adv-x="1560" 
d="M362 997l328 -462l-540 -535h-209l565 547l-328 450h184zM793 997h157l-176 -997h-158zM1565 997l-498 -473l381 -524h-186l-377 535l463 462h217z" />
    <glyph glyph-name="uni0437" unicode="&#x437;" horiz-adv-x="931" 
d="M782 297q0 -143 -105 -231.5t-276 -88.5q-118 0 -217 46.5t-168 134.5l107 106q132 -141 291 -141q207 0 207 174q0 78 -57 120t-161 42h-100l27 139h114q102 0 155.5 37.5t53.5 107.5q0 60 -48 95.5t-130 35.5q-138 0 -248 -122l-94 100q143 168 352 168
q149 0 238.5 -72.5t89.5 -193.5q0 -81 -42.5 -142.5t-121.5 -97.5q63 -29 98 -85.5t35 -131.5z" />
    <glyph glyph-name="uni0438" unicode="&#x438;" horiz-adv-x="1159" 
d="M918 997h157l-174 -997h-149l16 96q-119 -119 -295 -119q-153 0 -246.5 90.5t-93.5 237.5q0 41 12 111l103 581h158l-105 -585q-10 -62 -10 -84q0 -98 59 -152.5t162 -54.5q110 0 192.5 66.5t102.5 177.5z" />
    <glyph glyph-name="uni0439" unicode="&#x439;" horiz-adv-x="1159" 
d="M918 997h157l-174 -997h-149l16 96q-119 -119 -295 -119q-153 0 -246.5 90.5t-93.5 237.5q0 41 12 111l103 581h158l-105 -585q-10 -62 -10 -84q0 -98 59 -152.5t162 -54.5q110 0 192.5 66.5t102.5 177.5zM420 1450q0 40 14 111h131q-12 -83 -12 -99q0 -79 44.5 -125.5
t119.5 -46.5q76 0 127.5 51.5t64.5 143.5l13 76h131l-13 -76q-25 -146 -112.5 -228.5t-218.5 -82.5q-127 0 -208 77t-81 199z" />
    <glyph glyph-name="uni043A" unicode="&#x43a;" horiz-adv-x="1036" 
d="M264 997h158l-176 -997h-158zM1061 997l-516 -473l379 -524h-187l-375 537l482 460h217z" />
    <glyph glyph-name="uni043B" unicode="&#x43b;" horiz-adv-x="1103" 
d="M-43 -2l25 133q8 -2 36 -2q93 0 148.5 94.5t107.5 345.5q45 208 101 293q59 92 129 113q74 22 201 22h313l-174 -997h-156l150 860h-123q-53 -2 -85.5 -6.5t-64 -18.5t-49.5 -34t-37.5 -60t-34 -89.5t-32.5 -127.5q-48 -214 -96.5 -325.5t-115 -159.5t-173.5 -51
q-40 0 -70 10z" />
    <glyph glyph-name="uni043C" unicode="&#x43c;" horiz-adv-x="1406" 
d="M1268 1020h57l-180 -1020h-158l119 659l-408 -407h-59l-272 434l-121 -686h-158l180 1020h58l364 -578z" />
    <glyph glyph-name="uni043D" unicode="&#x43d;" horiz-adv-x="1155" 
d="M90 0l174 997h158l-72 -399h496l69 399h158l-176 -997h-156l80 463h-493l-80 -463h-158z" />
    <glyph glyph-name="uni043E" unicode="&#x43e;" horiz-adv-x="1247" 
d="M100 473q-2 108 42.5 209.5t120 176.5t178.5 119t212 42q139 0 253 -65t179.5 -179t65.5 -252q3 -144 -73 -271.5t-206.5 -203t-277.5 -72.5q-211 0 -352.5 142t-141.5 354zM989 524q0 149 -97.5 249.5t-244.5 100.5q-161 0 -273 -117t-112 -284q0 -154 94 -252t244 -98
q164 0 276.5 116.5t112.5 284.5z" />
    <glyph glyph-name="uni043F" unicode="&#x43f;" horiz-adv-x="1159" 
d="M1030 692q0 -40 -12 -110l-103 -582h-157l104 586q10 62 10 84q0 97 -59 152t-160 55q-113 0 -195 -66.5t-100 -179.5l-110 -631h-158l174 997h148l-17 -96q119 119 295 119q153 0 246.5 -90.5t93.5 -237.5z" />
    <glyph glyph-name="uni0440" unicode="&#x440;" horiz-adv-x="1290" 
d="M1194 535q3 -150 -69.5 -280t-197 -205.5t-268.5 -72.5q-124 0 -228 55t-155 148l-96 -549h-157l241 1366h148l-25 -135q63 75 156.5 116.5t201.5 41.5q193 0 321 -137.5t128 -347.5zM1032 520q0 156 -94 254q-90 100 -238 100q-157 0 -266.5 -125.5t-109.5 -308.5
q0 -139 90 -229q91 -88 235 -88q158 0 270.5 116.5t112.5 280.5z" />
    <glyph glyph-name="uni0441" unicode="&#x441;" horiz-adv-x="1142" 
d="M98 467q-2 111 42.5 214t119.5 178t178.5 119t214.5 42q135 0 245.5 -63t172.5 -173l-121 -79q-108 169 -301 169q-164 0 -276.5 -116.5t-112.5 -282.5q0 -155 96.5 -254.5t243.5 -99.5q88 0 167 37t136 106l103 -94q-78 -100 -177.5 -146.5t-234.5 -46.5
q-140 0 -253.5 63.5t-178 176t-64.5 250.5z" />
    <glyph glyph-name="uni0442" unicode="&#x442;" horiz-adv-x="1789" 
d="M1661 692q0 -40 -12 -110l-103 -582h-157l104 586q10 68 10 84q0 98 -56 152.5t-155 54.5q-107 0 -186.5 -66.5t-97.5 -179.5l-111 -631h-158l105 586q10 68 10 84q0 96 -57 151.5t-154 55.5q-107 0 -187 -66.5t-98 -179.5l-110 -631h-158l174 997h148l-17 -96
q119 119 287 119q102 0 178 -43.5t115 -122.5q62 79 152.5 122.5t193.5 43.5q154 0 247 -90.5t93 -237.5z" />
    <glyph glyph-name="uni0443" unicode="&#x443;" horiz-adv-x="1155" 
d="M913 997h158l-174 -989q-32 -184 -155 -291.5t-300 -107.5q-130 0 -242.5 60.5t-181.5 168.5l105 101q129 -185 319 -185q119 0 196.5 68t100.5 192l17 97q-116 -107 -281 -107q-152 0 -245 89t-93 237q0 34 13 110l98 557h158l-103 -561q-10 -62 -10 -84
q0 -96 59 -150.5t162 -54.5q111 0 192 65.5t101 178.5z" />
    <glyph glyph-name="uni0444" unicode="&#x444;" horiz-adv-x="1476" 
d="M1382 543q0 -249 -178.5 -407.5t-462.5 -158.5h-14l-59 -346h-158l63 349q-211 12 -344 144.5t-133 330.5q0 249 180 407t465 158h13l90 516h155l-90 -518q211 -12 342 -143.5t131 -331.5zM596 119l133 758h-8q-213 0 -338 -113t-125 -301q0 -154 90 -246t248 -98z
M1221 535q0 155 -90 246.5t-248 95.5l-131 -758h10q210 0 334 112q125 113 125 304z" />
    <glyph glyph-name="uni0445" unicode="&#x445;" horiz-adv-x="1013" 
d="M1034 997l-430 -489l283 -508h-180l-211 401l-349 -401h-194l463 522l-256 475h182l184 -364l316 364h192z" />
    <glyph glyph-name="uni0446" unicode="&#x446;" horiz-adv-x="1226" 
d="M1036 129h51l-73 -418h-148l52 287q-85 15 -123 100q-131 -121 -322 -121q-152 0 -246 90t-94 238q0 41 12 111l103 581h158l-105 -585q-10 -62 -10 -84q0 -97 59 -152t162 -55q115 0 193.5 65.5t101.5 178.5l111 632h157l-129 -731q-1 -9 -2 -19.5t-1.5 -16t-0.5 -9.5
q0 -44 25.5 -68t68.5 -24z" />
    <glyph glyph-name="uni0447" unicode="&#x447;" horiz-adv-x="1046" 
d="M819 997h158l-176 -997h-158l68 387q-106 -41 -219 -41q-161 0 -253 92.5t-92 253.5q0 36 11 107l35 198h157l-37 -209q-10 -68 -10 -90q0 -102 54 -154t157 -52q119 0 223 38z" />
    <glyph glyph-name="uni0448" unicode="&#x448;" horiz-adv-x="1789" 
d="M1548 997h158l-174 -995h-148l17 98q-117 -120 -289 -120q-100 0 -176.5 43.5t-114.5 121.5q-62 -79 -152.5 -122t-195.5 -43q-154 0 -247 90t-93 237q0 41 12 111l103 579h158l-105 -583q-10 -62 -10 -86q0 -96 57 -150.5t154 -54.5q108 0 187 65.5t99 178.5l111 630
h158l-105 -583q-10 -62 -10 -86q0 -96 56 -150.5t155 -54.5q106 0 185.5 66.5t99.5 177.5z" />
    <glyph glyph-name="uni0449" unicode="&#x449;" horiz-adv-x="1857" 
d="M1667 129h51l-73 -418h-148l51 287q-44 10 -76.5 38t-46.5 66q-125 -125 -305 -125q-105 0 -184 44t-117 122q-62 -79 -152.5 -122.5t-193.5 -43.5q-152 0 -246 90t-94 238q0 41 12 111l103 581h158l-105 -585q-10 -62 -10 -84q0 -96 57 -151.5t156 -55.5q109 0 186.5 66
t97.5 178l111 632h158l-105 -585q-10 -62 -10 -84q0 -98 56 -152.5t155 -54.5q106 0 186.5 66.5t98.5 177.5l110 632h158l-129 -731q-1 -9 -2 -19.5t-1.5 -16t-0.5 -9.5q0 -44 25.5 -68t68.5 -24z" />
    <glyph glyph-name="uni044A" unicode="&#x44a;" horiz-adv-x="1161" 
d="M1034 340q0 -164 -114 -262t-306 -98q-178 0 -276 84.5t-98 238.5q0 37 10 105l82 452h-226l23 137h383l-57 -321h190q185 0 287 -88t102 -248zM872 336q0 97 -64.5 148t-186.5 51h-191l-24 -140q-9 -47 -9 -80q0 -198 217 -198q119 0 188.5 58.5t69.5 160.5z" />
    <glyph glyph-name="uni044B" unicode="&#x44b;" horiz-adv-x="1402" 
d="M922 340q0 -164 -110.5 -262t-295.5 -98q-177 0 -273 84.5t-96 238.5q0 30 11 105l106 589h158l-57 -321h167q185 0 287.5 -88t102.5 -248zM1178 997h157l-176 -997h-158zM760 336q0 97 -64.5 148t-187.5 51h-170l-25 -140q-8 -41 -8 -80q0 -198 217 -198
q111 0 174.5 58.5t63.5 160.5z" />
    <glyph glyph-name="uni044C" unicode="&#x44c;" horiz-adv-x="1071" 
d="M942 340q0 -164 -114 -262t-306 -98q-175 0 -275 83.5t-100 239.5q0 30 11 105l106 589h158l-57 -321h188q185 0 287 -88t102 -248zM780 336q0 97 -64.5 148t-187.5 51h-190l-25 -140q-8 -41 -8 -80q0 -198 217 -198q119 0 188.5 58.5t69.5 160.5z" />
    <glyph glyph-name="uni044D" unicode="&#x44d;" horiz-adv-x="1140" 
d="M1042 528q3 -146 -72 -274.5t-204.5 -204t-276.5 -72.5q-134 0 -244.5 62.5t-172.5 171.5l121 82q111 -172 303 -172q142 0 248.5 90t132.5 231h-476l23 140h455q-17 134 -109 214.5t-227 80.5q-178 0 -303 -146l-103 90q75 97 181 148t231 51q213 0 353 -140.5
t140 -351.5z" />
    <glyph glyph-name="uni044E" unicode="&#x44e;" horiz-adv-x="1634" 
d="M1536 528q3 -144 -71 -272.5t-201.5 -205t-272.5 -73.5q-200 0 -336 133.5t-145 335.5h-186l-78 -446h-158l176 997h158l-74 -411h174q37 187 187.5 310.5t343.5 123.5q204 0 343.5 -142.5t139.5 -349.5zM1044 874q-157 0 -268.5 -118.5t-111.5 -284.5q0 -151 94 -249.5
t239 -98.5q161 0 270 116t109 287q0 149 -95 248.5t-237 99.5z" />
    <glyph glyph-name="uni044F" unicode="&#x44f;" horiz-adv-x="1075" 
d="M614 997h377l-176 -997h-158l64 365h-178l-340 -365h-195l367 391q-87 36 -137 104.5t-50 155.5q0 158 115.5 252t310.5 94zM745 502l64 354h-205q-123 0 -189.5 -51.5t-66.5 -145.5q0 -72 55.5 -114.5t147.5 -42.5h194z" />
    <glyph glyph-name="uni0450" unicode="&#x450;" horiz-adv-x="1153" 
d="M1044 451h-784q7 -152 100.5 -240t247.5 -88q159 0 307 121l80 -107q-168 -160 -401 -160q-216 0 -356 138.5t-140 351.5q-2 109 41.5 212t116.5 178.5t174 120t209 42.5q191 0 310.5 -122.5t119.5 -319.5q0 -66 -25 -127zM272 590h637q-1 135 -75 211t-203 76
q-133 0 -230 -78t-129 -209zM582 1159l-103 410l10 28h177l28 -438h-112z" />
    <glyph glyph-name="uni0451" unicode="&#x451;" horiz-adv-x="1153" 
d="M1044 451h-784q7 -152 100.5 -240t247.5 -88q159 0 307 121l80 -107q-168 -160 -401 -160q-216 0 -356 138.5t-140 351.5q-2 109 41.5 212t116.5 178.5t174 120t209 42.5q191 0 310.5 -122.5t119.5 -319.5q0 -66 -25 -127zM272 590h637q-1 135 -75 211t-203 76
q-133 0 -230 -78t-129 -209zM358 1378q0 44 34 76.5t79 32.5q47 0 81 -32.5t34 -76.5t-34 -76t-81 -32q-45 0 -79 32t-34 76zM813 1378q0 44 34 76.5t81 32.5t79.5 -32t32.5 -77t-32.5 -76.5t-79.5 -31.5t-81 32t-34 76z" />
    <glyph glyph-name="uni0452" unicode="&#x452;" horiz-adv-x="1167" 
d="M1032 666q0 -51 -12 -111l-115 -647q-26 -145 -115 -222t-221 -77q-77 0 -159 29l22 126q58 -12 115 -12q87 0 136.5 42.5t68.5 135.5l112 629q10 62 10 84q0 96 -59 150.5t-160 54.5q-115 0 -195 -66.5t-100 -179.5l-108 -602h-156l209 1186h-170l25 139h170l37 211h157
l-37 -211h412l-27 -139h-409l-53 -301q118 106 282 106q153 0 246.5 -90.5t93.5 -234.5z" />
    <glyph glyph-name="uni0453" unicode="&#x453;" horiz-adv-x="929" 
d="M61 250q0 100 82 181t236 132l119 39q93 30 131.5 65t38.5 87q0 57 -42 88.5t-120 31.5q-130 0 -254 -100l-70 123q153 123 336 123q142 0 225.5 -72.5t83.5 -195.5q0 -103 -71.5 -177.5t-220.5 -123.5l-119 -39q-100 -32 -146.5 -71t-46.5 -93q0 -60 47 -92.5t133 -32.5
q152 0 304 143l86 -116q-162 -173 -387 -173q-155 0 -250 75t-95 198zM449 1159l251 438h201l-4 -28l-317 -410h-131z" />
    <glyph glyph-name="uni0454" unicode="&#x454;" horiz-adv-x="1153" 
d="M903 264l103 -88q-75 -97 -181 -148t-231 -51q-213 0 -354.5 140t-141.5 352q-2 109 42.5 212t119.5 177.5t178.5 119t214.5 42.5q135 0 245.5 -63t172.5 -173l-121 -79q-113 172 -303 172q-136 0 -239.5 -82t-135.5 -213h473l-22 -140h-461q10 -146 102.5 -233.5
t235.5 -87.5q184 0 303 143z" />
    <glyph glyph-name="uni0455" unicode="&#x455;" horiz-adv-x="933" 
d="M45 195l115 98q74 -92 137 -131t141 -39q91 0 145 38t54 101q0 49 -31 81t-125 79l-90 45q-112 55 -161.5 118.5t-49.5 151.5q0 128 93.5 205.5t248.5 77.5q223 0 336 -174l-110 -90q-87 118 -238 118q-80 0 -124 -33t-44 -93q0 -45 29 -77t108 -73l86 -45
q130 -69 182 -129t52 -154q0 -131 -100 -212t-261 -81q-125 0 -227.5 57t-165.5 161z" />
    <glyph glyph-name="uni0456" unicode="&#x456;" horiz-adv-x="503" 
d="M88 0l176 997h158l-176 -997h-158zM293 1378q0 47 35 81t82 34q49 0 83.5 -34t34.5 -81q0 -49 -34 -81.5t-84 -32.5t-83.5 32.5t-33.5 81.5z" />
    <glyph glyph-name="uni0457" unicode="&#x457;" horiz-adv-x="507" 
d="M162 1378q0 47 32 81t76 34t76.5 -34t32.5 -81q0 -49 -32 -81.5t-77 -32.5t-76.5 32.5t-31.5 81.5zM412 1378q0 47 32 81t76 34t76.5 -34t32.5 -81q0 -49 -32 -81.5t-77 -32.5t-76.5 32.5t-31.5 81.5zM88 0l176 997h158l-176 -997h-158z" />
    <glyph glyph-name="uni0458" unicode="&#x458;" horiz-adv-x="505" 
d="M-262 -362l22 126q59 -12 115 -12q87 0 135.5 41.5t65.5 134.5l190 1069h158l-195 -1091q-24 -147 -110.5 -222t-222.5 -75q-76 0 -158 29zM293 1378q0 47 35 81t82 34q49 0 83.5 -34t34.5 -81q0 -49 -34 -81.5t-84 -32.5t-83.5 32.5t-33.5 81.5z" />
    <glyph glyph-name="uni0459" unicode="&#x459;" horiz-adv-x="1652" 
d="M1526 340q0 -164 -114 -262t-306 -98q-175 0 -275 83.5t-100 239.5q0 37 10 105l82 452h-82q-118 0 -182 -31q-60 -27 -84 -84q-24 -59 -49 -172l-12 -49q-34 -136 -62 -221t-59 -149t-69 -96t-84 -48t-113 -18q-39 0 -70 8l25 135q24 -6 59 -6q63 0 106 64q46 63 70 147
q14 50 57 231l11 41q30 139 65 213q81 172 375 172h279l-58 -321h191q185 0 287 -88t102 -248zM1364 336q0 97 -65 148t-187 51h-190l-25 -140q-8 -41 -8 -80q0 -198 217 -198q119 0 188.5 58.5t69.5 160.5z" />
    <glyph glyph-name="uni045A" unicode="&#x45a;" horiz-adv-x="1667" 
d="M1534 317q0 -158 -109.5 -247.5t-300.5 -89.5q-177 0 -280 84t-103 241q0 28 11 103l16 90h-434l-86 -498h-158l174 997h158l-66 -360h437l63 360h158l-64 -360h193q186 0 288.5 -84t102.5 -236zM1374 311q0 91 -66 139t-190 48h-192l-19 -103q-8 -41 -8 -80
q0 -198 223 -198q119 0 185.5 51t66.5 143z" />
    <glyph glyph-name="uni045B" unicode="&#x45b;" horiz-adv-x="1165" 
d="M1030 664q0 -38 -12 -111l-96 -553h-158l98 557q10 75 10 84q0 96 -59 150.5t-160 54.5q-113 0 -195 -65.5t-100 -178.5l-106 -602h-158l207 1186h-166l25 139h166l36 211h158l-37 -211h416l-27 -139h-411l-53 -301q118 106 282 106q153 0 246.5 -90t93.5 -237z" />
    <glyph glyph-name="uni045C" unicode="&#x45c;" horiz-adv-x="1036" 
d="M264 997h158l-176 -997h-158zM1061 997l-516 -473l379 -524h-187l-375 537l482 460h217zM545 1159l252 438h200l-4 -28l-317 -410h-131z" />
    <glyph glyph-name="uni045D" unicode="&#x45d;" horiz-adv-x="1159" 
d="M918 997h157l-174 -997h-149l16 96q-119 -119 -295 -119q-153 0 -246.5 90.5t-93.5 237.5q0 41 12 111l103 581h158l-105 -585q-10 -62 -10 -84q0 -98 59 -152.5t162 -54.5q110 0 192.5 66.5t102.5 177.5zM602 1159l-102 410l10 28h176l29 -438h-113z" />
    <glyph glyph-name="uni045E" unicode="&#x45e;" horiz-adv-x="1155" 
d="M913 997h158l-174 -989q-32 -184 -155 -291.5t-300 -107.5q-130 0 -242.5 60.5t-181.5 168.5l105 101q129 -185 319 -185q119 0 196.5 68t100.5 192l17 97q-116 -107 -281 -107q-152 0 -245 89t-93 237q0 34 13 110l98 557h158l-103 -561q-10 -62 -10 -84
q0 -96 59 -150.5t162 -54.5q111 0 192 65.5t101 178.5zM410 1450q0 40 14 111h131q-12 -83 -12 -99q0 -79 44.5 -125.5t119.5 -46.5q76 0 127.5 51.5t64.5 143.5l12 76h131l-12 -76q-25 -146 -113 -228.5t-219 -82.5q-127 0 -207.5 77t-80.5 199z" />
    <glyph glyph-name="uni045F" unicode="&#x45f;" horiz-adv-x="1159" 
d="M918 997h157l-174 -997h-149l16 96q-119 -119 -295 -119q-153 0 -246.5 90.5t-93.5 237.5q0 41 12 111l103 581h158l-105 -585q-10 -62 -10 -84q0 -98 59 -152.5t162 -54.5q110 0 192.5 66.5t102.5 177.5zM350 -451l84 351h139l-63 -351h-160z" />
    <glyph glyph-name="uni0462" unicode="&#x462;" horiz-adv-x="1339" 
d="M246 0l178 1024h-291l23 137h290l37 191h160l-37 -191h387l-24 -137h-385l-43 -244h268q193 0 304.5 -93t111.5 -257q0 -195 -141.5 -312.5t-376.5 -117.5h-461zM428 143h299q154 0 243 74.5t89 202.5q0 104 -72 160.5t-203 56.5h-268z" />
    <glyph glyph-name="uni0463" unicode="&#x463;" horiz-adv-x="1720" 
d="M1593 340q0 -164 -115 -262t-307 -98q-174 0 -273 83.5t-99 239.5q0 65 10 105l33 178q10 62 10 84q0 98 -55.5 152.5t-153.5 54.5q-108 0 -187.5 -66.5t-97.5 -179.5l-110 -631h-158l174 997h148l-17 -92q121 115 285 115q149 0 239.5 -90.5t90.5 -237.5v-16h192
q186 0 288.5 -88t102.5 -248zM1432 336q0 97 -65 148t-187 51h-191l-24 -140q-9 -46 -9 -80q0 -198 215 -198q122 0 191.5 58t69.5 161z" />
    <glyph glyph-name="uni0472" unicode="&#x472;" horiz-adv-x="1601" 
d="M1532 727q3 -148 -59 -288t-165.5 -242.5t-243.5 -163t-286 -56.5q-135 -2 -255.5 48.5t-206 137.5t-134.5 207.5t-47 254.5q-3 149 58.5 289t164.5 241.5t243.5 161.5t287.5 57q135 2 255.5 -48t206 -137t134.5 -207.5t47 -254.5zM307 739q171 68 295 68q100 0 246 -47
q89 -27 139 -37t109 -10q117 0 266 55q-12 199 -148 329t-337 130q-212 0 -372.5 -139.5t-197.5 -348.5zM1356 625q-157 -62 -287 -62q-110 0 -256 49q-81 25 -130.5 35t-107.5 10q-119 0 -276 -59q12 -207 148.5 -340t338.5 -133q212 0 374 144t196 356z" />
    <glyph glyph-name="uni0473" unicode="&#x473;" horiz-adv-x="1247" 
d="M1151 524q3 -144 -73 -271.5t-206.5 -203t-277.5 -72.5q-211 0 -352.5 142t-141.5 354q-2 108 42.5 209.5t120 176.5t178.5 119t212 42q139 0 253 -65t179.5 -179t65.5 -252zM274 578q77 32 166 32q73 0 187 -32q110 -35 184 -35t174 35q-17 131 -111 213.5t-227 82.5
q-132 0 -234.5 -82t-138.5 -214zM981 444q-81 -34 -172 -34q-79 0 -191 34q-103 33 -180 33q-78 0 -174 -35q11 -142 103.5 -230.5t232.5 -88.5q142 0 248.5 90t132.5 231z" />
    <glyph glyph-name="uni0474" unicode="&#x474;" horiz-adv-x="1406" 
d="M1552 1352l-24 -138q-31 7 -60 7q-60 0 -99 -28t-83 -95l-672 -1121h-59l-344 1375h166l256 -1051l512 866q62 103 137.5 150t171.5 47q46 0 98 -12z" />
    <glyph glyph-name="uni0475" unicode="&#x475;" horiz-adv-x="1093" 
d="M1188 997l-25 -131h-47q-82 0 -145 -100l-500 -789h-57l-291 1020h160l198 -745l359 586q54 90 116 131t144 41q41 0 88 -13z" />
    <glyph glyph-name="uni0490" unicode="&#x490;" horiz-adv-x="1001" 
d="M100 0l238 1352h606l49 286h160l-74 -430h-608l-211 -1208h-160z" />
    <glyph glyph-name="uni0491" unicode="&#x491;" horiz-adv-x="894" 
d="M88 0l178 997h514l47 273h158l-72 -414h-514l-153 -856h-158z" />
    <glyph glyph-name="uni0492" unicode="&#x492;" horiz-adv-x="1077" 
d="M1163 1208h-647l-90 -512h346l-22 -133h-349l-98 -563h-160l99 563h-195l25 133h194l115 656h805z" />
    <glyph glyph-name="uni0493" unicode="&#x493;" horiz-adv-x="876" 
d="M911 856h-516l-55 -307h291l-25 -139h-291l-71 -410h-158l72 410h-164l24 139h164l80 448h674z" />
    <glyph glyph-name="uni0496" unicode="&#x496;" horiz-adv-x="1961" 
d="M449 1352l479 -627l-746 -725h-213l758 737l-467 615h189zM1055 1352h159l-237 -1352h-160zM1319 702l403 -559h183l-76 -432h-160l51 289h-82l-514 725l666 627h219z" />
    <glyph glyph-name="uni0497" unicode="&#x497;" horiz-adv-x="1658" 
d="M375 997l327 -462l-540 -535h-209l567 549l-327 448h182zM803 997h160l-177 -997h-157zM1081 522l277 -383h164l-74 -428h-148l52 289h-78l-377 535l463 462h215z" />
    <glyph glyph-name="uni0498" unicode="&#x498;" horiz-adv-x="1191" 
d="M1077 422q0 -192 -142.5 -318.5t-359.5 -126.5q-178 0 -311.5 86.5t-202.5 245.5l125 72q62 -125 160 -190.5t225 -65.5q155 0 249.5 79.5t94.5 209.5q0 105 -70 168t-186 63h-180l23 141h141q143 0 227 63.5t84 172.5q0 97 -64.5 151t-180.5 54q-206 0 -351 -154
l-100 96q177 205 467 205q173 0 282 -95t109 -243q0 -105 -57.5 -191t-157.5 -130q83 -45 129.5 -121t46.5 -172zM229 -360l19 110q82 -16 129 -16q79 0 122.5 40.5t43.5 114.5q0 70 -45 127l63 29q54 -31 83.5 -80t29.5 -106q0 -106 -80.5 -178t-198.5 -72q-84 0 -166 31z
" />
    <glyph glyph-name="uni0499" unicode="&#x499;" horiz-adv-x="931" 
d="M782 297q0 -143 -105 -231.5t-276 -88.5q-118 0 -217 46.5t-168 134.5l107 106q132 -141 291 -141q207 0 207 174q0 78 -57 120t-161 42h-100l27 139h114q102 0 155.5 37.5t53.5 107.5q0 60 -48 95.5t-130 35.5q-138 0 -248 -122l-94 100q143 168 352 168
q149 0 238.5 -72.5t89.5 -193.5q0 -81 -42.5 -142.5t-121.5 -97.5q63 -29 98 -85.5t35 -131.5zM49 -360l19 110q82 -16 129 -16q79 0 122 40.5t43 114.5q0 70 -45 127l64 29q54 -31 83.5 -80t29.5 -106q0 -106 -80.5 -178t-198.5 -72q-84 0 -166 31z" />
    <glyph glyph-name="uni049A" unicode="&#x49a;" horiz-adv-x="1282" 
d="M338 1352h160l-238 -1352h-160zM608 709l434 -566h183l-74 -432h-160l51 289h-81l-555 725l704 627h221z" />
    <glyph glyph-name="uni049B" unicode="&#x49b;" horiz-adv-x="1128" 
d="M264 997h156l-176 -997h-156zM545 522l276 -383h170l-76 -428h-147l51 289h-80l-377 535l463 462h215z" />
    <glyph glyph-name="uni04A0" unicode="&#x4a0;" horiz-adv-x="1634" 
d="M193 1352h647l-238 -1352h-160l213 1208h-487zM1677 1352l-725 -645l541 -707h-188l-557 725l704 627h225z" />
    <glyph glyph-name="uni04A1" unicode="&#x4a1;" horiz-adv-x="1198" 
d="M47 997h524l-176 -997h-157l151 860h-364zM1190 997l-496 -471l379 -526h-182l-379 537l463 460h215z" />
    <glyph glyph-name="uni04A2" unicode="&#x4a2;" horiz-adv-x="1490" 
d="M1133 -289l51 289h-166l117 651h-760l-115 -651h-160l238 1352h160l-101 -557h760l98 557h160l-213 -1209h166l-76 -432h-159z" />
    <glyph glyph-name="uni04A3" unicode="&#x4a3;" horiz-adv-x="1218" 
d="M860 -289l51 289h-174l82 461h-489l-82 -461h-158l174 997h158l-70 -397h492l67 397h158l-151 -862h165l-75 -424h-148z" />
    <glyph glyph-name="uni04AA" unicode="&#x4aa;" horiz-adv-x="1462" 
d="M135 625q-3 147 58.5 286.5t164.5 241.5t244.5 163t290.5 58q179 0 322.5 -84.5t228.5 -238.5l-131 -80q-69 125 -179 190.5t-251 65.5q-116 2 -225 -45.5t-187.5 -128.5t-125 -192t-44.5 -230q0 -221 139.5 -363.5t354.5 -142.5q267 0 452 215l111 -92
q-109 -129 -259 -200t-317 -71q-183 0 -331 84t-232 232.5t-84 331.5zM408 -360l18 110q82 -16 129 -16q79 0 122.5 40.5t43.5 114.5q0 70 -45 127l63 29q54 -31 83.5 -80t29.5 -106q0 -106 -80.5 -178t-198.5 -72q-83 0 -165 31z" />
    <glyph glyph-name="uni04AB" unicode="&#x4ab;" horiz-adv-x="1142" 
d="M98 467q-2 111 42.5 214t119.5 178t178.5 119t214.5 42q135 0 245.5 -63t172.5 -173l-121 -79q-108 169 -301 169q-164 0 -276.5 -116.5t-112.5 -282.5q0 -155 96.5 -254.5t243.5 -99.5q88 0 167 37t136 106l103 -94q-78 -100 -177.5 -146.5t-234.5 -46.5
q-140 0 -253.5 63.5t-178 176t-64.5 250.5zM219 -360l19 110q82 -16 129 -16q79 0 122 40.5t43 114.5q0 70 -45 127l64 29q54 -31 83.5 -80t29.5 -106q0 -106 -80.5 -178t-198.5 -72q-84 0 -166 31z" />
    <glyph glyph-name="uni04AE" unicode="&#x4ae;" horiz-adv-x="1261" 
d="M1321 1352l-610 -797l-97 -555h-159l98 561l-330 791h166l262 -639l482 639h188z" />
    <glyph glyph-name="uni04AF" unicode="&#x4af;" horiz-adv-x="1130" 
d="M1153 997l-598 -999l-61 -367h-158l63 365l-241 1001h161l185 -839l473 839h176z" />
    <glyph glyph-name="uni04B0" unicode="&#x4b0;" horiz-adv-x="1280" 
d="M1341 1352l-604 -791h305l-24 -135h-309l-74 -426h-160l74 426h-309l24 135h309l-329 791h164l264 -639l483 639h186z" />
    <glyph glyph-name="uni04B1" unicode="&#x4b1;" horiz-adv-x="1130" 
d="M1153 997l-596 -997h266l-24 -139h-267l-38 -230h-158l39 230h-266l22 139h268l-241 997h161l185 -839l473 839h176z" />
    <glyph glyph-name="uni04B2" unicode="&#x4b2;" horiz-adv-x="1228" 
d="M737 678l264 -535h170l-77 -432h-160l51 289h-86l-272 559l-459 -559h-199l584 707l-313 645h170l252 -533l417 533h199z" />
    <glyph glyph-name="uni04B3" unicode="&#x4b3;" horiz-adv-x="1103" 
d="M604 508l207 -369h156l-74 -428h-148l52 289h-90l-213 403l-347 -403h-194l463 522l-254 475h180l186 -366l314 366h192z" />
    <glyph glyph-name="uni04B6" unicode="&#x4b6;" horiz-adv-x="1368" 
d="M1292 1352l-211 -1209h164l-76 -432h-159l51 289h-166l96 545q-54 -23 -138.5 -39.5t-150.5 -16.5q-229 0 -361 113t-132 311q0 64 16 158l49 281h160l-49 -281q-16 -101 -16 -149q0 -285 338 -285q181 0 309 53l117 662h159z" />
    <glyph glyph-name="uni04B7" unicode="&#x4b7;" horiz-adv-x="1126" 
d="M825 139h166l-76 -428h-147l51 289h-176l68 387q-106 -41 -219 -41q-161 0 -253 92.5t-92 253.5q0 36 11 107l35 198h157l-37 -209q-10 -68 -10 -90q0 -102 54 -154t157 -52q119 0 223 38l82 467h158z" />
    <glyph glyph-name="uni04BA" unicode="&#x4ba;" horiz-adv-x="1325" 
d="M1182 438q0 -57 -17 -157l-49 -281h-160l50 281q16 101 16 149q0 285 -336 285q-181 0 -309 -53l-117 -662h-160l238 1352h160l-97 -543q56 23 139 38t150 15q229 0 360.5 -113.5t131.5 -310.5z" />
    <glyph glyph-name="uni04BB" unicode="&#x4bb;" horiz-adv-x="1159" 
d="M1030 692q0 -42 -12 -110l-103 -582h-157l104 586q10 65 10 84q0 97 -58 152t-161 55q-115 0 -195 -66.5t-100 -179.5l-110 -631h-158l268 1536h158l-108 -623q119 107 282 107q152 0 246 -90t94 -238z" />
    <glyph glyph-name="uni04C0" unicode="&#x4c0;" horiz-adv-x="530" 
d="M100 0l238 1352h160l-238 -1352h-160z" />
    <glyph glyph-name="uni04C1" unicode="&#x4c1;" horiz-adv-x="1964" 
d="M449 1352l479 -627l-746 -725h-213l766 739l-475 613h189zM1055 1352h159l-237 -1352h-160zM2009 1352l-692 -639l508 -713h-187l-514 725l666 627h219zM881 1765q0 23 12 99h133q-12 -70 -12 -86q0 -79 45 -125.5t119 -46.5q78 0 128.5 50.5t63.5 143.5l10 64h131
l-10 -64q-23 -146 -112 -229.5t-220 -83.5q-122 0 -206 78q-82 79 -82 200z" />
    <glyph glyph-name="uni04C2" unicode="&#x4c2;" horiz-adv-x="1560" 
d="M362 997l328 -462l-540 -535h-209l565 547l-328 450h184zM793 997h157l-176 -997h-158zM1565 997l-498 -473l381 -524h-186l-377 535l463 462h217zM625 1450q0 40 14 111h131q-12 -83 -12 -99q0 -79 44.5 -125.5t119.5 -46.5q76 0 127.5 51.5t64.5 143.5l12 76h131
l-12 -76q-25 -146 -113 -228.5t-219 -82.5q-127 0 -207.5 77t-80.5 199z" />
    <glyph glyph-name="uni04CF" unicode="&#x4cf;" horiz-adv-x="489" 
d="M88 0l270 1536h158l-270 -1536h-158z" />
    <glyph glyph-name="uni04D0" unicode="&#x4d0;" horiz-adv-x="1357" 
d="M1053 0l-68 274h-657l-164 -274h-180l827 1374h57l346 -1374h-161zM948 418l-153 655l-383 -655h536zM569 1765q0 16 13 99h133q-13 -76 -13 -86q0 -79 45 -125.5t119 -46.5q78 0 129 50.5t64 143.5l10 64h131l-10 -64q-23 -146 -112 -229.5t-220 -83.5q-123 0 -207 78
q-82 79 -82 200z" />
    <glyph glyph-name="uni04D1" unicode="&#x4d1;" horiz-adv-x="1288" 
d="M1047 997h157l-176 -997h-147l24 133q-63 -74 -157.5 -115t-202.5 -41q-192 0 -320.5 135.5t-128.5 338.5q-2 115 40.5 221.5t116 183t174.5 121.5t210 43q123 0 224 -52t157 -141zM965 557q0 141 -88 229t-230 88q-161 0 -275 -121.5t-114 -291.5q0 -149 92 -244
q91 -94 238 -94q157 0 267 126t110 308zM410 1450q0 40 14 111h131q-12 -83 -12 -99q0 -79 44.5 -125.5t119.5 -46.5q76 0 127.5 51.5t64.5 143.5l12 76h131l-12 -76q-25 -146 -113 -228.5t-219 -82.5q-127 0 -207.5 77t-80.5 199z" />
    <glyph glyph-name="uni04D4" unicode="&#x4d4;" horiz-adv-x="1685" 
d="M1700 1208h-660l-4 -413h426l-24 -144h-402l-4 -508h508l-27 -143h-645l2 276h-553l-188 -276h-188l933 1352h850zM877 1094l-461 -674h454z" />
    <glyph glyph-name="uni04D5" unicode="&#x4d5;" horiz-adv-x="1822" 
d="M1712 430h-780q11 -141 103 -224t241 -83q159 0 307 121l80 -107q-168 -160 -401 -160q-138 0 -248.5 63.5t-171.5 174.5q-60 -111 -177.5 -174.5t-265.5 -63.5q-164 0 -255 71.5t-91 199.5q0 146 109.5 229.5t298.5 83.5h319l2 10q9 47 9 105q0 94 -61 146t-171 52
q-78 0 -145.5 -29t-145.5 -95l-78 114q170 156 388 156q127 0 214.5 -51t122.5 -144q73 91 177.5 143t220.5 52q185 0 304.5 -122.5t119.5 -311.5q0 -92 -25 -156zM938 561h639v35q0 131 -74 206t-203 75q-138 0 -237 -87t-125 -229zM745 358l13 72h-297q-246 0 -246 -166
q0 -73 54.5 -115.5t148.5 -42.5q118 0 215 72q94 70 112 180z" />
    <glyph glyph-name="uni04D6" unicode="&#x4d6;" horiz-adv-x="1161" 
d="M100 0l238 1352h866l-26 -144h-707l-76 -413h543l-25 -144h-540l-88 -508h731l-25 -143h-891zM516 1765q0 23 12 99h134q-13 -76 -13 -86q0 -79 45 -125.5t119 -46.5q78 0 129 50.5t64 143.5l10 64h131l-10 -64q-23 -146 -112 -229.5t-220 -83.5q-123 0 -207 78
q-82 79 -82 200z" />
    <glyph glyph-name="uni04D7" unicode="&#x4d7;" horiz-adv-x="1153" 
d="M1044 451h-784q7 -152 100.5 -240t247.5 -88q159 0 307 121l80 -107q-168 -160 -401 -160q-216 0 -356 138.5t-140 351.5q-2 109 41.5 212t116.5 178.5t174 120t209 42.5q191 0 310.5 -122.5t119.5 -319.5q0 -66 -25 -127zM272 590h637q-1 135 -75 211t-203 76
q-133 0 -230 -78t-129 -209zM401 1450q0 34 15 111h131q-12 -83 -12 -99q0 -79 44 -125.5t119 -46.5q76 0 128 52t65 143l12 76h131l-12 -76q-25 -146 -113 -228.5t-219 -82.5q-127 0 -208 77t-81 199z" />
    <glyph glyph-name="uni04D8" unicode="&#x4d8;" horiz-adv-x="1505" 
d="M1436 741q3 -151 -55 -293t-155 -245.5t-229.5 -164.5t-271.5 -58q-267 0 -434.5 159t-167.5 412q0 80 20 174h1127v10q0 212 -137.5 352t-346.5 140q-129 0 -247.5 -55t-198.5 -152l-104 96q102 123 249.5 190.5t309.5 67.5q174 3 323 -82t235 -232t83 -319zM1253 582
h-964q-2 -10 -2 -41q0 -183 122.5 -298.5t317.5 -115.5q187 0 333.5 128.5t192.5 326.5z" />
    <glyph glyph-name="uni04D9" unicode="&#x4d9;" horiz-adv-x="1150" 
d="M1055 532q3 -148 -71 -277.5t-200 -205t-270 -72.5q-186 0 -308 117t-122 297q0 75 25 148h784q-4 158 -92.5 246.5t-241.5 88.5q-159 0 -305 -120l-80 104q81 78 185.5 120t213.5 42q210 0 346 -137.5t136 -350.5zM877 399h-633v-18q0 -121 75 -191.5t203 -70.5t224 76
t131 204z" />
    <glyph glyph-name="uni04E2" unicode="&#x4e2;" horiz-adv-x="1470" 
d="M1382 1374h58l-242 -1374h-160l185 1044l-1069 -1067h-58l242 1375h160l-187 -1047zM629 1577l22 129h602l-22 -129h-602z" />
    <glyph glyph-name="uni04E3" unicode="&#x4e3;" horiz-adv-x="1159" 
d="M918 997h157l-174 -997h-149l16 96q-119 -119 -295 -119q-153 0 -246.5 90.5t-93.5 237.5q0 41 12 111l103 581h158l-105 -585q-10 -62 -10 -84q0 -98 59 -152.5t162 -54.5q110 0 192.5 66.5t102.5 177.5zM438 1315l23 127h561l-23 -127h-561z" />
    <glyph glyph-name="uni04E6" unicode="&#x4e6;" horiz-adv-x="1601" 
d="M135 625q-3 149 58.5 289t164.5 241.5t243.5 161.5t287.5 57q135 2 255.5 -48t206 -137t134.5 -207.5t47 -254.5q3 -148 -59 -288t-165.5 -242.5t-243.5 -163t-286 -56.5q-135 -2 -255.5 48.5t-206 137.5t-134.5 207.5t-47 254.5zM1366 723q0 216 -138 360t-351 144
q-154 3 -289 -78t-214 -219.5t-75 -296.5q0 -219 137.5 -363.5t349.5 -144.5q153 -3 288.5 79t215 221.5t76.5 297.5zM653 1659q0 44 34 76t79 32q47 0 80 -32t33 -76q0 -45 -33 -77t-80 -32q-45 0 -79 32.5t-34 76.5zM1130 1657q0 45 33 77.5t80 32.5t80 -32.5t33 -77.5
t-33 -77t-80 -32t-80 32t-33 77z" />
    <glyph glyph-name="uni04E7" unicode="&#x4e7;" horiz-adv-x="1247" 
d="M100 473q-2 108 42.5 209.5t120 176.5t178.5 119t212 42q139 0 253 -65t179.5 -179t65.5 -252q3 -144 -73 -271.5t-206.5 -203t-277.5 -72.5q-211 0 -352.5 142t-141.5 354zM989 524q0 149 -97.5 249.5t-244.5 100.5q-161 0 -273 -117t-112 -284q0 -154 94 -252t244 -98
q164 0 276.5 116.5t112.5 284.5zM373 1378q0 44 33.5 76.5t78.5 32.5q47 0 81 -32.5t34 -76.5t-34 -76t-81 -32q-45 0 -78.5 32t-33.5 76zM827 1378q0 44 34 76.5t81 32.5t80 -32t33 -77q0 -44 -33 -76t-80 -32t-81 32t-34 76z" />
    <glyph glyph-name="uni04E8" unicode="&#x4e8;" horiz-adv-x="1601" 
d="M1532 727q3 -148 -59 -288t-165.5 -242.5t-243.5 -163t-286 -56.5q-135 -2 -255.5 48.5t-206 137.5t-134.5 207.5t-47 254.5q-3 149 58.5 289t164.5 241.5t243.5 161.5t287.5 57q135 2 255.5 -48t206 -137t134.5 -207.5t47 -254.5zM313 762h1051q-12 202 -147.5 333.5
t-339.5 131.5q-205 0 -364.5 -132.5t-199.5 -332.5zM1358 618h-1059q3 -212 141 -352.5t346 -140.5q210 0 372.5 141t199.5 352z" />
    <glyph glyph-name="uni04E9" unicode="&#x4e9;" horiz-adv-x="1247" 
d="M1151 524q3 -144 -73 -271.5t-206.5 -203t-277.5 -72.5q-211 0 -352.5 142t-141.5 354q-2 108 42.5 209.5t120 176.5t178.5 119t212 42q139 0 253 -65t179.5 -179t65.5 -252zM274 573h713q-15 135 -110 218t-230 83q-133 0 -239 -86q-104 -84 -134 -215zM979 434h-715
q12 -140 104.5 -225.5t231.5 -85.5q138 0 244 86q108 89 135 225z" />
    <glyph glyph-name="uni04EE" unicode="&#x4ee;" horiz-adv-x="1284" 
d="M1192 1352h186l-676 -1119q-85 -139 -173.5 -196t-219.5 -57q-82 0 -129 20l23 143q41 -14 108 -14q86 0 138 34.5t108 127.5l2 2l-321 1059h168l264 -885zM520 1577l23 129h602l-23 -129h-602z" />
    <glyph glyph-name="uni04EF" unicode="&#x4ef;" horiz-adv-x="1155" 
d="M913 997h158l-174 -989q-32 -184 -155 -291.5t-300 -107.5q-130 0 -242.5 60.5t-181.5 168.5l105 101q129 -185 319 -185q119 0 196.5 68t100.5 192l17 97q-116 -107 -281 -107q-152 0 -245 89t-93 237q0 34 13 110l98 557h158l-103 -561q-10 -62 -10 -84
q0 -96 59 -150.5t162 -54.5q111 0 192 65.5t101 178.5zM455 1315l22 127h561l-22 -127h-561z" />
    <glyph glyph-name="uni04F2" unicode="&#x4f2;" horiz-adv-x="1284" 
d="M1192 1352h186l-676 -1119q-85 -139 -173.5 -196t-219.5 -57q-82 0 -129 20l23 143q41 -14 108 -14q86 0 138 34.5t108 127.5l2 2l-321 1059h168l264 -885zM496 1483l243 381h179l-3 -29l-297 -352h-122zM938 1483l242 381h180l-4 -29l-297 -352h-121z" />
    <glyph glyph-name="uni04F3" unicode="&#x4f3;" horiz-adv-x="1155" 
d="M913 997h158l-174 -989q-32 -184 -155 -291.5t-300 -107.5q-130 0 -242.5 60.5t-181.5 168.5l105 101q129 -185 319 -185q119 0 196.5 68t100.5 192l17 97q-116 -107 -281 -107q-152 0 -245 89t-93 237q0 34 13 110l98 557h158l-103 -561q-10 -62 -10 -84
q0 -96 59 -150.5t162 -54.5q111 0 192 65.5t101 178.5zM440 1159l252 438h180l-4 -28l-305 -410h-123zM848 1159l250 438h182l-6 -28l-303 -410h-123z" />
    <glyph glyph-name="Wgrave" unicode="&#x1e80;" horiz-adv-x="2164" 
d="M2038 1352h180l-754 -1375h-57l-236 1067l-620 -1067h-57l-273 1375h166l193 -1026l614 1048h57l232 -1048zM1208 1483l-176 352l4 29h181l108 -381h-117z" />
    <glyph glyph-name="wgrave" unicode="&#x1e81;" horiz-adv-x="1738" 
d="M1583 997h176l-600 -1020h-57l-199 750l-477 -750h-57l-246 1020h160l159 -739l471 760h60l198 -752zM877 1159l-103 410l10 28h177l28 -438h-112z" />
    <glyph glyph-name="Wacute" unicode="&#x1e82;" horiz-adv-x="2164" 
d="M2038 1352h180l-754 -1375h-57l-236 1067l-620 -1067h-57l-273 1375h166l193 -1026l614 1048h57l232 -1048zM1196 1483l231 381h201l-4 -29l-303 -352h-125z" />
    <glyph glyph-name="wacute" unicode="&#x1e83;" horiz-adv-x="1738" 
d="M1583 997h176l-600 -1020h-57l-199 750l-477 -750h-57l-246 1020h160l159 -739l471 760h60l198 -752zM877 1159l251 438h201l-4 -28l-317 -410h-131z" />
    <glyph glyph-name="Wdieresis" unicode="&#x1e84;" horiz-adv-x="2164" 
d="M2038 1352h180l-754 -1375h-57l-236 1067l-620 -1067h-57l-273 1375h166l193 -1026l614 1048h57l232 -1048zM942 1659q0 44 34 76t79 32q47 0 79.5 -31.5t32.5 -76.5t-32.5 -77t-79.5 -32q-45 0 -79 32.5t-34 76.5zM1419 1657q0 45 33 77.5t80 32.5t80 -32.5t33 -77.5
t-33 -77t-80 -32t-80 32t-33 77z" />
    <glyph glyph-name="wdieresis" unicode="&#x1e85;" horiz-adv-x="1738" 
d="M1583 997h176l-600 -1020h-57l-199 750l-477 -750h-57l-246 1020h160l159 -739l471 760h60l198 -752zM653 1378q0 44 34 76.5t79 32.5q47 0 81 -32.5t34 -76.5t-34 -76t-81 -32q-45 0 -79 32t-34 76zM1108 1378q0 44 34 76.5t81 32.5t79.5 -32t32.5 -77t-32.5 -76.5
t-79.5 -31.5t-81 32t-34 76z" />
    <glyph glyph-name="uni1E9E" unicode="&#x1e9e;" horiz-adv-x="1454" 
d="M1399 1352l-8 -47l-367 -474q141 -35 225 -141q88 -107 88 -250q0 -126 -62.5 -232.5t-170 -168.5t-234.5 -62q-112 0 -211.5 50t-173.5 143l99 109q127 -154 286 -154q128 0 214.5 87t86.5 214t-87 204t-230 77h-76l4 45l351 456h-662l-211 -1208h-160l238 1352h1061z
" />
    <glyph glyph-name="Ygrave" unicode="&#x1ef2;" horiz-adv-x="1261" 
d="M1321 1352l-610 -797l-97 -555h-159l98 561l-330 791h166l262 -639l482 639h188zM737 1483l-176 352l4 29h180l109 -381h-117z" />
    <glyph glyph-name="ygrave" unicode="&#x1ef3;" horiz-adv-x="1155" 
d="M913 997h158l-174 -989q-32 -184 -155 -291.5t-300 -107.5q-130 0 -242.5 60.5t-181.5 168.5l105 101q129 -185 319 -185q119 0 196.5 68t100.5 192l17 97q-116 -107 -281 -107q-152 0 -245 89t-93 237q0 34 13 110l98 557h158l-103 -561q-10 -62 -10 -84
q0 -96 59 -150.5t162 -54.5q111 0 192 65.5t101 178.5zM592 1159l-103 410l11 28h176l29 -438h-113z" />
    <glyph glyph-name="uni2009" unicode="&#x2009;" horiz-adv-x="286" 
 />
    <glyph glyph-name="endash" unicode="&#x2013;" horiz-adv-x="1024" 
d="M102 578l25 133h848l-25 -133h-848z" />
    <glyph glyph-name="emdash" unicode="&#x2014;" horiz-adv-x="2048" 
d="M117 578l26 133h1844l-27 -133h-1843z" />
    <glyph glyph-name="uni2015" unicode="&#x2015;" horiz-adv-x="2048" 
d="M117 578l26 133h1844l-27 -133h-1843z" />
    <glyph glyph-name="quoteleft" unicode="&#x2018;" horiz-adv-x="575" 
d="M229 825l177 527h129l-119 -527h-187z" />
    <glyph glyph-name="quoteright" unicode="&#x2019;" horiz-adv-x="575" 
d="M254 825l119 527h184l-176 -527h-127z" />
    <glyph glyph-name="quotesinglbase" unicode="&#x201a;" horiz-adv-x="575" 
d="M45 -342l121 526h186l-178 -526h-129z" />
    <glyph glyph-name="quotedblleft" unicode="&#x201c;" horiz-adv-x="952" 
d="M229 825l177 527h129l-119 -527h-187zM606 825l176 527h129l-118 -527h-187z" />
    <glyph glyph-name="quotedblright" unicode="&#x201d;" horiz-adv-x="952" 
d="M254 825l119 527h184l-176 -527h-127zM631 825l119 527h184l-176 -527h-127z" />
    <glyph glyph-name="quotedblbase" unicode="&#x201e;" horiz-adv-x="950" 
d="M45 -342l121 526h186l-178 -526h-129zM420 -342l121 526h186l-178 -526h-129z" />
    <glyph glyph-name="dagger" unicode="&#x2020;" horiz-adv-x="929" 
d="M416 666l82 458h-256l24 140h256l45 272h158l-47 -272h254l-21 -140h-256l-82 -458h-157z" />
    <glyph glyph-name="daggerdbl" unicode="&#x2021;" horiz-adv-x="923" 
d="M393 555l39 209h-256l25 141h256l49 281h-256l24 139h256l37 211h156l-35 -211h254l-22 -139h-256l-50 -281h256l-24 -141h-258l-37 -209h-158z" />
    <glyph glyph-name="bullet" unicode="&#x2022;" horiz-adv-x="772" 
d="M127 547q0 113 80 189.5t190 76.5q109 0 189 -76.5t80 -189.5t-79.5 -188.5t-189.5 -75.5t-190 75.5t-80 188.5z" />
    <glyph glyph-name="ellipsis" unicode="&#x2026;" horiz-adv-x="1589" 
d="M600 106q0 55 37.5 92.5t91.5 37.5t91.5 -37.5t37.5 -92.5t-37.5 -92t-91.5 -37t-91.5 37t-37.5 92zM90 106q0 55 37.5 92.5t91.5 37.5t91.5 -37.5t37.5 -92.5t-37.5 -92t-91.5 -37t-91.5 37t-37.5 92zM1106 106q0 55 37.5 92.5t91.5 37.5t91.5 -37.5t37.5 -92.5
t-37.5 -92t-91.5 -37t-91.5 37t-37.5 92z" />
    <glyph glyph-name="perthousand" unicode="&#x2030;" horiz-adv-x="2455" 
d="M205 1034q0 139 100.5 238.5t241.5 99.5q133 0 225 -92t92 -225q0 -139 -101 -239.5t-243 -100.5q-132 0 -223.5 92.5t-91.5 226.5zM264 0l1063 1352h143l-1064 -1352h-142zM733 1053q0 91 -51.5 146.5t-136.5 55.5q-90 0 -149.5 -62.5t-59.5 -156.5q0 -91 53 -148
t139 -57q90 0 147.5 62.5t57.5 159.5zM1659 301q0 139 100.5 238.5t239.5 99.5q133 0 225 -91.5t92 -225.5q0 -139 -101 -239.5t-243 -100.5q-133 0 -223 92.5t-90 226.5zM862 299q0 139 100.5 238.5t241.5 99.5q134 0 226 -92.5t92 -225.5q0 -139 -101 -239t-243 -100
q-132 0 -224 93t-92 226zM2187 319q0 91 -52.5 147t-137.5 56q-90 0 -149.5 -62.5t-59.5 -156.5q0 -91 53.5 -148t138.5 -57q91 0 149 62t58 159zM1391 317q0 91 -52 147t-137 56q-90 0 -149.5 -62.5t-59.5 -156.5q0 -91 54 -148t139 -57q91 0 148 62t57 159z" />
    <glyph glyph-name="minute" unicode="&#x2032;" horiz-adv-x="505" 
d="M195 795l178 557h190l-241 -557h-127z" />
    <glyph glyph-name="second" unicode="&#x2033;" horiz-adv-x="880" 
d="M195 795l178 557h190l-241 -557h-127zM569 795l179 557h190l-242 -557h-127z" />
    <glyph glyph-name="guilsinglleft" unicode="&#x2039;" horiz-adv-x="624" 
d="M383 145l-299 385l8 48l426 387l92 -99l-346 -319l232 -318z" />
    <glyph glyph-name="guilsinglright" unicode="&#x203a;" horiz-adv-x="626" 
d="M129 145l-92 97l346 321l-233 318l114 84l297 -385l-6 -50z" />
    <glyph glyph-name="fraction" unicode="&#x2044;" horiz-adv-x="524" 
d="M-281 0l1012 1352h139l-1013 -1352h-138z" />
    <glyph glyph-name="uni2070" unicode="&#x2070;" horiz-adv-x="839" 
d="M209 1057q0 70 13.5 143.5t44 149t75 134t112.5 94.5t150 34q129 0 196.5 -84t67.5 -238q0 -72 -13 -146.5t-43 -150t-73.5 -134t-111 -94.5t-148.5 -34q-132 0 -201 86t-69 240zM733 1286q0 101 -40 151t-107 50q-50 2 -91 -27t-67.5 -75t-44.5 -105t-25.5 -114.5
t-7.5 -106.5q0 -203 146 -203q62 -3 110 41t74.5 113.5t39.5 140.5t13 135z" />
    <glyph glyph-name="uni2074" unicode="&#x2074;" horiz-adv-x="733" 
d="M788 1012l-22 -117h-111l-24 -150h-129l26 150h-424l7 39l366 663h150l-326 -585h246l47 260h127l-45 -260h112z" />
    <glyph glyph-name="uni2075" unicode="&#x2075;" horiz-adv-x="749" 
d="M799 1475h-348l-33 -193q62 4 71 4q123 0 197 -67.5t74 -178.5q0 -133 -92 -221t-230 -88q-108 0 -187 55t-114 154l109 57q58 -141 194 -141q80 0 131.5 48.5t51.5 123.5q0 69 -46.5 106t-132.5 37h-178l74 426h483z" />
    <glyph glyph-name="uni2076" unicode="&#x2076;" horiz-adv-x="747" 
d="M764 1040q0 -127 -91.5 -217t-219.5 -90q-120 0 -203 80q-82 82 -82 203q0 58 18 104t41 76q26 36 86 111l244 290h174l-244 -290q4 2 21 2q107 0 182 -78q74 -77 74 -191zM629 1034q0 70 -41.5 114t-108.5 44q-73 0 -123.5 -51t-50.5 -125q0 -69 44 -113.5t110 -44.5
q72 0 121 50.5t49 125.5z" />
    <glyph glyph-name="uni2077" unicode="&#x2077;" horiz-adv-x="669" 
d="M248 1597h575l-8 -38l-536 -814h-158l489 730h-385z" />
    <glyph glyph-name="uni2078" unicode="&#x2078;" horiz-adv-x="776" 
d="M776 983q0 -107 -86 -178q-85 -70 -215 -70q-136 0 -221.5 64t-85.5 164q0 87 58 148t165 91q-106 72 -106 176q0 100 76.5 167t193.5 67q119 0 190.5 -57.5t71.5 -153.5q0 -154 -182 -225q141 -70 141 -193zM412 1378q0 -37 21.5 -62.5t88.5 -66.5q90 26 130 59t40 81
q0 51 -39 82.5t-100 31.5q-62 0 -101.5 -35t-39.5 -90zM641 983q0 43 -29 74t-110 73q-105 -26 -152 -62.5t-47 -92.5q0 -61 44.5 -96t119.5 -35q78 0 126 38t48 101z" />
    <glyph glyph-name="uni2079" unicode="&#x2079;" horiz-adv-x="749" 
d="M819 1327q0 -59 -18 -106q-14 -36 -43 -78q-17 -25 -86 -107l-244 -291h-172l246 291q-6 -2 -27 -2q-107 0 -182 78q-72 78 -72 191q0 127 92.5 217t221.5 90q120 0 202 -82q82 -79 82 -201zM682 1325q0 69 -43.5 114.5t-110.5 45.5q-73 0 -121.5 -50.5t-48.5 -125.5
q0 -69 41.5 -113.5t108.5 -44.5q74 0 124 50.5t50 123.5z" />
    <glyph glyph-name="uni207A" unicode="&#x207a;" horiz-adv-x="874" 
d="M397 819l54 295h-287l22 117h285l51 295h131l-51 -295h285l-21 -117h-286l-52 -295h-131z" />
    <glyph glyph-name="uni207B" unicode="&#x207b;" horiz-adv-x="874" 
d="M197 1118l20 107h701l-21 -107h-700z" />
    <glyph glyph-name="uni207C" unicode="&#x207c;" horiz-adv-x="874" 
d="M238 1276l22 117h674l-23 -117h-673zM182 952l21 117h674l-23 -117h-672z" />
    <glyph glyph-name="uni207D" unicode="&#x207d;" horiz-adv-x="528" 
d="M227 999q-2 190 57 370t163.5 307t230.5 169l37 -82q-166 -75 -269 -288q-100 -207 -100 -482q0 -290 156 -422l-60 -73q-106 72 -160.5 199.5t-54.5 301.5z" />
    <glyph glyph-name="uni207E" unicode="&#x207e;" horiz-adv-x="528" 
d="M92 500l-37 82q165 76 267 288q100 207 100 482q0 292 -156 422l62 73q104 -72 158.5 -200t54.5 -301q2 -190 -56.5 -369t-162.5 -306.5t-230 -170.5z" />
    <glyph glyph-name="uni2080" unicode="&#x2080;" horiz-adv-x="839" 
d="M35 66q0 70 13.5 143.5t44 149t75 134t112.5 94.5t150 34q129 0 196.5 -84t67.5 -238q0 -71 -13 -145.5t-43 -150t-73.5 -134t-111 -95t-148.5 -34.5q-132 0 -201 86t-69 240zM559 295q0 101 -40 151t-107 50q-50 2 -91 -27t-67.5 -75t-44.5 -105t-25.5 -114.5
t-7.5 -106.5q0 -203 146 -203q62 -3 110 41t74.5 113.5t39.5 140.5t13 135z" />
    <glyph glyph-name="uni2081" unicode="&#x2081;" horiz-adv-x="720" 
d="M-35 -246l23 123h211l108 606h-203l23 123h338l-129 -729h184l-20 -123h-535z" />
    <glyph glyph-name="uni2082" unicode="&#x2082;" horiz-adv-x="755" 
d="M377 8l-160 -131h346l-22 -123h-598l6 31l358 313q95 86 134.5 144.5t39.5 117.5q0 62 -38 99t-101 37q-72 0 -112 -48t-40 -133v-24h-135v33q0 131 82 214t211 83q122 0 195 -68.5t73 -183.5q0 -88 -54.5 -170t-184.5 -191z" />
    <glyph glyph-name="uni2083" unicode="&#x2083;" horiz-adv-x="724" 
d="M639 606l-6 -39l-254 -282q80 -23 130 -89.5t50 -152.5q0 -128 -92 -215.5t-227 -87.5q-109 0 -186 54.5t-109 154.5l106 57q32 -73 77.5 -107t111.5 -34q82 0 132 47t50 125q0 69 -47 106t-135 37h-78l6 39l235 264h-309l23 123h522z" />
    <glyph glyph-name="uni2084" unicode="&#x2084;" horiz-adv-x="733" 
d="M614 20l-22 -116h-111l-24 -150h-129l26 150h-424l7 39l366 663h150l-326 -586h246l47 261h127l-45 -261h112z" />
    <glyph glyph-name="uni2085" unicode="&#x2085;" horiz-adv-x="749" 
d="M625 483h-349l-32 -192q62 4 71 4q123 0 197 -67.5t74 -178.5q0 -133 -92 -221t-230 -88q-108 0 -187 55t-114 154l109 57q58 -141 194 -141q80 0 131.5 48.5t51.5 123.5q0 69 -46.5 106t-132.5 37h-178l74 426h483z" />
    <glyph glyph-name="uni2086" unicode="&#x2086;" horiz-adv-x="747" 
d="M590 49q0 -127 -91.5 -217t-219.5 -90q-121 0 -203 82q-82 79 -82 201q0 57 18 104q18 46 41 76q20 29 86 110l244 291h174l-244 -291q4 2 21 2q108 0 182 -77t74 -191zM455 43q0 69 -41.5 113.5t-108.5 44.5q-73 0 -123.5 -51t-50.5 -125q0 -69 44 -113.5t110 -44.5
q72 0 121 50.5t49 125.5z" />
    <glyph glyph-name="uni2087" unicode="&#x2087;" horiz-adv-x="669" 
d="M74 606h575l-8 -39l-537 -813h-157l489 729h-385z" />
    <glyph glyph-name="uni2088" unicode="&#x2088;" horiz-adv-x="776" 
d="M602 -8q0 -105 -86 -176q-87 -72 -215 -72q-136 0 -221.5 63.5t-85.5 163.5q0 87 58 148.5t165 91.5q-106 72 -106 176q0 100 76.5 167t193.5 67q119 0 190.5 -57.5t71.5 -153.5q0 -155 -182 -226q141 -70 141 -192zM238 387q0 -37 21.5 -62.5t88.5 -66.5q90 26 130 59
t40 80q0 51 -39.5 83t-99.5 32q-62 0 -101.5 -35t-39.5 -90zM467 -8q0 43 -29 74t-110 73q-105 -26 -152 -62.5t-47 -92.5q0 -61 44.5 -96t119.5 -35q78 0 126 38t48 101z" />
    <glyph glyph-name="uni2089" unicode="&#x2089;" horiz-adv-x="749" 
d="M645 336q0 -60 -18 -107q-13 -34 -43 -77q-17 -25 -86 -107l-244 -291h-172l246 291q-6 -2 -27 -2q-107 0 -182 78q-72 78 -72 190q0 127 92 217t221 90q122 0 203 -81q82 -79 82 -201zM508 334q0 69 -43.5 114.5t-110.5 45.5q-73 0 -121.5 -51t-48.5 -126
q0 -69 41.5 -113t108.5 -44q74 0 124 50t50 124z" />
    <glyph glyph-name="uni208A" unicode="&#x208a;" horiz-adv-x="876" 
d="M223 -174l53 295h-286l22 117h285l51 294h131l-51 -294h285l-21 -117h-286l-52 -295h-131z" />
    <glyph glyph-name="uni208B" unicode="&#x208b;" horiz-adv-x="872" 
d="M20 125l21 106h700l-20 -106h-701z" />
    <glyph glyph-name="uni208C" unicode="&#x208c;" horiz-adv-x="876" 
d="M63 283l23 116h674l-23 -116h-674zM8 -41l21 117h673l-22 -117h-672z" />
    <glyph glyph-name="uni208D" unicode="&#x208d;" horiz-adv-x="528" 
d="M53 6q-2 190 57 370t163.5 307t230.5 169l37 -82q-166 -75 -269 -289q-100 -207 -100 -481q0 -290 156 -422l-60 -74q-106 72 -160.5 200t-54.5 302z" />
    <glyph glyph-name="uni208E" unicode="&#x208e;" horiz-adv-x="526" 
d="M-84 -494l-37 82q163 75 266 289q101 209 101 481q0 292 -156 422l62 74q104 -72 158.5 -200.5t54.5 -301.5q2 -190 -56.5 -369t-162.5 -306.5t-230 -170.5z" />
    <glyph glyph-name="lira" unicode="&#x20a4;" horiz-adv-x="1081" 
d="M446 950q0 -55 29 -147h385l-22 -139h-318q27 -83 27 -166v-4h258l-23 -140h-258q-41 -131 -147 -215h547l-23 -139h-870l4 43q254 126 325 311h-251l22 140h254q0 72 -29 170h-192l22 139h125q-28 98 -28 166q0 173 118.5 288t296.5 115q167 0 273.5 -97.5t126.5 -270.5
l-146 -33q-13 124 -78.5 190t-171.5 66q-112 0 -184 -77.5t-72 -199.5z" />
    <glyph glyph-name="peseta" unicode="&#x20a7;" horiz-adv-x="1210" 
d="M1300 1001l-24 -139h-166q-35 -159 -173.5 -251.5t-342.5 -92.5h-211l-92 -518h-160l152 862h-166l22 139h168l62 351h307q199 0 315 -94.5t127 -256.5h182zM664 1208h-160l-37 -209h487q-12 101 -86.5 155t-203.5 54zM944 864h-500l-34 -202h198q134 0 220 53t116 149z
" />
    <glyph glyph-name="Euro" unicode="&#x20ac;" horiz-adv-x="1392" 
d="M461 899h612l-57 -139h-600q-17 -94 -17 -164v-12h533l-60 -140h-454q37 -148 145.5 -233.5t261.5 -85.5q203 0 328 143l102 -92q-78 -97 -191.5 -148t-250.5 -51q-219 0 -373 127q-152 131 -192 340h-242l25 140h202v6q0 76 15 170h-182l24 139h197q77 216 245 344
q170 129 386 129q156 0 278 -61t195 -176l-117 -84q-115 174 -354 174q-151 0 -273 -87.5t-186 -238.5z" />
    <glyph glyph-name="uni20AE" unicode="&#x20ae;" horiz-adv-x="1198" 
d="M1282 1208h-475l-66 -377l400 142l-25 -150l-401 -141l-33 -182l401 141l-24 -149l-404 -144l-61 -348h-160l53 299l-395 -139l25 151l397 138l33 184l-395 -139l24 149l395 139l76 426h-475l25 144h1112z" />
    <glyph glyph-name="uni20B4" unicode="&#x20b4;" horiz-adv-x="1112" 
d="M977 887h158l-23 -131h-1018l21 131h692q72 72 72 157q0 89 -66 137t-166 48q-152 0 -289 -125l-79 106q82 77 182.5 120.5t208.5 43.5q157 0 266 -86q106 -81 106 -225q0 -96 -65 -176zM39 455l20 131h1022l-22 -131h-740q-36 -56 -36 -123q0 -99 68.5 -154t187.5 -55
q100 0 188.5 42.5t183.5 131.5l80 -109q-217 -211 -473 -211q-170 0 -287 91q-112 90 -112 245q0 78 37 142h-117z" />
    <glyph glyph-name="uni20B8" unicode="&#x20b8;" horiz-adv-x="1198" 
d="M172 1208l25 144h1112l-27 -144h-1110zM434 0l154 870h-475l24 144h1112l-26 -144h-475l-154 -870h-160z" />
    <glyph glyph-name="uni20B9" unicode="&#x20b9;" horiz-adv-x="1050" 
d="M1049 1352l-25 -140h-276q65 -65 77 -165h166l-24 -140h-146q-31 -154 -163 -247t-322 -93h-17l492 -567h-197l-491 567l27 140h180q135 0 218.5 51.5t106.5 148.5h-471l25 140h448q-37 165 -276 165h-143l24 140h787z" />
    <glyph glyph-name="uni20BA" unicode="&#x20ba;" horiz-adv-x="1060" 
d="M975 444q0 -217 -157 -342t-429 -125q-84 0 -223 19l86 487l-211 -90l25 150l210 90l33 182l-211 -88l27 150l211 88l67 387h162l-57 -320l416 174l-25 -149l-418 -176l-30 -183l413 179l-24 -150l-416 -176l-76 -430l68 -2q204 0 302.5 98.5t98.5 304.5h152q0 -5 3 -32
t3 -46z" />
    <glyph glyph-name="uni20BD" unicode="&#x20bd;" horiz-adv-x="1183" 
d="M131 0l49 274h-168l25 140h168l35 190h-170l24 139h168l107 609h405q184 0 289.5 -93t105.5 -255q0 -177 -131 -288.5t-338 -111.5h-301l-34 -190h542l-24 -140h-543l-49 -274h-160zM422 743h287q139 0 218 68.5t79 187.5q0 103 -64 158t-186 55h-250z" />
    <glyph glyph-name="uni20BF" unicode="&#x20bf;" horiz-adv-x="1187" 
d="M1063 428q0 -137 -90 -233.5t-242 -122.5l-45 -265h-147l45 256h-172l-45 -256h-146l45 256h-153l215 1227h153l43 246h146l-43 -246h125q37 0 47 -2l43 248h145l-47 -289q68 -37 104.5 -101.5t36.5 -148.5q0 -96 -47.5 -170t-132.5 -116q75 -41 118.5 -116.5
t43.5 -166.5zM453 1153l-66 -373h309q106 0 170 57.5t64 151.5q0 80 -52 122t-151 42h-274zM911 432q0 98 -63 155.5t-172 57.5h-311l-80 -446h338q135 0 211.5 62t76.5 171z" />
    <glyph glyph-name="uni2113" unicode="&#x2113;" horiz-adv-x="864" 
d="M555 119q65 0 154 12l-23 -133q-86 -21 -164 -21q-161 0 -248.5 74t-87.5 211q0 47 13 117l2 6l-49 -31q-10 -7 -38 -24t-44 -27l-62 125q169 111 225 154l105 598q35 193 121 286t231 93q123 0 185.5 -65.5t62.5 -193.5q0 -383 -563 -811l-21 -112q-10 -68 -10 -88
q0 -170 211 -170zM494 1176l-82 -476q379 323 379 588q0 69 -27 102t-84 33q-74 0 -118.5 -59t-67.5 -188z" />
    <glyph glyph-name="uni2116" unicode="&#x2116;" horiz-adv-x="2299" 
d="M1077 315l178 1037h160l-241 -1375h-58l-678 1057l-178 -1034h-160l242 1374h57zM1591 797q0 142 105 245t250 103q132 0 223.5 -90t91.5 -219q0 -143 -105 -247t-251 -104q-133 0 -223.5 90t-90.5 222zM1722 801q0 -88 52.5 -143.5t134.5 -55.5q94 0 157.5 64.5
t63.5 160.5q0 88 -53.5 144.5t-137.5 56.5q-92 0 -154.5 -65t-62.5 -162zM1499 215l19 115h651l-19 -115h-651z" />
    <glyph glyph-name="uni2117" unicode="&#x2117;" horiz-adv-x="1622" 
d="M139 647q-4 141 56.5 276.5t161.5 235t239 159.5t281 56q135 3 260 -50.5t215 -144t143 -215t51 -257.5q3 -141 -57.5 -277t-161.5 -236t-238 -160t-280 -57q-135 -3 -260 50t-216 144t-144 216t-50 260zM1423 709q3 150 -71 278.5t-202 203t-278 71.5
q-120 2 -233.5 -47.5t-196.5 -133t-132.5 -198t-47.5 -236.5q0 -154 73 -282t199.5 -201.5t278.5 -73.5q120 -2 233.5 48t196.5 134.5t132.5 199.5t47.5 237zM539 307l127 723h262q117 0 184.5 -58.5t67.5 -160.5q0 -115 -85.5 -186.5t-220.5 -71.5h-159l-43 -246h-133z
M737 670h152q74 0 113.5 34t39.5 97q0 56 -33 85t-96 29h-133z" />
    <glyph glyph-name="trademark" unicode="&#x2122;" horiz-adv-x="1947" 
d="M1925 1366h47l-164 -934h-137l101 588l-324 -352h-49l-213 379l-105 -615h-139l158 934h53l293 -520zM182 1352h764l-22 -125h-314l-139 -795h-137l139 795h-313z" />
    <glyph glyph-name="uni2126" unicode="&#x2126;" horiz-adv-x="1619" 
d="M1180 143h276l-24 -143h-562l25 145q238 94 363.5 246.5t125.5 347.5q0 216 -143 352t-369 136q-115 2 -221 -43.5t-182 -124t-120 -186t-42 -224.5q0 -154 84 -283t244 -221l-27 -145h-536l26 143h312q-127 96 -198 231.5t-71 278.5q-3 142 55.5 276.5t157 232.5
t233.5 156.5t279 55.5q192 3 350.5 -80t247.5 -229t86 -322q0 -184 -95.5 -339t-274.5 -261z" />
    <glyph glyph-name="estimated" unicode="&#x212e;" horiz-adv-x="1628" 
d="M1520 670h-1114v-414q75 -102 189.5 -157.5t260.5 -55.5q156 0 293.5 65.5t230.5 178.5l50 -43q-101 -124 -251.5 -194t-322.5 -70q-147 -2 -280 52.5t-228.5 147.5t-150.5 221t-52 267q-3 142 55 274t155 226.5t227 150.5t266 53q97 2 196.5 -26t187 -82.5t155.5 -126
t106 -165t35 -192.5q0 -66 -8 -110zM406 1094v-361h862v391q-74 88 -179.5 135.5t-232.5 47.5q-141 0 -257.5 -56t-192.5 -157z" />
    <glyph glyph-name="uni2150" unicode="&#x2150;" horiz-adv-x="1912" 
d="M96 500l23 123h211l108 606h-202l22 123h338l-129 -729h184l-20 -123h-535zM440 0l1012 1352h139l-1013 -1352h-138zM1360 852h575l-8 -39l-536 -813h-158l489 729h-385z" />
    <glyph glyph-name="uni2151" unicode="&#x2151;" horiz-adv-x="1931" 
d="M96 500l23 123h211l108 606h-202l22 123h338l-129 -729h184l-20 -123h-535zM440 0l1012 1352h139l-1013 -1352h-138zM1870 582q0 -58 -19 -107q-14 -36 -43 -78q-13 -19 -86 -106l-243 -291h-172l245 291q-6 -2 -26 -2q-108 0 -183 78q-71 77 -71 190q0 127 92 217
t221 90q121 0 203 -82q82 -79 82 -200zM1733 580q0 69 -43.5 114t-110.5 45q-73 0 -121.5 -50.5t-48.5 -125.5q0 -69 41.5 -113t108.5 -44q73 0 123.5 50t50.5 124z" />
    <glyph glyph-name="uni2152" unicode="&#x2152;" horiz-adv-x="2801" 
d="M96 500l23 123h211l108 606h-202l22 123h338l-129 -729h184l-20 -123h-535zM440 0l1012 1352h139l-1013 -1352h-138zM1251 0l23 123h211l108 606h-202l22 123h338l-129 -729h184l-20 -123h-535zM2042 311q0 70 13.5 143.5t44 149t75 134t112.5 94.5t150 34
q129 0 196.5 -83.5t67.5 -237.5q0 -72 -13 -146.5t-43 -150t-73.5 -134t-111 -94.5t-148.5 -34q-132 0 -201 85.5t-69 239.5zM2566 541q0 101 -40 150.5t-107 49.5q-50 2 -91 -27t-67.5 -75t-44.5 -105t-25.5 -114.5t-7.5 -106.5q0 -202 146 -202q62 -3 110 41t74.5 113.5
t39.5 140.5t13 135z" />
    <glyph glyph-name="uni2153" unicode="&#x2153;" horiz-adv-x="1968" 
d="M96 500l23 123h211l108 606h-202l22 123h338l-129 -729h184l-20 -123h-535zM440 0l1012 1352h139l-1013 -1352h-138zM1925 852l-6 -39l-254 -283q80 -23 130 -89t50 -152q0 -128 -92 -215.5t-227 -87.5q-109 0 -186 54.5t-109 154.5l106 57q32 -73 77.5 -107t111.5 -34
q82 0 132 47t50 125q0 69 -47 106t-135 37h-78l6 39l236 264h-310l23 123h522z" />
    </font>
</defs>
</svg>
