<?xml version="1.0" standalone="no"?>
<!DOCTYPE svg PUBLIC "-//W3C//DTD SVG 1.1//EN" "http://www.w3.org/Graphics/SVG/1.1/DTD/svg11.dtd" >
<svg xmlns="http://www.w3.org/2000/svg" xmlns:xlink="http://www.w3.org/1999/xlink" version="1.1">
<metadata>
Created by FontForge 20170731 at Mon Dec 21 18:11:28 2020
 By Aleksey,,,
Copyright (c) 2015, 2018 by Jakob Runge, under exclusive license to TypeMates. All rights reserved.
</metadata>
<defs>
<font id="CeraPro-BoldItalic" horiz-adv-x="1146" >
  <font-face 
    font-family="Cera Pro"
    font-weight="700"
    font-style="italic"
    font-stretch="normal"
    units-per-em="2048"
    panose-1="0 0 8 0 0 0 0 0 0 0"
    ascent="1655"
    descent="-393"
    x-height="1014"
    cap-height="1352"
    bbox="-901 -502 2841.04 2048"
    underline-thickness="178"
    underline-position="-382"
    slope="-10"
    unicode-range="U+0020-FB02"
  />
<missing-glyph horiz-adv-x="1460" 
d="M307 1352h1149l-237 -1352h-1149zM1057 160l180 1020h-774z" />
    <glyph glyph-name="fi" unicode="fi" horiz-adv-x="1286" 
d="M580 1163l-27 -149h223l-41 -232h-223l-145 -831q-31 -167 -133.5 -255.5t-266.5 -88.5q-91 0 -198 37l38 223q71 -12 117 -12q79 0 121.5 36.5t54.5 112.5l138 778h-146l43 232h144l34 200q29 170 132 258.5t270 88.5q98 0 196 -37l-37 -224q-83 13 -118 13
q-80 0 -122 -36t-54 -114zM784 0l179 1014h276l-178 -1014h-277zM991 1382q0 73 51 122.5t125 49.5t126.5 -49.5t52.5 -122.5q0 -71 -52.5 -120.5t-126.5 -49.5t-125 49t-51 121z" />
    <glyph glyph-name="fl" unicode="fl" horiz-adv-x="1286" 
d="M580 1163l-27 -149h223l-41 -232h-223l-145 -831q-31 -167 -133.5 -255.5t-266.5 -88.5q-91 0 -198 37l38 223q71 -12 117 -12q79 0 121.5 36.5t54.5 112.5l138 778h-146l43 232h144l34 200q29 170 132 258.5t270 88.5q98 0 196 -37l-37 -224q-83 13 -118 13
q-80 0 -122 -36t-54 -114zM784 0l271 1536h276l-270 -1536h-277z" />
    <glyph glyph-name=".notdef" horiz-adv-x="1460" 
d="M307 1352h1149l-237 -1352h-1149zM1057 160l180 1020h-774z" />
    <glyph glyph-name=".null" horiz-adv-x="0" 
 />
    <glyph glyph-name="nonmarkingreturn" horiz-adv-x="682" 
 />
    <glyph glyph-name="space" unicode=" " horiz-adv-x="573" 
 />
    <glyph glyph-name="exclam" unicode="!" horiz-adv-x="710" 
d="M242 496l96 856h336l-207 -856h-225zM106 166q0 80 55.5 135t137.5 55q79 0 133.5 -55t54.5 -135q0 -82 -53.5 -136.5t-134.5 -54.5q-82 0 -137.5 54.5t-55.5 136.5z" />
    <glyph glyph-name="quotedbl" unicode="&#x22;" horiz-adv-x="1103" 
d="M223 782l109 570h317l-209 -570h-217zM709 782l108 570h318l-209 -570h-217z" />
    <glyph glyph-name="numbersign" unicode="#" horiz-adv-x="1241" 
d="M1245 809h-192l-45 -266h194l-41 -232h-194l-56 -311h-225l55 311h-305l-55 -311h-225l55 311h-191l41 232h191l47 266h-193l41 231h193l55 312h226l-56 -312h303l56 312h225l-55 -312h192zM475 530h305l49 291h-303z" />
    <glyph glyph-name="dollar" unicode="$" horiz-adv-x="1101" 
d="M985 430q0 -151 -108 -259.5t-275 -127.5l-43 -242h-242l48 269q-199 73 -306 276l203 129q119 -186 293 -186q74 0 115 30t41 84q0 41 -29.5 73.5t-101.5 70.5l-123 63q-244 123 -244 326q0 144 102 246q103 103 267 118l43 234h241l-47 -262q143 -59 234 -215
l-205 -137q-47 72 -99.5 103.5t-121.5 31.5q-63 0 -101.5 -29t-38.5 -76q0 -37 27 -67t90 -62l133 -67q248 -125 248 -324z" />
    <glyph glyph-name="percent" unicode="%" horiz-adv-x="1701" 
d="M186 1030q0 139 105.5 241.5t249.5 102.5q137 0 233 -94t96 -229q0 -141 -104.5 -243.5t-249.5 -102.5q-137 0 -233.5 94.5t-96.5 230.5zM229 0l1088 1352h223l-1087 -1352h-224zM666 1044q0 61 -37 100.5t-94 39.5q-63 0 -103.5 -42t-40.5 -108q0 -63 37.5 -102
t97.5 -39q61 0 100.5 42.5t39.5 108.5zM899 303q0 143 103.5 243.5t250.5 100.5q138 0 234 -93t96 -230q0 -140 -105 -243.5t-251 -103.5q-137 0 -232.5 96t-95.5 230zM1378 319q0 61 -37 100.5t-94 39.5q-63 0 -103 -42t-40 -108q0 -63 37.5 -102t97.5 -39q61 0 100 42.5
t39 108.5z" />
    <glyph glyph-name="ampersand" unicode="&#x26;" horiz-adv-x="1382" 
d="M1333 569l-82 -92q-135 -156 -198 -219l166 -258h-301l-60 92q-176 -117 -354 -117q-188 0 -310 101.5t-122 257.5q0 119 83 224.5t263 215.5q-84 141 -84 254q0 149 108.5 248.5t270.5 99.5q148 0 239.5 -78.5t91.5 -207.5q0 -103 -67.5 -192t-216.5 -183l155 -242
q86 86 236 262zM592 1036q0 -61 53 -141l2 -2q78 50 111 87.5t33 78.5q0 38 -26 62t-67 24q-50 0 -78 -29t-28 -80zM725 297l-186 289q-109 -68 -148 -113.5t-39 -103.5q0 -66 47.5 -109t120.5 -43q93 0 205 80z" />
    <glyph glyph-name="quotesingle" unicode="'" horiz-adv-x="618" 
d="M223 782l109 570h317l-209 -570h-217z" />
    <glyph glyph-name="parenleft" unicode="(" horiz-adv-x="753" 
d="M150 414q-2 252 78.5 484.5t224 395t319.5 217.5l82 -170q-213 -104 -339 -355.5t-126 -571.5q0 -186 49 -313.5t158 -221.5l-133 -151q-152 94 -232.5 270.5t-80.5 415.5z" />
    <glyph glyph-name="parenright" unicode=")" horiz-adv-x="751" 
d="M25 -272l-82 172q213 104 339 355.5t126 571.5q0 186 -49 313.5t-158 221.5l135 149q152 -92 231.5 -268t79.5 -416q2 -252 -78.5 -484t-223.5 -395t-320 -220z" />
    <glyph glyph-name="asterisk" unicode="*" horiz-adv-x="956" 
d="M1004 1188l-209 -105l159 -168l-100 -120l-195 127l-65 -222l-154 27l15 231l-228 -53l-55 150l207 104l-160 168l103 119l194 -129l68 225l153 -29l-14 -231l225 53z" />
    <glyph glyph-name="plus" unicode="+" 
d="M387 174l66 365h-355l41 233h353l65 361h262l-63 -361h348l-41 -233h-348l-66 -365h-262z" />
    <glyph glyph-name="comma" unicode="," horiz-adv-x="573" 
d="M-16 -365l120 617h316l-217 -617h-219z" />
    <glyph glyph-name="hyphen" unicode="-" horiz-adv-x="696" 
d="M102 541l41 231h512l-41 -231h-512z" />
    <glyph glyph-name="period" unicode="." horiz-adv-x="573" 
d="M39 166q0 80 55.5 135t136.5 55q79 0 134 -55t55 -135q0 -81 -54.5 -136t-134.5 -55q-82 0 -137 54.5t-55 136.5z" />
    <glyph glyph-name="slash" unicode="/" horiz-adv-x="1368" 
d="M-125 -248l1382 1845h297l-1384 -1845h-295z" />
    <glyph glyph-name="zero" unicode="0" horiz-adv-x="1300" 
d="M133 502q0 182 66 389q64 200 211 344q147 141 376 141q218 0 333.5 -137.5t115.5 -380.5q0 -186 -68 -393q-64 -200 -213 -346q-147 -144 -374 -144q-216 0 -331.5 140.5t-115.5 386.5zM954 852q0 137 -52.5 203.5t-147.5 66.5q-73 2 -132.5 -39t-97 -106.5t-63.5 -150
t-36.5 -165.5t-10.5 -157q0 -138 52.5 -206.5t147.5 -68.5q71 -3 130 39.5t97 110.5t64.5 154t37.5 166.5t11 152.5z" />
    <glyph glyph-name="one" unicode="1" horiz-adv-x="823" 
d="M698 1352h90l-237 -1352h-277l183 1044l-264 -59l-27 248z" />
    <glyph glyph-name="two" unicode="2" horiz-adv-x="1196" 
d="M745 389l-188 -156h485l-38 -233l-998 -2l8 61l580 506q130 112 189 200.5t59 174.5q0 84 -47 132t-129 48q-94 0 -151.5 -70.5t-57.5 -187.5v-45h-279q-2 10 -2 55q0 216 143.5 360t356.5 144q199 0 323.5 -115t124.5 -300q0 -147 -88 -275q-91 -130 -291 -297z" />
    <glyph glyph-name="three" unicode="3" horiz-adv-x="1124" 
d="M1153 1352l-14 -74l-373 -434q115 -47 184.5 -150.5t69.5 -228.5q0 -207 -151 -348.5t-375 -141.5q-183 0 -312 91.5t-180 257.5l215 116q49 -109 117 -160t162 -51q106 0 172.5 61t66.5 159q0 92 -65.5 141t-188.5 49h-149l12 74l332 393h-434l43 246h868z" />
    <glyph glyph-name="four" unicode="4" horiz-adv-x="1181" 
d="M1145 453l-41 -232h-174l-39 -221h-275l39 221h-671l14 74l580 1059h294l-497 -901h321l66 381h274l-65 -381h174z" />
    <glyph glyph-name="five" unicode="5" horiz-adv-x="1155" 
d="M1098 1106h-533l-41 -244q55 12 107 12q175 0 298.5 -110.5t123.5 -290.5q0 -99 -38 -189t-105.5 -159t-170 -109.5t-223.5 -40.5q-188 0 -319 93.5t-183 255.5l215 116q94 -211 287 -211q112 0 182 62t70 160q0 90 -65.5 139t-184.5 49h-301l125 713h799z" />
    <glyph glyph-name="six" unicode="6" horiz-adv-x="1153" 
d="M1069 475q2 -98 -40.5 -191t-113.5 -161t-169 -108t-201 -38q-201 0 -338 132.5t-137 330.5q0 109 47 205q56 107 186 254l391 453h344l-385 -441q174 -3 295 -129.5t121 -306.5zM797 469q0 97 -59 157t-156 60q-103 0 -171.5 -68.5t-68.5 -171.5q0 -97 60.5 -159
t154.5 -62q103 0 171.5 70t68.5 174z" />
    <glyph glyph-name="seven" unicode="7" horiz-adv-x="1075" 
d="M229 1352h949l-13 -74l-833 -1278h-312l738 1108h-572z" />
    <glyph glyph-name="eight" unicode="8" horiz-adv-x="1204" 
d="M1092 383q0 -112 -65.5 -205t-180 -147t-252.5 -54q-229 0 -376.5 105t-147.5 266q0 135 90 233.5t250 141.5q-148 112 -148 266q0 167 129 276t324 109q202 0 324 -94.5t122 -249.5q0 -236 -274 -356q205 -111 205 -291zM520 993q0 -49 31 -86.5t117 -93.5
q124 41 177.5 86t53.5 107q0 66 -50.5 105.5t-135.5 39.5q-86 0 -139.5 -44.5t-53.5 -113.5zM817 381q0 57 -42 102.5t-148 102.5q-148 -38 -213.5 -88.5t-65.5 -124.5q0 -78 62 -123t170 -45t172.5 48t64.5 128z" />
    <glyph glyph-name="nine" unicode="9" horiz-adv-x="1153" 
d="M1147 911q0 -111 -49 -209q-49 -94 -183 -249l-391 -453h-344l383 440q-171 3 -292 130.5t-121 306.5q-3 131 69 247.5t194.5 184.5t260.5 65q201 0 337 -132.5t136 -330.5zM877 905q0 97 -60.5 159t-154.5 62q-103 0 -171.5 -69.5t-68.5 -173.5q0 -96 59.5 -156.5
t153.5 -60.5q103 0 172.5 68.5t69.5 170.5z" />
    <glyph glyph-name="colon" unicode=":" horiz-adv-x="573" 
d="M158 842q0 80 55.5 135t136.5 55q79 0 134 -55t55 -135q0 -81 -54.5 -136t-134.5 -55q-82 0 -137 54.5t-55 136.5zM39 166q0 80 55.5 135t136.5 55q79 0 134 -55t55 -135q0 -81 -54.5 -136t-134.5 -55q-82 0 -137 54.5t-55 136.5z" />
    <glyph glyph-name="semicolon" unicode=";" horiz-adv-x="573" 
d="M158 842q0 80 55.5 135t136.5 55q79 0 134 -55t55 -135q0 -81 -54.5 -136t-134.5 -55q-82 0 -137 54.5t-55 136.5zM-16 -365l120 617h316l-217 -617h-219z" />
    <glyph glyph-name="less" unicode="&#x3c;" 
d="M1135 1116l-43 -252l-549 -219l473 -217l-41 -229l-877 422l13 73z" />
    <glyph glyph-name="equal" unicode="=" 
d="M158 760l41 233h925l-41 -233h-925zM80 319l41 234h926l-41 -234h-926z" />
    <glyph glyph-name="greater" unicode="&#x3e;" 
d="M229 1114l879 -420l-14 -76l-1024 -419l43 254l553 217l-476 221z" />
    <glyph glyph-name="question" unicode="?" horiz-adv-x="925" 
d="M498 819q98 70 131 109.5t33 89.5q0 49 -30.5 76.5t-82.5 27.5q-55 0 -98 -32t-86 -105l-207 121q144 270 422 270q166 0 268 -86t102 -231q0 -101 -55 -182t-172 -166q-83 -65 -123 -105q-38 -41 -55 -108h-228q2 102 41 175t140 146zM209 166q0 80 54.5 135t135.5 55
t136 -55t55 -135q0 -82 -54.5 -136.5t-136.5 -54.5q-80 0 -135 55t-55 136z" />
    <glyph glyph-name="at" unicode="@" horiz-adv-x="1955" 
d="M1888 631q0 -268 -169.5 -423t-463.5 -155h-139l17 103q-96 -113 -261 -113q-158 0 -262 115t-104 288q0 134 59 245t161.5 175t225.5 64q198 0 287 -137l21 116h227l-115 -647q136 1 215.5 99.5t79.5 263.5q0 242 -161.5 383t-442.5 141q-158 2 -299.5 -53
t-242.5 -150.5t-159.5 -229t-56.5 -282.5q0 -170 85 -307t236.5 -215t340.5 -78q99 0 207 21l20 -191q-109 -41 -262 -41q-176 -2 -335 60t-272.5 169.5t-179.5 256.5t-63 313q-4 190 74 365t210.5 302t316 201.5t382.5 71.5q235 2 424.5 -92t295.5 -262t103 -377zM1180 510
q0 86 -53 139t-138 53q-94 0 -157.5 -67.5t-63.5 -165.5q0 -91 51.5 -146t136.5 -55q94 0 159 70t65 172z" />
    <glyph glyph-name="A" unicode="A" horiz-adv-x="1353" 
d="M956 0l-45 176h-546l-107 -176h-313l846 1376h92l360 -1376h-287zM852 403l-96 447l-254 -447h350z" />
    <glyph glyph-name="B" unicode="B" horiz-adv-x="1269" 
d="M1180 406q0 -176 -136.5 -291t-349.5 -115h-624l237 1352h438q180 0 290 -99.5t110 -261.5q0 -183 -141 -282q85 -47 130.5 -125.5t45.5 -177.5zM705 1116h-173l-55 -311h201q88 0 139 45t51 123q0 68 -42.5 105.5t-120.5 37.5zM905 414q0 75 -47 118t-131 43h-291
l-59 -337h315q100 0 156.5 46t56.5 130z" />
    <glyph glyph-name="C" unicode="C" horiz-adv-x="1474" 
d="M115 629q-4 148 58.5 287.5t167.5 241t249 161.5t297 57q201 0 354.5 -95.5t231.5 -268.5l-226 -135q-120 243 -377 243q-201 0 -336 -137.5t-135 -341.5q0 -183 112.5 -296.5t291.5 -113.5q233 0 397 209l195 -155q-109 -148 -268.5 -229t-344.5 -81q-140 -2 -264.5 48
t-213.5 137t-140 209.5t-49 259.5z" />
    <glyph glyph-name="D" unicode="D" horiz-adv-x="1421" 
d="M70 0l237 1352h381q299 0 490.5 -176t191.5 -451q2 -154 -58.5 -289.5t-166.5 -231.5t-256 -151t-320 -53h-499zM389 248l199 2q222 0 360.5 129t138.5 332q0 180 -113.5 285.5t-305.5 105.5h-129z" />
    <glyph glyph-name="E" unicode="E" horiz-adv-x="1175" 
d="M70 0l237 1352h910l-43 -250h-635l-50 -275h467l-41 -235h-466l-60 -342h658l-43 -250h-934z" />
    <glyph glyph-name="F" unicode="F" horiz-adv-x="1095" 
d="M70 0l237 1352h889l-45 -250h-612l-62 -338h504l-43 -250h-502l-90 -514h-276z" />
    <glyph glyph-name="G" unicode="G" horiz-adv-x="1536" 
d="M115 629q-4 149 58 288.5t167 240.5t250 161t299 57q185 0 330 -83t233 -238l-209 -154q-133 219 -371 219q-203 0 -338 -137t-135 -344q0 -188 113 -301t295 -113q205 0 346 144l25 133h-373l43 239h649l-78 -440q-103 -152 -272 -240q-170 -86 -363 -86
q-188 -3 -343 83t-242 237t-84 334z" />
    <glyph glyph-name="H" unicode="H" horiz-adv-x="1460" 
d="M70 0l237 1352h277l-90 -518h598l90 518h276l-237 -1352h-277l100 584h-598l-100 -584h-276z" />
    <glyph glyph-name="I" unicode="I" horiz-adv-x="585" 
d="M70 0l237 1352h277l-238 -1352h-276z" />
    <glyph glyph-name="J" unicode="J" horiz-adv-x="800" 
d="M-49 20l43 232q108 -21 168 -21q84 0 127.5 36.5t60.5 121.5l168 963h277l-179 -1014q-31 -177 -135 -270t-274 -93q-137 0 -256 45z" />
    <glyph glyph-name="K" unicode="K" horiz-adv-x="1372" 
d="M1432 1352l-639 -664l469 -688h-310l-481 707l-125 -707h-276l237 1352h277l-111 -629l606 629h353z" />
    <glyph glyph-name="L" unicode="L" horiz-adv-x="1073" 
d="M70 0l237 1352h277l-195 -1102h592l-43 -250h-868z" />
    <glyph glyph-name="M" unicode="M" horiz-adv-x="1634" 
d="M1544 1376h90l-241 -1376h-277l123 696l-389 -401h-92l-281 453l-131 -748h-276l241 1376h90l443 -731z" />
    <glyph glyph-name="N" unicode="N" horiz-adv-x="1460" 
d="M1182 1352h276l-241 -1377h-93l-635 859l-143 -834h-276l241 1376h90l637 -852z" />
    <glyph glyph-name="O" unicode="O" horiz-adv-x="1593" 
d="M115 629q-3 150 59.5 289.5t167.5 240.5t247.5 160.5t293.5 56.5q139 2 263.5 -48.5t212 -138t137.5 -209t48 -257.5q3 -150 -59.5 -289.5t-167.5 -241t-247.5 -161t-293.5 -56.5q-138 -2 -262 48.5t-212 138t-138.5 210t-48.5 257.5zM1260 713q0 180 -111.5 293.5
t-286.5 113.5q-194 0 -328.5 -138.5t-134.5 -340.5q0 -182 111 -296t285 -114q128 0 235 64t168.5 175t61.5 243z" />
    <glyph glyph-name="P" unicode="P" horiz-adv-x="1226" 
d="M70 0l237 1352h455q217 0 344 -110.5t127 -299.5q0 -207 -154 -336t-403 -129h-248l-82 -477h-276zM471 719h248q106 0 168.5 55.5t62.5 151.5q0 87 -50.5 134.5t-143.5 47.5h-215z" />
    <glyph glyph-name="Q" unicode="Q" horiz-adv-x="1593" 
d="M2003 -215l-37 -213q-84 -23 -203 -23q-263 0 -479 119q-215 116 -346 324q-97 -17 -162 -17q-138 -1 -262 49t-212 137t-138.5 209t-48.5 259q-3 148 59 287.5t166.5 241t247.5 161.5t295 57q138 1 262 -49t212 -136.5t138.5 -208.5t48.5 -259q0 -196 -97.5 -365
t-264.5 -270q116 -161 282.5 -233t425.5 -72q33 0 58.5 0.5t39 1t15.5 0.5zM795 231q128 0 235 64t168.5 175t61.5 243q0 179 -111.5 293t-286.5 114q-127 0 -233.5 -63.5t-168 -173.5t-61.5 -242q0 -180 111.5 -295t284.5 -115z" />
    <glyph glyph-name="R" unicode="R" horiz-adv-x="1310" 
d="M909 518l301 -518h-301l-284 477h-197l-82 -477h-276l237 1352h455q215 0 343 -109.5t128 -294.5q0 -148 -86.5 -261t-237.5 -169zM541 1108l-70 -387h248q108 0 169.5 55.5t61.5 149.5q0 87 -50.5 134.5t-143.5 47.5h-215z" />
    <glyph glyph-name="S" unicode="S" horiz-adv-x="1144" 
d="M27 311l204 131q138 -217 340 -217q88 0 139.5 40t51.5 108q0 53 -36 91.5t-120 80.5l-139 73q-264 141 -264 359q0 173 132.5 286t332.5 113q299 0 450 -268l-207 -135q-56 80 -117.5 116.5t-140.5 36.5q-80 0 -126 -35t-46 -98q0 -49 31 -84.5t106 -77.5l148 -75
q140 -72 206 -158.5t66 -198.5q0 -181 -137 -302.5t-340 -121.5q-174 0 -311 86t-223 250z" />
    <glyph glyph-name="T" unicode="T" horiz-adv-x="1204" 
d="M377 0l194 1102h-434l45 250h1143l-45 -250h-432l-195 -1102h-276z" />
    <glyph glyph-name="U" unicode="U" horiz-adv-x="1433" 
d="M147 465q0 55 15 131l133 756h276l-135 -760q-12 -82 -12 -107q0 -111 77.5 -182.5t198.5 -71.5q122 0 210 76t108 203l147 842h277l-152 -860q-43 -243 -205 -379q-159 -138 -397 -138t-389.5 137.5t-151.5 352.5z" />
    <glyph glyph-name="V" unicode="V" horiz-adv-x="1353" 
d="M1159 1352h316l-846 -1377h-90l-363 1377h291l205 -807z" />
    <glyph glyph-name="W" unicode="W" horiz-adv-x="2111" 
d="M1892 1352h314l-783 -1377h-90l-219 848l-536 -848h-91l-299 1377h283l164 -799l520 823h92l207 -811z" />
    <glyph glyph-name="X" unicode="X" horiz-adv-x="1251" 
d="M1350 1352l-531 -688l322 -664h-293l-221 459l-353 -459h-335l567 717l-303 635h293l198 -434l320 434h336z" />
    <glyph glyph-name="Y" unicode="Y" horiz-adv-x="1277" 
d="M1384 1352l-610 -828l-92 -524h-276l94 537l-324 815h279l221 -537l389 537h319z" />
    <glyph glyph-name="Z" unicode="Z" horiz-adv-x="1204" 
d="M1296 1352l-12 -74l-856 -1028h676l-43 -250h-1106l12 74l854 1028h-583l43 250h1015z" />
    <glyph glyph-name="bracketleft" unicode="[" horiz-adv-x="735" 
d="M53 -266l309 1761h467l-38 -223h-232l-231 -1315h231l-39 -223h-467z" />
    <glyph glyph-name="backslash" unicode="\" horiz-adv-x="1374" 
d="M977 -248l-776 1845h258l776 -1845h-258z" />
    <glyph glyph-name="bracketright" unicode="]" horiz-adv-x="735" 
d="M-51 -266l37 221h231l234 1317h-232l37 223h469l-309 -1761h-467z" />
    <glyph glyph-name="asciicircum" unicode="^" horiz-adv-x="1097" 
d="M115 565l542 807h91l262 -807h-252l-119 387l-256 -387h-268z" />
    <glyph glyph-name="underscore" unicode="_" horiz-adv-x="1024" 
d="M-76 -350l37 217h881l-39 -217h-879z" />
    <glyph glyph-name="grave" unicode="`" horiz-adv-x="1024" 
d="M641 1169l-145 379l16 49h309l13 -428h-193z" />
    <glyph glyph-name="a" unicode="a" horiz-adv-x="1288" 
d="M965 1014h274l-174 -1014h-258l18 104q-120 -129 -309 -129t-314.5 137.5t-125.5 344.5q-2 118 40.5 226.5t116.5 186t175.5 122.5t212.5 44q220 0 323 -141zM883 532q0 115 -67.5 187t-176.5 72q-118 0 -199.5 -89.5t-81.5 -218.5q0 -117 67.5 -188.5t176.5 -71.5
q120 0 199 88t82 221z" />
    <glyph glyph-name="b" unicode="b" horiz-adv-x="1286" 
d="M1217 549q3 -155 -70.5 -289t-200 -211t-272.5 -74q-221 0 -324 150l-22 -125h-275l269 1536h276l-109 -604q113 104 285 104q191 0 317 -137.5t126 -349.5zM932 524q0 121 -66.5 194t-175.5 73q-118 0 -199 -91t-81 -225q0 -110 68.5 -181t174.5 -71q116 0 197.5 87.5
t81.5 213.5z" />
    <glyph glyph-name="c" unicode="c" horiz-adv-x="1144" 
d="M78 475q0 117 44.5 221t121 178.5t182.5 118t225 43.5q152 0 268.5 -70.5t172.5 -195.5l-205 -135q-95 153 -246 153q-120 0 -202.5 -87.5t-82.5 -213.5q0 -117 70.5 -190.5t181.5 -73.5q145 0 248 133l178 -153q-75 -112 -187.5 -170t-254.5 -58q-226 0 -370 140
t-144 360z" />
    <glyph glyph-name="d" unicode="d" horiz-adv-x="1288" 
d="M1059 1536h276l-270 -1536h-254l18 111q-114 -136 -313 -136q-189 0 -314.5 137.5t-125.5 344.5q-3 158 69.5 293t197.5 212t271 74q111 0 196 -37.5t134 -109.5zM881 532q0 115 -66.5 185.5t-175.5 70.5q-119 0 -200 -88t-81 -217q0 -117 66.5 -188.5t175.5 -71.5
q118 0 199.5 90t81.5 219z" />
    <glyph glyph-name="e" unicode="e" horiz-adv-x="1148" 
d="M1055 414h-705q19 -98 89.5 -150.5t185.5 -52.5q149 0 286 94l101 -186q-176 -144 -412 -144q-230 0 -377 140t-147 360q-2 112 43 217t121.5 181t181.5 120.5t217 42.5q199 0 325 -124.5t126 -321.5q0 -89 -35 -176zM356 606h469q-1 97 -57 153t-150 56q-93 0 -163 -56
t-99 -153z" />
    <glyph glyph-name="f" unicode="f" horiz-adv-x="702" 
d="M580 1163l-27 -149h223l-41 -232h-223l-145 -831q-31 -167 -133.5 -255.5t-266.5 -88.5q-91 0 -198 37l38 223q71 -12 117 -12q79 0 121.5 36.5t54.5 112.5l138 778h-146l43 232h144l34 200q29 170 132 258.5t270 88.5q98 0 196 -37l-37 -224q-83 13 -118 13
q-80 0 -122 -36t-54 -114z" />
    <glyph glyph-name="g" unicode="g" horiz-adv-x="1292" 
d="M967 1014h274l-162 -948q-37 -214 -186.5 -336.5t-374.5 -122.5q-153 0 -285 59t-231 170l166 182q84 -84 168.5 -122.5t181.5 -38.5q117 0 192.5 57t94.5 160l8 51q-113 -94 -285 -94q-197 0 -324.5 124t-127.5 316q0 117 43 222t116 180t174 119t214 44q220 0 323 -143
zM885 553q0 110 -68 180t-174 70q-120 0 -201.5 -87t-81.5 -212q0 -109 66.5 -176.5t175.5 -67.5q120 0 201.5 85t81.5 208z" />
    <glyph glyph-name="h" unicode="h" horiz-adv-x="1198" 
d="M1100 698q0 -31 -13 -114l-102 -584h-276l100 575q8 36 8 64q0 73 -46 116.5t-124 43.5q-81 0 -139.5 -49t-71.5 -134l-108 -616h-275l269 1536h276l-104 -588q113 88 258 88q156 0 252 -93t96 -245z" />
    <glyph glyph-name="i" unicode="i" horiz-adv-x="550" 
d="M51 0l178 1014h277l-178 -1014h-277zM258 1382q0 73 51 122.5t125 49.5t126 -49.5t52 -122.5q0 -72 -52 -121t-126 -49t-125 49t-51 121z" />
    <glyph glyph-name="j" unicode="j" horiz-adv-x="552" 
d="M-264 -356l39 227q56 -12 104 -12q78 0 119 34t55 109l178 1012h275l-187 -1061q-29 -169 -132 -257.5t-263 -88.5q-101 0 -188 37zM256 1382q0 73 51 122.5t125 49.5t126 -49.5t52 -122.5q0 -72 -52 -121t-126 -49t-125 49t-51 121z" />
    <glyph glyph-name="k" unicode="k" horiz-adv-x="1142" 
d="M1194 1014l-461 -471l311 -543h-301l-317 559l-98 -559h-277l271 1536h276l-170 -963l432 441h334z" />
    <glyph glyph-name="l" unicode="l" horiz-adv-x="550" 
d="M51 0l271 1536h276l-270 -1536h-277z" />
    <glyph glyph-name="m" unicode="m" horiz-adv-x="1826" 
d="M1729 698q0 -38 -13 -114l-102 -584h-275l101 571q8 44 8 68q0 75 -44.5 117.5t-119.5 42.5q-76 0 -134 -49.5t-71 -133.5l-108 -616h-275l101 571q8 56 8 68q0 75 -44.5 117.5t-119.5 42.5q-76 0 -134 -49.5t-71 -133.5l-108 -616h-275l176 1014h254l-16 -88
q119 110 285 110q94 0 168.5 -37t117.5 -104q135 141 342 141q160 0 254.5 -92.5t94.5 -245.5z" />
    <glyph glyph-name="n" unicode="n" horiz-adv-x="1198" 
d="M1100 696q0 -23 -13 -112l-102 -584h-276l100 563q8 41 8 74q0 74 -47 118t-123 44q-80 0 -139 -49.5t-72 -133.5l-108 -616h-275l176 1014h254l-16 -90q118 112 287 112q156 0 250 -94q96 -96 96 -246z" />
    <glyph glyph-name="o" unicode="o" horiz-adv-x="1243" 
d="M78 483q-3 148 75.5 277t212 204t285.5 72q220 0 370 -146t150 -362q2 -111 -44 -214t-124.5 -178t-186 -119t-222.5 -42q-221 0 -368.5 145.5t-147.5 362.5zM889 524q0 116 -70 190t-180 74q-117 0 -198 -88t-81 -215q0 -117 67.5 -188.5t176.5 -71.5q122 0 203.5 86
t81.5 213z" />
    <glyph glyph-name="p" unicode="p" horiz-adv-x="1286" 
d="M1217 555q0 -161 -71.5 -294t-196.5 -209.5t-275 -76.5q-108 0 -192 38t-134 108l-86 -490h-276l243 1383h254l-18 -107q56 62 136 95.5t173 33.5q189 0 316 -137t127 -344zM934 528q0 116 -67.5 188t-176.5 72q-119 0 -199.5 -89.5t-80.5 -221.5q0 -113 67.5 -183.5
t175.5 -70.5q119 0 200 88t81 217z" />
    <glyph glyph-name="q" unicode="q" horiz-adv-x="1288" 
d="M967 1014h276l-244 -1385h-276l82 453q-116 -107 -287 -107q-190 0 -316 138.5t-126 345.5q0 160 71.5 293t196 208.5t274.5 75.5q109 0 194 -38.5t132 -110.5zM881 541q0 110 -68 178.5t-174 68.5q-119 0 -200 -88t-81 -217q0 -117 66.5 -188.5t175.5 -71.5
q118 0 199.5 92t81.5 226z" />
    <glyph glyph-name="r" unicode="r" horiz-adv-x="794" 
d="M850 1004l-43 -242q-85 10 -109 10q-116 0 -187 -62.5t-91 -183.5l-92 -526h-277l178 1014h254l-18 -103q109 115 266 115q58 0 119 -22z" />
    <glyph glyph-name="s" unicode="s" horiz-adv-x="933" 
d="M10 203l172 153q72 -85 132 -121t132 -36q61 0 96.5 22.5t35.5 59.5q0 29 -20 49t-75 45l-96 41q-127 54 -187.5 129.5t-60.5 179.5q0 141 100.5 226t266.5 85q246 0 377 -174l-162 -155q-95 108 -215 108q-47 0 -75 -21.5t-28 -56.5q0 -62 89 -100l90 -39
q135 -58 197.5 -127.5t62.5 -165.5q0 -142 -113 -236t-283 -94q-141 0 -255.5 59.5t-180.5 168.5z" />
    <glyph glyph-name="t" unicode="t" horiz-adv-x="849" 
d="M518 782l-72 -393q-4 -28 -4 -47q0 -68 51.5 -97.5t159.5 -29.5q68 0 86 2l-41 -231q-79 -11 -123 -11q-192 0 -301.5 81.5t-109.5 234.5q0 30 10 98l70 393h-158l39 232h160l45 256h276l-47 -256h291l-39 -232h-293z" />
    <glyph glyph-name="u" unicode="u" horiz-adv-x="1187" 
d="M117 375q0 33 10 98l92 541h277l-101 -578q-4 -20 -4 -47q0 -72 50 -118t128 -46t132.5 47t68.5 125l107 617h274l-109 -621q-32 -195 -162 -306.5t-325 -111.5q-194 0 -316 111.5t-122 288.5z" />
    <glyph glyph-name="v" unicode="v" horiz-adv-x="1140" 
d="M887 1014h309l-684 -1039h-92l-320 1039h281l154 -570z" />
    <glyph glyph-name="w" unicode="w" horiz-adv-x="1753" 
d="M1505 1014h303l-651 -1039h-92l-182 590l-400 -590h-92l-291 1039h281l143 -590l387 612h90l173 -587z" />
    <glyph glyph-name="x" unicode="x" horiz-adv-x="1085" 
d="M1137 1014l-437 -508l283 -506h-295l-170 319l-262 -319h-326l457 526l-256 488h295l145 -299l240 299h326z" />
    <glyph glyph-name="y" unicode="y" horiz-adv-x="1196" 
d="M874 1014h277l-172 -965q-35 -204 -172 -323t-338 -119q-143 0 -269.5 60t-211.5 169l166 182q85 -86 157.5 -123.5t157.5 -37.5q198 0 236 200l10 60q-116 -84 -254 -84q-154 0 -252 94q-96 96 -96 244q0 37 12 108l94 535h275l-95 -529q-6 -42 -6 -57q0 -72 47 -115
t125 -43q77 0 137 48t72 128z" />
    <glyph glyph-name="z" unicode="z" horiz-adv-x="958" 
d="M1012 1014l-15 -74l-598 -707h482l-41 -233h-891l12 74l602 706h-434l41 234h842z" />
    <glyph glyph-name="braceleft" unicode="{" horiz-adv-x="841" 
d="M776 1495h162l-37 -223h-117q-86 0 -123.5 -48.5t-37.5 -160.5v-186q0 -136 -41 -196t-146 -77q63 -12 92 -43.5t29 -85.5q0 -69 -61 -225q-22 -59 -31.5 -87t-17 -60t-7.5 -54q0 -94 113 -94h115l-37 -221h-168q-125 0 -197.5 64.5t-72.5 174.5q0 53 14 105.5t53 163.5
q49 125 49 172q0 38 -23 55.5t-73 17.5h-129l43 236h135q73 0 102 35t29 123v202q0 204 96.5 308t286.5 104z" />
    <glyph glyph-name="bar" unicode="|" horiz-adv-x="679" 
d="M258 -248v1845h229v-1845h-229z" />
    <glyph glyph-name="braceright" unicode="}" horiz-adv-x="845" 
d="M672 723h129l-43 -234h-135q-72 0 -101.5 -36.5t-29.5 -126.5v-176q0 -416 -383 -416h-162l37 221h116q88 0 124 49t36 166v168q0 136 42.5 196.5t150.5 73.5q-125 27 -125 135q0 39 12.5 86.5t46.5 145.5q55 157 55 205q0 92 -110 92h-117l39 223h168q124 0 197 -65.5
t73 -176.5q0 -54 -15 -113t-52 -163q-50 -133 -50 -180q0 -38 23 -56t74 -18z" />
    <glyph glyph-name="asciitilde" unicode="~" 
d="M649 483l-157 105q-74 51 -117 51q-34 0 -52 -28t-24 -85h-211q10 178 81 273.5t189 95.5q90 0 197 -70l158 -104q43 -30 66.5 -41.5t47.5 -11.5q35 0 52.5 26.5t25.5 87.5h211q-12 -178 -82.5 -273t-187.5 -95q-97 0 -197 69z" />
    <glyph glyph-name="uni00A0" unicode="&#xa0;" horiz-adv-x="573" 
 />
    <glyph glyph-name="exclamdown" unicode="&#xa1;" horiz-adv-x="710" 
d="M227 848q0 81 54.5 134.5t134.5 53.5q84 0 138 -53t54 -135t-55 -136.5t-137 -54.5q-80 0 -134.5 55t-54.5 136zM39 -369l209 885h225l-98 -885h-336z" />
    <glyph glyph-name="cent" unicode="&#xa2;" horiz-adv-x="1142" 
d="M897 520l176 -149q-72 -106 -180.5 -166t-239.5 -68l-57 -336h-242l64 371q-147 56 -234.5 181.5t-87.5 285.5q0 210 144 367.5t358 185.5l59 342h242l-61 -356q210 -60 295 -252l-203 -133q-101 155 -258 155q-126 0 -209 -86q-84 -87 -84 -215q0 -117 70.5 -188.5
t187.5 -71.5q160 0 260 133z" />
    <glyph glyph-name="sterling" unicode="&#xa3;" horiz-adv-x="1163" 
d="M518 233h506l-41 -233h-983l10 59q163 104 245 201t95 205h-252l41 235h174q-1 4 -3.5 12.5t-7.5 23.5t-9 26q-33 95 -33 180q0 185 133 308.5t332 123.5q195 0 314 -107t139 -302l-244 -62q-27 217 -201 217q-88 0 -144.5 -61.5t-56.5 -157.5q0 -23 4.5 -48t12 -49.5
t14 -41.5t15.5 -37.5t10 -24.5h325l-41 -235h-245q-18 -135 -109 -232z" />
    <glyph glyph-name="currency" unicode="&#xa4;" horiz-adv-x="1366" 
d="M1143 362l162 -184l-172 -160l-168 195q-129 -66 -263 -66q-164 0 -301 84l-211 -213l-157 172l205 203q-72 116 -72 252q0 187 113 336l-154 176l170 160l158 -182q120 69 268 69q174 0 307 -86l215 199l156 -170l-209 -193q70 -113 70 -249q0 -191 -117 -343zM977 690
q0 112 -71.5 186t-180.5 74q-116 0 -196 -83.5t-80 -204.5q0 -113 69.5 -187t177.5 -74q118 0 199.5 83.5t81.5 205.5z" />
    <glyph glyph-name="yen" unicode="&#xa5;" horiz-adv-x="1226" 
d="M1370 1352l-506 -584h307l-38 -223h-371l-21 -127h369l-39 -223h-369l-34 -195h-277l35 195h-369l37 223h371l20 127h-366l37 223h305l-299 584h289l225 -439l377 439h317z" />
    <glyph glyph-name="brokenbar" unicode="&#xa6;" horiz-adv-x="679" 
d="M258 983v614h229v-614h-229zM258 -248v615h229v-615h-229z" />
    <glyph glyph-name="section" unicode="&#xa7;" horiz-adv-x="1220" 
d="M1143 428q0 -110 -76 -194.5t-207 -122.5q6 -27 6 -56q0 -142 -112.5 -236.5t-280.5 -94.5q-139 0 -243 63.5t-154 179.5l178 133q37 -69 95.5 -107t127.5 -38q60 0 94.5 28t34.5 76q0 35 -24.5 67.5t-87.5 82.5l-158 125q-124 93 -181 176t-57 170q0 110 77 195t208 122
q-6 27 -6 56q0 142 112 236.5t281 94.5q139 0 243 -63.5t154 -179.5l-178 -131q-37 69 -95.5 106t-127.5 37q-60 0 -94.5 -27.5t-34.5 -74.5q0 -37 24.5 -69.5t86.5 -80.5l157 -125q125 -97 181.5 -179.5t56.5 -168.5zM883 412q0 42 -29.5 82.5t-101.5 95.5l-172 139
q-70 56 -113 105q-50 -20 -78.5 -56.5t-28.5 -79.5q0 -41 30 -82.5t99 -97.5l175 -137q63 -52 112 -107q50 24 78.5 60t28.5 78z" />
    <glyph glyph-name="dieresis" unicode="&#xa8;" horiz-adv-x="1024" 
d="M250 1382q0 67 49.5 113.5t116.5 46.5q69 0 117.5 -46.5t48.5 -113.5q0 -63 -49.5 -110t-116.5 -47q-66 0 -116 47t-50 110zM758 1382q0 67 49.5 113.5t116.5 46.5q69 0 117.5 -46.5t48.5 -113.5q0 -63 -49.5 -110t-116.5 -47q-63 0 -114.5 48t-51.5 109z" />
    <glyph glyph-name="copyright" unicode="&#xa9;" horiz-adv-x="1615" 
d="M119 645q-4 142 57.5 278.5t164.5 236.5t244 160t289 56q138 2 265.5 -51t220 -143t147 -214.5t52.5 -258.5q5 -191 -100 -363t-281.5 -273.5t-372.5 -97.5q-139 -3 -267 50t-220.5 144t-146.5 216t-52 260zM1380 711q3 137 -66 254t-188.5 183.5t-259.5 63.5
q-113 2 -219 -43.5t-183.5 -122t-123 -182t-43.5 -217.5q0 -220 147 -364t371 -144q112 -2 217.5 44t182 123.5t122 184.5t43.5 220zM457 655q0 164 119 282t286 118q204 0 314 -176l-158 -117q-64 102 -164 102q-80 0 -132 -57t-52 -145q0 -78 46.5 -126.5t121.5 -48.5
q87 0 161 86l134 -129q-129 -147 -310 -147q-158 0 -262 102.5t-104 255.5z" />
    <glyph glyph-name="ordfeminine" unicode="&#xaa;" horiz-adv-x="856" 
d="M657 1145h211l-114 -645h-187l6 63q-69 -78 -184 -78q-120 0 -201 84q-77 86 -77 215q0 154 100.5 263.5t241.5 109.5q127 0 192 -80zM602 831q0 60 -36 99t-91 39q-63 0 -107 -46.5t-44 -115.5q0 -60 36.5 -96.5t96.5 -36.5q63 0 104 44.5t41 112.5z" />
    <glyph glyph-name="guillemotleft" unicode="&#xab;" horiz-adv-x="1222" 
d="M395 92l-332 428l15 74l463 430l157 -162l-331 -315l221 -309zM922 92l-332 428l14 74l463 430l158 -162l-332 -315l221 -309z" />
    <glyph glyph-name="logicalnot" unicode="&#xac;" 
d="M684 211l57 328h-645l43 235h903l-98 -563h-260z" />
    <glyph glyph-name="uni00AD" unicode="&#xad;" horiz-adv-x="696" 
d="M102 541l41 231h512l-41 -231h-512z" />
    <glyph glyph-name="registered" unicode="&#xae;" horiz-adv-x="1189" 
d="M1192 909q2 -107 -43.5 -209.5t-121.5 -177.5t-178.5 -119.5t-209.5 -42.5q-133 -3 -250.5 65.5t-186 186t-65.5 250.5q-2 106 43 208t121 176.5t179 119.5t210 43q138 0 253.5 -67t182 -182t66.5 -251zM1057 911q0 156 -108 262.5t-265 106.5q-171 0 -291.5 -121.5
t-120.5 -294.5q0 -161 107 -268t268 -107q167 0 288.5 124.5t121.5 297.5zM788 823l107 -182h-158l-90 154h-59l-27 -154h-143l90 514h207q79 0 130.5 -48t51.5 -122q0 -109 -109 -162zM629 1030l-19 -112h62q36 0 57 16t21 45q0 23 -16.5 37t-41.5 14h-63z" />
    <glyph glyph-name="overscore" unicode="&#xaf;" horiz-adv-x="1024" 
d="M342 1274l39 217h618l-38 -217h-619z" />
    <glyph glyph-name="degree" unicode="&#xb0;" horiz-adv-x="735" 
d="M147 1053q0 129 98.5 225t233.5 96q131 0 221.5 -88t90.5 -215q0 -133 -98.5 -229.5t-235.5 -96.5q-129 0 -219.5 90t-90.5 218zM606 1065q0 59 -37 96t-94 37q-63 0 -103 -39.5t-40 -101.5q0 -60 37 -97.5t98 -37.5q60 0 99.5 40t39.5 103z" />
    <glyph glyph-name="plusminus" unicode="&#xb1;" 
d="M418 356l51 289h-332l41 223h332l47 275h264l-49 -275h330l-39 -223h-330l-51 -289h-264zM25 0l38 221h924l-39 -221h-923z" />
    <glyph glyph-name="uni00B2" unicode="&#xb2;" horiz-adv-x="788" 
d="M582 979l-60 -49h262l-34 -185l-635 -2l6 43l362 328q78 72 111 121.5t33 93.5t-25.5 70t-69.5 26q-51 0 -79.5 -38t-28.5 -107v-20h-205q-2 8 -2 30q0 138 93 231t231 93q131 0 214 -75t83 -196q0 -88 -56 -165q-59 -82 -200 -199z" />
    <glyph glyph-name="uni00B3" unicode="&#xb3;" horiz-adv-x="737" 
d="M846 1597l-10 -55l-222 -266q67 -31 106.5 -94t39.5 -140q0 -132 -97.5 -222.5t-240.5 -90.5q-119 0 -203 60.5t-115 168.5l162 84q29 -66 66 -95t92 -29q59 0 94 31.5t35 82.5q0 96 -141 96h-113l8 52l199 233h-254l35 184h559z" />
    <glyph glyph-name="acute" unicode="&#xb4;" horiz-adv-x="1024" 
d="M383 1169l223 428h348l-8 -49l-346 -379h-217z" />
    <glyph glyph-name="uni00B5" unicode="&#xb5;" horiz-adv-x="1249" 
d="M1174 215l-41 -229q-59 -9 -107 -9q-158 0 -223 111q-107 -113 -260 -113q-130 0 -207 80l-74 -424h-276l243 1383h277l-100 -572q-1 -4 -3.5 -16.5t-4 -24.5t-1.5 -22q0 -73 48 -117.5t126 -44.5q81 0 137.5 48t69.5 132l111 617h274l-116 -654q-9 -49 -9 -73
q0 -74 84 -74q42 0 52 2z" />
    <glyph glyph-name="paragraph" unicode="&#xb6;" horiz-adv-x="1429" 
d="M143 897q0 201 142.5 328t365.5 127h119v-908h-119q-224 0 -366 126.5t-142 326.5zM582 -369v236q96 -8 131 -8q100 0 145 37.5t45 126.5v1329h275v-1358q0 -193 -104.5 -290t-301.5 -97q-96 0 -190 24z" />
    <glyph glyph-name="middot" unicode="&#xb7;" horiz-adv-x="573" 
d="M125 655q0 80 55.5 135.5t136.5 55.5q79 0 134 -55.5t55 -135.5q0 -81 -54.5 -135.5t-134.5 -54.5q-82 0 -137 54t-55 136z" />
    <glyph glyph-name="cedilla" unicode="&#xb8;" horiz-adv-x="1024" 
d="M127 -358l31 178q86 -13 127 -13q74 0 108.5 39t34.5 123q0 32 -10 70l112 39q51 -32 80 -85t29 -110q0 -116 -95 -196t-233 -80q-97 0 -184 35z" />
    <glyph glyph-name="uni00B9" unicode="&#xb9;" horiz-adv-x="757" 
d="M131 745l33 185h207l86 483h-191l33 184h395l-116 -667h176l-33 -185h-590z" />
    <glyph glyph-name="ordmasculine" unicode="&#xba;" horiz-adv-x="808" 
d="M115 805q0 145 107 249.5t259 104.5q141 0 235.5 -92t94.5 -227q0 -147 -109 -251t-260 -104q-142 0 -234.5 91t-92.5 229zM598 834q0 60 -34 96.5t-91 36.5q-63 0 -105 -45t-42 -113q0 -60 35 -96.5t92 -36.5q63 0 104 44.5t41 113.5z" />
    <glyph glyph-name="guillemotright" unicode="&#xbb;" horiz-adv-x="1222" 
d="M702 92l-155 164l332 315l-222 308l193 145l330 -428l-13 -74zM178 92l-155 164l331 315l-221 308l193 145l329 -428l-12 -74z" />
    <glyph glyph-name="onequarter" unicode="&#xbc;" horiz-adv-x="1951" 
d="M88 500l33 184h207l86 483h-191l33 185h395l-116 -668h176l-33 -184h-590zM444 0l1010 1352h229l-1011 -1352h-228zM1898 307l-32 -176h-101l-22 -131h-189l23 131h-434l10 55l348 668h228l-289 -547h168l41 215h184l-37 -215h102z" />
    <glyph glyph-name="onehalf" unicode="&#xbd;" horiz-adv-x="2019" 
d="M88 500l33 184h207l86 483h-191l33 185h395l-116 -668h176l-33 -184h-590zM444 0l1010 1352h229l-1011 -1352h-228zM1683 233l-59 -49h262l-35 -184l-634 -2l6 43l362 328q78 72 111 121.5t33 93.5t-25.5 70t-69.5 26q-51 0 -79.5 -38t-28.5 -107v-21h-205q-2 8 -2 31
q0 138 92.5 230.5t230.5 92.5q131 0 214 -74.5t83 -195.5q0 -90 -55 -166q-58 -80 -201 -199z" />
    <glyph glyph-name="threequarters" unicode="&#xbe;" horiz-adv-x="1859" 
d="M803 1352l-10 -56l-222 -266q67 -31 106.5 -93.5t39.5 -139.5q0 -132 -98 -223t-240 -91q-119 0 -203 60.5t-115 169.5l162 84q29 -66 66 -95.5t92 -29.5q59 0 94 31.5t35 82.5q0 97 -141 97h-113l8 51l199 233h-254l35 185h559zM352 0l1010 1352h229l-1011 -1352h-228z
M1806 307l-32 -176h-101l-22 -131h-189l23 131h-434l10 55l348 668h227l-288 -547h168l40 215h185l-37 -215h102z" />
    <glyph glyph-name="questiondown" unicode="&#xbf;" horiz-adv-x="925" 
d="M336 848q0 82 54 135t136 53t136.5 -53.5t54.5 -134.5q0 -82 -54.5 -136.5t-136.5 -54.5q-81 0 -135.5 55.5t-54.5 135.5zM-25 -78q0 98 51.5 177t176.5 171q78 59 118 108t58 118h229q-2 -106 -42 -185t-140 -149q-94 -70 -133 -113q-31 -39 -31 -84q0 -49 30.5 -76.5
t84.5 -27.5t97 32t87 105l205 -121q-69 -133 -176 -201.5t-244 -68.5q-167 0 -269 87t-102 228z" />
    <glyph glyph-name="Agrave" unicode="&#xc0;" horiz-adv-x="1353" 
d="M956 0l-45 176h-546l-107 -176h-313l846 1376h92l360 -1376h-287zM852 403l-96 447l-254 -447h350zM748 1483l-205 332l8 49h311l84 -381h-198z" />
    <glyph glyph-name="Aacute" unicode="&#xc1;" horiz-adv-x="1353" 
d="M956 0l-45 176h-546l-107 -176h-313l846 1376h92l360 -1376h-287zM852 403l-96 447l-254 -447h350zM739 1483l199 381h348l-8 -49l-330 -332h-209z" />
    <glyph glyph-name="Acircumflex" unicode="&#xc2;" horiz-adv-x="1353" 
d="M956 0l-45 176h-546l-107 -176h-313l846 1376h92l360 -1376h-287zM852 403l-96 447l-254 -447h350zM1243 1483h-194l-150 166l-215 -166h-229l370 381h183z" />
    <glyph glyph-name="Atilde" unicode="&#xc3;" horiz-adv-x="1353" 
d="M956 0l-45 176h-546l-107 -176h-313l846 1376h92l360 -1376h-287zM852 403l-96 447l-254 -447h350zM858 1540l-47 29q-58 30 -82 30q-60 0 -72 -94h-208q14 171 74 257.5t173 86.5q51 0 87 -12t91 -43l46 -29q51 -30 84 -30q29 0 45 22t24 72h209q-25 -344 -250 -344
q-47 0 -81 11.5t-93 43.5z" />
    <glyph glyph-name="Adieresis" unicode="&#xc4;" horiz-adv-x="1353" 
d="M956 0l-45 176h-546l-107 -176h-313l846 1376h92l360 -1376h-287zM852 403l-96 447l-254 -447h350zM455 1667q0 67 48 113.5t115 46.5q69 0 118.5 -46.5t49.5 -113.5q0 -63 -49.5 -110.5t-118.5 -47.5q-63 0 -113 48.5t-50 109.5zM995 1665q0 67 49.5 114.5t116.5 47.5
q68 0 117 -47.5t49 -114.5q0 -63 -49.5 -110.5t-116.5 -47.5q-66 0 -116 47.5t-50 110.5z" />
    <glyph glyph-name="Aring" unicode="&#xc5;" horiz-adv-x="1353" 
d="M956 0l-45 176h-546l-107 -176h-313l846 1376h92l360 -1376h-287zM852 403l-96 447l-254 -447h350zM618 1620q0 109 80 186q79 76 195 76q106 0 177 -67.5t71 -169.5q0 -109 -80.5 -186t-194.5 -77q-106 0 -177 68t-71 170zM965 1638q0 35 -22.5 56.5t-57.5 21.5
q-37 0 -62.5 -24.5t-25.5 -61.5t21 -59.5t56 -22.5q37 0 64 26t27 64z" />
    <glyph glyph-name="AE" unicode="&#xc6;" horiz-adv-x="1748" 
d="M1747 1102h-623l-2 -275h408l-39 -235h-369l-2 -342h500l-43 -250h-729v176h-477l-119 -176h-328l928 1352h936zM858 920l-334 -514h326z" />
    <glyph glyph-name="Ccedilla" unicode="&#xc7;" horiz-adv-x="1474" 
d="M115 629q-4 148 58.5 287.5t167.5 241t249 161.5t297 57q201 0 354.5 -95.5t231.5 -268.5l-226 -135q-120 243 -377 243q-201 0 -336 -137.5t-135 -341.5q0 -183 112.5 -296.5t291.5 -113.5q233 0 397 209l195 -155q-109 -148 -268.5 -229t-344.5 -81q-140 -2 -264.5 48
t-213.5 137t-140 209.5t-49 259.5zM371 -358l30 178q86 -13 127 -13q74 0 109 39t35 123q0 32 -10 70l112 39q51 -32 80 -85t29 -110q0 -116 -95 -196t-233 -80q-97 0 -184 35z" />
    <glyph glyph-name="Egrave" unicode="&#xc8;" horiz-adv-x="1175" 
d="M70 0l237 1352h910l-43 -250h-635l-50 -275h467l-41 -235h-466l-60 -342h658l-43 -250h-934zM672 1483l-205 332l8 49h311l84 -381h-198z" />
    <glyph glyph-name="Eacute" unicode="&#xc9;" horiz-adv-x="1175" 
d="M70 0l237 1352h910l-43 -250h-635l-50 -275h467l-41 -235h-466l-60 -342h658l-43 -250h-934zM662 1483l198 381h348l-8 -49l-330 -332h-208z" />
    <glyph glyph-name="Ecircumflex" unicode="&#xca;" horiz-adv-x="1175" 
d="M70 0l237 1352h910l-43 -250h-635l-50 -275h467l-41 -235h-466l-60 -342h658l-43 -250h-934zM1165 1483h-194l-150 166l-215 -166h-229l371 381h182z" />
    <glyph glyph-name="Edieresis" unicode="&#xcb;" horiz-adv-x="1175" 
d="M70 0l237 1352h910l-43 -250h-635l-50 -275h467l-41 -235h-466l-60 -342h658l-43 -250h-934zM377 1667q0 67 48.5 113.5t115.5 46.5q69 0 118.5 -46.5t49.5 -113.5q0 -63 -49.5 -110.5t-118.5 -47.5q-63 0 -113.5 48.5t-50.5 109.5zM918 1665q0 67 49 114.5t116 47.5
q68 0 117 -47.5t49 -114.5q0 -63 -49.5 -110.5t-116.5 -47.5q-66 0 -115.5 47.5t-49.5 110.5z" />
    <glyph glyph-name="Igrave" unicode="&#xcc;" horiz-adv-x="585" 
d="M70 0l237 1352h277l-238 -1352h-276zM367 1483l-205 332l8 49h311l84 -381h-198z" />
    <glyph glyph-name="Iacute" unicode="&#xcd;" horiz-adv-x="585" 
d="M70 0l237 1352h277l-238 -1352h-276zM356 1483l199 381h348l-8 -49l-330 -332h-209z" />
    <glyph glyph-name="Icircumflex" unicode="&#xce;" horiz-adv-x="585" 
d="M70 0l237 1352h277l-238 -1352h-276zM860 1483h-194l-150 166l-215 -166h-229l370 381h183z" />
    <glyph glyph-name="Idieresis" unicode="&#xcf;" horiz-adv-x="585" 
d="M70 0l237 1352h277l-238 -1352h-276zM72 1667q0 67 48.5 113.5t115.5 46.5q69 0 118 -46.5t49 -113.5q0 -64 -49.5 -111t-117.5 -47q-63 0 -113.5 48.5t-50.5 109.5zM612 1665q0 67 49.5 114.5t116.5 47.5q68 0 117 -47.5t49 -114.5q0 -63 -49.5 -110.5t-116.5 -47.5
q-66 0 -116 47.5t-50 110.5z" />
    <glyph glyph-name="Eth" unicode="&#xd0;" horiz-adv-x="1433" 
d="M1382 725q3 -207 -100 -374t-288 -260.5t-414 -90.5h-500l92 526h-182l41 232h182l104 594h383q193 2 350.5 -79t246 -225.5t85.5 -322.5zM1098 711q0 180 -113 285.5t-305 105.5h-129l-62 -344h211l-41 -232h-210l-50 -278l199 2q222 0 361 129t139 332z" />
    <glyph glyph-name="Ntilde" unicode="&#xd1;" horiz-adv-x="1460" 
d="M1182 1352h276l-241 -1377h-93l-635 859l-143 -834h-276l241 1376h90l637 -852zM913 1540l-47 29q-58 30 -82 30q-59 0 -71 -94h-209q14 171 74.5 257.5t173.5 86.5q51 0 87 -12t91 -43l45 -29q51 -30 84 -30q29 0 45 22t24 72h209q-25 -344 -250 -344q-47 0 -81 11.5
t-93 43.5z" />
    <glyph glyph-name="Ograve" unicode="&#xd2;" horiz-adv-x="1593" 
d="M115 629q-3 150 59.5 289.5t167.5 240.5t247.5 160.5t293.5 56.5q139 2 263.5 -48.5t212 -138t137.5 -209t48 -257.5q3 -150 -59.5 -289.5t-167.5 -241t-247.5 -161t-293.5 -56.5q-138 -2 -262 48.5t-212 138t-138.5 210t-48.5 257.5zM1260 713q0 180 -111.5 293.5
t-286.5 113.5q-194 0 -328.5 -138.5t-134.5 -340.5q0 -182 111 -296t285 -114q128 0 235 64t168.5 175t61.5 243zM866 1483l-204 332l8 49h311l84 -381h-199z" />
    <glyph glyph-name="Oacute" unicode="&#xd3;" horiz-adv-x="1593" 
d="M115 629q-3 150 59.5 289.5t167.5 240.5t247.5 160.5t293.5 56.5q139 2 263.5 -48.5t212 -138t137.5 -209t48 -257.5q3 -150 -59.5 -289.5t-167.5 -241t-247.5 -161t-293.5 -56.5q-138 -2 -262 48.5t-212 138t-138.5 210t-48.5 257.5zM1260 713q0 180 -111.5 293.5
t-286.5 113.5q-194 0 -328.5 -138.5t-134.5 -340.5q0 -182 111 -296t285 -114q128 0 235 64t168.5 175t61.5 243zM856 1483l199 381h348l-8 -49l-330 -332h-209z" />
    <glyph glyph-name="Ocircumflex" unicode="&#xd4;" horiz-adv-x="1593" 
d="M115 629q-3 150 59.5 289.5t167.5 240.5t247.5 160.5t293.5 56.5q139 2 263.5 -48.5t212 -138t137.5 -209t48 -257.5q3 -150 -59.5 -289.5t-167.5 -241t-247.5 -161t-293.5 -56.5q-138 -2 -262 48.5t-212 138t-138.5 210t-48.5 257.5zM1260 713q0 180 -111.5 293.5
t-286.5 113.5q-194 0 -328.5 -138.5t-134.5 -340.5q0 -182 111 -296t285 -114q128 0 235 64t168.5 175t61.5 243zM1360 1483h-195l-149 166l-215 -166h-230l371 381h182z" />
    <glyph glyph-name="Otilde" unicode="&#xd5;" horiz-adv-x="1593" 
d="M115 629q-3 150 59.5 289.5t167.5 240.5t247.5 160.5t293.5 56.5q139 2 263.5 -48.5t212 -138t137.5 -209t48 -257.5q3 -150 -59.5 -289.5t-167.5 -241t-247.5 -161t-293.5 -56.5q-138 -2 -262 48.5t-212 138t-138.5 210t-48.5 257.5zM1260 713q0 180 -111.5 293.5
t-286.5 113.5q-194 0 -328.5 -138.5t-134.5 -340.5q0 -182 111 -296t285 -114q128 0 235 64t168.5 175t61.5 243zM977 1540l-47 29q-58 30 -82 30q-60 0 -72 -94h-209q14 171 74.5 257.5t173.5 86.5q51 0 87 -12t91 -43l45 -29q51 -30 84 -30q29 0 46 22.5t24 71.5h209
q-25 -344 -250 -344q-47 0 -81 11.5t-93 43.5z" />
    <glyph glyph-name="Odieresis" unicode="&#xd6;" horiz-adv-x="1593" 
d="M115 629q-3 150 59.5 289.5t167.5 240.5t247.5 160.5t293.5 56.5q139 2 263.5 -48.5t212 -138t137.5 -209t48 -257.5q3 -150 -59.5 -289.5t-167.5 -241t-247.5 -161t-293.5 -56.5q-138 -2 -262 48.5t-212 138t-138.5 210t-48.5 257.5zM1260 713q0 180 -111.5 293.5
t-286.5 113.5q-194 0 -328.5 -138.5t-134.5 -340.5q0 -182 111 -296t285 -114q128 0 235 64t168.5 175t61.5 243zM571 1667q0 67 48.5 113.5t115.5 46.5q69 0 118.5 -46.5t49.5 -113.5q0 -63 -49.5 -110.5t-118.5 -47.5q-63 0 -113.5 48.5t-50.5 109.5zM1112 1665
q0 67 49.5 114.5t116.5 47.5q68 0 117 -47.5t49 -114.5q0 -63 -49.5 -110.5t-116.5 -47.5q-66 0 -116 47.5t-50 110.5z" />
    <glyph glyph-name="multiply" unicode="&#xd7;" 
d="M831 180l-249 316l-355 -279l-141 184l354 277l-247 319l184 142l248 -316l352 277l143 -180l-356 -277l250 -321z" />
    <glyph glyph-name="Oslash" unicode="&#xd8;" horiz-adv-x="1558" 
d="M1567 1243l-152 -145q111 -166 111 -375q3 -148 -59 -287.5t-166.5 -241t-247.5 -162t-295 -57.5q-221 0 -389 115l-156 -149l-158 168l152 145q-109 165 -109 375q-3 148 58.5 287.5t165 241t246 161.5t294.5 57q222 0 391 -114l156 149zM373 641q0 -109 37 -190
l651 622q-92 57 -217 57q-198 0 -334.5 -141t-136.5 -348zM1249 713q0 103 -39 188l-649 -625q94 -55 213 -55q199 0 337 143t138 349z" />
    <glyph glyph-name="Ugrave" unicode="&#xd9;" horiz-adv-x="1433" 
d="M147 465q0 55 15 131l133 756h276l-135 -760q-12 -82 -12 -107q0 -111 77.5 -182.5t198.5 -71.5q122 0 210 76t108 203l147 842h277l-152 -860q-43 -243 -205 -379q-159 -138 -397 -138t-389.5 137.5t-151.5 352.5zM791 1483l-205 332l8 49h311l84 -381h-198z" />
    <glyph glyph-name="Uacute" unicode="&#xda;" horiz-adv-x="1433" 
d="M147 465q0 55 15 131l133 756h276l-135 -760q-12 -82 -12 -107q0 -111 77.5 -182.5t198.5 -71.5q122 0 210 76t108 203l147 842h277l-152 -860q-43 -243 -205 -379q-159 -138 -397 -138t-389.5 137.5t-151.5 352.5zM780 1483l199 381h348l-8 -49l-330 -332h-209z" />
    <glyph glyph-name="Ucircumflex" unicode="&#xdb;" horiz-adv-x="1433" 
d="M147 465q0 55 15 131l133 756h276l-135 -760q-12 -82 -12 -107q0 -111 77.5 -182.5t198.5 -71.5q122 0 210 76t108 203l147 842h277l-152 -860q-43 -243 -205 -379q-159 -138 -397 -138t-389.5 137.5t-151.5 352.5zM1284 1483h-194l-150 166l-215 -166h-229l370 381h183z
" />
    <glyph glyph-name="Udieresis" unicode="&#xdc;" horiz-adv-x="1433" 
d="M147 465q0 55 15 131l133 756h276l-135 -760q-12 -82 -12 -107q0 -111 77.5 -182.5t198.5 -71.5q122 0 210 76t108 203l147 842h277l-152 -860q-43 -243 -205 -379q-159 -138 -397 -138t-389.5 137.5t-151.5 352.5zM496 1667q0 67 48 113.5t115 46.5q69 0 118.5 -46.5
t49.5 -113.5q0 -63 -49.5 -110.5t-118.5 -47.5q-63 0 -113 48.5t-50 109.5zM1036 1665q0 67 49.5 114.5t116.5 47.5q68 0 117 -47.5t49 -114.5q0 -63 -49.5 -110.5t-116.5 -47.5q-66 0 -116 47.5t-50 110.5z" />
    <glyph glyph-name="Yacute" unicode="&#xdd;" horiz-adv-x="1277" 
d="M1384 1352l-610 -828l-92 -524h-276l94 537l-324 815h279l221 -537l389 537h319zM690 1483l199 381h348l-8 -49l-330 -332h-209z" />
    <glyph glyph-name="Thorn" unicode="&#xde;" horiz-adv-x="1214" 
d="M1186 733q0 -212 -154 -341.5t-405 -129.5h-236l-45 -262h-276l237 1352h277l-37 -207h166q219 0 344 -113q129 -111 129 -299zM901 717q0 88 -51 137t-143 49h-201l-72 -397h236q106 0 168.5 57t62.5 154z" />
    <glyph glyph-name="germandbls" unicode="&#xdf;" horiz-adv-x="1335" 
d="M483 125l123 190q61 -51 130.5 -79.5t129.5 -28.5q56 0 86.5 23.5t30.5 66.5q0 28 -15.5 47t-68.5 59l-51 39q-89 68 -125.5 118t-36.5 110q0 73 64 180l90 158q61 104 61 172q0 62 -40.5 96.5t-112.5 34.5q-93 0 -153.5 -60.5t-80.5 -175.5l-186 -1075h-275l195 1110
q37 213 179 332t359 119q171 0 284.5 -91t113.5 -229q0 -108 -72 -231l-98 -162q-53 -90 -53 -127q0 -31 21 -56.5t79 -68.5l39 -31q80 -64 116.5 -121t36.5 -133q0 -142 -112.5 -239t-278.5 -97q-220 0 -379 150z" />
    <glyph glyph-name="agrave" unicode="&#xe0;" horiz-adv-x="1288" 
d="M965 1014h274l-174 -1014h-258l18 104q-120 -129 -309 -129t-314.5 137.5t-125.5 344.5q-2 118 40.5 226.5t116.5 186t175.5 122.5t212.5 44q220 0 323 -141zM883 532q0 115 -67.5 187t-176.5 72q-118 0 -199.5 -89.5t-81.5 -218.5q0 -117 67.5 -188.5t176.5 -71.5
q120 0 199 88t82 221zM551 1169l-145 379l16 49h309l12 -428h-192z" />
    <glyph glyph-name="aacute" unicode="&#xe1;" horiz-adv-x="1288" 
d="M965 1014h274l-174 -1014h-258l18 104q-120 -129 -309 -129t-314.5 137.5t-125.5 344.5q-2 118 40.5 226.5t116.5 186t175.5 122.5t212.5 44q220 0 323 -141zM883 532q0 115 -67.5 187t-176.5 72q-118 0 -199.5 -89.5t-81.5 -218.5q0 -117 67.5 -188.5t176.5 -71.5
q120 0 199 88t82 221zM553 1169l223 428h348l-8 -49l-346 -379h-217z" />
    <glyph glyph-name="acircumflex" unicode="&#xe2;" horiz-adv-x="1288" 
d="M965 1014h274l-174 -1014h-258l18 104q-120 -129 -309 -129t-314.5 137.5t-125.5 344.5q-2 118 40.5 226.5t116.5 186t175.5 122.5t212.5 44q220 0 323 -141zM883 532q0 115 -67.5 187t-176.5 72q-118 0 -199.5 -89.5t-81.5 -218.5q0 -117 67.5 -188.5t176.5 -71.5
q120 0 199 88t82 221zM1044 1169h-190l-127 193l-203 -193h-213l353 428h180z" />
    <glyph glyph-name="atilde" unicode="&#xe3;" horiz-adv-x="1288" 
d="M965 1014h274l-174 -1014h-258l18 104q-120 -129 -309 -129t-314.5 137.5t-125.5 344.5q-2 118 40.5 226.5t116.5 186t175.5 122.5t212.5 44q220 0 323 -141zM883 532q0 115 -67.5 187t-176.5 72q-118 0 -199.5 -89.5t-81.5 -218.5q0 -117 67.5 -188.5t176.5 -71.5
q120 0 199 88t82 221zM721 1233l-55 39q-50 35 -78 35q-60 0 -72 -99h-209q12 166 74.5 256t171.5 90q79 0 149 -49l56 -37q49 -34 78 -34q58 0 73 98h207q-12 -166 -74.5 -256t-171.5 -90q-75 0 -149 47z" />
    <glyph glyph-name="adieresis" unicode="&#xe4;" horiz-adv-x="1288" 
d="M965 1014h274l-174 -1014h-258l18 104q-120 -129 -309 -129t-314.5 137.5t-125.5 344.5q-2 118 40.5 226.5t116.5 186t175.5 122.5t212.5 44q220 0 323 -141zM883 532q0 115 -67.5 187t-176.5 72q-118 0 -199.5 -89.5t-81.5 -218.5q0 -117 67.5 -188.5t176.5 -71.5
q120 0 199 88t82 221zM305 1382q0 67 49.5 113.5t116.5 46.5q69 0 117.5 -46.5t48.5 -113.5q0 -63 -49.5 -110t-116.5 -47q-66 0 -116 47t-50 110zM813 1382q0 67 49.5 113.5t116.5 46.5q69 0 117.5 -46.5t48.5 -113.5q0 -63 -49.5 -110t-116.5 -47q-63 0 -114.5 48
t-51.5 109z" />
    <glyph glyph-name="aring" unicode="&#xe5;" horiz-adv-x="1288" 
d="M965 1014h274l-174 -1014h-258l18 104q-120 -129 -309 -129t-314.5 137.5t-125.5 344.5q-2 118 40.5 226.5t116.5 186t175.5 122.5t212.5 44q220 0 323 -141zM883 532q0 115 -67.5 187t-176.5 72q-118 0 -199.5 -89.5t-81.5 -218.5q0 -117 67.5 -188.5t176.5 -71.5
q120 0 199 88t82 221zM461 1362q0 109 78.5 185.5t193.5 76.5q106 0 177 -68t71 -170q0 -109 -80 -186q-76 -76 -192 -76q-106 0 -177 68t-71 170zM805 1378q0 36 -22 58t-58 22q-37 0 -62.5 -25t-25.5 -63q0 -35 22.5 -58.5t55.5 -23.5q37 0 63.5 26t26.5 64z" />
    <glyph glyph-name="ae" unicode="&#xe6;" horiz-adv-x="1781" 
d="M1686 406h-703q20 -94 90 -144.5t182 -50.5q150 0 287 94l100 -184q-190 -146 -407 -146q-127 0 -232 50t-172 139q-148 -189 -421 -189q-174 0 -272.5 75t-98.5 208q0 155 114.5 241.5t321.5 86.5h254q4 46 4 55q0 75 -46.5 116.5t-131.5 41.5q-136 0 -276 -123
l-107 201q196 159 422 159q230 0 324 -143q153 143 360 143q190 0 316 -126t126 -316q0 -107 -34 -188zM985 586h471v20q0 97 -55 153t-152 56q-98 0 -169.5 -62t-94.5 -167zM690 362l8 44h-215q-78 0 -119.5 -31t-41.5 -88q0 -51 37 -81t102 -30q90 0 152.5 51.5
t76.5 134.5z" />
    <glyph glyph-name="ccedilla" unicode="&#xe7;" horiz-adv-x="1144" 
d="M78 475q0 117 44.5 221t121 178.5t182.5 118t225 43.5q152 0 268.5 -70.5t172.5 -195.5l-205 -135q-95 153 -246 153q-120 0 -202.5 -87.5t-82.5 -213.5q0 -117 70.5 -190.5t181.5 -73.5q145 0 248 133l178 -153q-75 -112 -187.5 -170t-254.5 -58q-226 0 -370 140
t-144 360zM209 -358l31 178q86 -13 127 -13q74 0 108.5 39t34.5 123q0 32 -10 70l112 39q51 -32 80 -85t29 -110q0 -116 -95 -196t-233 -80q-97 0 -184 35z" />
    <glyph glyph-name="egrave" unicode="&#xe8;" horiz-adv-x="1148" 
d="M1055 414h-705q19 -98 89.5 -150.5t185.5 -52.5q149 0 286 94l101 -186q-176 -144 -412 -144q-230 0 -377 140t-147 360q-2 112 43 217t121.5 181t181.5 120.5t217 42.5q199 0 325 -124.5t126 -321.5q0 -89 -35 -176zM356 606h469q-1 97 -57 153t-150 56q-93 0 -163 -56
t-99 -153zM537 1169l-146 379l17 49h309l12 -428h-192z" />
    <glyph glyph-name="eacute" unicode="&#xe9;" horiz-adv-x="1148" 
d="M1055 414h-705q19 -98 89.5 -150.5t185.5 -52.5q149 0 286 94l101 -186q-176 -144 -412 -144q-230 0 -377 140t-147 360q-2 112 43 217t121.5 181t181.5 120.5t217 42.5q199 0 325 -124.5t126 -321.5q0 -89 -35 -176zM356 606h469q-1 97 -57 153t-150 56q-93 0 -163 -56
t-99 -153zM539 1169l223 428h348l-8 -49l-346 -379h-217z" />
    <glyph glyph-name="ecircumflex" unicode="&#xea;" horiz-adv-x="1148" 
d="M1055 414h-705q19 -98 89.5 -150.5t185.5 -52.5q149 0 286 94l101 -186q-176 -144 -412 -144q-230 0 -377 140t-147 360q-2 112 43 217t121.5 181t181.5 120.5t217 42.5q199 0 325 -124.5t126 -321.5q0 -89 -35 -176zM356 606h469q-1 97 -57 153t-150 56q-93 0 -163 -56
t-99 -153zM1030 1169h-190l-127 193l-203 -193h-213l352 428h180z" />
    <glyph glyph-name="edieresis" unicode="&#xeb;" horiz-adv-x="1148" 
d="M1055 414h-705q19 -98 89.5 -150.5t185.5 -52.5q149 0 286 94l101 -186q-176 -144 -412 -144q-230 0 -377 140t-147 360q-2 112 43 217t121.5 181t181.5 120.5t217 42.5q199 0 325 -124.5t126 -321.5q0 -89 -35 -176zM356 606h469q-1 97 -57 153t-150 56q-93 0 -163 -56
t-99 -153zM293 1382q0 67 49.5 113.5t116.5 46.5q69 0 117.5 -46.5t48.5 -113.5q0 -63 -49.5 -110t-116.5 -47q-66 0 -116 47t-50 110zM801 1382q0 67 49.5 113.5t116.5 46.5q69 0 117.5 -46.5t48.5 -113.5q0 -63 -49.5 -110t-116.5 -47q-63 0 -114.5 48t-51.5 109z" />
    <glyph glyph-name="igrave" unicode="&#xec;" horiz-adv-x="550" 
d="M51 0l178 1014h277l-178 -1014h-277zM295 1169l-143 379l8 49h321l13 -428h-199z" />
    <glyph glyph-name="iacute" unicode="&#xed;" horiz-adv-x="550" 
d="M51 0l178 1014h277l-178 -1014h-277zM295 1169l162 428h352l-8 -49l-295 -379h-211z" />
    <glyph glyph-name="icircumflex" unicode="&#xee;" horiz-adv-x="550" 
d="M51 0l178 1014h277l-178 -1014h-277zM745 1169h-190l-127 193l-203 -193h-213l353 428h180z" />
    <glyph glyph-name="idieresis" unicode="&#xef;" horiz-adv-x="550" 
d="M51 0l178 1014h277l-178 -1014h-277zM37 1384q0 67 49.5 113.5t116.5 46.5q68 0 117 -46.5t49 -113.5q0 -66 -49 -112.5t-117 -46.5q-66 0 -116 48t-50 111zM504 1384q0 67 48.5 113.5t115.5 46.5q69 0 117.5 -46.5t48.5 -113.5q0 -66 -48.5 -112.5t-117.5 -46.5
q-63 0 -113.5 48t-50.5 111z" />
    <glyph glyph-name="eth" unicode="&#xf0;" horiz-adv-x="1165" 
d="M1087 492q3 -136 -71 -256.5t-201 -192t-270 -68.5q-206 0 -340.5 127t-134.5 324q-3 130 66 242t188 177.5t256 63.5q31 0 41 -2l-111 180l-295 -124l-76 200l258 109l-92 151l227 138l115 -187l332 139l76 -198l-293 -123l127 -207q105 -171 153 -285q45 -105 45 -208z
M809 469q0 91 -61.5 151t-153.5 60q-102 0 -174 -72t-72 -174q0 -93 60 -153t153 -60q104 0 176 72t72 176z" />
    <glyph glyph-name="ntilde" unicode="&#xf1;" horiz-adv-x="1198" 
d="M1100 696q0 -23 -13 -112l-102 -584h-276l100 563q8 41 8 74q0 74 -47 118t-123 44q-80 0 -139 -49.5t-72 -133.5l-108 -616h-275l176 1014h254l-16 -90q118 112 287 112q156 0 250 -94q96 -96 96 -246zM758 1233l-56 39q-50 35 -77 35q-60 0 -72 -99h-209
q12 166 74.5 256t171.5 90q79 0 149 -49l56 -37q49 -34 77 -34q59 0 74 98h207q-12 -166 -74.5 -256t-171.5 -90q-75 0 -149 47z" />
    <glyph glyph-name="ograve" unicode="&#xf2;" horiz-adv-x="1243" 
d="M78 483q-3 148 75.5 277t212 204t285.5 72q220 0 370 -146t150 -362q2 -111 -44 -214t-124.5 -178t-186 -119t-222.5 -42q-221 0 -368.5 145.5t-147.5 362.5zM889 524q0 116 -70 190t-180 74q-117 0 -198 -88t-81 -215q0 -117 67.5 -188.5t176.5 -71.5q122 0 203.5 86
t81.5 213zM557 1169l-145 379l16 49h309l13 -428h-193z" />
    <glyph glyph-name="oacute" unicode="&#xf3;" horiz-adv-x="1243" 
d="M78 483q-3 148 75.5 277t212 204t285.5 72q220 0 370 -146t150 -362q2 -111 -44 -214t-124.5 -178t-186 -119t-222.5 -42q-221 0 -368.5 145.5t-147.5 362.5zM889 524q0 116 -70 190t-180 74q-117 0 -198 -88t-81 -215q0 -117 67.5 -188.5t176.5 -71.5q122 0 203.5 86
t81.5 213zM561 1169l223 428h349l-9 -49l-346 -379h-217z" />
    <glyph glyph-name="ocircumflex" unicode="&#xf4;" horiz-adv-x="1243" 
d="M78 483q-3 148 75.5 277t212 204t285.5 72q220 0 370 -146t150 -362q2 -111 -44 -214t-124.5 -178t-186 -119t-222.5 -42q-221 0 -368.5 145.5t-147.5 362.5zM889 524q0 116 -70 190t-180 74q-117 0 -198 -88t-81 -215q0 -117 67.5 -188.5t176.5 -71.5q122 0 203.5 86
t81.5 213zM1051 1169h-191l-127 193l-203 -193h-213l353 428h180z" />
    <glyph glyph-name="otilde" unicode="&#xf5;" horiz-adv-x="1243" 
d="M78 483q-3 148 75.5 277t212 204t285.5 72q220 0 370 -146t150 -362q2 -111 -44 -214t-124.5 -178t-186 -119t-222.5 -42q-221 0 -368.5 145.5t-147.5 362.5zM889 524q0 116 -70 190t-180 74q-117 0 -198 -88t-81 -215q0 -117 67.5 -188.5t176.5 -71.5q122 0 203.5 86
t81.5 213zM729 1233l-55 39q-50 35 -78 35q-60 0 -72 -99h-209q12 166 74.5 256t171.5 90q80 0 150 -49l55 -37q49 -34 78 -34q59 0 74 98h206q-12 -167 -74 -256.5t-171 -89.5q-76 0 -150 47z" />
    <glyph glyph-name="odieresis" unicode="&#xf6;" horiz-adv-x="1243" 
d="M78 483q-3 148 75.5 277t212 204t285.5 72q220 0 370 -146t150 -362q2 -111 -44 -214t-124.5 -178t-186 -119t-222.5 -42q-221 0 -368.5 145.5t-147.5 362.5zM889 524q0 116 -70 190t-180 74q-117 0 -198 -88t-81 -215q0 -117 67.5 -188.5t176.5 -71.5q122 0 203.5 86
t81.5 213zM313 1382q0 67 49.5 113.5t116.5 46.5q69 0 117.5 -46.5t48.5 -113.5q0 -63 -49.5 -110t-116.5 -47q-66 0 -116 47t-50 110zM821 1382q0 67 49.5 113.5t116.5 46.5q69 0 117.5 -46.5t48.5 -113.5q0 -63 -49.5 -110t-116.5 -47q-63 0 -114.5 48t-51.5 109z" />
    <glyph glyph-name="divide" unicode="&#xf7;" 
d="M506 1040q0 66 48.5 111t117.5 45t118.5 -45t49.5 -111q0 -67 -49 -113t-119 -46q-69 0 -117.5 46t-48.5 113zM98 539l41 235h965l-41 -235h-965zM371 270q0 67 48.5 112.5t117.5 45.5q70 0 119 -45.5t49 -112.5q0 -66 -49.5 -111.5t-118.5 -45.5t-117.5 45.5
t-48.5 111.5z" />
    <glyph glyph-name="oslash" unicode="&#xf8;" horiz-adv-x="1222" 
d="M1202 897l-117 -111q74 -115 74 -258q3 -146 -76 -275t-213.5 -205t-285.5 -73q-151 0 -279 78l-127 -121l-153 166l120 113q-77 121 -77 266q-3 146 75 275t211.5 205t284.5 73q158 0 289 -84l121 115zM332 481q0 -59 18 -108l414 387q-59 35 -133 35
q-124 0 -211.5 -92.5t-87.5 -221.5zM893 520q0 48 -16 101l-406 -383q58 -27 121 -27q126 0 213.5 90t87.5 219z" />
    <glyph glyph-name="ugrave" unicode="&#xf9;" horiz-adv-x="1187" 
d="M117 375q0 33 10 98l92 541h277l-101 -578q-4 -20 -4 -47q0 -72 50 -118t128 -46t132.5 47t68.5 125l107 617h274l-109 -621q-32 -195 -162 -306.5t-325 -111.5q-194 0 -316 111.5t-122 288.5zM571 1169l-145 379l16 49h310l12 -428h-193z" />
    <glyph glyph-name="uacute" unicode="&#xfa;" horiz-adv-x="1187" 
d="M117 375q0 33 10 98l92 541h277l-101 -578q-4 -20 -4 -47q0 -72 50 -118t128 -46t132.5 47t68.5 125l107 617h274l-109 -621q-32 -195 -162 -306.5t-325 -111.5q-194 0 -316 111.5t-122 288.5zM575 1169l224 428h348l-8 -49l-346 -379h-218z" />
    <glyph glyph-name="ucircumflex" unicode="&#xfb;" horiz-adv-x="1187" 
d="M117 375q0 33 10 98l92 541h277l-101 -578q-4 -20 -4 -47q0 -72 50 -118t128 -46t132.5 47t68.5 125l107 617h274l-109 -621q-32 -195 -162 -306.5t-325 -111.5q-194 0 -316 111.5t-122 288.5zM1065 1169h-191l-126 193l-203 -193h-213l352 428h180z" />
    <glyph glyph-name="udieresis" unicode="&#xfc;" horiz-adv-x="1187" 
d="M117 375q0 33 10 98l92 541h277l-101 -578q-4 -20 -4 -47q0 -72 50 -118t128 -46t132.5 47t68.5 125l107 617h274l-109 -621q-32 -195 -162 -306.5t-325 -111.5q-194 0 -316 111.5t-122 288.5zM328 1382q0 67 49.5 113.5t116.5 46.5q69 0 117 -46.5t48 -113.5
q0 -63 -49 -110t-116 -47q-66 0 -116 47t-50 110zM836 1382q0 67 49 113.5t116 46.5q69 0 117.5 -46.5t48.5 -113.5q0 -63 -49.5 -110t-116.5 -47q-63 0 -114 48t-51 109z" />
    <glyph glyph-name="yacute" unicode="&#xfd;" horiz-adv-x="1196" 
d="M874 1014h277l-172 -965q-35 -204 -172 -323t-338 -119q-143 0 -269.5 60t-211.5 169l166 182q85 -86 157.5 -123.5t157.5 -37.5q198 0 236 200l10 60q-116 -84 -254 -84q-154 0 -252 94q-96 96 -96 244q0 37 12 108l94 535h275l-95 -529q-6 -42 -6 -57q0 -72 47 -115
t125 -43q77 0 137 48t72 128zM571 1169l224 428h348l-8 -49l-347 -379h-217z" />
    <glyph glyph-name="thorn" unicode="&#xfe;" horiz-adv-x="1286" 
d="M1217 555q0 -161 -71.5 -294t-196.5 -209.5t-275 -76.5q-108 0 -192 38t-134 108l-86 -490h-276l336 1905h276l-106 -602q114 102 282 102q189 0 316 -137t127 -344zM932 528q0 115 -68 189t-174 74q-118 0 -199 -90.5t-81 -221.5q0 -113 67.5 -184.5t175.5 -71.5
q117 0 198 88t81 217z" />
    <glyph glyph-name="ydieresis" unicode="&#xff;" horiz-adv-x="1196" 
d="M874 1014h277l-172 -965q-35 -204 -172 -323t-338 -119q-143 0 -269.5 60t-211.5 169l166 182q85 -86 157.5 -123.5t157.5 -37.5q198 0 236 200l10 60q-116 -84 -254 -84q-154 0 -252 94q-96 96 -96 244q0 37 12 108l94 535h275l-95 -529q-6 -42 -6 -57q0 -72 47 -115
t125 -43q77 0 137 48t72 128zM324 1382q0 67 49 113.5t116 46.5q69 0 117.5 -46.5t48.5 -113.5q0 -63 -49.5 -110t-116.5 -47q-66 0 -115.5 47t-49.5 110zM831 1382q0 67 49.5 113.5t116.5 46.5q69 0 117.5 -46.5t48.5 -113.5q0 -63 -49.5 -110t-116.5 -47q-63 0 -114.5 48
t-51.5 109z" />
    <glyph glyph-name="Amacron" unicode="&#x100;" horiz-adv-x="1353" 
d="M956 0l-45 176h-546l-107 -176h-313l846 1376h92l360 -1376h-287zM852 403l-96 447l-254 -447h350zM530 1546l39 217h660l-39 -217h-660z" />
    <glyph glyph-name="amacron" unicode="&#x101;" horiz-adv-x="1288" 
d="M965 1014h274l-174 -1014h-258l18 104q-120 -129 -309 -129t-314.5 137.5t-125.5 344.5q-2 118 40.5 226.5t116.5 186t175.5 122.5t212.5 44q220 0 323 -141zM883 532q0 115 -67.5 187t-176.5 72q-118 0 -199.5 -89.5t-81.5 -218.5q0 -117 67.5 -188.5t176.5 -71.5
q120 0 199 88t82 221zM401 1274l39 217h619l-39 -217h-619z" />
    <glyph glyph-name="Abreve" unicode="&#x102;" horiz-adv-x="1353" 
d="M956 0l-45 176h-546l-107 -176h-313l846 1376h92l360 -1376h-287zM852 403l-96 447l-254 -447h350zM557 1788q0 13 8 76h217q-6 -38 -6 -60q0 -60 32.5 -93.5t92.5 -33.5q61 0 100 40t50 110l4 37h217l-4 -37q-23 -162 -125 -258t-254 -96q-146 0 -240 88q-92 89 -92 227
z" />
    <glyph glyph-name="abreve" unicode="&#x103;" horiz-adv-x="1288" 
d="M965 1014h274l-174 -1014h-258l18 104q-120 -129 -309 -129t-314.5 137.5t-125.5 344.5q-2 118 40.5 226.5t116.5 186t175.5 122.5t212.5 44q220 0 323 -141zM883 532q0 115 -67.5 187t-176.5 72q-118 0 -199.5 -89.5t-81.5 -218.5q0 -117 67.5 -188.5t176.5 -71.5
q120 0 199 88t82 221zM387 1483q0 29 14 100h215q-10 -72 -10 -84q0 -60 33.5 -93.5t93.5 -33.5t98 39t50 111l10 61h217l-10 -61q-26 -162 -128 -257.5t-251 -95.5q-147 0 -239.5 87.5t-92.5 226.5z" />
    <glyph glyph-name="Aogonek" unicode="&#x104;" horiz-adv-x="1353" 
d="M956 0l-45 176h-546l-107 -176h-313l846 1376h92l360 -1376h-287zM852 403l-96 447l-254 -447h350zM770 -205q0 92 82 153t281 118l108 -66l-117 -55q-80 -39 -80 -88q0 -58 89 -58l73 4l-30 -178q-70 -18 -152 -18q-121 0 -187.5 50t-66.5 138z" />
    <glyph glyph-name="aogonek" unicode="&#x105;" horiz-adv-x="1288" 
d="M965 1014h274l-174 -1014h-258l18 104q-120 -129 -309 -129t-314.5 137.5t-125.5 344.5q-2 118 40.5 226.5t116.5 186t175.5 122.5t212.5 44q220 0 323 -141zM883 532q0 115 -67.5 187t-176.5 72q-118 0 -199.5 -89.5t-81.5 -218.5q0 -117 67.5 -188.5t176.5 -71.5
q120 0 199 88t82 221zM592 -205q0 92 81.5 153t280.5 118l109 -66l-117 -55q-80 -39 -80 -88q0 -58 88 -58l74 4l-31 -178q-71 -18 -151 -18q-121 0 -187.5 50t-66.5 138z" />
    <glyph glyph-name="Cacute" unicode="&#x106;" horiz-adv-x="1474" 
d="M115 629q-4 148 58.5 287.5t167.5 241t249 161.5t297 57q201 0 354.5 -95.5t231.5 -268.5l-226 -135q-120 243 -377 243q-201 0 -336 -137.5t-135 -341.5q0 -183 112.5 -296.5t291.5 -113.5q233 0 397 209l195 -155q-109 -148 -268.5 -229t-344.5 -81q-140 -2 -264.5 48
t-213.5 137t-140 209.5t-49 259.5zM864 1483l199 381h348l-8 -49l-330 -332h-209z" />
    <glyph glyph-name="cacute" unicode="&#x107;" horiz-adv-x="1144" 
d="M78 475q0 117 44.5 221t121 178.5t182.5 118t225 43.5q152 0 268.5 -70.5t172.5 -195.5l-205 -135q-95 153 -246 153q-120 0 -202.5 -87.5t-82.5 -213.5q0 -117 70.5 -190.5t181.5 -73.5q145 0 248 133l178 -153q-75 -112 -187.5 -170t-254.5 -58q-226 0 -370 140
t-144 360zM543 1169l223 428h348l-8 -49l-346 -379h-217z" />
    <glyph glyph-name="Ccircumflex" unicode="&#x108;" horiz-adv-x="1474" 
d="M115 629q-4 148 58.5 287.5t167.5 241t249 161.5t297 57q201 0 354.5 -95.5t231.5 -268.5l-226 -135q-120 243 -377 243q-201 0 -336 -137.5t-135 -341.5q0 -183 112.5 -296.5t291.5 -113.5q233 0 397 209l195 -155q-109 -148 -268.5 -229t-344.5 -81q-140 -2 -264.5 48
t-213.5 137t-140 209.5t-49 259.5zM1368 1483h-194l-150 166l-215 -166h-229l370 381h183z" />
    <glyph glyph-name="ccircumflex" unicode="&#x109;" horiz-adv-x="1144" 
d="M78 475q0 117 44.5 221t121 178.5t182.5 118t225 43.5q152 0 268.5 -70.5t172.5 -195.5l-205 -135q-95 153 -246 153q-120 0 -202.5 -87.5t-82.5 -213.5q0 -117 70.5 -190.5t181.5 -73.5q145 0 248 133l178 -153q-75 -112 -187.5 -170t-254.5 -58q-226 0 -370 140
t-144 360zM1032 1169h-190l-127 193l-203 -193h-213l352 428h180z" />
    <glyph glyph-name="Cdotaccent" unicode="&#x10a;" horiz-adv-x="1474" 
d="M115 629q-4 148 58.5 287.5t167.5 241t249 161.5t297 57q201 0 354.5 -95.5t231.5 -268.5l-226 -135q-120 243 -377 243q-201 0 -336 -137.5t-135 -341.5q0 -183 112.5 -296.5t291.5 -113.5q233 0 397 209l195 -155q-109 -148 -268.5 -229t-344.5 -81q-140 -2 -264.5 48
t-213.5 137t-140 209.5t-49 259.5zM834 1669q0 72 51 122t125 50t126 -50t52 -122t-52 -122t-126 -50t-125 50t-51 122z" />
    <glyph glyph-name="cdotaccent" unicode="&#x10b;" horiz-adv-x="1144" 
d="M78 475q0 117 44.5 221t121 178.5t182.5 118t225 43.5q152 0 268.5 -70.5t172.5 -195.5l-205 -135q-95 153 -246 153q-120 0 -202.5 -87.5t-82.5 -213.5q0 -117 70.5 -190.5t181.5 -73.5q145 0 248 133l178 -153q-75 -112 -187.5 -170t-254.5 -58q-226 0 -370 140
t-144 360zM545 1382q0 73 51 122.5t125 49.5t126 -49.5t52 -122.5q0 -72 -52 -121t-126 -49t-125 49t-51 121z" />
    <glyph glyph-name="Ccaron" unicode="&#x10c;" horiz-adv-x="1474" 
d="M115 629q-4 148 58.5 287.5t167.5 241t249 161.5t297 57q201 0 354.5 -95.5t231.5 -268.5l-226 -135q-120 243 -377 243q-201 0 -336 -137.5t-135 -341.5q0 -183 112.5 -296.5t291.5 -113.5q233 0 397 209l195 -155q-109 -148 -268.5 -229t-344.5 -81q-140 -2 -264.5 48
t-213.5 137t-140 209.5t-49 259.5zM1206 1864h230l-371 -381h-182l-236 381h195l147 -166z" />
    <glyph glyph-name="ccaron" unicode="&#x10d;" horiz-adv-x="1144" 
d="M78 475q0 117 44.5 221t121 178.5t182.5 118t225 43.5q152 0 268.5 -70.5t172.5 -195.5l-205 -135q-95 153 -246 153q-120 0 -202.5 -87.5t-82.5 -213.5q0 -117 70.5 -190.5t181.5 -73.5q145 0 248 133l178 -153q-75 -112 -187.5 -170t-254.5 -58q-226 0 -370 140
t-144 360zM909 1597h211l-350 -428h-180l-201 428h189l129 -192z" />
    <glyph glyph-name="Dcaron" unicode="&#x10e;" horiz-adv-x="1421" 
d="M70 0l237 1352h381q299 0 490.5 -176t191.5 -451q2 -154 -58.5 -289.5t-166.5 -231.5t-256 -151t-320 -53h-499zM389 248l199 2q222 0 360.5 129t138.5 332q0 180 -113.5 285.5t-305.5 105.5h-129zM975 1864h229l-370 -381h-183l-235 381h194l148 -166z" />
    <glyph glyph-name="dcaron" unicode="&#x10f;" horiz-adv-x="1630" 
d="M1059 1536h276l-270 -1536h-254l18 111q-114 -136 -313 -136q-189 0 -314.5 137.5t-125.5 344.5q-3 158 69.5 293t197.5 212t271 74q111 0 196 -37.5t134 -109.5zM881 532q0 115 -66.5 185.5t-175.5 70.5q-119 0 -200 -88t-81 -217q0 -117 66.5 -188.5t175.5 -71.5
q118 0 199.5 90t81.5 219zM1444 1118l86 418h285l-177 -418h-194z" />
    <glyph glyph-name="Dcroat" unicode="&#x110;" horiz-adv-x="1433" 
d="M1382 725q3 -207 -100 -374t-288 -260.5t-414 -90.5h-500l92 526h-182l41 232h182l104 594h383q193 2 350.5 -79t246 -225.5t85.5 -322.5zM1098 711q0 180 -113 285.5t-305 105.5h-129l-62 -344h211l-41 -232h-210l-50 -278l199 2q222 0 361 129t139 332z" />
    <glyph glyph-name="dslash" unicode="&#x111;" horiz-adv-x="1298" 
d="M1458 1356l-39 -223h-162l-198 -1133h-254l16 88q-116 -113 -301 -113q-198 0 -324 128.5t-126 328.5q-3 148 70.5 275t199.5 200.5t272 71.5q216 0 318 -148l51 302h-416l39 223h418l31 180h276l-31 -180h160zM877 508q0 106 -67.5 171.5t-176.5 65.5q-117 0 -198 -82
t-81 -202q0 -115 67 -186.5t173 -71.5q117 0 200 89.5t83 215.5z" />
    <glyph glyph-name="Emacron" unicode="&#x112;" horiz-adv-x="1175" 
d="M70 0l237 1352h910l-43 -250h-635l-50 -275h467l-41 -235h-466l-60 -342h658l-43 -250h-934zM455 1546l39 217h659l-39 -217h-659z" />
    <glyph glyph-name="emacron" unicode="&#x113;" horiz-adv-x="1148" 
d="M1055 414h-705q19 -98 89.5 -150.5t185.5 -52.5q149 0 286 94l101 -186q-176 -144 -412 -144q-230 0 -377 140t-147 360q-2 112 43 217t121.5 181t181.5 120.5t217 42.5q199 0 325 -124.5t126 -321.5q0 -89 -35 -176zM356 606h469q-1 97 -57 153t-150 56q-93 0 -163 -56
t-99 -153zM389 1274l39 217h619l-39 -217h-619z" />
    <glyph glyph-name="Ebreve" unicode="&#x114;" horiz-adv-x="1175" 
d="M70 0l237 1352h910l-43 -250h-635l-50 -275h467l-41 -235h-466l-60 -342h658l-43 -250h-934zM479 1788q0 13 8 76h218q-7 -44 -7 -60q0 -60 32.5 -93.5t92.5 -33.5q61 0 100 40t50 110l4 37h217l-4 -37q-23 -162 -125 -258t-254 -96q-146 0 -240 88q-92 89 -92 227z" />
    <glyph glyph-name="ebreve" unicode="&#x115;" horiz-adv-x="1148" 
d="M1055 414h-705q19 -98 89.5 -150.5t185.5 -52.5q149 0 286 94l101 -186q-176 -144 -412 -144q-230 0 -377 140t-147 360q-2 112 43 217t121.5 181t181.5 120.5t217 42.5q199 0 325 -124.5t126 -321.5q0 -89 -35 -176zM356 606h469q-1 97 -57 153t-150 56q-93 0 -163 -56
t-99 -153zM373 1483q0 29 14 100h215q-10 -72 -10 -84q0 -60 33.5 -93.5t93.5 -33.5t97.5 39t49.5 111l11 61h217l-11 -61q-26 -162 -127.5 -257.5t-250.5 -95.5q-147 0 -239.5 87.5t-92.5 226.5z" />
    <glyph glyph-name="Edotaccent" unicode="&#x116;" horiz-adv-x="1175" 
d="M70 0l237 1352h910l-43 -250h-635l-50 -275h467l-41 -235h-466l-60 -342h658l-43 -250h-934zM631 1669q0 72 51 122t125 50t126 -50t52 -122t-52 -122t-126 -50t-125 50t-51 122z" />
    <glyph glyph-name="edotaccent" unicode="&#x117;" horiz-adv-x="1148" 
d="M1055 414h-705q19 -98 89.5 -150.5t185.5 -52.5q149 0 286 94l101 -186q-176 -144 -412 -144q-230 0 -377 140t-147 360q-2 112 43 217t121.5 181t181.5 120.5t217 42.5q199 0 325 -124.5t126 -321.5q0 -89 -35 -176zM356 606h469q-1 97 -57 153t-150 56q-93 0 -163 -56
t-99 -153zM543 1382q0 73 51 122.5t125 49.5t126 -49.5t52 -122.5q0 -72 -52 -121t-126 -49t-125 49t-51 121z" />
    <glyph glyph-name="Eogonek" unicode="&#x118;" horiz-adv-x="1175" 
d="M70 0l237 1352h910l-43 -250h-635l-50 -275h467l-41 -235h-466l-60 -342h658l-43 -250h-934zM532 -205q0 92 82 153t281 118l109 -66l-117 -55q-80 -39 -80 -88q0 -58 88 -58l74 4l-31 -178q-70 -18 -152 -18q-121 0 -187.5 50t-66.5 138z" />
    <glyph glyph-name="eogonek" unicode="&#x119;" horiz-adv-x="1148" 
d="M1055 414h-705q19 -98 89.5 -150.5t185.5 -52.5q149 0 286 94l101 -186q-176 -144 -412 -144q-230 0 -377 140t-147 360q-2 112 43 217t121.5 181t181.5 120.5t217 42.5q199 0 325 -124.5t126 -321.5q0 -89 -35 -176zM356 606h469q-1 97 -57 153t-150 56q-93 0 -163 -56
t-99 -153zM506 -205q0 91 90.5 177t245.5 147h170l-150 -139q-49 -44 -65.5 -69t-16.5 -54q0 -58 88 -58l74 4l-31 -178q-70 -18 -151 -18q-121 0 -187.5 50t-66.5 138z" />
    <glyph glyph-name="Ecaron" unicode="&#x11a;" horiz-adv-x="1175" 
d="M70 0l237 1352h910l-43 -250h-635l-50 -275h467l-41 -235h-466l-60 -342h658l-43 -250h-934zM1004 1864h229l-371 -381h-182l-236 381h195l147 -166z" />
    <glyph glyph-name="ecaron" unicode="&#x11b;" horiz-adv-x="1148" 
d="M1055 414h-705q19 -98 89.5 -150.5t185.5 -52.5q149 0 286 94l101 -186q-176 -144 -412 -144q-230 0 -377 140t-147 360q-2 112 43 217t121.5 181t181.5 120.5t217 42.5q199 0 325 -124.5t126 -321.5q0 -89 -35 -176zM356 606h469q-1 97 -57 153t-150 56q-93 0 -163 -56
t-99 -153zM907 1597h211l-350 -428h-180l-201 428h188l130 -192z" />
    <glyph glyph-name="Gcircumflex" unicode="&#x11c;" horiz-adv-x="1536" 
d="M115 629q-4 149 58 288.5t167 240.5t250 161t299 57q185 0 330 -83t233 -238l-209 -154q-133 219 -371 219q-203 0 -338 -137t-135 -344q0 -188 113 -301t295 -113q205 0 346 144l25 133h-373l43 239h649l-78 -440q-103 -152 -272 -240q-170 -86 -363 -86
q-188 -3 -343 83t-242 237t-84 334zM1368 1483h-194l-150 166l-215 -166h-229l370 381h183z" />
    <glyph glyph-name="gcircumflex" unicode="&#x11d;" horiz-adv-x="1292" 
d="M967 1014h274l-162 -948q-37 -214 -186.5 -336.5t-374.5 -122.5q-153 0 -285 59t-231 170l166 182q84 -84 168.5 -122.5t181.5 -38.5q117 0 192.5 57t94.5 160l8 51q-113 -94 -285 -94q-197 0 -324.5 124t-127.5 316q0 117 43 222t116 180t174 119t214 44q220 0 323 -143
zM885 553q0 110 -68 180t-174 70q-120 0 -201.5 -87t-81.5 -212q0 -109 66.5 -176.5t175.5 -67.5q120 0 201.5 85t81.5 208zM1049 1169h-191l-127 193l-203 -193h-213l353 428h180z" />
    <glyph glyph-name="Gbreve" unicode="&#x11e;" horiz-adv-x="1536" 
d="M115 629q-4 149 58 288.5t167 240.5t250 161t299 57q185 0 330 -83t233 -238l-209 -154q-133 219 -371 219q-203 0 -338 -137t-135 -344q0 -188 113 -301t295 -113q205 0 346 144l25 133h-373l43 239h649l-78 -440q-103 -152 -272 -240q-170 -86 -363 -86
q-188 -3 -343 83t-242 237t-84 334zM682 1788q0 13 8 76h217q-6 -38 -6 -60q0 -60 32.5 -93.5t92.5 -33.5q61 0 100 40t50 110l4 37h217l-4 -37q-23 -162 -125 -258t-254 -96q-146 0 -240 88q-92 89 -92 227z" />
    <glyph glyph-name="gbreve" unicode="&#x11f;" horiz-adv-x="1292" 
d="M967 1014h274l-162 -948q-37 -214 -186.5 -336.5t-374.5 -122.5q-153 0 -285 59t-231 170l166 182q84 -84 168.5 -122.5t181.5 -38.5q117 0 192.5 57t94.5 160l8 51q-113 -94 -285 -94q-197 0 -324.5 124t-127.5 316q0 117 43 222t116 180t174 119t214 44q220 0 323 -143
zM885 553q0 110 -68 180t-174 70q-120 0 -201.5 -87t-81.5 -212q0 -109 66.5 -176.5t175.5 -67.5q120 0 201.5 85t81.5 208zM391 1483q0 23 15 100h215q-11 -79 -11 -84q0 -60 33.5 -93.5t93.5 -33.5t98 39t50 111l10 61h217l-10 -61q-26 -162 -128 -257.5t-251 -95.5
q-147 0 -239.5 87.5t-92.5 226.5z" />
    <glyph glyph-name="Gdotaccent" unicode="&#x120;" horiz-adv-x="1536" 
d="M115 629q-4 149 58 288.5t167 240.5t250 161t299 57q185 0 330 -83t233 -238l-209 -154q-133 219 -371 219q-203 0 -338 -137t-135 -344q0 -188 113 -301t295 -113q205 0 346 144l25 133h-373l43 239h649l-78 -440q-103 -152 -272 -240q-170 -86 -363 -86
q-188 -3 -343 83t-242 237t-84 334zM834 1669q0 72 51 122t125 50t126 -50t52 -122t-52 -122t-126 -50t-125 50t-51 122z" />
    <glyph glyph-name="gdotaccent" unicode="&#x121;" horiz-adv-x="1292" 
d="M967 1014h274l-162 -948q-37 -214 -186.5 -336.5t-374.5 -122.5q-153 0 -285 59t-231 170l166 182q84 -84 168.5 -122.5t181.5 -38.5q117 0 192.5 57t94.5 160l8 51q-113 -94 -285 -94q-197 0 -324.5 124t-127.5 316q0 117 43 222t116 180t174 119t214 44q220 0 323 -143
zM885 553q0 110 -68 180t-174 70q-120 0 -201.5 -87t-81.5 -212q0 -109 66.5 -176.5t175.5 -67.5q120 0 201.5 85t81.5 208zM561 1382q0 73 51 122.5t125 49.5t126 -49.5t52 -122.5q0 -72 -52 -121t-126 -49t-125 49t-51 121z" />
    <glyph glyph-name="uni0122" unicode="&#x122;" horiz-adv-x="1536" 
d="M115 629q-4 149 58 288.5t167 240.5t250 161t299 57q185 0 330 -83t233 -238l-209 -154q-133 219 -371 219q-203 0 -338 -137t-135 -344q0 -188 113 -301t295 -113q205 0 346 144l25 133h-373l43 239h649l-78 -440q-103 -152 -272 -240q-170 -86 -363 -86
q-188 -3 -343 83t-242 237t-84 334zM504 -451l71 357h254l-114 -357h-211z" />
    <glyph glyph-name="uni0123" unicode="&#x123;" horiz-adv-x="1292" 
d="M967 1014h274l-162 -948q-37 -214 -186.5 -336.5t-374.5 -122.5q-153 0 -285 59t-231 170l166 182q84 -84 168.5 -122.5t181.5 -38.5q117 0 192.5 57t94.5 160l8 51q-113 -94 -285 -94q-197 0 -324.5 124t-127.5 316q0 117 43 222t116 180t174 119t214 44q220 0 323 -143
zM885 553q0 110 -68 180t-174 70q-120 0 -201.5 -87t-81.5 -212q0 -109 66.5 -176.5t175.5 -67.5q120 0 201.5 85t81.5 208zM557 1169l145 428h201l-86 -428h-260z" />
    <glyph glyph-name="Hcircumflex" unicode="&#x124;" horiz-adv-x="1460" 
d="M70 0l237 1352h277l-90 -518h598l90 518h276l-237 -1352h-277l100 584h-598l-100 -584h-276zM1298 1483h-194l-150 166l-215 -166h-229l371 381h182z" />
    <glyph glyph-name="hcircumflex" unicode="&#x125;" horiz-adv-x="1198" 
d="M1100 698q0 -31 -13 -114l-102 -584h-276l100 575q8 36 8 64q0 73 -46 116.5t-124 43.5q-81 0 -139.5 -49t-71.5 -134l-108 -616h-275l269 1536h276l-104 -588q113 88 258 88q156 0 252 -93t96 -245zM877 1667h-195l-150 166l-215 -166h-229l371 381h182z" />
    <glyph glyph-name="Hbar" unicode="&#x126;" horiz-adv-x="1501" 
d="M1626 1124l-39 -231h-190l-158 -893h-276l77 438h-598l-77 -438h-277l158 893h-191l41 231h189l41 228h276l-41 -228h598l41 228h277l-41 -228h190zM1081 676l39 217h-598l-39 -217h598z" />
    <glyph glyph-name="hbar" unicode="&#x127;" horiz-adv-x="1212" 
d="M1104 637q0 -33 -12 -115l-93 -522h-276l88 504q8 56 8 65q0 73 -46 115.5t-124 42.5q-82 0 -140 -47.5t-71 -132.5l-96 -547h-274l196 1128h-160l41 228h160l31 180h276l-30 -180h391l-41 -228h-391l-41 -239q107 88 254 88q158 0 254 -93.5t96 -246.5z" />
    <glyph glyph-name="Itilde" unicode="&#x128;" horiz-adv-x="585" 
d="M70 0l237 1352h277l-238 -1352h-276zM477 1540l-47 29q-58 30 -82 30q-60 0 -72 -94h-208q14 171 74 257.5t173 86.5q51 0 88 -12t91 -43l45 -29q51 -30 84 -30q29 0 45 22t24 72h209q-25 -344 -250 -344q-47 0 -81 11.5t-93 43.5z" />
    <glyph glyph-name="itilde" unicode="&#x129;" horiz-adv-x="550" 
d="M51 0l178 1014h277l-178 -1014h-277zM418 1247l-33 29q-3 2 -12.5 9t-13 9l-10.5 6t-11.5 5.5t-9.5 1.5q-51 0 -66 -99h-209q12 164 74 255t166 91q42 0 74.5 -14.5t76.5 -48.5l31 -27q37 -30 60 -30q50 0 65 98h207q-12 -166 -72.5 -256t-165.5 -90q-71 0 -151 61z" />
    <glyph glyph-name="Imacron" unicode="&#x12a;" horiz-adv-x="585" 
d="M70 0l237 1352h277l-238 -1352h-276zM150 1546l38 217h660l-39 -217h-659z" />
    <glyph glyph-name="imacron" unicode="&#x12b;" horiz-adv-x="550" 
d="M51 0l178 1014h277l-178 -1014h-277zM150 1274l40 219h525l-39 -219h-526z" />
    <glyph glyph-name="Ibreve" unicode="&#x12c;" horiz-adv-x="585" 
d="M70 0l237 1352h277l-238 -1352h-276zM174 1788q0 13 8 76h217q-6 -38 -6 -60q0 -60 32.5 -93.5t92.5 -33.5q61 0 100 40t50 110l4 37h217l-4 -37q-23 -162 -125 -258t-254 -96q-146 0 -240 88q-92 89 -92 227z" />
    <glyph glyph-name="ibreve" unicode="&#x12d;" horiz-adv-x="550" 
d="M51 0l178 1014h277l-178 -1014h-277zM88 1483q0 29 14 100h215q-10 -72 -10 -84q0 -60 33.5 -93.5t93.5 -33.5t98 39t50 111l10 61h217l-10 -61q-26 -162 -128 -257.5t-251 -95.5q-147 0 -239.5 87.5t-92.5 226.5z" />
    <glyph glyph-name="Iogonek" unicode="&#x12e;" horiz-adv-x="585" 
d="M70 0l237 1352h277l-238 -1352h-276zM-127 -205q0 92 82 153t281 118l108 -66l-117 -55q-80 -39 -80 -88q0 -58 89 -58l73 4l-30 -178q-70 -18 -152 -18q-121 0 -187.5 50t-66.5 138z" />
    <glyph glyph-name="iogonek" unicode="&#x12f;" horiz-adv-x="550" 
d="M51 0l178 1014h277l-178 -1014h-277zM258 1382q0 73 51 122.5t125 49.5t126 -49.5t52 -122.5q0 -72 -52 -121t-126 -49t-125 49t-51 121zM-143 -205q0 92 81.5 153t280.5 118l109 -66l-117 -55q-80 -39 -80 -88q0 -58 88 -58l74 4l-31 -178q-70 -18 -151 -18
q-121 0 -187.5 50t-66.5 138z" />
    <glyph glyph-name="Idot" unicode="&#x130;" horiz-adv-x="585" 
d="M70 0l237 1352h277l-238 -1352h-276zM326 1669q0 72 51 122t125 50t126 -50t52 -122t-52 -122t-126 -50t-125 50t-51 122z" />
    <glyph glyph-name="dotlessi" unicode="&#x131;" horiz-adv-x="550" 
d="M51 0l178 1014h277l-178 -1014h-277z" />
    <glyph glyph-name="IJ" unicode="&#x132;" horiz-adv-x="1386" 
d="M70 0l237 1352h277l-238 -1352h-276zM537 20l43 232q108 -21 168 -21q84 0 127.5 36.5t60.5 121.5l168 963h276l-178 -1014q-31 -177 -135 -270t-274 -93q-137 0 -256 45z" />
    <glyph glyph-name="ij" unicode="&#x133;" horiz-adv-x="1103" 
d="M51 0l178 1014h277l-178 -1014h-277zM258 1382q0 73 51 122.5t125 49.5t126 -49.5t52 -122.5q0 -72 -52 -121t-126 -49t-125 49t-51 121zM287 -356l39 227q55 -12 104 -12q78 0 119 34t55 109l178 1012h275l-187 -1061q-29 -169 -132 -257.5t-263 -88.5q-101 0 -188 37z
M807 1382q0 73 51 122.5t125 49.5t126 -49.5t52 -122.5q0 -72 -52 -121t-126 -49t-125 49t-51 121z" />
    <glyph glyph-name="Jcircumflex" unicode="&#x134;" horiz-adv-x="800" 
d="M-49 20l43 232q108 -21 168 -21q84 0 127.5 36.5t60.5 121.5l168 963h277l-179 -1014q-31 -177 -135 -270t-274 -93q-137 0 -256 45zM1036 1483h-194l-150 166l-215 -166h-229l370 381h183z" />
    <glyph glyph-name="jcircumflex" unicode="&#x135;" horiz-adv-x="552" 
d="M-264 -356l39 227q56 -12 104 -12q78 0 119 34t55 109l178 1012h275l-187 -1061q-29 -169 -132 -257.5t-263 -88.5q-101 0 -188 37zM745 1169h-190l-127 193l-203 -193h-213l353 428h180z" />
    <glyph glyph-name="uni0136" unicode="&#x136;" horiz-adv-x="1372" 
d="M1432 1352l-639 -664l469 -688h-310l-481 707l-125 -707h-276l237 1352h277l-111 -629l606 629h353zM389 -451l72 357h254l-115 -357h-211z" />
    <glyph glyph-name="uni0137" unicode="&#x137;" horiz-adv-x="1142" 
d="M1194 1014l-461 -471l311 -543h-301l-317 559l-98 -559h-277l271 1536h276l-170 -963l432 441h334zM285 -451l71 357h254l-114 -357h-211z" />
    <glyph glyph-name="Lacute" unicode="&#x139;" horiz-adv-x="1073" 
d="M70 0l237 1352h277l-195 -1102h592l-43 -250h-868zM356 1483l199 381h348l-8 -49l-330 -332h-209z" />
    <glyph glyph-name="lacute" unicode="&#x13a;" horiz-adv-x="550" 
d="M51 0l271 1536h276l-270 -1536h-277zM373 1667l198 381h349l-9 -49l-329 -332h-209z" />
    <glyph glyph-name="uni013B" unicode="&#x13b;" horiz-adv-x="1073" 
d="M70 0l237 1352h277l-195 -1102h592l-43 -250h-868zM285 -451l71 357h254l-114 -357h-211z" />
    <glyph glyph-name="uni013C" unicode="&#x13c;" horiz-adv-x="550" 
d="M51 0l271 1536h276l-270 -1536h-277zM-23 -451l72 357h254l-115 -357h-211z" />
    <glyph glyph-name="Lcaron" unicode="&#x13d;" horiz-adv-x="1073" 
d="M70 0l237 1352h277l-195 -1102h592l-43 -250h-868zM758 934l86 418h284l-176 -418h-194z" />
    <glyph glyph-name="lcaron" unicode="&#x13e;" horiz-adv-x="888" 
d="M51 0l271 1536h276l-270 -1536h-277zM702 1118l86 418h285l-176 -418h-195z" />
    <glyph glyph-name="Ldot" unicode="&#x13f;" horiz-adv-x="1075" 
d="M70 0l237 1352h277l-195 -1102h592l-43 -250h-868zM686 774q0 80 56 135.5t137 55.5q79 0 133.5 -55.5t54.5 -135.5q0 -81 -54 -135.5t-134 -54.5q-82 0 -137.5 54.5t-55.5 135.5z" />
    <glyph glyph-name="ldot" unicode="&#x140;" horiz-adv-x="843" 
d="M51 0l271 1536h276l-270 -1536h-277zM528 655q0 80 56 135.5t137 55.5q79 0 133.5 -55.5t54.5 -135.5q0 -81 -54 -135.5t-134 -54.5q-82 0 -137.5 54.5t-55.5 135.5z" />
    <glyph glyph-name="Lslash" unicode="&#x141;" horiz-adv-x="1073" 
d="M389 250h592l-43 -250h-868l73 418l-159 -68l45 256l159 68l119 678h277l-101 -568l443 187l-45 -258l-443 -187z" />
    <glyph glyph-name="lslash" unicode="&#x142;" horiz-adv-x="587" 
d="M678 965l-45 -254l-182 -78l-111 -633h-277l93 524l-168 -71l45 256l168 71l133 756h276l-114 -647z" />
    <glyph glyph-name="Nacute" unicode="&#x143;" horiz-adv-x="1460" 
d="M1182 1352h276l-241 -1377h-93l-635 859l-143 -834h-276l241 1376h90l637 -852zM795 1483l198 381h348l-8 -49l-329 -332h-209z" />
    <glyph glyph-name="nacute" unicode="&#x144;" horiz-adv-x="1198" 
d="M1100 696q0 -23 -13 -112l-102 -584h-276l100 563q8 41 8 74q0 74 -47 118t-123 44q-80 0 -139 -49.5t-72 -133.5l-108 -616h-275l176 1014h254l-16 -90q118 112 287 112q156 0 250 -94q96 -96 96 -246zM590 1169l223 428h348l-8 -49l-346 -379h-217z" />
    <glyph glyph-name="uni0145" unicode="&#x145;" horiz-adv-x="1460" 
d="M1182 1352h276l-241 -1377h-93l-635 859l-143 -834h-276l241 1376h90l637 -852zM434 -451l72 357h254l-115 -357h-211z" />
    <glyph glyph-name="uni0146" unicode="&#x146;" horiz-adv-x="1198" 
d="M1100 696q0 -23 -13 -112l-102 -584h-276l100 563q8 41 8 74q0 74 -47 118t-123 44q-80 0 -139 -49.5t-72 -133.5l-108 -616h-275l176 1014h254l-16 -90q118 112 287 112q156 0 250 -94q96 -96 96 -246zM315 -451l72 357h254l-115 -357h-211z" />
    <glyph glyph-name="Ncaron" unicode="&#x147;" horiz-adv-x="1460" 
d="M1182 1352h276l-241 -1377h-93l-635 859l-143 -834h-276l241 1376h90l637 -852zM1137 1864h229l-371 -381h-182l-235 381h194l148 -166z" />
    <glyph glyph-name="ncaron" unicode="&#x148;" horiz-adv-x="1198" 
d="M1100 696q0 -23 -13 -112l-102 -584h-276l100 563q8 41 8 74q0 74 -47 118t-123 44q-80 0 -139 -49.5t-72 -133.5l-108 -616h-275l176 1014h254l-16 -90q118 112 287 112q156 0 250 -94q96 -96 96 -246zM956 1597h211l-350 -428h-180l-201 428h189l129 -192z" />
    <glyph glyph-name="Eng" unicode="&#x14a;" horiz-adv-x="1462" 
d="M1178 1352h276l-242 -1401q-29 -166 -133 -255t-270 -89q-114 0 -195 37l41 229q55 -12 113 -12q78 0 120 34t54 107l8 49l-469 727l-135 -778h-276l241 1376h90l617 -944z" />
    <glyph glyph-name="eng" unicode="&#x14b;" horiz-adv-x="1198" 
d="M1098 696q0 -55 -13 -112l-106 -623q-30 -175 -134 -264.5t-270 -89.5q-113 0 -192 39l41 225q68 -12 113 -12q80 0 120.5 34t53.5 117l98 565q8 36 8 66q0 72 -46 115t-124 43q-82 0 -139.5 -50.5t-71.5 -132.5l-108 -616h-275l176 1014h254l-16 -90q124 112 287 112
q154 0 249 -94t95 -246z" />
    <glyph glyph-name="Omacron" unicode="&#x14c;" horiz-adv-x="1593" 
d="M115 629q-3 150 59.5 289.5t167.5 240.5t247.5 160.5t293.5 56.5q139 2 263.5 -48.5t212 -138t137.5 -209t48 -257.5q3 -150 -59.5 -289.5t-167.5 -241t-247.5 -161t-293.5 -56.5q-138 -2 -262 48.5t-212 138t-138.5 210t-48.5 257.5zM1260 713q0 180 -111.5 293.5
t-286.5 113.5q-194 0 -328.5 -138.5t-134.5 -340.5q0 -182 111 -296t285 -114q128 0 235 64t168.5 175t61.5 243zM649 1546l39 217h660l-39 -217h-660z" />
    <glyph glyph-name="omacron" unicode="&#x14d;" horiz-adv-x="1243" 
d="M78 483q-3 148 75.5 277t212 204t285.5 72q220 0 370 -146t150 -362q2 -111 -44 -214t-124.5 -178t-186 -119t-222.5 -42q-221 0 -368.5 145.5t-147.5 362.5zM889 524q0 116 -70 190t-180 74q-117 0 -198 -88t-81 -215q0 -117 67.5 -188.5t176.5 -71.5q122 0 203.5 86
t81.5 213zM410 1274l39 217h618l-39 -217h-618z" />
    <glyph glyph-name="Obreve" unicode="&#x14e;" horiz-adv-x="1593" 
d="M115 629q-3 150 59.5 289.5t167.5 240.5t247.5 160.5t293.5 56.5q139 2 263.5 -48.5t212 -138t137.5 -209t48 -257.5q3 -150 -59.5 -289.5t-167.5 -241t-247.5 -161t-293.5 -56.5q-138 -2 -262 48.5t-212 138t-138.5 210t-48.5 257.5zM1260 713q0 180 -111.5 293.5
t-286.5 113.5q-194 0 -328.5 -138.5t-134.5 -340.5q0 -182 111 -296t285 -114q128 0 235 64t168.5 175t61.5 243zM674 1788q0 13 8 76h217q-6 -38 -6 -60q0 -60 32.5 -93.5t92.5 -33.5q61 0 99.5 40t49.5 110l4 37h218l-5 -37q-23 -162 -125 -258t-253 -96q-146 0 -240 88
q-92 89 -92 227z" />
    <glyph glyph-name="obreve" unicode="&#x14f;" horiz-adv-x="1243" 
d="M78 483q-3 148 75.5 277t212 204t285.5 72q220 0 370 -146t150 -362q2 -111 -44 -214t-124.5 -178t-186 -119t-222.5 -42q-221 0 -368.5 145.5t-147.5 362.5zM889 524q0 116 -70 190t-180 74q-117 0 -198 -88t-81 -215q0 -117 67.5 -188.5t176.5 -71.5q122 0 203.5 86
t81.5 213zM393 1483q0 23 15 100h215q-11 -79 -11 -84q0 -60 33.5 -93.5t93.5 -33.5t98 39t50 111l10 61h217l-10 -61q-26 -162 -128 -257.5t-251 -95.5q-147 0 -239.5 87.5t-92.5 226.5z" />
    <glyph glyph-name="Ohungarumlaut" unicode="&#x150;" horiz-adv-x="1593" 
d="M115 629q-3 150 59.5 289.5t167.5 240.5t247.5 160.5t293.5 56.5q139 2 263.5 -48.5t212 -138t137.5 -209t48 -257.5q3 -150 -59.5 -289.5t-167.5 -241t-247.5 -161t-293.5 -56.5q-138 -2 -262 48.5t-212 138t-138.5 210t-48.5 257.5zM1260 713q0 180 -111.5 293.5
t-286.5 113.5q-194 0 -328.5 -138.5t-134.5 -340.5q0 -182 111 -296t285 -114q128 0 235 64t168.5 175t61.5 243zM606 1483l215 381h305l-8 -49l-313 -332h-199zM1075 1483l217 381h303l-6 -49l-313 -332h-201z" />
    <glyph glyph-name="ohungarumlaut" unicode="&#x151;" horiz-adv-x="1243" 
d="M78 483q-3 148 75.5 277t212 204t285.5 72q220 0 370 -146t150 -362q2 -111 -44 -214t-124.5 -178t-186 -119t-222.5 -42q-221 0 -368.5 145.5t-147.5 362.5zM889 524q0 116 -70 190t-180 74q-117 0 -198 -88t-81 -215q0 -117 67.5 -188.5t176.5 -71.5q122 0 203.5 86
t81.5 213zM375 1169l223 428h303l-8 -49l-315 -379h-203zM819 1169l223 428h304l-9 -49l-315 -379h-203z" />
    <glyph glyph-name="OE" unicode="&#x152;" horiz-adv-x="2252" 
d="M2249 1102h-633l-47 -277h467l-41 -231h-467l-62 -344h658l-43 -250h-905l28 172q-78 -94 -198.5 -145.5t-266.5 -51.5q-129 -2 -246 47t-201 134.5t-132.5 204.5t-46.5 251q-3 152 56.5 294.5t160.5 246t240.5 165t289.5 58.5q164 0 291 -61t195 -170l36 207h912z
M1264 725q0 174 -111 284.5t-285 110.5q-198 0 -334.5 -139.5t-136.5 -341.5q0 -179 113.5 -293.5t288.5 -114.5q197 0 331 142t134 352z" />
    <glyph glyph-name="oe" unicode="&#x153;" horiz-adv-x="1918" 
d="M1825 412h-705q20 -99 90 -150t185 -51q149 0 286 94l101 -184q-190 -146 -410 -146q-124 0 -225.5 51.5t-167.5 145.5q-73 -93 -176.5 -145t-220.5 -52q-215 0 -359.5 145.5t-144.5 360.5q-2 111 42 214.5t119.5 178.5t179.5 119.5t216 42.5q116 0 214 -52.5t165 -147.5
q73 95 176.5 147.5t220.5 52.5q195 0 322 -126t127 -322q0 -83 -35 -176zM1128 604h465q-2 94 -57 151.5t-147 57.5q-91 0 -161 -57t-100 -152zM866 524q0 116 -66.5 190t-170.5 74q-111 0 -190 -88t-79 -215q0 -115 65.5 -187.5t168.5 -72.5q115 0 193.5 87t78.5 212z" />
    <glyph glyph-name="Racute" unicode="&#x154;" horiz-adv-x="1310" 
d="M909 518l301 -518h-301l-284 477h-197l-82 -477h-276l237 1352h455q215 0 343 -109.5t128 -294.5q0 -148 -86.5 -261t-237.5 -169zM541 1108l-70 -387h248q108 0 169.5 55.5t61.5 149.5q0 87 -50.5 134.5t-143.5 47.5h-215zM608 1483l199 381h348l-8 -49l-330 -332h-209z
" />
    <glyph glyph-name="racute" unicode="&#x155;" horiz-adv-x="794" 
d="M850 1004l-43 -242q-85 10 -109 10q-116 0 -187 -62.5t-91 -183.5l-92 -526h-277l178 1014h254l-18 -103q109 115 266 115q58 0 119 -22zM385 1169l223 428h348l-8 -49l-346 -379h-217z" />
    <glyph glyph-name="uni0156" unicode="&#x156;" horiz-adv-x="1310" 
d="M909 518l301 -518h-301l-284 477h-197l-82 -477h-276l237 1352h455q215 0 343 -109.5t128 -294.5q0 -148 -86.5 -261t-237.5 -169zM541 1108l-70 -387h248q108 0 169.5 55.5t61.5 149.5q0 87 -50.5 134.5t-143.5 47.5h-215zM373 -451l71 357h254l-114 -357h-211z" />
    <glyph glyph-name="uni0157" unicode="&#x157;" horiz-adv-x="794" 
d="M850 1004l-43 -242q-85 10 -109 10q-116 0 -187 -62.5t-91 -183.5l-92 -526h-277l178 1014h254l-18 -103q109 115 266 115q58 0 119 -22zM-23 -451l72 357h254l-115 -357h-211z" />
    <glyph glyph-name="Rcaron" unicode="&#x158;" horiz-adv-x="1310" 
d="M909 518l301 -518h-301l-284 477h-197l-82 -477h-276l237 1352h455q215 0 343 -109.5t128 -294.5q0 -148 -86.5 -261t-237.5 -169zM541 1108l-70 -387h248q108 0 169.5 55.5t61.5 149.5q0 87 -50.5 134.5t-143.5 47.5h-215zM950 1864h230l-371 -381h-182l-236 381h195
l147 -166z" />
    <glyph glyph-name="rcaron" unicode="&#x159;" horiz-adv-x="794" 
d="M850 1004l-43 -242q-85 10 -109 10q-116 0 -187 -62.5t-91 -183.5l-92 -526h-277l178 1014h254l-18 -103q109 115 266 115q58 0 119 -22zM752 1597h211l-351 -428h-180l-201 428h189l129 -192z" />
    <glyph glyph-name="Sacute" unicode="&#x15a;" horiz-adv-x="1144" 
d="M27 311l204 131q138 -217 340 -217q88 0 139.5 40t51.5 108q0 53 -36 91.5t-120 80.5l-139 73q-264 141 -264 359q0 173 132.5 286t332.5 113q299 0 450 -268l-207 -135q-56 80 -117.5 116.5t-140.5 36.5q-80 0 -126 -35t-46 -98q0 -49 31 -84.5t106 -77.5l148 -75
q140 -72 206 -158.5t66 -198.5q0 -181 -137 -302.5t-340 -121.5q-174 0 -311 86t-223 250zM610 1483l199 381h348l-8 -49l-330 -332h-209z" />
    <glyph glyph-name="sacute" unicode="&#x15b;" horiz-adv-x="933" 
d="M10 203l172 153q72 -85 132 -121t132 -36q61 0 96.5 22.5t35.5 59.5q0 29 -20 49t-75 45l-96 41q-127 54 -187.5 129.5t-60.5 179.5q0 141 100.5 226t266.5 85q246 0 377 -174l-162 -155q-95 108 -215 108q-47 0 -75 -21.5t-28 -56.5q0 -62 89 -100l90 -39
q135 -58 197.5 -127.5t62.5 -165.5q0 -142 -113 -236t-283 -94q-141 0 -255.5 59.5t-180.5 168.5zM414 1169l223 428h348l-8 -49l-346 -379h-217z" />
    <glyph glyph-name="Scircumflex" unicode="&#x15c;" horiz-adv-x="1144" 
d="M27 311l204 131q138 -217 340 -217q88 0 139.5 40t51.5 108q0 53 -36 91.5t-120 80.5l-139 73q-264 141 -264 359q0 173 132.5 286t332.5 113q299 0 450 -268l-207 -135q-56 80 -117.5 116.5t-140.5 36.5q-80 0 -126 -35t-46 -98q0 -49 31 -84.5t106 -77.5l148 -75
q140 -72 206 -158.5t66 -198.5q0 -181 -137 -302.5t-340 -121.5q-174 0 -311 86t-223 250zM1114 1483h-194l-150 166l-215 -166h-229l370 381h183z" />
    <glyph glyph-name="scircumflex" unicode="&#x15d;" horiz-adv-x="933" 
d="M10 203l172 153q72 -85 132 -121t132 -36q61 0 96.5 22.5t35.5 59.5q0 29 -20 49t-75 45l-96 41q-127 54 -187.5 129.5t-60.5 179.5q0 141 100.5 226t266.5 85q246 0 377 -174l-162 -155q-95 108 -215 108q-47 0 -75 -21.5t-28 -56.5q0 -62 89 -100l90 -39
q135 -58 197.5 -127.5t62.5 -165.5q0 -142 -113 -236t-283 -94q-141 0 -255.5 59.5t-180.5 168.5zM905 1169h-190l-127 193l-203 -193h-213l352 428h181z" />
    <glyph glyph-name="Scedilla" unicode="&#x15e;" horiz-adv-x="1144" 
d="M27 311l204 131q138 -217 340 -217q88 0 139.5 40t51.5 108q0 53 -36 91.5t-120 80.5l-139 73q-264 141 -264 359q0 173 132.5 286t332.5 113q299 0 450 -268l-207 -135q-56 80 -117.5 116.5t-140.5 36.5q-80 0 -126 -35t-46 -98q0 -49 31 -84.5t106 -77.5l148 -75
q140 -72 206 -158.5t66 -198.5q0 -181 -137 -302.5t-340 -121.5q-174 0 -311 86t-223 250zM133 -358l31 178q86 -13 127 -13q74 0 108.5 39t34.5 123q0 32 -10 70l113 39q50 -32 79 -84.5t29 -110.5q0 -116 -95 -196t-233 -80q-97 0 -184 35z" />
    <glyph glyph-name="scedilla" unicode="&#x15f;" horiz-adv-x="933" 
d="M10 203l172 153q72 -85 132 -121t132 -36q61 0 96.5 22.5t35.5 59.5q0 29 -20 49t-75 45l-96 41q-127 54 -187.5 129.5t-60.5 179.5q0 141 100.5 226t266.5 85q246 0 377 -174l-162 -155q-95 108 -215 108q-47 0 -75 -21.5t-28 -56.5q0 -62 89 -100l90 -39
q135 -58 197.5 -127.5t62.5 -165.5q0 -142 -113 -236t-283 -94q-141 0 -255.5 59.5t-180.5 168.5zM80 -358l31 178q86 -13 127 -13q74 0 108.5 39t34.5 123q0 32 -10 70l112 39q51 -32 80 -85t29 -110q0 -116 -95 -196t-233 -80q-97 0 -184 35z" />
    <glyph glyph-name="Scaron" unicode="&#x160;" horiz-adv-x="1144" 
d="M27 311l204 131q138 -217 340 -217q88 0 139.5 40t51.5 108q0 53 -36 91.5t-120 80.5l-139 73q-264 141 -264 359q0 173 132.5 286t332.5 113q299 0 450 -268l-207 -135q-56 80 -117.5 116.5t-140.5 36.5q-80 0 -126 -35t-46 -98q0 -49 31 -84.5t106 -77.5l148 -75
q140 -72 206 -158.5t66 -198.5q0 -181 -137 -302.5t-340 -121.5q-174 0 -311 86t-223 250zM954 1864h230l-371 -381h-182l-236 381h195l147 -166z" />
    <glyph glyph-name="scaron" unicode="&#x161;" horiz-adv-x="933" 
d="M10 203l172 153q72 -85 132 -121t132 -36q61 0 96.5 22.5t35.5 59.5q0 29 -20 49t-75 45l-96 41q-127 54 -187.5 129.5t-60.5 179.5q0 141 100.5 226t266.5 85q246 0 377 -174l-162 -155q-95 108 -215 108q-47 0 -75 -21.5t-28 -56.5q0 -62 89 -100l90 -39
q135 -58 197.5 -127.5t62.5 -165.5q0 -142 -113 -236t-283 -94q-141 0 -255.5 59.5t-180.5 168.5zM782 1597h211l-350 -428h-180l-201 428h189l129 -192z" />
    <glyph glyph-name="uni0162" unicode="&#x162;" horiz-adv-x="1204" 
d="M377 0l194 1102h-434l45 250h1143l-45 -250h-432l-195 -1102h-276zM172 -358l31 178q86 -13 127 -13q74 0 108.5 39t34.5 123q0 32 -10 70l112 39q51 -32 80 -85t29 -110q0 -116 -95 -196t-233 -80q-97 0 -184 35z" />
    <glyph glyph-name="uni0163" unicode="&#x163;" horiz-adv-x="849" 
d="M518 782l-72 -393q-4 -28 -4 -47q0 -68 51.5 -97.5t159.5 -29.5q68 0 86 2l-41 -231q-79 -11 -123 -11q-192 0 -301.5 81.5t-109.5 234.5q0 30 10 98l70 393h-158l39 232h160l45 256h276l-47 -256h291l-39 -232h-293zM45 -358l31 178q86 -13 127 -13q74 0 108.5 39
t34.5 123q0 32 -10 70l113 39q50 -32 79 -84.5t29 -110.5q0 -116 -95 -196t-233 -80q-97 0 -184 35z" />
    <glyph glyph-name="Tcaron" unicode="&#x164;" horiz-adv-x="1204" 
d="M377 0l194 1102h-434l45 250h1143l-45 -250h-432l-195 -1102h-276zM1008 1864h229l-371 -381h-182l-235 381h194l148 -166z" />
    <glyph glyph-name="tcaron" unicode="&#x165;" horiz-adv-x="849" 
d="M518 782l-72 -393q-4 -28 -4 -47q0 -68 51.5 -97.5t159.5 -29.5q68 0 86 2l-41 -231q-79 -11 -123 -11q-192 0 -301.5 81.5t-109.5 234.5q0 30 10 98l70 393h-158l39 232h160l45 256h276l-47 -256h291l-39 -232h-293zM752 1118l86 418h284l-176 -418h-194z" />
    <glyph glyph-name="Tbar" unicode="&#x166;" horiz-adv-x="1204" 
d="M1280 1102h-432l-72 -406h361l-41 -231h-361l-82 -465h-276l82 465h-361l39 231h363l71 406h-434l45 250h1143z" />
    <glyph glyph-name="tbar" unicode="&#x167;" horiz-adv-x="882" 
d="M834 795h-293l-31 -166h293l-39 -219h-293l-4 -21q-4 -36 -4 -47q0 -70 54 -98.5t169 -28.5q56 0 74 2l-41 -231q-79 -11 -123 -11q-172 0 -291 70q-121 71 -121 246q0 23 11 98l4 21h-160l41 219h158l28 166h-157l36 219h160l45 256h277l-47 -256h290z" />
    <glyph glyph-name="Utilde" unicode="&#x168;" horiz-adv-x="1433" 
d="M147 465q0 55 15 131l133 756h276l-135 -760q-12 -82 -12 -107q0 -111 77.5 -182.5t198.5 -71.5q122 0 210 76t108 203l147 842h277l-152 -860q-43 -243 -205 -379q-159 -138 -397 -138t-389.5 137.5t-151.5 352.5zM899 1540l-47 29q-58 30 -82 30q-60 0 -72 -94h-209
q14 171 74.5 257.5t173.5 86.5q51 0 87 -12t91 -43l46 -29q51 -30 83 -30q29 0 46 22.5t24 71.5h209q-25 -344 -250 -344q-47 0 -81 11.5t-93 43.5z" />
    <glyph glyph-name="utilde" unicode="&#x169;" horiz-adv-x="1187" 
d="M117 375q0 33 10 98l92 541h277l-101 -578q-4 -20 -4 -47q0 -72 50 -118t128 -46t132.5 47t68.5 125l107 617h274l-109 -621q-32 -195 -162 -306.5t-325 -111.5q-194 0 -316 111.5t-122 288.5zM743 1233l-55 39q-50 35 -78 35q-59 0 -71 -99h-209q12 167 74 256.5
t171 89.5q80 0 150 -49l55 -37q49 -34 78 -34q59 0 74 98h207q-12 -166 -74.5 -256t-171.5 -90q-76 0 -150 47z" />
    <glyph glyph-name="Umacron" unicode="&#x16a;" horiz-adv-x="1433" 
d="M147 465q0 55 15 131l133 756h276l-135 -760q-12 -82 -12 -107q0 -111 77.5 -182.5t198.5 -71.5q122 0 210 76t108 203l147 842h277l-152 -860q-43 -243 -205 -379q-159 -138 -397 -138t-389.5 137.5t-151.5 352.5zM573 1546l39 217h660l-39 -217h-660z" />
    <glyph glyph-name="umacron" unicode="&#x16b;" horiz-adv-x="1187" 
d="M117 375q0 33 10 98l92 541h277l-101 -578q-4 -20 -4 -47q0 -72 50 -118t128 -46t132.5 47t68.5 125l107 617h274l-109 -621q-32 -195 -162 -306.5t-325 -111.5q-194 0 -316 111.5t-122 288.5zM424 1274l39 217h618l-39 -217h-618z" />
    <glyph glyph-name="Ubreve" unicode="&#x16c;" horiz-adv-x="1433" 
d="M147 465q0 55 15 131l133 756h276l-135 -760q-12 -82 -12 -107q0 -111 77.5 -182.5t198.5 -71.5q122 0 210 76t108 203l147 842h277l-152 -860q-43 -243 -205 -379q-159 -138 -397 -138t-389.5 137.5t-151.5 352.5zM598 1788q0 13 8 76h217q-6 -38 -6 -60
q0 -60 32.5 -93.5t92.5 -33.5q61 0 100 40t50 110l4 37h217l-4 -37q-23 -162 -125 -258t-254 -96q-146 0 -240 88q-92 89 -92 227z" />
    <glyph glyph-name="ubreve" unicode="&#x16d;" horiz-adv-x="1187" 
d="M117 375q0 33 10 98l92 541h277l-101 -578q-4 -20 -4 -47q0 -72 50 -118t128 -46t132.5 47t68.5 125l107 617h274l-109 -621q-32 -195 -162 -306.5t-325 -111.5q-194 0 -316 111.5t-122 288.5zM408 1483q0 29 14 100h215q-10 -72 -10 -84q0 -60 33.5 -93.5t93.5 -33.5
t97.5 39t49.5 111l10 61h217l-10 -61q-26 -162 -128 -257.5t-251 -95.5q-146 0 -238.5 87.5t-92.5 226.5z" />
    <glyph glyph-name="Uring" unicode="&#x16e;" horiz-adv-x="1433" 
d="M147 465q0 55 15 131l133 756h276l-135 -760q-12 -82 -12 -107q0 -111 77.5 -182.5t198.5 -71.5q122 0 210 76t108 203l147 842h277l-152 -860q-43 -243 -205 -379q-159 -138 -397 -138t-389.5 137.5t-151.5 352.5zM662 1620q0 110 79 186t195 76q106 0 177 -67.5
t71 -169.5q0 -109 -80.5 -186t-194.5 -77q-106 0 -176.5 67.5t-70.5 170.5zM1008 1638q0 35 -22.5 56.5t-57.5 21.5q-37 0 -62.5 -24.5t-25.5 -61.5t21.5 -59.5t56.5 -22.5q37 0 63.5 26t26.5 64z" />
    <glyph glyph-name="uring" unicode="&#x16f;" horiz-adv-x="1187" 
d="M117 375q0 33 10 98l92 541h277l-101 -578q-4 -20 -4 -47q0 -72 50 -118t128 -46t132.5 47t68.5 125l107 617h274l-109 -621q-32 -195 -162 -306.5t-325 -111.5q-194 0 -316 111.5t-122 288.5zM481 1362q0 109 79 185.5t194 76.5q106 0 176.5 -67.5t70.5 -170.5
q0 -110 -79 -186q-76 -76 -193 -76q-106 0 -177 68t-71 170zM825 1378q0 36 -22 58t-58 22q-37 0 -62.5 -25t-25.5 -63q0 -35 22.5 -58.5t55.5 -23.5q37 0 63.5 26t26.5 64z" />
    <glyph glyph-name="Uhungarumlaut" unicode="&#x170;" horiz-adv-x="1433" 
d="M147 465q0 55 15 131l133 756h276l-135 -760q-12 -82 -12 -107q0 -111 77.5 -182.5t198.5 -71.5q122 0 210 76t108 203l147 842h277l-152 -860q-43 -243 -205 -379q-159 -138 -397 -138t-389.5 137.5t-151.5 352.5zM530 1483l215 381h306l-9 -49l-313 -332h-199z
M999 1483l218 381h303l-7 -49l-313 -332h-201z" />
    <glyph glyph-name="uhungarumlaut" unicode="&#x171;" horiz-adv-x="1187" 
d="M117 375q0 33 10 98l92 541h277l-101 -578q-4 -20 -4 -47q0 -72 50 -118t128 -46t132.5 47t68.5 125l107 617h274l-109 -621q-32 -195 -162 -306.5t-325 -111.5q-194 0 -316 111.5t-122 288.5zM389 1169l223 428h303l-8 -49l-315 -379h-203zM834 1169l223 428h303l-8 -49
l-316 -379h-202z" />
    <glyph glyph-name="Uogonek" unicode="&#x172;" horiz-adv-x="1433" 
d="M147 465q0 55 15 131l133 756h276l-135 -760q-12 -82 -12 -107q0 -111 77.5 -182.5t198.5 -71.5q122 0 210 76t108 203l147 842h277l-152 -860q-43 -243 -205 -379q-159 -138 -397 -138t-389.5 137.5t-151.5 352.5zM588 -205q0 91 90.5 177t245.5 147h170l-150 -139
q-49 -44 -65.5 -69t-16.5 -54q0 -58 88 -58l74 4l-31 -178q-71 -18 -151 -18q-121 0 -187.5 50t-66.5 138z" />
    <glyph glyph-name="uogonek" unicode="&#x173;" horiz-adv-x="1187" 
d="M877 1014h274l-107 -621q-12 -55 -20.5 -86t-25 -67.5t-35 -59.5t-55 -58t-79.5 -67.5t-114 -83.5q-61 -39 -83 -62t-22 -52q0 -58 90 -58q51 0 76 2l-33 -176q-71 -18 -151 -18q-120 0 -186 50.5t-66 139.5q0 61 31.5 104t103.5 81q-162 23 -260 129.5t-98 263.5
q0 40 10 98l92 541h277l-101 -578q-4 -36 -4 -47q0 -73 50 -118.5t128 -45.5q76 0 132.5 46.5t68.5 125.5z" />
    <glyph glyph-name="Wcircumflex" unicode="&#x174;" horiz-adv-x="2111" 
d="M1892 1352h314l-783 -1377h-90l-219 848l-536 -848h-91l-299 1377h283l164 -799l520 823h92l207 -811zM1618 1483h-195l-149 166l-215 -166h-230l371 381h182z" />
    <glyph glyph-name="wcircumflex" unicode="&#x175;" horiz-adv-x="1753" 
d="M1505 1014h303l-651 -1039h-92l-182 590l-400 -590h-92l-291 1039h281l143 -590l387 612h90l173 -587zM1335 1169h-190l-127 193l-203 -193h-213l352 428h181z" />
    <glyph glyph-name="Ycircumflex" unicode="&#x176;" horiz-adv-x="1277" 
d="M1384 1352l-610 -828l-92 -524h-276l94 537l-324 815h279l221 -537l389 537h319zM1194 1483h-195l-149 166l-215 -166h-229l370 381h182z" />
    <glyph glyph-name="ycircumflex" unicode="&#x177;" horiz-adv-x="1196" 
d="M874 1014h277l-172 -965q-35 -204 -172 -323t-338 -119q-143 0 -269.5 60t-211.5 169l166 182q85 -86 157.5 -123.5t157.5 -37.5q198 0 236 200l10 60q-116 -84 -254 -84q-154 0 -252 94q-96 96 -96 244q0 37 12 108l94 535h275l-95 -529q-6 -42 -6 -57q0 -72 47 -115
t125 -43q77 0 137 48t72 128zM1061 1169h-191l-127 193l-202 -193h-213l352 428h180z" />
    <glyph glyph-name="Ydieresis" unicode="&#x178;" horiz-adv-x="1277" 
d="M1384 1352l-610 -828l-92 -524h-276l94 537l-324 815h279l221 -537l389 537h319zM406 1667q0 67 48 113.5t115 46.5q69 0 118.5 -46.5t49.5 -113.5q0 -63 -49.5 -110.5t-118.5 -47.5q-63 0 -113 48.5t-50 109.5zM946 1665q0 67 49.5 114.5t116.5 47.5q68 0 117 -47.5
t49 -114.5q0 -63 -49.5 -110.5t-116.5 -47.5q-66 0 -116 47.5t-50 110.5z" />
    <glyph glyph-name="Zacute" unicode="&#x179;" horiz-adv-x="1204" 
d="M1296 1352l-12 -74l-856 -1028h676l-43 -250h-1106l12 74l854 1028h-583l43 250h1015zM676 1483l198 381h349l-9 -49l-329 -332h-209z" />
    <glyph glyph-name="zacute" unicode="&#x17a;" horiz-adv-x="958" 
d="M1012 1014l-15 -74l-598 -707h482l-41 -233h-891l12 74l602 706h-434l41 234h842zM465 1169l223 428h348l-8 -49l-346 -379h-217z" />
    <glyph glyph-name="Zdotaccent" unicode="&#x17b;" horiz-adv-x="1204" 
d="M1296 1352l-12 -74l-856 -1028h676l-43 -250h-1106l12 74l854 1028h-583l43 250h1015zM645 1669q0 72 51 122t125 50t126 -50t52 -122t-52 -122t-126 -50t-125 50t-51 122z" />
    <glyph glyph-name="zdotaccent" unicode="&#x17c;" horiz-adv-x="958" 
d="M1012 1014l-15 -74l-598 -707h482l-41 -233h-891l12 74l602 706h-434l41 234h842zM467 1382q0 73 51 122.5t125 49.5t126 -49.5t52 -122.5q0 -72 -52 -121t-126 -49t-125 49t-51 121z" />
    <glyph glyph-name="Zcaron" unicode="&#x17d;" horiz-adv-x="1204" 
d="M1296 1352l-12 -74l-856 -1028h676l-43 -250h-1106l12 74l854 1028h-583l43 250h1015zM1018 1864h229l-370 -381h-183l-235 381h194l148 -166z" />
    <glyph glyph-name="zcaron" unicode="&#x17e;" horiz-adv-x="958" 
d="M1012 1014l-15 -74l-598 -707h482l-41 -233h-891l12 74l602 706h-434l41 234h842zM834 1597h210l-350 -428h-180l-201 428h189l129 -192z" />
    <glyph glyph-name="uni018F" unicode="&#x18f;" horiz-adv-x="1509" 
d="M1460 731q3 -149 -56 -289.5t-158.5 -243t-237 -163.5t-283.5 -58q-277 0 -449 163t-172 425q0 102 31 207h1036q-17 160 -119 254t-261 94q-237 0 -396 -188l-174 168q222 276 590 276q132 2 253 -48.5t208.5 -137t138.5 -207t49 -252.5zM1149 535h-764
q2 -137 95.5 -219.5t248.5 -82.5q149 0 261 81t159 221z" />
    <glyph glyph-name="florin" unicode="&#x192;" horiz-adv-x="923" 
d="M1079 1341l-41 -223q-62 6 -106 6q-80 0 -124 -32t-67 -107l-47 -154h189l-43 -231h-215l-160 -530q-105 -342 -418 -342q-108 0 -182 32l41 226q56 -9 106 -9q78 0 123 33t68 107l145 483h-149l41 231h176l61 203q105 342 418 342q94 0 184 -35z" />
    <glyph glyph-name="uni01D4" unicode="&#x1d4;" horiz-adv-x="1187" 
d="M117 375q0 33 10 98l92 541h277l-101 -578q-4 -20 -4 -47q0 -72 50 -118t128 -46t132.5 47t68.5 125l107 617h274l-109 -621q-32 -195 -162 -306.5t-325 -111.5q-194 0 -316 111.5t-122 288.5zM942 1597h211l-350 -428h-180l-201 428h188l129 -192z" />
    <glyph glyph-name="AEacute" unicode="&#x1fc;" horiz-adv-x="1748" 
d="M1747 1102h-623l-2 -275h408l-39 -235h-369l-2 -342h500l-43 -250h-729v176h-477l-119 -176h-328l928 1352h936zM858 920l-334 -514h326zM915 1483l199 381h348l-8 -49l-330 -332h-209z" />
    <glyph glyph-name="aeacute" unicode="&#x1fd;" horiz-adv-x="1781" 
d="M1686 406h-703q20 -94 90 -144.5t182 -50.5q150 0 287 94l100 -184q-190 -146 -407 -146q-127 0 -232 50t-172 139q-148 -189 -421 -189q-174 0 -272.5 75t-98.5 208q0 155 114.5 241.5t321.5 86.5h254q4 46 4 55q0 75 -46.5 116.5t-131.5 41.5q-136 0 -276 -123
l-107 201q196 159 422 159q230 0 324 -143q153 143 360 143q190 0 316 -126t126 -316q0 -107 -34 -188zM985 586h471v20q0 97 -55 153t-152 56q-98 0 -169.5 -62t-94.5 -167zM690 362l8 44h-215q-78 0 -119.5 -31t-41.5 -88q0 -51 37 -81t102 -30q90 0 152.5 51.5
t76.5 134.5zM829 1169l224 428h348l-8 -49l-346 -379h-218z" />
    <glyph glyph-name="Oslashacute" unicode="&#x1fe;" horiz-adv-x="1558" 
d="M1567 1243l-152 -145q111 -166 111 -375q3 -148 -59 -287.5t-166.5 -241t-247.5 -162t-295 -57.5q-221 0 -389 115l-156 -149l-158 168l152 145q-109 165 -109 375q-3 148 58.5 287.5t165 241t246 161.5t294.5 57q222 0 391 -114l156 149zM373 641q0 -109 37 -190
l651 622q-92 57 -217 57q-198 0 -334.5 -141t-136.5 -348zM1249 713q0 103 -39 188l-649 -625q94 -55 213 -55q199 0 337 143t138 349zM840 1483l198 381h348l-8 -49l-329 -332h-209z" />
    <glyph glyph-name="oslashacute" unicode="&#x1ff;" horiz-adv-x="1222" 
d="M1202 897l-117 -111q74 -115 74 -258q3 -146 -76 -275t-213.5 -205t-285.5 -73q-151 0 -279 78l-127 -121l-153 166l120 113q-77 121 -77 266q-3 146 75 275t211.5 205t284.5 73q158 0 289 -84l121 115zM332 481q0 -59 18 -108l414 387q-59 35 -133 35
q-124 0 -211.5 -92.5t-87.5 -221.5zM893 520q0 48 -16 101l-406 -383q58 -27 121 -27q126 0 213.5 90t87.5 219zM590 1169l223 428h348l-8 -49l-346 -379h-217z" />
    <glyph glyph-name="uni0218" unicode="&#x218;" horiz-adv-x="1144" 
d="M27 311l204 131q138 -217 340 -217q88 0 139.5 40t51.5 108q0 53 -36 91.5t-120 80.5l-139 73q-264 141 -264 359q0 173 132.5 286t332.5 113q299 0 450 -268l-207 -135q-56 80 -117.5 116.5t-140.5 36.5q-80 0 -126 -35t-46 -98q0 -49 31 -84.5t106 -77.5l148 -75
q140 -72 206 -158.5t66 -198.5q0 -181 -137 -302.5t-340 -121.5q-174 0 -311 86t-223 250zM264 -451l72 357h254l-115 -357h-211z" />
    <glyph glyph-name="uni0219" unicode="&#x219;" horiz-adv-x="933" 
d="M10 203l172 153q72 -85 132 -121t132 -36q61 0 96.5 22.5t35.5 59.5q0 29 -20 49t-75 45l-96 41q-127 54 -187.5 129.5t-60.5 179.5q0 141 100.5 226t266.5 85q246 0 377 -174l-162 -155q-95 108 -215 108q-47 0 -75 -21.5t-28 -56.5q0 -62 89 -100l90 -39
q135 -58 197.5 -127.5t62.5 -165.5q0 -142 -113 -236t-283 -94q-141 0 -255.5 59.5t-180.5 168.5zM211 -451l72 357h254l-115 -357h-211z" />
    <glyph glyph-name="uni021A" unicode="&#x21a;" horiz-adv-x="1204" 
d="M377 0l194 1102h-434l45 250h1143l-45 -250h-432l-195 -1102h-276zM303 -451l72 357h254l-115 -357h-211z" />
    <glyph glyph-name="uni021B" unicode="&#x21b;" horiz-adv-x="849" 
d="M518 782l-72 -393q-4 -28 -4 -47q0 -68 51.5 -97.5t159.5 -29.5q68 0 86 2l-41 -231q-79 -11 -123 -11q-192 0 -301.5 81.5t-109.5 234.5q0 30 10 98l70 393h-158l39 232h160l45 256h276l-47 -256h291l-39 -232h-293zM176 -451l72 357h254l-115 -357h-211z" />
    <glyph glyph-name="uni0237" unicode="&#x237;" horiz-adv-x="552" 
d="M-264 -356l39 227q56 -12 104 -12q78 0 119 34t55 109l178 1012h275l-187 -1061q-29 -169 -132 -257.5t-263 -88.5q-101 0 -188 37z" />
    <glyph glyph-name="uni0259" unicode="&#x259;" horiz-adv-x="1148" 
d="M1075 532q2 -111 -42.5 -214.5t-120.5 -179.5t-181 -120.5t-217 -42.5q-194 0 -322.5 122.5t-128.5 308.5q0 94 35 184h707q-17 105 -85 159t-183 54q-146 0 -283 -94l-100 184q182 143 409 143q223 0 367.5 -142t144.5 -362zM791 397h-463v-4q0 -88 56 -142t148 -54
t161 53.5t98 146.5z" />
    <glyph glyph-name="circumflex" unicode="&#x2c6;" horiz-adv-x="1024" 
d="M997 1169h-190l-127 193l-203 -193h-213l352 428h181z" />
    <glyph glyph-name="caron" unicode="&#x2c7;" horiz-adv-x="1024" 
d="M860 1597h211l-350 -428h-180l-201 428h188l129 -192z" />
    <glyph glyph-name="breve" unicode="&#x2d8;" horiz-adv-x="1024" 
d="M338 1483q0 29 14 100h215q-10 -72 -10 -84q0 -60 33.5 -93.5t93.5 -33.5t97.5 39t49.5 111l11 61h217l-10 -61q-26 -162 -128 -257.5t-251 -95.5q-147 0 -239.5 87.5t-92.5 226.5z" />
    <glyph glyph-name="dotaccent" unicode="&#x2d9;" horiz-adv-x="1024" 
d="M492 1382q0 73 51 122.5t125 49.5t126 -49.5t52 -122.5q0 -72 -52 -121t-126 -49t-125 49t-51 121z" />
    <glyph glyph-name="ring" unicode="&#x2da;" horiz-adv-x="1024" 
d="M408 1362q0 109 78.5 185.5t193.5 76.5q106 0 177 -68t71 -170q0 -109 -80 -186q-76 -76 -193 -76q-106 0 -176.5 67.5t-70.5 170.5zM752 1378q0 36 -22 58t-58 22q-37 0 -62.5 -25t-25.5 -63q0 -35 22.5 -58.5t55.5 -23.5q37 0 63.5 26t26.5 64z" />
    <glyph glyph-name="ogonek" unicode="&#x2db;" horiz-adv-x="1024" 
d="M172 -205q0 92 82 153t281 118l108 -66l-117 -55q-80 -39 -80 -88q0 -58 89 -58l73 4l-30 -178q-71 -18 -152 -18q-121 0 -187.5 50t-66.5 138z" />
    <glyph glyph-name="tilde" unicode="&#x2dc;" horiz-adv-x="1024" 
d="M676 1233l-55 39q-50 35 -78 35q-60 0 -72 -99h-209q12 166 74.5 256t171.5 90q79 0 149 -49l56 -37q49 -34 78 -34q58 0 73 98h207q-12 -166 -74.5 -256t-171.5 -90q-75 0 -149 47z" />
    <glyph glyph-name="hungarumlaut" unicode="&#x2dd;" horiz-adv-x="1024" 
d="M182 1169l224 428h303l-9 -49l-315 -379h-203zM627 1169l223 428h303l-8 -49l-316 -379h-202z" />
    <glyph glyph-name="gravecomb" unicode="&#x300;" horiz-adv-x="0" 
d="M-385 1169l-145 379l16 49h309l12 -428h-192z" />
    <glyph glyph-name="acutecomb" unicode="&#x301;" horiz-adv-x="0" 
d="M-643 1169l223 428h348l-8 -49l-346 -379h-217z" />
    <glyph glyph-name="uni0302" unicode="&#x302;" horiz-adv-x="0" 
d="M-29 1169h-190l-127 193l-203 -193h-213l352 428h181z" />
    <glyph glyph-name="tildecomb" unicode="&#x303;" horiz-adv-x="0" 
d="M-350 1233l-56 39q-50 35 -77 35q-60 0 -72 -99h-209q12 166 74.5 256t171.5 90q79 0 149 -49l56 -37q49 -34 77 -34q59 0 74 98h207q-12 -166 -74.5 -256t-171.5 -90q-75 0 -149 47z" />
    <glyph glyph-name="uni0304" unicode="&#x304;" horiz-adv-x="0" 
d="M-686 1274l39 217h618l-39 -217h-618z" />
    <glyph glyph-name="uni0306" unicode="&#x306;" horiz-adv-x="0" 
d="M-690 1483q0 29 14 100h215q-10 -72 -10 -84q0 -60 33.5 -93.5t93.5 -33.5t97.5 39t49.5 111l11 61h217l-11 -61q-26 -162 -127.5 -257.5t-250.5 -95.5q-147 0 -239.5 87.5t-92.5 226.5z" />
    <glyph glyph-name="uni0307" unicode="&#x307;" horiz-adv-x="0" 
d="M-535 1382q0 73 51.5 122.5t125.5 49.5t126 -49.5t52 -122.5q0 -72 -52 -121t-126 -49t-125.5 49t-51.5 121z" />
    <glyph glyph-name="uni0308" unicode="&#x308;" horiz-adv-x="0" 
d="M-778 1382q0 67 49.5 113.5t116.5 46.5q69 0 117.5 -46.5t48.5 -113.5q0 -63 -49.5 -110t-116.5 -47q-66 0 -116 47t-50 110zM-270 1382q0 67 49.5 113.5t116.5 46.5q69 0 117 -46.5t48 -113.5q0 -63 -49 -110t-116 -47q-63 0 -114.5 48t-51.5 109z" />
    <glyph glyph-name="uni030A" unicode="&#x30a;" horiz-adv-x="0" 
d="M-618 1362q0 109 78.5 185.5t193.5 76.5q106 0 177 -68t71 -170q0 -108 -78 -186q-79 -76 -195 -76q-106 0 -176.5 67.5t-70.5 170.5zM-274 1378q0 36 -22 58t-58 22q-37 0 -62.5 -25t-25.5 -63q0 -35 22.5 -58.5t54.5 -23.5q37 0 64 26t27 64z" />
    <glyph glyph-name="uni030B" unicode="&#x30b;" horiz-adv-x="0" 
d="M-844 1169l223 428h304l-9 -49l-315 -379h-203zM-399 1169l223 428h303l-8 -49l-316 -379h-202z" />
    <glyph glyph-name="uni030C" unicode="&#x30c;" horiz-adv-x="0" 
d="M-166 1597h211l-350 -428h-180l-201 428h188l129 -192z" />
    <glyph glyph-name="uni0326" unicode="&#x326;" horiz-adv-x="0" 
d="M-813 -451l72 357h254l-115 -357h-211z" />
    <glyph glyph-name="uni0327" unicode="&#x327;" horiz-adv-x="0" 
d="M-901 -358l31 178q86 -13 127 -13q74 0 108.5 39t34.5 123q0 32 -10 70l112 39q51 -32 80 -85t29 -110q0 -116 -95 -196t-233 -80q-97 0 -184 35z" />
    <glyph glyph-name="uni0328" unicode="&#x328;" horiz-adv-x="0" 
d="M-854 -205q0 92 81.5 153t280.5 118l109 -66l-117 -55q-80 -39 -80 -88q0 -58 88 -58l74 4l-31 -178q-71 -18 -151 -18q-121 0 -187.5 50t-66.5 138z" />
    <glyph glyph-name="tonos" unicode="&#x384;" horiz-adv-x="1024" 
d="M432 1169l146 428h327l-16 -49l-254 -379h-203z" />
    <glyph glyph-name="dieresistonos" unicode="&#x385;" horiz-adv-x="1024" 
d="M457 1169l143 428h320l-15 -49l-254 -379h-194zM131 1382q0 67 48.5 113.5t115.5 46.5q69 0 117.5 -46.5t48.5 -113.5q0 -63 -49.5 -110t-116.5 -47q-63 0 -113.5 48t-50.5 109zM877 1382q0 67 48 113.5t115 46.5q69 0 117.5 -46.5t48.5 -113.5q0 -63 -49.5 -110
t-116.5 -47q-63 0 -113 48t-50 109z" />
    <glyph glyph-name="Alphatonos" unicode="&#x386;" horiz-adv-x="1353" 
d="M956 0l-45 176h-546l-107 -176h-313l846 1376h92l360 -1376h-287zM852 403l-96 447l-254 -447h350zM63 934l87 418h284l-176 -418h-195z" />
    <glyph glyph-name="anoteleia" unicode="&#x387;" horiz-adv-x="573" 
d="M125 655q0 80 55.5 135.5t136.5 55.5q79 0 134 -55.5t55 -135.5q0 -81 -54.5 -135.5t-134.5 -54.5q-82 0 -137 54t-55 136z" />
    <glyph glyph-name="Epsilontonos" unicode="&#x388;" horiz-adv-x="1175" 
d="M70 0l237 1352h910l-43 -250h-635l-50 -275h467l-41 -235h-466l-60 -342h658l-43 -250h-934zM-219 934l86 418h285l-177 -418h-194z" />
    <glyph glyph-name="Etatonos" unicode="&#x389;" horiz-adv-x="1460" 
d="M70 0l237 1352h277l-90 -518h598l90 518h276l-237 -1352h-277l100 584h-598l-100 -584h-276zM-217 934l86 418h285l-177 -418h-194z" />
    <glyph glyph-name="Iotatonos" unicode="&#x38a;" horiz-adv-x="585" 
d="M70 0l237 1352h277l-238 -1352h-276zM-219 934l86 418h285l-177 -418h-194z" />
    <glyph glyph-name="Omicrontonos" unicode="&#x38c;" horiz-adv-x="1593" 
d="M115 629q-3 150 59.5 289.5t167.5 240.5t247.5 160.5t293.5 56.5q139 2 263.5 -48.5t212 -138t137.5 -209t48 -257.5q3 -150 -59.5 -289.5t-167.5 -241t-247.5 -161t-293.5 -56.5q-138 -2 -262 48.5t-212 138t-138.5 210t-48.5 257.5zM1260 713q0 180 -111.5 293.5
t-286.5 113.5q-194 0 -328.5 -138.5t-134.5 -340.5q0 -182 111 -296t285 -114q128 0 235 64t168.5 175t61.5 243zM-143 934l86 418h284l-176 -418h-194z" />
    <glyph glyph-name="Upsilontonos" unicode="&#x38e;" horiz-adv-x="1277" 
d="M1384 1352l-610 -828l-92 -524h-276l94 537l-324 815h279l221 -537l389 537h319zM-268 934l86 418h284l-176 -418h-194z" />
    <glyph glyph-name="Omegatonos" unicode="&#x38f;" horiz-adv-x="1613" 
d="M1292 250h203l-43 -250h-604l43 250q189 73 290 198.5t101 284.5q0 173 -115 280t-299 107q-198 0 -329 -131t-131 -330q0 -129 65 -234t184 -175l-43 -250h-557l43 250h226q-95 87 -148 198t-53 228q-2 98 31 199t98 191.5t152.5 161t205.5 111t246 37.5
q196 3 360.5 -80t258 -227.5t90.5 -314.5q0 -150 -70 -281t-205 -223zM-100 934l86 418h284l-176 -418h-194z" />
    <glyph glyph-name="iotadieresistonos" unicode="&#x390;" horiz-adv-x="655" 
d="M98 250q0 45 13 112l116 652h275l-111 -625q-8 -41 -8 -72q0 -94 115 -94q50 0 86 8l-41 -231q-59 -25 -123 -25q-149 0 -235.5 74t-86.5 201zM256 1169l143 428h320l-14 -49l-254 -379h-195zM-70 1382q0 67 48.5 113.5t115.5 46.5q69 0 117.5 -46.5t48.5 -113.5
q0 -63 -49.5 -110t-116.5 -47q-63 0 -113.5 48t-50.5 109zM676 1382q0 67 48.5 113.5t115.5 46.5q69 0 117.5 -46.5t48.5 -113.5q0 -63 -49.5 -110t-116.5 -47q-63 0 -113.5 48t-50.5 109z" />
    <glyph glyph-name="Alpha" unicode="&#x391;" horiz-adv-x="1353" 
d="M956 0l-45 176h-546l-107 -176h-313l846 1376h92l360 -1376h-287zM852 403l-96 447l-254 -447h350z" />
    <glyph glyph-name="Beta" unicode="&#x392;" horiz-adv-x="1269" 
d="M1180 406q0 -176 -136.5 -291t-349.5 -115h-624l237 1352h438q180 0 290 -99.5t110 -261.5q0 -183 -141 -282q85 -47 130.5 -125.5t45.5 -177.5zM705 1116h-173l-55 -311h201q88 0 139 45t51 123q0 68 -42.5 105.5t-120.5 37.5zM905 414q0 75 -47 118t-131 43h-291
l-59 -337h315q100 0 156.5 46t56.5 130z" />
    <glyph glyph-name="Gamma" unicode="&#x393;" horiz-adv-x="1073" 
d="M70 0l237 1352h869l-43 -250h-594l-193 -1102h-276z" />
    <glyph glyph-name="uni0394" unicode="&#x394;" horiz-adv-x="1353" 
d="M881 1376l342 -1302l-13 -74h-1233l13 74l798 1302h93zM891 250l-141 571l-347 -571h488z" />
    <glyph glyph-name="Epsilon" unicode="&#x395;" horiz-adv-x="1175" 
d="M70 0l237 1352h910l-43 -250h-635l-50 -275h467l-41 -235h-466l-60 -342h658l-43 -250h-934z" />
    <glyph glyph-name="Zeta" unicode="&#x396;" horiz-adv-x="1204" 
d="M1296 1352l-12 -74l-856 -1028h676l-43 -250h-1106l12 74l854 1028h-583l43 250h1015z" />
    <glyph glyph-name="Eta" unicode="&#x397;" horiz-adv-x="1460" 
d="M70 0l237 1352h277l-90 -518h598l90 518h276l-237 -1352h-277l100 584h-598l-100 -584h-276z" />
    <glyph glyph-name="Theta" unicode="&#x398;" horiz-adv-x="1593" 
d="M115 629q-3 148 59 287.5t166.5 241t247.5 161.5t295 57q138 1 262 -49t212 -136.5t138.5 -208.5t48.5 -259q3 -148 -59 -287.5t-166.5 -241t-247.5 -162t-295 -57.5q-138 -1 -262 49t-212 137t-138.5 209t-48.5 259zM1260 713q0 180 -111.5 293.5t-286.5 113.5
q-127 0 -233.5 -63.5t-168 -173.5t-61.5 -242q0 -180 111.5 -295t284.5 -115q128 0 235 64t168.5 175t61.5 243zM520 559l39 227h578l-39 -227h-578z" />
    <glyph glyph-name="Iota" unicode="&#x399;" horiz-adv-x="585" 
d="M70 0l237 1352h277l-238 -1352h-276z" />
    <glyph glyph-name="Kappa" unicode="&#x39a;" horiz-adv-x="1372" 
d="M1432 1352l-639 -664l469 -688h-310l-481 707l-125 -707h-276l237 1352h277l-111 -629l606 629h353z" />
    <glyph glyph-name="Lambda" unicode="&#x39b;" horiz-adv-x="1353" 
d="M1243 0h-287l-208 827l-490 -827h-313l843 1376h93z" />
    <glyph glyph-name="Mu" unicode="&#x39c;" horiz-adv-x="1634" 
d="M1544 1376h90l-241 -1376h-277l123 696l-389 -401h-92l-281 453l-131 -748h-276l241 1376h90l443 -731z" />
    <glyph glyph-name="Nu" unicode="&#x39d;" horiz-adv-x="1460" 
d="M1182 1352h276l-241 -1377h-93l-635 859l-143 -834h-276l241 1376h90l637 -852z" />
    <glyph glyph-name="Xi" unicode="&#x39e;" horiz-adv-x="1300" 
d="M195 1102l43 250h1128l-43 -250h-1128zM244 545l43 250h839l-45 -250h-837zM0 0l45 250h1126l-43 -250h-1128z" />
    <glyph glyph-name="Omicron" unicode="&#x39f;" horiz-adv-x="1593" 
d="M115 629q-3 150 59.5 289.5t167.5 240.5t247.5 160.5t293.5 56.5q139 2 263.5 -48.5t212 -138t137.5 -209t48 -257.5q3 -150 -59.5 -289.5t-167.5 -241t-247.5 -161t-293.5 -56.5q-138 -2 -262 48.5t-212 138t-138.5 210t-48.5 257.5zM1260 713q0 180 -111.5 293.5
t-286.5 113.5q-194 0 -328.5 -138.5t-134.5 -340.5q0 -182 111 -296t285 -114q128 0 235 64t168.5 175t61.5 243z" />
    <glyph glyph-name="Pi" unicode="&#x3a0;" horiz-adv-x="1415" 
d="M70 0l237 1352h1104l-237 -1352h-277l195 1102h-553l-193 -1102h-276z" />
    <glyph glyph-name="Rho" unicode="&#x3a1;" horiz-adv-x="1226" 
d="M70 0l237 1352h455q217 0 344 -110.5t127 -299.5q0 -207 -154 -336t-403 -129h-248l-82 -477h-276zM471 719h248q106 0 168.5 55.5t62.5 151.5q0 87 -50.5 134.5t-143.5 47.5h-215z" />
    <glyph glyph-name="Sigma" unicode="&#x3a3;" horiz-adv-x="1169" 
d="M1210 1352l-45 -250h-559l217 -387l-10 -45l-340 -420h567l-43 -250h-1011l10 70l518 655l-301 557l10 70h987z" />
    <glyph glyph-name="Tau" unicode="&#x3a4;" horiz-adv-x="1204" 
d="M377 0l194 1102h-434l45 250h1143l-45 -250h-432l-195 -1102h-276z" />
    <glyph glyph-name="Upsilon" unicode="&#x3a5;" horiz-adv-x="1277" 
d="M1384 1352l-610 -828l-92 -524h-276l94 537l-324 815h279l221 -537l389 537h319z" />
    <glyph glyph-name="Phi" unicode="&#x3a6;" horiz-adv-x="1744" 
d="M633 -86l22 127q-238 22 -390 180.5t-152 386.5q0 154 56 285t156 223.5t243.5 144.5t312.5 52l20 123h277l-21 -127q237 -22 389 -181t152 -385q2 -152 -55 -284t-158 -224.5t-245 -144.5t-310 -51l-21 -125h-276zM696 279l142 794q-200 0 -326.5 -125t-126.5 -325
q0 -146 86 -241.5t225 -102.5zM1425 727q0 146 -85 241t-226 105l-141 -797q202 0 327 126t125 325z" />
    <glyph glyph-name="Chi" unicode="&#x3a7;" horiz-adv-x="1251" 
d="M1350 1352l-531 -688l322 -664h-293l-221 459l-353 -459h-335l567 717l-303 635h293l198 -434l320 434h336z" />
    <glyph glyph-name="Psi" unicode="&#x3a8;" horiz-adv-x="1642" 
d="M596 0l53 297q-202 9 -331.5 146.5t-129.5 340.5q0 50 11 111l80 457h278l-82 -461q-8 -31 -8 -82q0 -115 61.5 -187t161.5 -77l141 807h277l-139 -805q136 -2 222 80t112 241l86 484h278l-92 -518q-47 -264 -207 -397t-442 -140l-54 -297h-276z" />
    <glyph glyph-name="uni03A9" unicode="&#x3a9;" horiz-adv-x="1613" 
d="M1292 250h203l-43 -250h-604l43 250q189 73 290 198.5t101 284.5q0 173 -115 280t-299 107q-198 0 -329 -131t-131 -330q0 -129 65 -234t184 -175l-43 -250h-557l43 250h226q-95 87 -148 198t-53 228q-2 98 31 199t98 191.5t152.5 161t205.5 111t246 37.5
q196 3 360.5 -80t258 -227.5t90.5 -314.5q0 -150 -70 -281t-205 -223z" />
    <glyph glyph-name="Iotadieresis" unicode="&#x3aa;" horiz-adv-x="585" 
d="M70 0l237 1352h277l-238 -1352h-276zM72 1667q0 67 48.5 113.5t115.5 46.5q69 0 118 -46.5t49 -113.5q0 -64 -49.5 -111t-117.5 -47q-63 0 -113.5 48.5t-50.5 109.5zM612 1665q0 67 49.5 114.5t116.5 47.5q68 0 117 -47.5t49 -114.5q0 -63 -49.5 -110.5t-116.5 -47.5
q-66 0 -116 47.5t-50 110.5z" />
    <glyph glyph-name="Upsilondieresis" unicode="&#x3ab;" horiz-adv-x="1277" 
d="M1384 1352l-610 -828l-92 -524h-276l94 537l-324 815h279l221 -537l389 537h319zM387 1667q0 67 48.5 113.5t115.5 46.5q69 0 118.5 -46.5t49.5 -113.5q0 -63 -49.5 -110.5t-118.5 -47.5q-63 0 -113.5 48.5t-50.5 109.5zM928 1665q0 67 49.5 114.5t116.5 47.5
q68 0 117 -47.5t49 -114.5q0 -63 -49.5 -110.5t-116.5 -47.5q-66 0 -116 47.5t-50 110.5z" />
    <glyph glyph-name="alphatonos" unicode="&#x3ac;" horiz-adv-x="1327" 
d="M1200 213q41 0 51 2l-41 -229q-40 -9 -106 -9q-181 0 -236 138q-128 -140 -331 -140t-333 135t-130 345q-2 158 70.5 293t198 213t273.5 75q117 0 206 -43t136 -123l35 146h267q-58 -231 -105 -490l-27 -159q-12 -59 -12 -80q0 -74 84 -74zM881 532q0 116 -66.5 187.5
t-175.5 71.5q-119 0 -200 -89t-81 -219q0 -115 68 -187.5t174 -72.5q118 0 199.5 90t81.5 219zM580 1169l145 428h328l-17 -49l-254 -379h-202z" />
    <glyph glyph-name="epsilontonos" unicode="&#x3ad;" horiz-adv-x="1050" 
d="M809 311l129 -178q-75 -73 -197.5 -115.5t-259.5 -42.5q-198 0 -311 77t-113 212q0 88 53.5 156t149.5 100q-86 86 -86 209q0 139 119.5 223t316.5 84q277 0 416 -174l-158 -157q-36 47 -107.5 73.5t-158.5 26.5q-75 0 -117.5 -27t-42.5 -76q0 -41 31.5 -64.5t87.5 -23.5
h164l-35 -202h-196q-78 0 -120 -27t-42 -78q0 -96 182 -96q88 0 155.5 23t139.5 77zM520 1169l146 428h327l-16 -49l-254 -379h-203z" />
    <glyph glyph-name="etatonos" unicode="&#x3ae;" horiz-adv-x="1243" 
d="M1145 696q0 -30 -12 -112l-170 -953h-275l166 936q8 36 8 72q0 73 -47 116.5t-123 43.5q-79 0 -136.5 -48.5t-74.5 -134.5l-108 -616h-277l115 641q8 52 8 76q0 39 -22.5 60.5t-63.5 21.5h-51l41 227q52 10 104 10q174 0 236 -127q142 127 323 127q161 0 260 -94t99 -246
zM641 1169l145 428h328l-16 -49l-254 -379h-203z" />
    <glyph glyph-name="iotatonos" unicode="&#x3af;" horiz-adv-x="655" 
d="M98 250q0 45 13 112l116 652h275l-111 -625q-8 -41 -8 -72q0 -94 115 -94q50 0 86 8l-41 -231q-59 -25 -123 -25q-149 0 -235.5 74t-86.5 201zM256 1169l145 428h328l-16 -49l-254 -379h-203z" />
    <glyph glyph-name="upsilondieresistonos" unicode="&#x3b0;" horiz-adv-x="1187" 
d="M117 375q0 33 10 98l92 541h277l-101 -578q-4 -20 -4 -47q0 -72 50 -118t128 -46t132.5 47t68.5 125l107 617h274l-109 -621q-32 -195 -162 -306.5t-325 -111.5q-194 0 -316 111.5t-122 288.5zM559 1169l143 428h320l-14 -49l-254 -379h-195zM233 1382q0 67 48.5 113.5
t115.5 46.5q69 0 117.5 -46.5t48.5 -113.5q0 -63 -49.5 -110t-116.5 -47q-63 0 -113.5 48t-50.5 109zM979 1382q0 67 48.5 113.5t115.5 46.5q69 0 117.5 -46.5t48.5 -113.5q0 -63 -49.5 -110t-116.5 -47q-63 0 -113.5 48t-50.5 109z" />
    <glyph glyph-name="alpha" unicode="&#x3b1;" horiz-adv-x="1327" 
d="M1200 213q41 0 51 2l-41 -229q-40 -9 -106 -9q-181 0 -236 138q-128 -140 -331 -140t-333 135t-130 345q-2 158 70.5 293t198 213t273.5 75q117 0 206 -43t136 -123l35 146h267q-58 -231 -105 -490l-27 -159q-12 -59 -12 -80q0 -74 84 -74zM881 532q0 116 -66.5 187.5
t-175.5 71.5q-119 0 -200 -89t-81 -219q0 -115 68 -187.5t174 -72.5q118 0 199.5 90t81.5 219z" />
    <glyph glyph-name="beta" unicode="&#x3b2;" horiz-adv-x="1269" 
d="M1190 481q0 -217 -149 -360.5t-373 -143.5q-238 0 -381.5 128.5t-143.5 345.5q0 51 11 122l88 514q38 222 180.5 345.5t361.5 123.5q198 0 318.5 -100.5t120.5 -267.5q0 -107 -49.5 -194.5t-157.5 -164.5q174 -139 174 -348zM512 1081l-47 -266q205 78 303 128.5t136 96
t42 113.5q0 69 -51 112.5t-135 43.5q-99 0 -163.5 -59.5t-84.5 -168.5zM915 479q0 130 -112 228q-142 -69 -385 -150q-6 -46 -6 -78q0 -115 68.5 -188.5t174.5 -73.5q117 0 188.5 72t71.5 190z" />
    <glyph glyph-name="gamma" unicode="&#x3b3;" horiz-adv-x="1128" 
d="M1182 1014l-572 -969l-73 -414h-275l72 404l-234 979h277l141 -682l356 682h308z" />
    <glyph glyph-name="delta" unicode="&#x3b4;" horiz-adv-x="1230" 
d="M1264 1536l-41 -250h-510l274 -346q93 -116 132.5 -208.5t39.5 -194.5q2 -112 -42.5 -216.5t-120 -180.5t-180 -120.5t-216.5 -42.5q-230 0 -375 140t-145 360q0 222 150.5 374.5t381.5 164.5l-348 446l10 74h990zM877 524q0 117 -66 186.5t-176 69.5q-122 0 -197.5 -83
t-75.5 -216q0 -117 64.5 -186.5t173.5 -69.5q119 0 197 84q80 86 80 215z" />
    <glyph glyph-name="epsilon" unicode="&#x3b5;" horiz-adv-x="1050" 
d="M809 311l129 -178q-75 -73 -197.5 -115.5t-259.5 -42.5q-198 0 -311 77t-113 212q0 88 53.5 156t149.5 100q-86 86 -86 209q0 139 119.5 223t316.5 84q277 0 416 -174l-158 -157q-36 47 -107.5 73.5t-158.5 26.5q-75 0 -117.5 -27t-42.5 -76q0 -41 31.5 -64.5t87.5 -23.5
h164l-35 -202h-196q-78 0 -120 -27t-42 -78q0 -96 182 -96q88 0 155.5 23t139.5 77z" />
    <glyph glyph-name="zeta" unicode="&#x3b6;" horiz-adv-x="999" 
d="M1112 1462l-577 -700q-106 -126 -148 -205q-37 -70 -37 -139q1 -66 48 -109t145 -69l100 -27q115 -29 180.5 -108.5t65.5 -188.5q0 -129 -105 -285h-270q90 146 90 232q0 101 -135 139l-92 23q-140 35 -223.5 134.5t-83.5 229.5q0 110 57 215q58 111 209 293l323 389
h-426l37 250l852 2z" />
    <glyph glyph-name="eta" unicode="&#x3b7;" horiz-adv-x="1243" 
d="M1145 696q0 -30 -12 -112l-170 -953h-275l166 936q8 36 8 72q0 73 -47 116.5t-123 43.5q-79 0 -136.5 -48.5t-74.5 -134.5l-108 -616h-277l115 641q8 52 8 76q0 39 -22.5 60.5t-63.5 21.5h-51l41 227q52 10 104 10q174 0 236 -127q142 127 323 127q161 0 260 -94t99 -246
z" />
    <glyph glyph-name="theta" unicode="&#x3b8;" horiz-adv-x="1312" 
d="M1286 987q2 -214 -49.5 -403t-142 -323t-218.5 -210.5t-272 -73.5q-222 0 -356.5 141.5t-134.5 373.5q0 95 20 192h268q-12 -95 -12 -154q0 -149 56.5 -227t162.5 -78q108 0 197.5 89.5t140.5 248.5q-328 66 -480.5 192t-152.5 332q0 205 140 339.5t352 134.5
q235 0 358 -146.5t123 -427.5zM997 799q11 121 11 184q0 171 -51.5 249.5t-163.5 78.5q-91 0 -150 -61.5t-59 -155.5q0 -111 98.5 -181.5t314.5 -113.5z" />
    <glyph glyph-name="iota" unicode="&#x3b9;" horiz-adv-x="655" 
d="M98 250q0 45 13 112l116 652h275l-111 -625q-8 -41 -8 -72q0 -94 115 -94q50 0 86 8l-41 -231q-59 -25 -123 -25q-149 0 -235.5 74t-86.5 201z" />
    <glyph glyph-name="kappa" unicode="&#x3ba;" horiz-adv-x="1142" 
d="M1194 1014l-463 -488l313 -526h-303l-319 541l-94 -541h-277l178 1014h277l-82 -461l436 461h334z" />
    <glyph glyph-name="lambda" unicode="&#x3bb;" horiz-adv-x="1171" 
d="M1108 227l-39 -227q-47 -18 -111 -18q-99 0 -162.5 62.5t-86.5 184.5l-86 441l-392 -670h-292l608 1026l-23 121q-26 166 -176 166q-20 0 -86 -4l43 231q53 21 125 21q135 0 229.5 -90.5t126.5 -251.5l179 -908q15 -86 92 -86q37 0 51 2z" />
    <glyph glyph-name="uni03BC" unicode="&#x3bc;" horiz-adv-x="1249" 
d="M1174 215l-41 -229q-59 -9 -107 -9q-158 0 -223 111q-107 -113 -260 -113q-130 0 -207 80l-74 -424h-276l243 1383h277l-100 -572q-1 -4 -3.5 -16.5t-4 -24.5t-1.5 -22q0 -73 48 -117.5t126 -44.5q81 0 137.5 48t69.5 132l111 617h274l-116 -654q-9 -49 -9 -73
q0 -74 84 -74q42 0 52 2z" />
    <glyph glyph-name="nu" unicode="&#x3bd;" horiz-adv-x="1140" 
d="M887 1014h309l-684 -1039h-92l-320 1039h281l154 -570z" />
    <glyph glyph-name="xi" unicode="&#x3be;" horiz-adv-x="991" 
d="M537 1075q0 -79 51 -127.5t135 -48.5h215l-39 -233h-295q-106 0 -179 -68t-73 -170q0 -80 48.5 -127.5t150.5 -67.5l90 -18q115 -23 180.5 -96t65.5 -176q0 -121 -111 -312h-274q90 143 90 234q0 98 -111 121l-92 20q-152 32 -240 138.5t-88 258.5q0 140 82 250t222 160
q-105 77 -105 221q0 79 39 144t113 108h-183l43 250h854l-43 -250h-321q-97 0 -161 -60t-64 -151z" />
    <glyph glyph-name="omicron" unicode="&#x3bf;" horiz-adv-x="1243" 
d="M78 483q-3 148 75.5 277t212 204t285.5 72q220 0 370 -146t150 -362q2 -111 -44 -214t-124.5 -178t-186 -119t-222.5 -42q-221 0 -368.5 145.5t-147.5 362.5zM889 524q0 116 -70 190t-180 74q-117 0 -198 -88t-81 -215q0 -117 67.5 -188.5t176.5 -71.5q122 0 203.5 86
t81.5 213z" />
    <glyph glyph-name="pi" unicode="&#x3c0;" horiz-adv-x="1206" 
d="M66 0l137 764h-140l46 252h1167l-43 -252h-139l-138 -764h-274l137 764h-340l-137 -764h-276z" />
    <glyph glyph-name="rho" unicode="&#x3c1;" horiz-adv-x="1253" 
d="M1184 559q2 -117 -39.5 -225.5t-112 -188t-168 -126t-202.5 -44.5q-106 0 -190.5 39t-133.5 111l-86 -494h-277l158 887q43 250 184 384t359 134q227 0 367.5 -131.5t140.5 -345.5zM903 528q0 117 -64.5 188.5t-170.5 71.5q-117 0 -193 -88q-76 -85 -76 -219
q0 -115 64.5 -185.5t169.5 -70.5q115 0 192 86q78 87 78 217z" />
    <glyph glyph-name="uni03C2" unicode="&#x3c2;" horiz-adv-x="1089" 
d="M610 -160q0 59 -28 95t-86 57l-76 26q-179 70 -260.5 175.5t-81.5 275.5q0 162 76 292t206 201.5t287 71.5q156 0 273 -71.5t172 -194.5l-205 -137q-94 155 -250 155q-122 0 -200.5 -81t-78.5 -211q0 -100 53.5 -158.5t188.5 -108.5l62 -20q125 -47 185 -117t60 -168
q0 -122 -102 -291h-273q78 122 78 209z" />
    <glyph glyph-name="sigma" unicode="&#x3c3;" horiz-adv-x="1300" 
d="M1352 1014l-43 -250h-250q94 -104 94 -260q4 -139 -75 -263t-212.5 -196.5t-283.5 -69.5q-220 0 -362 142t-142 360q0 237 166.5 387t429.5 150h678zM870 522q0 116 -64 185t-173 69q-119 0 -196 -83t-77 -212q0 -116 65 -186t171 -70q121 0 197.5 83t76.5 214z" />
    <glyph glyph-name="tau" unicode="&#x3c4;" horiz-adv-x="1013" 
d="M639 764l-59 -344q-7 -40 -7 -64q0 -135 199 -135q66 0 119 6l-41 -231q-94 -21 -170 -21q-180 0 -283.5 89t-103.5 243q0 33 10 111l62 346h-299l45 250h929l-45 -250h-356z" />
    <glyph glyph-name="upsilon" unicode="&#x3c5;" horiz-adv-x="1187" 
d="M117 375q0 33 10 98l92 541h277l-101 -578q-4 -20 -4 -47q0 -72 50 -118t128 -46t132.5 47t68.5 125l107 617h274l-109 -621q-32 -195 -162 -306.5t-325 -111.5q-194 0 -316 111.5t-122 288.5z" />
    <glyph glyph-name="phi" unicode="&#x3c6;" horiz-adv-x="1613" 
d="M854 -25l-59 -344h-277l62 344q-226 3 -366 133t-140 336q0 239 147 401.5t391 190.5l35 -243q-137 -29 -213.5 -113.5t-77.5 -208.5q0 -110 72.5 -176.5t194.5 -71.5l69 400q35 199 148.5 306t289.5 107q192 0 307 -120t115 -318q0 -277 -193 -450t-505 -173zM1270 590
q0 96 -40 147t-114 51q-125 0 -151 -176l-68 -389q170 3 270 103q103 103 103 264z" />
    <glyph glyph-name="chi" unicode="&#x3c7;" horiz-adv-x="1126" 
d="M920 -139q59 0 69 2l-41 -232q-50 -20 -114 -20q-180 0 -256 199l-101 270l-307 -449h-322l521 717l-119 350q-17 48 -45.5 69t-77.5 21l-66 -2l41 230q64 18 123 18q101 0 160.5 -46.5t95.5 -147.5l84 -256l289 430h320l-504 -699l141 -372q18 -44 42.5 -63t66.5 -19z
" />
    <glyph glyph-name="psi" unicode="&#x3c8;" horiz-adv-x="1650" 
d="M549 -369l59 344q-209 0 -346 123.5t-137 311.5q0 53 8 94l86 510h275l-82 -490q-6 -24 -6 -65q0 -106 66.5 -170t176.5 -64l195 1127h274l-192 -1127q134 0 219.5 78.5t111.5 226.5l84 484h275l-88 -506q-95 -533 -645 -533l-60 -344h-274z" />
    <glyph glyph-name="omega" unicode="&#x3c9;" horiz-adv-x="1634" 
d="M1565 578q0 -176 -60 -313.5t-168.5 -213.5t-246.5 -76q-197 0 -295 140q-124 -140 -308 -140q-189 0 -303 123q-112 124 -112 332q0 234 130 401t343 207l45 -231q-117 -43 -179.5 -136.5t-62.5 -228.5q0 -104 40 -160.5t114 -56.5q139 0 174 199l47 274h260l-43 -254
q-6 -61 -6 -63q0 -75 38 -115.5t107 -40.5q90 0 147.5 89.5t57.5 226.5q0 103 -32 168t-101 102l125 225q289 -78 289 -458z" />
    <glyph glyph-name="iotadieresis" unicode="&#x3ca;" horiz-adv-x="655" 
d="M98 250q0 45 13 112l116 652h275l-111 -625q-8 -41 -8 -72q0 -94 115 -94q50 0 86 8l-41 -231q-59 -25 -123 -25q-149 0 -235.5 74t-86.5 201zM33 1384q0 67 49.5 113.5t116.5 46.5q68 0 117 -46.5t49 -113.5q0 -66 -49 -112.5t-117 -46.5q-66 0 -116 48t-50 111z
M500 1384q0 67 48.5 113.5t115.5 46.5q69 0 117 -46.5t48 -113.5q0 -66 -48 -112.5t-117 -46.5q-63 0 -113.5 48t-50.5 111z" />
    <glyph glyph-name="upsilondieresis" unicode="&#x3cb;" horiz-adv-x="1187" 
d="M117 375q0 33 10 98l92 541h277l-101 -578q-4 -20 -4 -47q0 -72 50 -118t128 -46t132.5 47t68.5 125l107 617h274l-109 -621q-32 -195 -162 -306.5t-325 -111.5q-194 0 -316 111.5t-122 288.5zM307 1382q0 67 49.5 113.5t116.5 46.5q69 0 117.5 -46.5t48.5 -113.5
q0 -63 -49.5 -110t-116.5 -47q-66 0 -116 47t-50 110zM815 1382q0 67 49.5 113.5t116.5 46.5q69 0 117.5 -46.5t48.5 -113.5q0 -63 -49.5 -110t-116.5 -47q-63 0 -114.5 48t-51.5 109z" />
    <glyph glyph-name="omicrontonos" unicode="&#x3cc;" horiz-adv-x="1243" 
d="M78 483q-3 148 75.5 277t212 204t285.5 72q220 0 370 -146t150 -362q2 -111 -44 -214t-124.5 -178t-186 -119t-222.5 -42q-221 0 -368.5 145.5t-147.5 362.5zM889 524q0 116 -70 190t-180 74q-117 0 -198 -88t-81 -215q0 -117 67.5 -188.5t176.5 -71.5q122 0 203.5 86
t81.5 213zM565 1169l146 428h327l-16 -49l-254 -379h-203z" />
    <glyph glyph-name="upsilontonos" unicode="&#x3cd;" horiz-adv-x="1187" 
d="M117 375q0 33 10 98l92 541h277l-101 -578q-4 -20 -4 -47q0 -72 50 -118t128 -46t132.5 47t68.5 125l107 617h274l-109 -621q-32 -195 -162 -306.5t-325 -111.5q-194 0 -316 111.5t-122 288.5zM559 1169l146 428h327l-16 -49l-254 -379h-203z" />
    <glyph glyph-name="omegatonos" unicode="&#x3ce;" horiz-adv-x="1634" 
d="M1565 578q0 -176 -60 -313.5t-168.5 -213.5t-246.5 -76q-197 0 -295 140q-124 -140 -308 -140q-189 0 -303 123q-112 124 -112 332q0 234 130 401t343 207l45 -231q-117 -43 -179.5 -136.5t-62.5 -228.5q0 -104 40 -160.5t114 -56.5q139 0 174 199l47 274h260l-43 -254
q-6 -61 -6 -63q0 -75 38 -115.5t107 -40.5q90 0 147.5 89.5t57.5 226.5q0 103 -32 168t-101 102l125 225q289 -78 289 -458zM801 1169l145 428h328l-17 -49l-253 -379h-203z" />
    <glyph glyph-name="uni0400" unicode="&#x400;" horiz-adv-x="1175" 
d="M70 0l237 1352h910l-43 -250h-635l-50 -275h467l-41 -235h-466l-60 -342h658l-43 -250h-934zM672 1483l-205 332l8 49h311l84 -381h-198z" />
    <glyph glyph-name="uni0401" unicode="&#x401;" horiz-adv-x="1175" 
d="M70 0l237 1352h910l-43 -250h-635l-50 -275h467l-41 -235h-466l-60 -342h658l-43 -250h-934zM377 1667q0 67 48.5 113.5t115.5 46.5q69 0 118.5 -46.5t49.5 -113.5q0 -63 -49.5 -110.5t-118.5 -47.5q-63 0 -113.5 48.5t-50.5 109.5zM918 1665q0 67 49 114.5t116 47.5
q68 0 117 -47.5t49 -114.5q0 -63 -49.5 -110.5t-116.5 -47.5q-66 0 -115.5 47.5t-49.5 110.5z" />
    <glyph glyph-name="uni0402" unicode="&#x402;" horiz-adv-x="1540" 
d="M895 -37l-10 246q138 10 209 65t71 148q0 168 -200 168q-65 0 -135.5 -13t-118.5 -36l-95 -541h-276l195 1102h-398l45 250h1127l-45 -250h-453l-55 -318q124 47 274 47q188 0 306 -106t118 -272q0 -205 -151 -338t-408 -152z" />
    <glyph glyph-name="uni0403" unicode="&#x403;" horiz-adv-x="1075" 
d="M70 0l237 1352h871l-43 -250h-596l-193 -1102h-276zM635 1483l199 381h348l-8 -49l-330 -332h-209z" />
    <glyph glyph-name="uni0404" unicode="&#x404;" horiz-adv-x="1474" 
d="M1200 440l195 -155q-109 -148 -268.5 -229t-344.5 -81q-140 -2 -264.5 48t-213.5 137t-140 209.5t-49 259.5q-4 148 58.5 287.5t167.5 241t249 161.5t297 57q201 0 354.5 -95.5t231.5 -268.5l-226 -135q-120 243 -377 243q-157 0 -276.5 -86.5t-167.5 -230.5h612
l-41 -238h-591q23 -153 130.5 -243.5t266.5 -90.5q233 0 397 209z" />
    <glyph glyph-name="uni0405" unicode="&#x405;" horiz-adv-x="1144" 
d="M27 311l204 131q138 -217 340 -217q88 0 139.5 40t51.5 108q0 53 -36 91.5t-120 80.5l-139 73q-264 141 -264 359q0 173 132.5 286t332.5 113q299 0 450 -268l-207 -135q-56 80 -117.5 116.5t-140.5 36.5q-80 0 -126 -35t-46 -98q0 -49 31 -84.5t106 -77.5l148 -75
q140 -72 206 -158.5t66 -198.5q0 -181 -137 -302.5t-340 -121.5q-174 0 -311 86t-223 250z" />
    <glyph glyph-name="uni0406" unicode="&#x406;" horiz-adv-x="585" 
d="M70 0l237 1352h277l-238 -1352h-276z" />
    <glyph glyph-name="uni0407" unicode="&#x407;" horiz-adv-x="585" 
d="M70 0l237 1352h277l-238 -1352h-276zM72 1667q0 67 48.5 113.5t115.5 46.5q69 0 118 -46.5t49 -113.5q0 -64 -49.5 -111t-117.5 -47q-63 0 -113.5 48.5t-50.5 109.5zM612 1665q0 67 49.5 114.5t116.5 47.5q68 0 117 -47.5t49 -114.5q0 -63 -49.5 -110.5t-116.5 -47.5
q-66 0 -116 47.5t-50 110.5z" />
    <glyph glyph-name="uni0408" unicode="&#x408;" horiz-adv-x="800" 
d="M-49 20l43 232q108 -21 168 -21q84 0 127.5 36.5t60.5 121.5l168 963h277l-179 -1014q-31 -177 -135 -270t-274 -93q-137 0 -256 45z" />
    <glyph glyph-name="uni0409" unicode="&#x409;" horiz-adv-x="1980" 
d="M1896 465q0 -210 -155.5 -337.5t-409.5 -127.5h-532l192 1102h-348q-83 -428 -170 -682q-81 -238 -184.5 -339t-259.5 -101q-65 0 -115 20l41 236q25 -5 57 -5q87 0 148 88q60 88 109.5 267t111.5 516l45 250h887l-82 -463h186q223 0 351 -113.5t128 -310.5zM1614 449
q0 94 -52 145t-149 51h-225l-72 -401h258q113 0 176.5 54t63.5 151z" />
    <glyph glyph-name="uni040A" unicode="&#x40a;" horiz-adv-x="2033" 
d="M70 0l237 1352h277l-88 -484h508l86 484h276l-86 -484h188q219 0 351 -108q133 -109 133 -287q0 -211 -157 -342t-409 -131h-534l106 625h-505l-107 -625h-276zM1171 244h259q109 0 174 55t65 147q0 85 -54.5 132t-152.5 47h-223z" />
    <glyph glyph-name="uni040B" unicode="&#x40b;" horiz-adv-x="1628" 
d="M1452 420q0 -43 -10 -111l-56 -309h-276l49 283q10 58 10 86q0 102 -60 155.5t-173 53.5q-118 0 -225 -46l-95 -532h-276l195 1102h-398l45 250h1127l-45 -250h-453l-55 -318q121 47 248 47q207 0 325 -112q123 -111 123 -299z" />
    <glyph glyph-name="uni040C" unicode="&#x40c;" horiz-adv-x="1372" 
d="M1432 1352l-639 -664l469 -688h-310l-481 707l-125 -707h-276l237 1352h277l-111 -629l606 629h353zM750 1483l198 381h348l-8 -49l-330 -332h-208z" />
    <glyph glyph-name="uni040D" unicode="&#x40d;" horiz-adv-x="1468" 
d="M1378 1376h92l-241 -1376h-277l146 827l-942 -852h-90l241 1377h277l-146 -830zM807 1483l-205 332l8 49h312l84 -381h-199z" />
    <glyph glyph-name="uni040E" unicode="&#x40e;" horiz-adv-x="1306" 
d="M1118 1352h314l-648 -1076q-97 -159 -209 -229t-270 -70q-73 0 -160 23l41 240q64 -9 105 -9q76 0 123.5 23t89.5 84l-309 1014h290l211 -719zM496 1788q0 13 8 76h221q-6 -38 -6 -60q0 -63 32 -99t89 -36q124 0 145 158l6 37h219l-4 -37q-23 -162 -125.5 -258
t-255.5 -96q-146 0 -237.5 87.5t-91.5 227.5z" />
    <glyph glyph-name="uni040F" unicode="&#x40f;" horiz-adv-x="1427" 
d="M1425 1352l-237 -1352h-426l-51 -289h-267l52 289h-426l237 1352h277l-195 -1102h565l195 1102h276z" />
    <glyph glyph-name="uni0410" unicode="&#x410;" horiz-adv-x="1353" 
d="M956 0l-45 176h-546l-107 -176h-313l846 1376h92l360 -1376h-287zM852 403l-96 447l-254 -447h350z" />
    <glyph glyph-name="uni0411" unicode="&#x411;" horiz-adv-x="1247" 
d="M70 0l237 1352h897l-43 -250h-620l-52 -281h242q201 0 316.5 -103.5t115.5 -283.5q0 -194 -143 -314t-373 -120h-577zM387 236h295q98 0 152.5 48t54.5 136q0 82 -45 128t-123 46h-270z" />
    <glyph glyph-name="uni0412" unicode="&#x412;" horiz-adv-x="1269" 
d="M1180 406q0 -176 -136.5 -291t-349.5 -115h-624l237 1352h438q180 0 290 -99.5t110 -261.5q0 -183 -141 -282q85 -47 130.5 -125.5t45.5 -177.5zM705 1116h-173l-55 -311h201q88 0 139 45t51 123q0 68 -42.5 105.5t-120.5 37.5zM905 414q0 75 -47 118t-131 43h-291
l-59 -337h315q100 0 156.5 46t56.5 130z" />
    <glyph glyph-name="uni0413" unicode="&#x413;" horiz-adv-x="1075" 
d="M70 0l237 1352h871l-43 -250h-596l-193 -1102h-276z" />
    <glyph glyph-name="uni0414" unicode="&#x414;" horiz-adv-x="1476" 
d="M1395 1352l-195 -1102h182l-96 -539h-276l51 289h-842l-51 -289h-277l97 539h108q98 75 175 286.5t145 591.5l41 224h938zM397 250h529l149 852h-401q-61 -328 -126.5 -531.5t-150.5 -320.5z" />
    <glyph glyph-name="uni0415" unicode="&#x415;" horiz-adv-x="1175" 
d="M70 0l237 1352h910l-43 -250h-635l-50 -275h467l-41 -235h-466l-60 -342h658l-43 -250h-934z" />
    <glyph glyph-name="uni0416" unicode="&#x416;" horiz-adv-x="2023" 
d="M2109 1352l-604 -662l408 -690h-314l-409 707l-125 -707h-277l123 705l-616 -705h-356l661 737l-381 615h311l385 -627l111 627h277l-111 -627l565 627h352z" />
    <glyph glyph-name="uni0417" unicode="&#x417;" horiz-adv-x="1204" 
d="M1110 438q0 -207 -149.5 -335t-393.5 -128q-190 0 -329.5 86.5t-196.5 241.5l215 133q49 -98 133.5 -151.5t190.5 -53.5q117 0 185.5 51.5t68.5 139.5q0 72 -48.5 114t-132.5 42h-190l39 227h149q100 0 158.5 46t58.5 124q0 69 -47.5 107t-132.5 38q-93 0 -165 -39
t-138 -125l-178 150q185 270 522 270q190 0 305 -98t115 -260q0 -102 -46.5 -185t-133.5 -137q68 -43 104.5 -109.5t36.5 -148.5z" />
    <glyph glyph-name="uni0418" unicode="&#x418;" horiz-adv-x="1468" 
d="M1378 1376h92l-241 -1376h-277l146 827l-942 -852h-90l241 1377h277l-146 -830z" />
    <glyph glyph-name="uni0419" unicode="&#x419;" horiz-adv-x="1468" 
d="M1378 1376h92l-241 -1376h-277l146 827l-942 -852h-90l241 1377h277l-146 -830zM594 1788q0 13 8 76h221q-6 -38 -6 -60q0 -63 32 -99t89 -36q124 0 145 158l7 37h219l-4 -37q-23 -162 -125.5 -258t-255.5 -96q-146 0 -238 87.5t-92 227.5z" />
    <glyph glyph-name="uni041A" unicode="&#x41a;" horiz-adv-x="1372" 
d="M1432 1352l-639 -664l469 -688h-310l-481 707l-125 -707h-276l237 1352h277l-111 -629l606 629h353z" />
    <glyph glyph-name="uni041B" unicode="&#x41b;" horiz-adv-x="1363" 
d="M428 1352h934l-238 -1352h-276l194 1102h-397q-83 -443 -164 -678q-82 -237 -188 -340.5t-266 -103.5q-63 0 -113 20l41 236q15 -5 57 -5q123 7 201 196t170 675z" />
    <glyph glyph-name="uni041C" unicode="&#x41c;" horiz-adv-x="1634" 
d="M1544 1376h90l-241 -1376h-277l123 696l-389 -401h-92l-281 453l-131 -748h-276l241 1376h90l443 -731z" />
    <glyph glyph-name="uni041D" unicode="&#x41d;" horiz-adv-x="1460" 
d="M70 0l237 1352h277l-92 -518h598l92 518h276l-237 -1352h-277l103 584h-598l-103 -584h-276z" />
    <glyph glyph-name="uni041E" unicode="&#x41e;" horiz-adv-x="1593" 
d="M115 629q-3 150 59.5 289.5t167.5 240.5t247.5 160.5t293.5 56.5q139 2 263.5 -48.5t212 -138t137.5 -209t48 -257.5q3 -150 -59.5 -289.5t-167.5 -241t-247.5 -161t-293.5 -56.5q-138 -2 -262 48.5t-212 138t-138.5 210t-48.5 257.5zM1260 713q0 180 -111.5 293.5
t-286.5 113.5q-194 0 -328.5 -138.5t-134.5 -340.5q0 -182 111 -296t285 -114q128 0 235 64t168.5 175t61.5 243z" />
    <glyph glyph-name="uni041F" unicode="&#x41f;" horiz-adv-x="1439" 
d="M70 0l237 1352h1131l-238 -1352h-276l194 1102h-577l-195 -1102h-276z" />
    <glyph glyph-name="uni0420" unicode="&#x420;" horiz-adv-x="1226" 
d="M70 0l237 1352h455q217 0 344 -110.5t127 -299.5q0 -207 -154 -336t-403 -129h-248l-82 -477h-276zM471 719h248q106 0 168.5 55.5t62.5 151.5q0 87 -50.5 134.5t-143.5 47.5h-215z" />
    <glyph glyph-name="uni0421" unicode="&#x421;" horiz-adv-x="1474" 
d="M115 629q-4 148 58.5 287.5t167.5 241t249 161.5t297 57q201 0 354.5 -95.5t231.5 -268.5l-226 -135q-120 243 -377 243q-201 0 -336 -137.5t-135 -341.5q0 -183 112.5 -296.5t291.5 -113.5q233 0 397 209l195 -155q-109 -148 -268.5 -229t-344.5 -81q-140 -2 -264.5 48
t-213.5 137t-140 209.5t-49 259.5z" />
    <glyph glyph-name="uni0422" unicode="&#x422;" horiz-adv-x="1204" 
d="M377 0l194 1102h-434l45 250h1143l-45 -250h-432l-195 -1102h-276z" />
    <glyph glyph-name="uni0423" unicode="&#x423;" horiz-adv-x="1306" 
d="M1118 1352h314l-648 -1076q-97 -159 -209 -229t-270 -70q-73 0 -160 23l41 240q64 -9 105 -9q76 0 123.5 23t89.5 84l-309 1014h290l211 -719z" />
    <glyph glyph-name="uni0424" unicode="&#x424;" horiz-adv-x="1730" 
d="M635 -41l31 168q-111 -2 -214 38.5t-177.5 109.5t-118 164t-41.5 196q-4 265 199 438t515 170h33l27 150h276l-26 -150q109 2 210.5 -38.5t175.5 -109.5t117 -164t41 -196q0 -179 -90 -318t-252.5 -215.5t-371.5 -76.5h-29l-29 -166h-276zM707 365l114 641h-16
q-186 0 -302 -98.5t-116 -256.5q0 -131 87 -208.5t233 -77.5zM985 365h12q185 0 301 96q115 100 115 256q0 133 -85.5 211t-231.5 78z" />
    <glyph glyph-name="uni0425" unicode="&#x425;" horiz-adv-x="1251" 
d="M1350 1352l-531 -688l322 -664h-293l-221 459l-353 -459h-335l567 717l-303 635h293l198 -434l320 434h336z" />
    <glyph glyph-name="uni0426" unicode="&#x426;" horiz-adv-x="1505" 
d="M1053 -289l51 289h-1034l237 1352h277l-195 -1102h565l195 1102h276l-194 -1102h180l-94 -539h-264z" />
    <glyph glyph-name="uni0427" unicode="&#x427;" horiz-adv-x="1345" 
d="M1067 1352h276l-237 -1352h-277l89 498q-139 -47 -273 -47q-213 0 -342 117.5t-129 312.5q0 64 14 133l58 338h276l-55 -318q-10 -92 -10 -98q0 -112 68.5 -171.5t199.5 -59.5q143 0 236 38z" />
    <glyph glyph-name="uni0428" unicode="&#x428;" horiz-adv-x="2027" 
d="M70 0l237 1352h277l-195 -1102h445l194 1102h277l-195 -1102h444l195 1102h276l-237 -1352h-1718z" />
    <glyph glyph-name="uni0429" unicode="&#x429;" horiz-adv-x="2105" 
d="M1651 -289l51 289h-1632l237 1352h277l-195 -1102h445l194 1102h277l-195 -1102h444l195 1102h276l-194 -1102h180l-96 -539h-264z" />
    <glyph glyph-name="uni042A" unicode="&#x42a;" horiz-adv-x="1429" 
d="M246 0l194 1102h-307l43 250h584l-80 -463h188q221 0 349.5 -114t128.5 -310q0 -210 -156 -337.5t-410 -127.5h-534zM567 244h258q113 0 176.5 54t63.5 151q0 94 -53 145t-150 51h-225z" />
    <glyph glyph-name="uni042B" unicode="&#x42b;" horiz-adv-x="1792" 
d="M70 0l237 1352h277l-82 -463h188q222 0 350.5 -113t128.5 -309q0 -212 -155.5 -339.5t-411.5 -127.5h-532zM387 244h260q115 0 177.5 54t62.5 153q0 93 -53 143.5t-150 50.5h-225zM1276 0l237 1352h277l-238 -1352h-276z" />
    <glyph glyph-name="uni042C" unicode="&#x42c;" horiz-adv-x="1251" 
d="M70 0l237 1352h277l-82 -463h188q222 0 350.5 -113t128.5 -309q0 -212 -155.5 -339.5t-411.5 -127.5h-532zM387 244h260q115 0 177.5 54t62.5 153q0 93 -53 143.5t-150 50.5h-225z" />
    <glyph glyph-name="uni042D" unicode="&#x42d;" horiz-adv-x="1472" 
d="M1423 723q3 -148 -59 -287.5t-166.5 -241t-249 -162t-297.5 -57.5q-198 0 -351.5 96t-231.5 269l223 135q120 -244 377 -244q161 0 284 92t166 242h-543l41 236h514q-26 147 -132.5 233t-262.5 86q-233 0 -397 -209l-195 156q109 148 268 228.5t345 80.5q187 3 341 -82.5
t241.5 -236.5t84.5 -334z" />
    <glyph glyph-name="uni042E" unicode="&#x42e;" horiz-adv-x="2068" 
d="M2019 723q3 -148 -57.5 -287.5t-163 -241t-243.5 -162t-291 -57.5q-266 0 -446.5 172t-192.5 437h-176l-103 -584h-276l237 1352h277l-92 -518h159q65 236 265 389t452 153q181 2 331.5 -83.5t236.5 -236.5t83 -333zM1735 713q0 180 -109 293.5t-280 113.5
q-125 0 -229.5 -63.5t-165 -173.5t-60.5 -242q0 -180 109.5 -295t279.5 -115q190 0 322.5 140.5t132.5 341.5z" />
    <glyph glyph-name="uni042F" unicode="&#x42f;" horiz-adv-x="1306" 
d="M821 1352h482l-238 -1352h-277l78 442h-131q-43 0 -53 2l-371 -444h-315l430 514q-97 56 -149 146t-52 206q0 214 165.5 350t430.5 136zM909 684l74 424h-209q-122 0 -193 -61t-71 -162q0 -94 60 -147.5t169 -53.5h170z" />
    <glyph glyph-name="uni0430" unicode="&#x430;" horiz-adv-x="1288" 
d="M965 1014h274l-174 -1014h-258l18 104q-120 -129 -309 -129t-314.5 137.5t-125.5 344.5q-2 118 40.5 226.5t116.5 186t175.5 122.5t212.5 44q220 0 323 -141zM883 532q0 115 -67.5 187t-176.5 72q-118 0 -199.5 -89.5t-81.5 -218.5q0 -117 67.5 -188.5t176.5 -71.5
q120 0 199 88t82 221z" />
    <glyph glyph-name="uni0431" unicode="&#x431;" horiz-adv-x="1263" 
d="M422 868q125 138 317 138q203 0 328 -128t125 -335q0 -159 -73.5 -288.5t-204 -203.5t-291.5 -74q-222 0 -363 135.5t-141 348.5q0 108 43 348q33 175 87.5 293.5t147.5 201t221.5 127t315.5 66.5q262 32 354 62l-45 -252q-72 -22 -119 -29q-38 -6 -206 -23
q-232 -25 -339.5 -108.5t-156.5 -278.5zM389 477q0 -110 67 -179t173 -69q118 0 196 78q80 80 80 201q0 109 -67.5 179.5t-173.5 70.5q-118 0 -197 -82q-78 -81 -78 -199z" />
    <glyph glyph-name="uni0432" unicode="&#x432;" horiz-adv-x="1058" 
d="M963 328q0 -158 -129 -255.5t-340 -97.5q-207 0 -320 105.5t-113 300.5q0 72 33 246q37 202 160.5 305.5t327.5 103.5q183 0 285 -73.5t102 -204.5q0 -75 -40 -135t-112 -95q146 -59 146 -200zM358 629l-2 -15h174q175 0 175 117q0 94 -138 94q-90 0 -139.5 -46.5
t-69.5 -149.5zM705 322q0 104 -187 104h-192q-2 -12 -2 -47q0 -94 48 -142.5t140 -48.5q91 0 142 35.5t51 98.5z" />
    <glyph glyph-name="uni0433" unicode="&#x433;" horiz-adv-x="931" 
d="M25 268q0 225 340 336l120 39q57 19 82 41t25 53q0 74 -119 74q-116 0 -225 -80l-109 187q153 118 350 118q170 0 268.5 -77t98.5 -211q0 -113 -80 -194t-250 -138l-120 -39q-61 -20 -89 -43.5t-28 -54.5q0 -37 34.5 -57.5t96.5 -20.5q146 0 291 118l114 -180
q-159 -164 -409 -164q-182 0 -286.5 78.5t-104.5 214.5z" />
    <glyph glyph-name="uni0434" unicode="&#x434;" horiz-adv-x="1239" 
d="M1161 680q0 -327 -152 -516t-415 -189q-228 0 -373 139.5t-145 356.5q-3 142 66.5 265t189.5 194.5t258 68.5q175 0 289 -108q-32 213 -140.5 311t-310.5 98q-51 0 -162 -12l45 246q70 18 152 18q698 0 698 -872zM860 504q0 111 -66 180.5t-171 69.5q-115 0 -190 -80.5
t-75 -202.5q0 -110 64 -178t168 -68q115 0 192 80q78 81 78 199z" />
    <glyph glyph-name="uni0435" unicode="&#x435;" horiz-adv-x="1148" 
d="M1055 414h-705q19 -98 89.5 -150.5t185.5 -52.5q149 0 286 94l101 -186q-176 -144 -412 -144q-230 0 -377 140t-147 360q-2 112 43 217t121.5 181t181.5 120.5t217 42.5q199 0 325 -124.5t126 -321.5q0 -89 -35 -176zM356 606h469q-1 97 -57 153t-150 56q-93 0 -163 -56
t-99 -153z" />
    <glyph glyph-name="uni0436" unicode="&#x436;" horiz-adv-x="1720" 
d="M1763 1014l-452 -508l313 -506h-307l-316 510l-90 -510h-274l88 510l-457 -510h-344l496 545l-277 469h310l276 -479l84 479h277l-84 -477l407 477h350z" />
    <glyph glyph-name="uni0437" unicode="&#x437;" horiz-adv-x="980" 
d="M850 307q0 -154 -115 -243t-313 -89q-278 0 -428 187l178 170q110 -119 252 -119q162 0 162 113q0 92 -137 92h-127l36 205h121q63 0 98 24.5t35 67.5q0 39 -31.5 61.5t-86.5 22.5q-144 0 -250 -103l-129 168q163 172 413 172q162 0 259.5 -75.5t97.5 -202.5
q0 -160 -146 -244q111 -72 111 -207z" />
    <glyph glyph-name="uni0438" unicode="&#x438;" horiz-adv-x="1198" 
d="M877 1014h274l-176 -1014h-254l16 88q-119 -113 -286 -113q-155 0 -250 95q-97 97 -97 245q0 39 13 115l102 584h277l-101 -563q-8 -41 -8 -76q0 -75 46 -117.5t124 -42.5q80 0 139 48t72 132z" />
    <glyph glyph-name="uni0439" unicode="&#x439;" horiz-adv-x="1198" 
d="M877 1014h274l-176 -1014h-254l16 88q-119 -113 -286 -113q-155 0 -250 95q-97 97 -97 245q0 39 13 115l102 584h277l-101 -563q-8 -41 -8 -76q0 -75 46 -117.5t124 -42.5q80 0 139 48t72 132zM410 1483q0 29 14 100h219q-10 -72 -10 -84q0 -66 31.5 -101.5t91.5 -35.5
q119 0 143 160l10 61h221l-10 -61q-26 -164 -128.5 -258.5t-250.5 -94.5t-239.5 87t-91.5 227z" />
    <glyph glyph-name="uni043A" unicode="&#x43a;" horiz-adv-x="1142" 
d="M1194 1014l-463 -488l313 -526h-303l-319 541l-94 -541h-277l178 1014h277l-82 -461l436 461h334z" />
    <glyph glyph-name="uni043B" unicode="&#x43b;" horiz-adv-x="1179" 
d="M-45 0l41 227q20 -4 37 -4q75 0 122.5 79.5t90.5 275.5q47 197 110 290q64 94 144 119q79 27 205 27h423l-178 -1014h-274l135 784h-88q-39 -1 -61 -3.5t-46.5 -13.5t-38 -27.5t-30 -50t-29.5 -77.5t-31 -114q-64 -291 -158 -404.5t-268 -113.5q-62 0 -106 20z" />
    <glyph glyph-name="uni043C" unicode="&#x43c;" horiz-adv-x="1419" 
d="M1284 1036h88l-182 -1036h-277l82 465l-276 -262h-92l-205 297l-90 -500h-275l183 1036h90l379 -534z" />
    <glyph glyph-name="uni043D" unicode="&#x43d;" horiz-adv-x="1212" 
d="M57 0l179 1014h274l-66 -373h377l66 373h274l-178 -1014h-274l71 410h-377l-69 -410h-277z" />
    <glyph glyph-name="uni043E" unicode="&#x43e;" horiz-adv-x="1243" 
d="M78 483q-3 148 75.5 277t212 204t285.5 72q220 0 370 -146t150 -362q2 -111 -44 -214t-124.5 -178t-186 -119t-222.5 -42q-221 0 -368.5 145.5t-147.5 362.5zM889 524q0 116 -70 190t-180 74q-117 0 -198 -88t-81 -215q0 -117 67.5 -188.5t176.5 -71.5q122 0 203.5 86
t81.5 213z" />
    <glyph glyph-name="uni043F" unicode="&#x43f;" horiz-adv-x="1198" 
d="M1100 696q0 -23 -13 -112l-102 -584h-276l100 563q8 41 8 74q0 74 -47 118t-123 44q-80 0 -139 -49.5t-72 -133.5l-108 -616h-275l176 1014h254l-16 -90q118 112 287 112q156 0 250 -94q96 -96 96 -246z" />
    <glyph glyph-name="uni0440" unicode="&#x440;" horiz-adv-x="1286" 
d="M1217 555q0 -161 -71.5 -294t-196.5 -209.5t-275 -76.5q-108 0 -192 38t-134 108l-86 -490h-276l243 1383h254l-18 -107q56 62 136 95.5t173 33.5q189 0 316 -137t127 -344zM934 528q0 116 -67.5 188t-176.5 72q-119 0 -199.5 -89.5t-80.5 -221.5q0 -113 67.5 -183.5
t175.5 -70.5q119 0 200 88t81 217z" />
    <glyph glyph-name="uni0441" unicode="&#x441;" horiz-adv-x="1144" 
d="M78 475q0 117 44.5 221t121 178.5t182.5 118t225 43.5q152 0 268.5 -70.5t172.5 -195.5l-205 -135q-95 153 -246 153q-120 0 -202.5 -87.5t-82.5 -213.5q0 -117 70.5 -190.5t181.5 -73.5q145 0 248 133l178 -153q-75 -112 -187.5 -170t-254.5 -58q-226 0 -370 140
t-144 360z" />
    <glyph glyph-name="uni0442" unicode="&#x442;" horiz-adv-x="1826" 
d="M1729 698q0 -38 -13 -114l-102 -584h-275l101 571q8 44 8 68q0 75 -44.5 117.5t-119.5 42.5q-76 0 -134 -49.5t-71 -133.5l-108 -616h-275l101 571q8 56 8 68q0 75 -44.5 117.5t-119.5 42.5q-76 0 -134 -49.5t-71 -133.5l-108 -616h-275l176 1014h254l-16 -88
q119 110 285 110q94 0 168.5 -37t117.5 -104q135 141 342 141q160 0 254.5 -92.5t94.5 -245.5z" />
    <glyph glyph-name="uni0443" unicode="&#x443;" horiz-adv-x="1196" 
d="M874 1014h277l-172 -965q-35 -204 -172 -323t-338 -119q-143 0 -269.5 60t-211.5 169l166 182q85 -86 157.5 -123.5t157.5 -37.5q198 0 236 200l10 60q-116 -84 -254 -84q-154 0 -252 94q-96 96 -96 244q0 37 12 108l94 535h275l-95 -529q-6 -42 -6 -57q0 -72 47 -115
t125 -43q77 0 137 48t72 128z" />
    <glyph glyph-name="uni0444" unicode="&#x444;" horiz-adv-x="1579" 
d="M1507 545q0 -256 -181.5 -410.5t-481.5 -154.5h-6l-60 -349h-276l61 351q-217 12 -352 147.5t-135 341.5q0 256 183 410.5t484 154.5h5l88 500h274l-86 -502q216 -12 349.5 -147.5t133.5 -341.5zM610 211l103 594h-6q-167 0 -263 -85.5t-96 -234.5q0 -124 69.5 -196.5
t192.5 -77.5zM1235 530q0 127 -67.5 198.5t-192.5 76.5l-103 -594h9q166 0 260 85t94 234z" />
    <glyph glyph-name="uni0445" unicode="&#x445;" horiz-adv-x="1085" 
d="M1137 1014l-437 -508l283 -506h-295l-170 319l-262 -319h-326l457 526l-256 488h295l145 -299l240 299h326z" />
    <glyph glyph-name="uni0446" unicode="&#x446;" horiz-adv-x="1308" 
d="M1126 229h68l-90 -518h-260l53 301q-66 21 -111 84q-127 -121 -321 -121q-164 0 -262.5 93t-98.5 247q0 39 13 115l102 584h277l-101 -563q-8 -41 -8 -76q0 -73 46 -116.5t124 -43.5q84 0 139 47.5t72 132.5l109 619h274l-113 -647q-6 -30 -6 -50q0 -42 24.5 -65
t69.5 -23z" />
    <glyph glyph-name="uni0447" unicode="&#x447;" horiz-adv-x="1118" 
d="M797 1014h276l-178 -1014h-277l62 354q-82 -32 -197 -32q-170 0 -267 96t-97 262q0 36 10 104l41 230h274l-34 -203q-9 -59 -9 -82q0 -75 44 -116.5t122 -41.5q79 0 156 25z" />
    <glyph glyph-name="uni0448" unicode="&#x448;" horiz-adv-x="1832" 
d="M1505 1014h277l-178 -1014h-254l16 88q-120 -111 -283 -111q-93 0 -168.5 37t-119.5 105q-62 -67 -151.5 -104.5t-190.5 -37.5q-159 0 -254 92.5t-95 245.5q0 37 13 117l102 582h277l-101 -574q-8 -36 -8 -65q0 -75 43.5 -116.5t118.5 -41.5q80 0 136 47t69 133l108 617
h277l-101 -574q-8 -36 -8 -65q0 -75 43.5 -116.5t118.5 -41.5q77 0 134.5 48t70.5 132z" />
    <glyph glyph-name="uni0449" unicode="&#x449;" horiz-adv-x="1939" 
d="M1757 229h68l-92 -518h-258l53 301q-69 24 -111 84q-121 -121 -311 -121q-103 0 -183.5 38t-125.5 106q-63 -68 -154 -106t-190 -38q-158 0 -253.5 93t-95.5 247q0 26 13 115l102 584h277l-101 -563q-8 -41 -8 -76q0 -74 43.5 -117t118.5 -43q79 0 135.5 48t69.5 132
l108 619h277l-101 -574q-8 -31 -8 -69q0 -73 44 -114.5t120 -41.5q77 0 133.5 48t69.5 132l108 619h277l-115 -647l-4 -50q0 -42 24.5 -65t69.5 -23z" />
    <glyph glyph-name="uni044A" unicode="&#x44a;" horiz-adv-x="1241" 
d="M1143 375q0 -175 -127.5 -286.5t-329.5 -111.5q-201 0 -317.5 97.5t-116.5 263.5q0 44 6 88l66 358h-246l41 230h520l-51 -285h135q198 0 309 -94t111 -260zM860 358q0 66 -47 102t-135 36h-133l-17 -95q-4 -28 -4 -49q0 -141 162 -141q79 0 126.5 40.5t47.5 106.5z" />
    <glyph glyph-name="uni044B" unicode="&#x44b;" horiz-adv-x="1544" 
d="M1001 375q0 -175 -125 -286.5t-325 -111.5q-198 0 -315 97.5t-117 263.5q0 44 6 88l104 588h277l-51 -285h127q198 0 308.5 -94t110.5 -260zM1225 1014h276l-180 -1014h-274zM719 358q0 66 -47 102t-135 36h-125l-15 -82q-6 -41 -6 -62q0 -141 164 -141q74 0 119 40.5
t45 106.5z" />
    <glyph glyph-name="uni044C" unicode="&#x44c;" horiz-adv-x="1107" 
d="M1010 375q0 -175 -127.5 -286.5t-329.5 -111.5q-198 0 -316 97.5t-118 263.5q0 44 6 88l104 588h277l-51 -285h135q198 0 309 -94t111 -260zM727 358q0 66 -47 102t-135 36h-133l-17 -95q-4 -28 -4 -49q0 -141 164 -141q78 0 125 40.5t47 106.5z" />
    <glyph glyph-name="uni044D" unicode="&#x44d;" horiz-adv-x="1142" 
d="M1071 532q2 -111 -44 -214.5t-123.5 -179.5t-185 -120.5t-222.5 -42.5q-150 0 -267 71t-174 198l197 131q103 -160 254 -160q95 0 169 54t105 143h-358l35 194h331q-23 89 -88.5 140t-158.5 51q-146 0 -258 -135l-168 145q75 109 190 168t252 59q221 0 367.5 -142.5
t146.5 -359.5z" />
    <glyph glyph-name="uni044E" unicode="&#x44e;" horiz-adv-x="1660" 
d="M1589 528q2 -111 -42.5 -214t-120.5 -178t-179.5 -119t-214.5 -42q-191 0 -323 117q-133 118 -160 303h-146l-71 -395h-275l179 1014h274l-68 -385h119q46 179 192 293t334 114q214 0 358 -145t144 -363zM1311 524q0 116 -67 190t-171 74q-112 0 -189 -87.5t-77 -215.5
q0 -115 65 -187.5t168 -72.5q117 0 194 85t77 214z" />
    <glyph glyph-name="uni044F" unicode="&#x44f;" horiz-adv-x="1134" 
d="M608 1014h475l-178 -1014h-276l55 311h-102l-308 -311h-313l358 360q-80 43 -124.5 114t-44.5 157q0 170 127 276.5t331 106.5zM723 532l45 246h-176q-75 0 -118.5 -35t-43.5 -98q0 -51 40.5 -82t107.5 -31h145z" />
    <glyph glyph-name="uni0450" unicode="&#x450;" horiz-adv-x="1148" 
d="M1055 414h-705q19 -98 89.5 -150.5t185.5 -52.5q149 0 286 94l101 -186q-176 -144 -412 -144q-230 0 -377 140t-147 360q-2 112 43 217t121.5 181t181.5 120.5t217 42.5q199 0 325 -124.5t126 -321.5q0 -89 -35 -176zM356 606h469q-1 97 -57 153t-150 56q-93 0 -163 -56
t-99 -153zM537 1169l-146 379l17 49h309l12 -428h-192z" />
    <glyph glyph-name="uni0451" unicode="&#x451;" horiz-adv-x="1148" 
d="M1055 414h-705q19 -98 89.5 -150.5t185.5 -52.5q149 0 286 94l101 -186q-176 -144 -412 -144q-230 0 -377 140t-147 360q-2 112 43 217t121.5 181t181.5 120.5t217 42.5q199 0 325 -124.5t126 -321.5q0 -89 -35 -176zM356 606h469q-1 97 -57 153t-150 56q-93 0 -163 -56
t-99 -153zM293 1382q0 67 49.5 113.5t116.5 46.5q69 0 117.5 -46.5t48.5 -113.5q0 -63 -49.5 -110t-116.5 -47q-66 0 -116 47t-50 110zM801 1382q0 67 49.5 113.5t116.5 46.5q69 0 117.5 -46.5t48.5 -113.5q0 -63 -49.5 -110t-116.5 -47q-63 0 -114.5 48t-51.5 109z" />
    <glyph glyph-name="uni0452" unicode="&#x452;" horiz-adv-x="1214" 
d="M1104 637q0 -43 -12 -117l-99 -557q-32 -177 -134 -266.5t-269 -89.5q-114 0 -193 39l39 225q68 -12 115 -12q79 0 119.5 36.5t54.5 116.5l90 500q6 62 6 66q0 73 -46 115t-124 42q-81 0 -139.5 -48t-71.5 -132l-98 -555h-274l198 1128h-162l41 228h162l31 180h276
l-32 -180h391l-41 -228h-389l-45 -243q113 90 258 90q156 0 252 -93t96 -245z" />
    <glyph glyph-name="uni0453" unicode="&#x453;" horiz-adv-x="931" 
d="M25 268q0 225 340 336l120 39q57 19 82 41t25 53q0 74 -119 74q-116 0 -225 -80l-109 187q153 118 350 118q170 0 268.5 -77t98.5 -211q0 -113 -80 -194t-250 -138l-120 -39q-61 -20 -89 -43.5t-28 -54.5q0 -37 34.5 -57.5t96.5 -20.5q146 0 291 118l114 -180
q-159 -164 -409 -164q-182 0 -286.5 78.5t-104.5 214.5zM393 1169l223 428h349l-9 -49l-346 -379h-217z" />
    <glyph glyph-name="uni0454" unicode="&#x454;" horiz-adv-x="1140" 
d="M866 350l168 -145q-75 -110 -190 -170t-252 -60q-221 0 -367.5 143.5t-146.5 358.5q-2 112 44 216.5t123.5 180t185 120t222.5 42.5q149 0 266.5 -71t174.5 -195l-197 -131q-103 160 -254 160q-94 0 -167 -51.5t-105 -139.5h356l-33 -194l-336 -2q20 -91 87 -144t163 -53
q149 0 258 135z" />
    <glyph glyph-name="uni0455" unicode="&#x455;" horiz-adv-x="933" 
d="M10 203l172 153q72 -85 132 -121t132 -36q61 0 96.5 22.5t35.5 59.5q0 29 -20 49t-75 45l-96 41q-127 54 -187.5 129.5t-60.5 179.5q0 141 100.5 226t266.5 85q246 0 377 -174l-162 -155q-95 108 -215 108q-47 0 -75 -21.5t-28 -56.5q0 -62 89 -100l90 -39
q135 -58 197.5 -127.5t62.5 -165.5q0 -142 -113 -236t-283 -94q-141 0 -255.5 59.5t-180.5 168.5z" />
    <glyph glyph-name="uni0456" unicode="&#x456;" horiz-adv-x="550" 
d="M51 0l178 1014h277l-178 -1014h-277zM258 1382q0 73 51 122.5t125 49.5t126 -49.5t52 -122.5q0 -72 -52 -121t-126 -49t-125 49t-51 121z" />
    <glyph glyph-name="uni0457" unicode="&#x457;" horiz-adv-x="542" 
d="M145 1343q0 91 45 151t113 60q54 0 83.5 -34.5t29.5 -94.5q0 -92 -44.5 -152.5t-113.5 -60.5q-54 0 -83.5 34.5t-29.5 96.5zM432 1343q0 91 45 151t113 60q54 0 84.5 -34.5t30.5 -94.5q0 -92 -44.5 -152.5t-113.5 -60.5q-54 0 -84.5 34.5t-30.5 96.5zM45 0l178 1014h275
l-179 -1014h-274z" />
    <glyph glyph-name="uni0458" unicode="&#x458;" horiz-adv-x="552" 
d="M-264 -356l39 227q56 -12 104 -12q78 0 119 34t55 109l178 1012h275l-187 -1061q-29 -169 -132 -257.5t-263 -88.5q-101 0 -188 37zM256 1382q0 73 51 122.5t125 49.5t126 -49.5t52 -122.5q0 -72 -52 -121t-126 -49t-125 49t-51 121z" />
    <glyph glyph-name="uni0459" unicode="&#x459;" horiz-adv-x="1716" 
d="M1618 375q0 -175 -127.5 -286.5t-329.5 -111.5q-198 0 -316 97.5t-118 263.5q0 52 8 88l64 358h-66q-85 0 -127 -26q-41 -25 -63.5 -77t-53.5 -181q-46 -200 -100.5 -311t-131.5 -159t-196 -48q-50 0 -106 18l41 229q15 -6 47 -6q70 0 116.5 86t86.5 269q21 84 39.5 141
t45.5 109t59 83t78.5 55.5t105.5 35t139 12.5h401l-51 -285h135q198 0 309 -94t111 -260zM1337 358q0 66 -48 102t-136 36h-131l-14 -80q-9 -35 -9 -64q0 -141 164 -141q78 0 126 40.5t48 106.5z" />
    <glyph glyph-name="uni045A" unicode="&#x45a;" horiz-adv-x="1724" 
d="M1622 356q0 -166 -127 -272.5t-326 -106.5q-198 0 -318 97.5t-120 263.5q0 52 8 88l6 31h-331l-80 -457h-277l179 1014h274l-57 -326h333l58 326h274l-59 -326h155q193 0 300.5 -87t107.5 -245zM1341 336q0 58 -44 89.5t-128 31.5h-151l-10 -56l-4 -49q0 -141 165 -141
q82 0 127 32.5t45 92.5z" />
    <glyph glyph-name="uni045B" unicode="&#x45b;" horiz-adv-x="1212" 
d="M1104 637q0 -33 -12 -115l-93 -522h-276l88 504q8 56 8 65q0 73 -46 115.5t-124 42.5q-82 0 -140 -47.5t-71 -132.5l-96 -547h-274l196 1128h-160l41 228h160l31 180h276l-30 -180h391l-41 -228h-391l-41 -239q107 88 254 88q158 0 254 -93.5t96 -246.5z" />
    <glyph glyph-name="uni045C" unicode="&#x45c;" horiz-adv-x="1142" 
d="M1194 1014l-463 -488l313 -526h-303l-319 541l-94 -541h-277l178 1014h277l-82 -461l436 461h334zM551 1169l223 428h348l-8 -49l-346 -379h-217z" />
    <glyph glyph-name="uni045D" unicode="&#x45d;" horiz-adv-x="1198" 
d="M877 1014h274l-176 -1014h-254l16 88q-119 -113 -286 -113q-155 0 -250 95q-97 97 -97 245q0 39 13 115l102 584h277l-101 -563q-8 -41 -8 -76q0 -75 46 -117.5t124 -42.5q80 0 139 48t72 132zM578 1169l-146 379l17 49h309l12 -428h-192z" />
    <glyph glyph-name="uni045E" unicode="&#x45e;" horiz-adv-x="1196" 
d="M874 1014h277l-172 -965q-35 -204 -172 -323t-338 -119q-143 0 -269.5 60t-211.5 169l166 182q85 -86 157.5 -123.5t157.5 -37.5q198 0 236 200l10 60q-116 -84 -254 -84q-154 0 -252 94q-96 96 -96 244q0 37 12 108l94 535h275l-95 -529q-6 -42 -6 -57q0 -72 47 -115
t125 -43q77 0 137 48t72 128zM399 1483q0 23 15 100h219q-10 -72 -10 -84q0 -66 31 -101.5t91 -35.5q120 0 144 160l10 61h221l-10 -61q-26 -164 -128.5 -258.5t-250.5 -94.5t-240 87t-92 227z" />
    <glyph glyph-name="uni045F" unicode="&#x45f;" horiz-adv-x="1198" 
d="M877 1014h274l-176 -1014h-254l16 88q-119 -113 -286 -113q-155 0 -250 95q-97 97 -97 245q0 39 13 115l102 584h277l-101 -572q-8 -31 -8 -67q0 -75 46 -117.5t124 -42.5q80 0 139 48t72 132zM328 -451l47 357h268l-63 -357h-252z" />
    <glyph glyph-name="uni0462" unicode="&#x462;" horiz-adv-x="1425" 
d="M248 0l174 989h-309l41 228h309l29 159h276l-29 -159h391l-40 -228h-392l-30 -170h239q198 0 316 -97t118 -259q0 -213 -154 -338t-415 -125h-524zM567 244h252q111 0 173.5 49t62.5 137q0 68 -51.5 109t-137.5 41h-239z" />
    <glyph glyph-name="uni0463" unicode="&#x463;" horiz-adv-x="1744" 
d="M1647 375q0 -175 -127.5 -286.5t-329.5 -111.5q-198 0 -316 97.5t-118 263.5q0 44 6 88l26 137q9 53 9 74q0 74 -42 118t-112 44q-77 0 -135.5 -49.5t-71.5 -133.5l-108 -616h-275l176 1014h254l-16 -88q119 110 283 110q140 0 230 -84t97 -223h150q198 0 309 -94
t111 -260zM1366 358q0 66 -48 102t-136 36h-131l-19 -95q-4 -28 -4 -49q0 -141 164 -141q78 0 126 40.5t48 106.5z" />
    <glyph glyph-name="uni0472" unicode="&#x472;" horiz-adv-x="1593" 
d="M1544 723q3 -148 -59 -287.5t-166.5 -241t-247.5 -162t-295 -57.5q-138 -2 -262 48.5t-212 138t-138.5 210t-48.5 257.5q-3 148 59 287.5t166.5 241t247.5 161.5t295 57q139 2 263.5 -48.5t212 -138t137.5 -209t48 -257.5zM418 778q133 53 237 53q74 0 199 -34
q121 -37 201 -37q95 0 196 37q-25 147 -130.5 235t-258.5 88q-157 0 -282 -96q-121 -96 -162 -246zM1239 565q-113 -49 -225 -49q-89 0 -207 37t-195 37q-92 0 -204 -41q30 -144 133.5 -231t253.5 -87q156 0 278 93q120 91 166 241z" />
    <glyph glyph-name="uni0473" unicode="&#x473;" horiz-adv-x="1243" 
d="M1171 528q2 -111 -44 -214t-124.5 -178t-186 -119t-222.5 -42q-221 0 -368.5 145.5t-147.5 362.5q-3 148 75.5 277t212 204t285.5 72q220 0 370 -146t150 -362zM369 604q71 23 123 23q62 0 145 -27t143 -27q53 0 115 19q-20 94 -89 150.5t-167 56.5q-92 0 -164.5 -53.5
t-105.5 -141.5zM885 418q-70 -25 -129 -25q-63 0 -146 27q-79 26 -141 26q-61 0 -117 -20q17 -97 85 -154t167 -57q98 0 174 55t107 148z" />
    <glyph glyph-name="uni0474" unicode="&#x474;" horiz-adv-x="1392" 
d="M1542 1350l-43 -238q-40 6 -72 6q-55 0 -93.5 -27.5t-76.5 -93.5l-626 -1022h-92l-363 1377h303l195 -807l350 583q78 130 164.5 187t204.5 57q69 0 149 -22z" />
    <glyph glyph-name="uni0475" unicode="&#x475;" horiz-adv-x="1122" 
d="M1221 1014l-41 -228h-58q-78 0 -135 -84l-475 -727h-92l-320 1039h281l154 -570l231 377q132 211 330 211q72 0 125 -18z" />
    <glyph glyph-name="uni0490" unicode="&#x490;" horiz-adv-x="1021" 
d="M70 0l237 1352h553l51 288h265l-95 -538h-542l-193 -1102h-276z" />
    <glyph glyph-name="uni0491" unicode="&#x491;" horiz-adv-x="929" 
d="M57 0l179 1014h483l49 282h264l-90 -516h-473l-137 -780h-275z" />
    <glyph glyph-name="uni0492" unicode="&#x492;" horiz-adv-x="1058" 
d="M1116 1102h-561l-63 -357h319l-43 -231h-317l-91 -514h-276l90 514h-170l41 231h170l107 607h837z" />
    <glyph glyph-name="uni0493" unicode="&#x493;" horiz-adv-x="905" 
d="M938 780h-471l-37 -209h252l-39 -223h-252l-61 -348h-277l62 348h-150l37 223h152l77 443h746z" />
    <glyph glyph-name="uni0496" unicode="&#x496;" horiz-adv-x="2031" 
d="M1497 698l252 -448h227l-92 -539h-262l51 289h-88l-395 705l-125 -705h-277l123 705l-616 -705h-356l667 721l-387 631h311l385 -627l111 627h277l-111 -627l565 627h352z" />
    <glyph glyph-name="uni0497" unicode="&#x497;" horiz-adv-x="1800" 
d="M1317 522l170 -291h199l-93 -520h-258l51 289h-69l-307 528l-92 -528h-277l94 532l-461 -532h-344l498 563l-268 451h311l266 -461l82 461h277l-80 -455l391 455h348z" />
    <glyph glyph-name="uni0498" unicode="&#x498;" horiz-adv-x="1204" 
d="M1110 438q0 -207 -149.5 -335t-393.5 -128q-190 0 -329.5 86.5t-196.5 241.5l215 133q49 -98 133.5 -151.5t190.5 -53.5q117 0 185.5 51.5t68.5 139.5q0 72 -48.5 114t-132.5 42h-190l39 227h149q100 0 158.5 46t58.5 124q0 69 -47.5 107t-132.5 38q-93 0 -165 -39
t-138 -125l-178 150q185 270 522 270q190 0 305 -98t115 -260q0 -102 -46.5 -185t-133.5 -137q68 -43 104.5 -109.5t36.5 -148.5zM201 -358l30 178q86 -13 127 -13q74 0 109 39t35 123q0 32 -10 70l112 39q51 -32 80 -85t29 -110q0 -116 -95 -196t-233 -80q-97 0 -184 35z
" />
    <glyph glyph-name="uni0499" unicode="&#x499;" horiz-adv-x="980" 
d="M850 307q0 -154 -115 -243t-313 -89q-278 0 -428 187l178 170q110 -119 252 -119q162 0 162 113q0 92 -137 92h-127l36 205h121q63 0 98 24.5t35 67.5q0 39 -31.5 61.5t-86.5 22.5q-144 0 -250 -103l-129 168q163 172 413 172q162 0 259.5 -75.5t97.5 -202.5
q0 -160 -146 -244q111 -72 111 -207zM35 -358l31 178q86 -13 127 -13q74 0 108.5 39t34.5 123q0 32 -10 70l112 39q51 -32 80 -85t29 -110q0 -116 -95 -196t-233 -80q-97 0 -184 35z" />
    <glyph glyph-name="uni049A" unicode="&#x49a;" horiz-adv-x="1378" 
d="M791 698l296 -448h238l-94 -539h-264l51 289h-78l-469 707l-125 -707h-276l237 1352h277l-111 -629l606 629h353z" />
    <glyph glyph-name="uni049B" unicode="&#x49b;" horiz-adv-x="1226" 
d="M739 520l174 -289h199l-90 -520h-260l51 289h-68l-319 537l-94 -537h-275l179 1014h274l-82 -463l418 463h350z" />
    <glyph glyph-name="uni04A0" unicode="&#x4a0;" horiz-adv-x="1714" 
d="M1776 1352l-639 -664l469 -688h-322l-471 707l-125 -707h-276l194 1102h-473l45 250h748l-111 -629l608 629h353z" />
    <glyph glyph-name="uni04A1" unicode="&#x4a1;" horiz-adv-x="1339" 
d="M1378 1014l-454 -475l313 -539h-301l-320 551l-96 -551h-276l137 780h-373l41 234h649l-77 -447l423 447h334z" />
    <glyph glyph-name="uni04A2" unicode="&#x4a2;" horiz-adv-x="1538" 
d="M1083 -289l52 289h-191l103 584h-598l-103 -584h-276l237 1352h277l-92 -518h598l92 518h276l-194 -1102h180l-94 -539h-267z" />
    <glyph glyph-name="uni04A3" unicode="&#x4a3;" horiz-adv-x="1292" 
d="M827 -289l52 289h-172l71 410h-372l-72 -410h-277l179 1014h274l-64 -373h373l66 373h276l-139 -783h156l-91 -520h-260z" />
    <glyph glyph-name="uni04AA" unicode="&#x4aa;" horiz-adv-x="1474" 
d="M115 629q-4 148 58.5 287.5t167.5 241t249 161.5t297 57q201 0 354.5 -95.5t231.5 -268.5l-226 -135q-120 243 -377 243q-201 0 -336 -137.5t-135 -341.5q0 -183 112.5 -296.5t291.5 -113.5q233 0 397 209l195 -155q-109 -148 -268.5 -229t-344.5 -81q-140 -2 -264.5 48
t-213.5 137t-140 209.5t-49 259.5zM371 -358l30 178q86 -13 127 -13q74 0 109 39t35 123q0 32 -10 70l112 39q51 -32 80 -85t29 -110q0 -116 -95 -196t-233 -80q-97 0 -184 35z" />
    <glyph glyph-name="uni04AB" unicode="&#x4ab;" horiz-adv-x="1144" 
d="M78 475q0 117 44.5 221t121 178.5t182.5 118t225 43.5q152 0 268.5 -70.5t172.5 -195.5l-205 -135q-95 153 -246 153q-120 0 -202.5 -87.5t-82.5 -213.5q0 -117 70.5 -190.5t181.5 -73.5q145 0 248 133l178 -153q-75 -112 -187.5 -170t-254.5 -58q-226 0 -370 140
t-144 360zM209 -358l31 178q86 -13 127 -13q74 0 108.5 39t34.5 123q0 32 -10 70l112 39q51 -32 80 -85t29 -110q0 -116 -95 -196t-233 -80q-97 0 -184 35z" />
    <glyph glyph-name="uni04AE" unicode="&#x4ae;" horiz-adv-x="1277" 
d="M1384 1352l-610 -828l-92 -524h-276l94 537l-324 815h279l221 -537l389 537h319z" />
    <glyph glyph-name="uni04AF" unicode="&#x4af;" horiz-adv-x="1165" 
d="M1223 1014l-590 -1020l-64 -363h-274l63 367l-231 1016h276l134 -744l378 744h308z" />
    <glyph glyph-name="uni04B0" unicode="&#x4b0;" horiz-adv-x="1312" 
d="M1411 1352l-598 -811h287l-41 -232h-295l-55 -309h-277l55 309h-294l38 232h293l-321 811h291l208 -539l392 539h317z" />
    <glyph glyph-name="uni04B1" unicode="&#x4b1;" horiz-adv-x="1165" 
d="M1223 1014l-586 -1014h250l-39 -221h-252l-27 -148h-274l27 148h-256l38 221h254l-231 1014h276l134 -744l378 744h308z" />
    <glyph glyph-name="uni04B2" unicode="&#x4b2;" horiz-adv-x="1277" 
d="M819 662l199 -412h207l-97 -539h-264l51 289h-67l-221 459l-353 -459h-335l567 717l-303 635h293l198 -434l320 434h336z" />
    <glyph glyph-name="uni04B3" unicode="&#x4b3;" horiz-adv-x="1157" 
d="M700 506l154 -273h188l-90 -522h-260l51 289h-55l-170 322l-262 -322h-326l457 526l-256 488h295l147 -299l238 299h326z" />
    <glyph glyph-name="uni04B6" unicode="&#x4b6;" horiz-adv-x="1423" 
d="M1343 1352l-194 -1102h180l-94 -539h-264l51 289h-193l89 498q-139 -47 -273 -47q-213 0 -342 117.5t-129 312.5q0 64 14 133l58 338h276l-55 -318q-10 -92 -10 -98q0 -112 68.5 -171.5t199.5 -59.5q143 0 236 38l106 609h276z" />
    <glyph glyph-name="uni04B7" unicode="&#x4b7;" horiz-adv-x="1218" 
d="M936 233h168l-92 -522h-260l51 289h-185l64 354q-82 -32 -190 -32q-172 0 -272.5 95.5t-100.5 260.5q0 41 10 106l41 230h274l-36 -217q-9 -41 -9 -68q0 -75 44 -116.5t124 -41.5q78 0 158 25l74 418h276z" />
    <glyph glyph-name="uni04BA" unicode="&#x4ba;" horiz-adv-x="1345" 
d="M1237 471q0 -53 -12 -133l-60 -338h-276l55 317q10 62 10 99q0 112 -68.5 171.5t-197.5 59.5q-140 0 -235 -39l-107 -608h-276l237 1352h277l-88 -498q124 47 270 47q212 0 341.5 -118t129.5 -312z" />
    <glyph glyph-name="uni04BB" unicode="&#x4bb;" horiz-adv-x="1198" 
d="M1100 698q0 -31 -13 -114l-102 -584h-276l100 575q8 36 8 64q0 73 -46 116.5t-124 43.5q-81 0 -139.5 -49t-71.5 -134l-108 -616h-275l269 1536h276l-104 -588q113 88 258 88q156 0 252 -93t96 -245z" />
    <glyph glyph-name="uni04C0" unicode="&#x4c0;" horiz-adv-x="585" 
d="M70 0l237 1352h277l-238 -1352h-276z" />
    <glyph glyph-name="uni04C1" unicode="&#x4c1;" horiz-adv-x="2023" 
d="M2109 1352l-604 -662l408 -690h-314l-409 707l-125 -707h-277l123 705l-616 -705h-356l661 737l-381 615h311l385 -627l111 627h277l-111 -627l565 627h352zM870 1788q0 6 9 76h221q-6 -38 -6 -60q0 -63 31.5 -99t88.5 -36q125 0 146 158l6 37h219l-4 -37
q-23 -162 -125.5 -258t-255.5 -96q-146 0 -238 87.5t-92 227.5z" />
    <glyph glyph-name="uni04C2" unicode="&#x4c2;" horiz-adv-x="1720" 
d="M1763 1014l-452 -508l313 -506h-307l-316 510l-90 -510h-274l88 510l-457 -510h-344l496 545l-277 469h310l276 -479l84 479h277l-84 -477l407 477h350zM672 1483q0 29 14 100h219q-10 -72 -10 -84q0 -66 31.5 -101.5t91.5 -35.5q119 0 143 160l10 61h222l-11 -61
q-26 -164 -128 -258.5t-250 -94.5t-240 87t-92 227z" />
    <glyph glyph-name="uni04CF" unicode="&#x4cf;" horiz-adv-x="555" 
d="M57 0l271 1536h274l-270 -1536h-275z" />
    <glyph glyph-name="uni04D0" unicode="&#x4d0;" horiz-adv-x="1353" 
d="M956 0l-45 176h-546l-107 -176h-313l846 1376h92l360 -1376h-287zM852 403l-96 447l-254 -447h350zM535 1788q0 13 8 76h221q-6 -38 -6 -60q0 -63 32 -99t89 -36q124 0 145 158l6 37h219l-4 -37q-23 -162 -125.5 -258t-255.5 -96q-146 0 -237.5 87.5t-91.5 227.5z" />
    <glyph glyph-name="uni04D1" unicode="&#x4d1;" horiz-adv-x="1288" 
d="M965 1014h274l-174 -1014h-258l18 104q-120 -129 -309 -129t-314.5 137.5t-125.5 344.5q-2 118 40.5 226.5t116.5 186t175.5 122.5t212.5 44q220 0 323 -141zM883 532q0 115 -67.5 187t-176.5 72q-118 0 -199.5 -89.5t-81.5 -218.5q0 -117 67.5 -188.5t176.5 -71.5
q120 0 199 88t82 221zM383 1483q0 29 14 100h219q-10 -72 -10 -84q0 -66 31.5 -101.5t91.5 -35.5q119 0 143 160l11 61h221l-10 -61q-26 -164 -128.5 -258.5t-250.5 -94.5t-240 87t-92 227z" />
    <glyph glyph-name="uni04D4" unicode="&#x4d4;" horiz-adv-x="1748" 
d="M1747 1102h-623l-2 -275h408l-39 -235h-369l-2 -342h500l-43 -250h-729v176h-477l-119 -176h-328l928 1352h936zM858 920l-334 -514h326z" />
    <glyph glyph-name="uni04D5" unicode="&#x4d5;" horiz-adv-x="1781" 
d="M1686 406h-703q20 -94 90 -144.5t182 -50.5q150 0 287 94l100 -184q-190 -146 -407 -146q-127 0 -232 50t-172 139q-148 -189 -421 -189q-174 0 -272.5 75t-98.5 208q0 155 114.5 241.5t321.5 86.5h254q4 46 4 55q0 75 -46.5 116.5t-131.5 41.5q-136 0 -276 -123
l-107 201q196 159 422 159q230 0 324 -143q153 143 360 143q190 0 316 -126t126 -316q0 -107 -34 -188zM985 586h471v20q0 97 -55 153t-152 56q-98 0 -169.5 -62t-94.5 -167zM690 362l8 44h-215q-78 0 -119.5 -31t-41.5 -88q0 -51 37 -81t102 -30q90 0 152.5 51.5
t76.5 134.5z" />
    <glyph glyph-name="uni04D6" unicode="&#x4d6;" horiz-adv-x="1175" 
d="M70 0l237 1352h910l-43 -250h-635l-50 -275h467l-41 -235h-466l-60 -342h658l-43 -250h-934zM469 1788q0 13 8 76h221q-6 -38 -6 -60q0 -63 32 -99t89 -36q124 0 145 158l7 37h219l-4 -37q-23 -162 -125.5 -258t-255.5 -96q-146 0 -238 87.5t-92 227.5z" />
    <glyph glyph-name="uni04D7" unicode="&#x4d7;" horiz-adv-x="1148" 
d="M1055 414h-705q19 -98 89.5 -150.5t185.5 -52.5q149 0 286 94l101 -186q-176 -144 -412 -144q-230 0 -377 140t-147 360q-2 112 43 217t121.5 181t181.5 120.5t217 42.5q199 0 325 -124.5t126 -321.5q0 -89 -35 -176zM356 606h469q-1 97 -57 153t-150 56q-93 0 -163 -56
t-99 -153zM371 1483q0 29 14 100h219q-10 -72 -10 -84q0 -66 31.5 -101.5t91.5 -35.5q119 0 143 160l10 61h222l-11 -61q-26 -164 -128.5 -258.5t-250.5 -94.5t-239.5 87t-91.5 227z" />
    <glyph glyph-name="uni04D8" unicode="&#x4d8;" horiz-adv-x="1509" 
d="M1460 731q3 -149 -56 -289.5t-158.5 -243t-237 -163.5t-283.5 -58q-277 0 -449 163t-172 425q0 102 31 207h1036q-17 160 -119 254t-261 94q-237 0 -396 -188l-174 168q222 276 590 276q132 2 253 -48.5t208.5 -137t138.5 -207t49 -252.5zM1149 535h-764
q2 -137 95.5 -219.5t248.5 -82.5q149 0 261 81t159 221z" />
    <glyph glyph-name="uni04D9" unicode="&#x4d9;" horiz-adv-x="1148" 
d="M1075 532q2 -111 -42.5 -214.5t-120.5 -179.5t-181 -120.5t-217 -42.5q-194 0 -322.5 122.5t-128.5 308.5q0 94 35 184h707q-17 105 -85 159t-183 54q-146 0 -283 -94l-100 184q182 143 409 143q223 0 367.5 -142t144.5 -362zM791 397h-463v-4q0 -88 56 -142t148 -54
t161 53.5t98 146.5z" />
    <glyph glyph-name="uni04E2" unicode="&#x4e2;" horiz-adv-x="1468" 
d="M1378 1376h92l-241 -1376h-277l146 827l-942 -852h-90l241 1377h277l-146 -830zM590 1546l39 217h659l-39 -217h-659z" />
    <glyph glyph-name="uni04E3" unicode="&#x4e3;" horiz-adv-x="1198" 
d="M877 1014h274l-176 -1014h-254l16 88q-119 -113 -286 -113q-155 0 -250 95q-97 97 -97 245q0 39 13 115l102 584h277l-101 -563q-8 -41 -8 -76q0 -75 46 -117.5t124 -42.5q80 0 139 48t72 132zM430 1274l39 217h618l-38 -217h-619z" />
    <glyph glyph-name="uni04E6" unicode="&#x4e6;" horiz-adv-x="1593" 
d="M115 629q-3 150 59.5 289.5t167.5 240.5t247.5 160.5t293.5 56.5q139 2 263.5 -48.5t212 -138t137.5 -209t48 -257.5q3 -150 -59.5 -289.5t-167.5 -241t-247.5 -161t-293.5 -56.5q-138 -2 -262 48.5t-212 138t-138.5 210t-48.5 257.5zM1260 713q0 180 -111.5 293.5
t-286.5 113.5q-194 0 -328.5 -138.5t-134.5 -340.5q0 -182 111 -296t285 -114q128 0 235 64t168.5 175t61.5 243zM575 1667q0 67 48.5 113.5t115.5 46.5q69 0 118.5 -46.5t49.5 -113.5q0 -63 -49.5 -110.5t-118.5 -47.5q-63 0 -113.5 48.5t-50.5 109.5zM1116 1665
q0 67 49.5 114.5t116.5 47.5q68 0 117 -47.5t49 -114.5q0 -63 -49.5 -110.5t-116.5 -47.5q-66 0 -116 47.5t-50 110.5z" />
    <glyph glyph-name="uni04E7" unicode="&#x4e7;" horiz-adv-x="1243" 
d="M78 483q-3 148 75.5 277t212 204t285.5 72q220 0 370 -146t150 -362q2 -111 -44 -214t-124.5 -178t-186 -119t-222.5 -42q-221 0 -368.5 145.5t-147.5 362.5zM889 524q0 116 -70 190t-180 74q-117 0 -198 -88t-81 -215q0 -117 67.5 -188.5t176.5 -71.5q122 0 203.5 86
t81.5 213zM313 1382q0 67 49.5 113.5t116.5 46.5q69 0 117.5 -46.5t48.5 -113.5q0 -63 -49.5 -110t-116.5 -47q-66 0 -116 47t-50 110zM821 1382q0 67 49.5 113.5t116.5 46.5q69 0 117.5 -46.5t48.5 -113.5q0 -63 -49.5 -110t-116.5 -47q-63 0 -114.5 48t-51.5 109z" />
    <glyph glyph-name="uni04E8" unicode="&#x4e8;" horiz-adv-x="1593" 
d="M1544 723q3 -148 -59 -287.5t-166.5 -241t-247.5 -162t-295 -57.5q-138 -2 -262 48.5t-212 138t-138.5 210t-48.5 257.5q-3 148 59 287.5t166.5 241t247.5 161.5t295 57q139 2 263.5 -48.5t212 -138t137.5 -209t48 -257.5zM428 811h821q-30 144 -133 229.5t-254 85.5
q-150 0 -267 -86t-167 -229zM1241 575h-838q20 -159 127 -254.5t265 -95.5q159 0 282 97q124 100 164 253z" />
    <glyph glyph-name="uni04E9" unicode="&#x4e9;" horiz-adv-x="1243" 
d="M1171 528q2 -111 -44 -214t-124.5 -178t-186 -119t-222.5 -42q-221 0 -368.5 145.5t-147.5 362.5q-3 148 75.5 277t212 204t285.5 72q220 0 370 -146t150 -362zM369 600h522q-24 93 -90 147t-162 54q-93 0 -166 -55t-104 -146zM879 406h-521q23 -89 89 -141t157 -52
q94 0 168.5 52.5t106.5 140.5z" />
    <glyph glyph-name="uni04EE" unicode="&#x4ee;" horiz-adv-x="1306" 
d="M1118 1352h314l-648 -1076q-97 -159 -209 -229t-270 -70q-73 0 -160 23l41 240q64 -9 105 -9q76 0 123.5 23t89.5 84l-309 1014h290l211 -719zM494 1546l38 217h660l-39 -217h-659z" />
    <glyph glyph-name="uni04EF" unicode="&#x4ef;" horiz-adv-x="1196" 
d="M874 1014h277l-172 -965q-35 -204 -172 -323t-338 -119q-143 0 -269.5 60t-211.5 169l166 182q85 -86 157.5 -123.5t157.5 -37.5q198 0 236 200l10 60q-116 -84 -254 -84q-154 0 -252 94q-96 96 -96 244q0 37 12 108l94 535h275l-95 -529q-6 -42 -6 -57q0 -72 47 -115
t125 -43q77 0 137 48t72 128zM436 1274l39 217h619l-39 -217h-619z" />
    <glyph glyph-name="uni04F2" unicode="&#x4f2;" horiz-adv-x="1306" 
d="M1118 1352h314l-648 -1076q-97 -159 -209 -229t-270 -70q-73 0 -160 23l41 240q64 -9 105 -9q76 0 123.5 23t89.5 84l-309 1014h290l211 -719zM451 1483l215 381h305l-8 -49l-314 -332h-198zM920 1483l217 381h303l-6 -49l-314 -332h-200z" />
    <glyph glyph-name="uni04F3" unicode="&#x4f3;" horiz-adv-x="1196" 
d="M874 1014h277l-172 -965q-35 -204 -172 -323t-338 -119q-143 0 -269.5 60t-211.5 169l166 182q85 -86 157.5 -123.5t157.5 -37.5q198 0 236 200l10 60q-116 -84 -254 -84q-154 0 -252 94q-96 96 -96 244q0 37 12 108l94 535h275l-95 -529q-6 -42 -6 -57q0 -72 47 -115
t125 -43q77 0 137 48t72 128zM401 1169l224 428h303l-8 -49l-316 -379h-203zM846 1169l223 428h303l-8 -49l-315 -379h-203z" />
    <glyph glyph-name="Wgrave" unicode="&#x1e80;" horiz-adv-x="2111" 
d="M1892 1352h314l-783 -1377h-90l-219 848l-536 -848h-91l-299 1377h283l164 -799l520 823h92l207 -811zM1124 1483l-204 332l8 49h311l84 -381h-199z" />
    <glyph glyph-name="wgrave" unicode="&#x1e81;" horiz-adv-x="1753" 
d="M1505 1014h303l-651 -1039h-92l-182 590l-400 -590h-92l-291 1039h281l143 -590l387 612h90l173 -587zM844 1169l-146 379l17 49h309l12 -428h-192z" />
    <glyph glyph-name="Wacute" unicode="&#x1e82;" horiz-adv-x="2111" 
d="M1892 1352h314l-783 -1377h-90l-219 848l-536 -848h-91l-299 1377h283l164 -799l520 823h92l207 -811zM1114 1483l199 381h348l-8 -49l-330 -332h-209z" />
    <glyph glyph-name="wacute" unicode="&#x1e83;" horiz-adv-x="1753" 
d="M1505 1014h303l-651 -1039h-92l-182 590l-400 -590h-92l-291 1039h281l143 -590l387 612h90l173 -587zM846 1169l223 428h348l-8 -49l-346 -379h-217z" />
    <glyph glyph-name="Wdieresis" unicode="&#x1e84;" horiz-adv-x="2111" 
d="M1892 1352h314l-783 -1377h-90l-219 848l-536 -848h-91l-299 1377h283l164 -799l520 823h92l207 -811zM829 1667q0 67 48.5 113.5t115.5 46.5q69 0 118.5 -46.5t49.5 -113.5q0 -63 -49.5 -110.5t-118.5 -47.5q-63 0 -113.5 48.5t-50.5 109.5zM1370 1665q0 67 49.5 114.5
t116.5 47.5q68 0 117 -47.5t49 -114.5q0 -63 -49.5 -110.5t-116.5 -47.5q-66 0 -116 47.5t-50 110.5z" />
    <glyph glyph-name="wdieresis" unicode="&#x1e85;" horiz-adv-x="1753" 
d="M1505 1014h303l-651 -1039h-92l-182 590l-400 -590h-92l-291 1039h281l143 -590l387 612h90l173 -587zM598 1382q0 67 49.5 113.5t116.5 46.5q69 0 117.5 -46.5t48.5 -113.5q0 -63 -49.5 -110t-116.5 -47q-66 0 -116 47t-50 110zM1106 1382q0 67 49.5 113.5t116.5 46.5
q69 0 117.5 -46.5t48.5 -113.5q0 -63 -49.5 -110t-116.5 -47q-63 0 -114.5 48t-51.5 109z" />
    <glyph glyph-name="uni1E9E" unicode="&#x1e9e;" horiz-adv-x="1497" 
d="M1466 1352l-14 -74l-309 -434q122 -47 192 -151.5t70 -239.5q0 -201 -142.5 -339.5t-349.5 -138.5q-117 0 -222 49.5t-183 141.5l162 182q119 -119 239 -119q94 0 154.5 59.5t60.5 151.5q0 97 -68 151t-192 54h-121l11 70l274 387h-489l-193 -1102h-276l237 1352h1159z
" />
    <glyph glyph-name="Ygrave" unicode="&#x1ef2;" horiz-adv-x="1277" 
d="M1384 1352l-610 -828l-92 -524h-276l94 537l-324 815h279l221 -537l389 537h319zM700 1483l-204 332l8 49h311l84 -381h-199z" />
    <glyph glyph-name="ygrave" unicode="&#x1ef3;" horiz-adv-x="1196" 
d="M874 1014h277l-172 -965q-35 -204 -172 -323t-338 -119q-143 0 -269.5 60t-211.5 169l166 182q85 -86 157.5 -123.5t157.5 -37.5q198 0 236 200l10 60q-116 -84 -254 -84q-154 0 -252 94q-96 96 -96 244q0 37 12 108l94 535h275l-95 -529q-6 -42 -6 -57q0 -72 47 -115
t125 -43q77 0 137 48t72 128zM567 1169l-145 379l16 49h310l12 -428h-193z" />
    <glyph glyph-name="uni2009" unicode="&#x2009;" horiz-adv-x="286" 
 />
    <glyph glyph-name="endash" unicode="&#x2013;" horiz-adv-x="1024" 
d="M80 541l43 231h878l-40 -231h-881z" />
    <glyph glyph-name="emdash" unicode="&#x2014;" horiz-adv-x="2050" 
d="M111 541l43 231h1843l-43 -231h-1843z" />
    <glyph glyph-name="uni2015" unicode="&#x2015;" horiz-adv-x="2050" 
d="M111 541l43 231h1843l-43 -231h-1843z" />
    <glyph glyph-name="quoteleft" unicode="&#x2018;" horiz-adv-x="618" 
d="M172 782l211 570h215l-109 -570h-317z" />
    <glyph glyph-name="quoteright" unicode="&#x2019;" horiz-adv-x="618" 
d="M223 782l109 570h317l-209 -570h-217z" />
    <glyph glyph-name="quotesinglbase" unicode="&#x201a;" horiz-adv-x="618" 
d="M29 -317l108 569h318l-211 -569h-215z" />
    <glyph glyph-name="quotedblleft" unicode="&#x201c;" horiz-adv-x="1103" 
d="M172 782l211 570h215l-109 -570h-317zM657 782l211 570h215l-108 -570h-318z" />
    <glyph glyph-name="quotedblright" unicode="&#x201d;" horiz-adv-x="1103" 
d="M223 782l109 570h317l-209 -570h-217zM709 782l108 570h318l-209 -570h-217z" />
    <glyph glyph-name="quotedblbase" unicode="&#x201e;" horiz-adv-x="1103" 
d="M29 -317l108 569h318l-211 -569h-215zM514 -317l109 569h317l-211 -569h-215z" />
    <glyph glyph-name="dagger" unicode="&#x2020;" horiz-adv-x="993" 
d="M360 508l91 500h-263l41 231h260l52 297h276l-53 -297h262l-39 -231h-262l-88 -500h-277z" />
    <glyph glyph-name="daggerdbl" unicode="&#x2021;" horiz-adv-x="991" 
d="M330 336l43 237h-260l39 232h262l45 264h-260l39 231h262l41 236h276l-43 -236h262l-41 -231h-260l-47 -264h262l-41 -232h-262l-43 -237h-274z" />
    <glyph glyph-name="bullet" unicode="&#x2022;" horiz-adv-x="874" 
d="M117 555q0 137 97.5 231.5t236.5 94.5q137 0 233 -94.5t96 -231.5q0 -135 -96 -229.5t-233 -94.5q-138 0 -236 94.5t-98 229.5z" />
    <glyph glyph-name="ellipsis" unicode="&#x2026;" horiz-adv-x="1632" 
d="M569 166q0 80 55.5 135t137.5 55q79 0 133.5 -55t54.5 -135q0 -82 -54 -136.5t-134 -54.5q-82 0 -137.5 54.5t-55.5 136.5zM39 166q0 80 55.5 135t136.5 55q79 0 134 -55t55 -135q0 -81 -54.5 -136t-134.5 -55q-82 0 -137 54.5t-55 136.5zM1098 166q0 80 55.5 135
t136.5 55q79 0 134 -55t55 -135q0 -81 -54.5 -136t-134.5 -55q-82 0 -137 54.5t-55 136.5z" />
    <glyph glyph-name="perthousand" unicode="&#x2030;" horiz-adv-x="2488" 
d="M186 1030q0 139 105.5 241.5t249.5 102.5q137 0 233 -94t96 -229q0 -141 -104.5 -243.5t-249.5 -102.5q-137 0 -233.5 94.5t-96.5 230.5zM229 0l1088 1352h223l-1087 -1352h-224zM666 1044q0 61 -37 100.5t-94 39.5q-63 0 -103.5 -42t-40.5 -108q0 -63 37.5 -102
t97.5 -39q61 0 100.5 42.5t39.5 108.5zM1683 305q0 139 105.5 241.5t249.5 102.5q137 0 233 -94t96 -229q0 -141 -104.5 -243.5t-249.5 -102.5q-137 0 -233.5 94.5t-96.5 230.5zM899 303q0 143 103.5 243.5t250.5 100.5q138 0 234 -93t96 -230q0 -140 -105 -243.5
t-251 -103.5q-137 0 -232.5 96t-95.5 230zM1378 319q0 61 -37 100.5t-94 39.5q-63 0 -103 -42t-40 -108q0 -63 37.5 -102t97.5 -39q61 0 100 42.5t39 108.5zM2163 319q0 63 -35.5 101.5t-95.5 38.5q-63 0 -103.5 -42t-40.5 -108q0 -63 37.5 -102t97.5 -39q61 0 100.5 42.5
t39.5 108.5z" />
    <glyph glyph-name="minute" unicode="&#x2032;" horiz-adv-x="591" 
d="M186 770l170 582h320l-279 -582h-211z" />
    <glyph glyph-name="second" unicode="&#x2033;" horiz-adv-x="1077" 
d="M186 770l170 582h320l-279 -582h-211zM672 770l170 582h319l-278 -582h-211z" />
    <glyph glyph-name="guilsinglleft" unicode="&#x2039;" horiz-adv-x="696" 
d="M395 92l-332 428l15 74l463 430l157 -162l-331 -315l221 -309z" />
    <glyph glyph-name="guilsinglright" unicode="&#x203a;" horiz-adv-x="696" 
d="M178 92l-155 164l331 315l-221 308l193 145l329 -428l-12 -74z" />
    <glyph glyph-name="fraction" unicode="&#x2044;" horiz-adv-x="546" 
d="M-313 0l1009 1352h230l-1012 -1352h-227z" />
    <glyph glyph-name="uni2070" unicode="&#x2070;" horiz-adv-x="866" 
d="M197 1061q-1 71 14 146t48.5 149.5t82 132.5t121 92.5t158.5 32.5q143 0 215.5 -85t72.5 -241q1 -92 -24 -187.5t-73.5 -181.5t-133.5 -139.5t-191 -50.5q-140 0 -215 88.5t-75 243.5zM702 1276q0 73 -28.5 111t-79.5 38q-49 0 -87 -35t-59 -90t-31.5 -113.5
t-10.5 -115.5q0 -76 28.5 -114.5t77.5 -38.5q48 -2 87 34.5t60 94.5t32 117.5t11 111.5z" />
    <glyph glyph-name="uni2074" unicode="&#x2074;" horiz-adv-x="772" 
d="M848 1053l-33 -176h-100l-23 -132h-188l22 132h-434l10 55l349 667h227l-289 -546h168l41 215h184l-37 -215h103z" />
    <glyph glyph-name="uni2075" unicode="&#x2075;" horiz-adv-x="759" 
d="M813 1413h-328l-20 -115q10 1 29 3t26 2q113 0 187.5 -71.5t74.5 -180.5q0 -137 -97.5 -229.5t-244.5 -92.5q-122 0 -209 61.5t-116 167.5l161 84q49 -124 166 -124q60 0 96.5 31.5t36.5 82.5q0 96 -139 96h-198l84 469h524z" />
    <glyph glyph-name="uni2076" unicode="&#x2076;" horiz-adv-x="759" 
d="M799 1055q0 -132 -99.5 -228t-238.5 -96q-130 0 -218.5 87.5t-88.5 213.5q0 76 31.5 136.5t111.5 152.5l244 276h260l-230 -264q97 -14 162.5 -93.5t65.5 -184.5zM592 1049q0 51 -29.5 81.5t-79.5 30.5q-52 0 -88.5 -36t-36.5 -89q0 -51 31.5 -83.5t79.5 -32.5
q54 0 88.5 36.5t34.5 92.5z" />
    <glyph glyph-name="uni2077" unicode="&#x2077;" horiz-adv-x="702" 
d="M254 1597h604l-10 -55l-492 -797h-239l424 668h-320z" />
    <glyph glyph-name="uni2078" unicode="&#x2078;" horiz-adv-x="788" 
d="M809 993q0 -108 -92 -184t-225 -76q-147 0 -240.5 67t-93.5 171q0 85 51 146t145 87q-80 68 -80 160q0 109 83 179.5t210 70.5q131 0 209 -60.5t78 -162.5q0 -149 -160 -226q115 -65 115 -172zM465 1366q0 -25 15.5 -44.5t62.5 -51.5q66 25 93.5 48t27.5 54
q0 35 -29 57.5t-72 22.5t-70.5 -24.5t-27.5 -61.5zM604 991q0 31 -20.5 56t-73.5 55q-80 -20 -115 -47t-35 -66q0 -43 32 -67.5t89 -24.5t90 25.5t33 68.5z" />
    <glyph glyph-name="uni2079" unicode="&#x2079;" horiz-adv-x="759" 
d="M846 1311q0 -76 -32 -136.5t-112 -152.5l-243 -277h-260l229 265q-98 13 -162.5 92.5t-64.5 185.5q0 132 99.5 228t238.5 96q130 0 218.5 -87.5t88.5 -213.5zM641 1307q0 51 -31.5 83.5t-79.5 32.5q-54 0 -88 -36.5t-34 -92.5q0 -51 29.5 -81.5t78.5 -30.5q52 0 88.5 36
t36.5 89z" />
    <glyph glyph-name="uni207A" unicode="&#x207a;" horiz-adv-x="874" 
d="M379 807l49 276h-268l33 179h268l49 274h199l-50 -274h269l-33 -179h-268l-47 -276h-201z" />
    <glyph glyph-name="uni207B" unicode="&#x207b;" horiz-adv-x="874" 
d="M174 1083l33 177h733l-33 -177h-733z" />
    <glyph glyph-name="uni207C" unicode="&#x207c;" horiz-adv-x="874" 
d="M219 1251l33 179h702l-32 -179h-703zM160 915l33 181h702l-31 -181h-704z" />
    <glyph glyph-name="uni207D" unicode="&#x207d;" horiz-adv-x="567" 
d="M213 1020q0 290 134 522.5t343 306.5l60 -129q-172 -90 -265 -272q-94 -184 -94 -422q0 -284 160 -420l-98 -110q-115 69 -177.5 205t-62.5 319z" />
    <glyph glyph-name="uni207E" unicode="&#x207e;" horiz-adv-x="567" 
d="M117 496l-60 129q168 91 263.5 275.5t95.5 418.5q0 284 -160 420l98 110q115 -69 177.5 -205t62.5 -319q0 -290 -134 -522.5t-343 -306.5z" />
    <glyph glyph-name="uni2080" unicode="&#x2080;" horiz-adv-x="866" 
d="M23 70q-1 71 14 146t48.5 149.5t81.5 132.5t120.5 92.5t158.5 32.5q144 0 216.5 -85.5t72.5 -240.5q1 -72 -14 -147.5t-48 -150.5t-81 -133.5t-120.5 -94t-158.5 -33.5q-140 0 -215 88.5t-75 243.5zM528 285q0 73 -28.5 111t-79.5 38q-49 0 -87 -35t-59.5 -90t-32 -113.5
t-10.5 -115.5q0 -76 29 -115t78 -39q48 -2 87 35t60 94.5t32 117.5t11 112z" />
    <glyph glyph-name="uni2081" unicode="&#x2081;" horiz-adv-x="757" 
d="M-43 -246l33 185h207l86 483h-191l33 184h395l-117 -667h177l-33 -185h-590z" />
    <glyph glyph-name="uni2082" unicode="&#x2082;" horiz-adv-x="788" 
d="M408 -12l-60 -49h262l-35 -185l-634 -2l6 43l362 328q78 72 111 121.5t33 93.5t-25.5 70t-69.5 26q-51 0 -79.5 -38t-28.5 -107v-21h-205q-2 8 -2 31q0 138 93 231t231 93q131 0 214 -75t83 -196q0 -89 -56 -166q-57 -79 -200 -198z" />
    <glyph glyph-name="uni2083" unicode="&#x2083;" horiz-adv-x="737" 
d="M672 606l-10 -55l-222 -266q67 -31 106.5 -94t39.5 -140q0 -132 -97.5 -222.5t-240.5 -90.5q-119 0 -203 60.5t-115 168.5l162 84q29 -66 66 -95.5t92 -29.5q59 0 94 31.5t35 83.5q0 96 -141 96h-113l8 51l199 234h-254l35 184h559z" />
    <glyph glyph-name="uni2084" unicode="&#x2084;" horiz-adv-x="772" 
d="M674 61l-33 -176h-100l-23 -131h-188l22 131h-434l10 56l348 667h228l-289 -547h168l41 215h184l-37 -215h103z" />
    <glyph glyph-name="uni2085" unicode="&#x2085;" horiz-adv-x="759" 
d="M639 422h-328l-20 -115q50 4 55 4q113 0 187.5 -71.5t74.5 -180.5q0 -137 -97.5 -229t-244.5 -92q-122 0 -209 61.5t-116 167.5l161 84q49 -125 166 -125q60 0 96.5 32t36.5 83q0 96 -139 96h-199l84 469h525z" />
    <glyph glyph-name="uni2086" unicode="&#x2086;" horiz-adv-x="759" 
d="M625 63q0 -132 -99.5 -227.5t-238.5 -95.5q-130 0 -218.5 87.5t-88.5 213.5q0 76 31.5 136.5t111.5 152.5l244 276h260l-230 -264q97 -14 162.5 -93.5t65.5 -185.5zM418 57q0 51 -30 82t-79 31q-52 0 -88.5 -36t-36.5 -89q0 -51 31.5 -84t79.5 -33q54 0 88.5 36.5
t34.5 92.5z" />
    <glyph glyph-name="uni2087" unicode="&#x2087;" horiz-adv-x="702" 
d="M80 606h604l-10 -55l-492 -797h-239l424 668h-320z" />
    <glyph glyph-name="uni2088" unicode="&#x2088;" horiz-adv-x="788" 
d="M635 2q0 -108 -92.5 -184t-225.5 -76q-147 0 -240 66.5t-93 171.5q0 85 51 146t145 87q-80 68 -80 160q0 109 83 179.5t210 70.5q131 0 209 -60.5t78 -163.5q0 -148 -160 -225q115 -65 115 -172zM291 375q0 -25 15.5 -44.5t62.5 -51.5q66 25 93 48t27 54q0 35 -28.5 57.5
t-71.5 22.5t-70.5 -24.5t-27.5 -61.5zM430 0q0 31 -20.5 56t-73.5 55q-80 -20 -115 -47t-35 -66q0 -43 32 -67.5t89 -24.5t90 25.5t33 68.5z" />
    <glyph glyph-name="uni2089" unicode="&#x2089;" horiz-adv-x="759" 
d="M672 319q0 -75 -32 -135t-112 -153l-243 -277h-260l229 264q-98 13 -162.5 93t-64.5 186q0 132 99.5 228t238.5 96q130 0 218.5 -87.5t88.5 -214.5zM467 315q0 51 -31.5 84t-79.5 33q-54 0 -88.5 -36.5t-34.5 -92.5q0 -51 30 -82t79 -31q52 0 88.5 36t36.5 89z" />
    <glyph glyph-name="uni208A" unicode="&#x208a;" horiz-adv-x="876" 
d="M205 -186l49 276h-268l32 178h269l49 275h199l-50 -275h269l-33 -178h-268l-47 -276h-201z" />
    <glyph glyph-name="uni208B" unicode="&#x208b;" horiz-adv-x="874" 
d="M0 90l33 176h733l-33 -176h-733z" />
    <glyph glyph-name="uni208C" unicode="&#x208c;" horiz-adv-x="876" 
d="M45 258l33 178h702l-32 -178h-703zM-14 -78l32 180h703l-31 -180h-704z" />
    <glyph glyph-name="uni208D" unicode="&#x208d;" horiz-adv-x="565" 
d="M37 27q0 290 134 522.5t343 306.5l59 -129q-170 -89 -264 -272q-94 -184 -94 -422q0 -284 160 -420l-99 -111q-115 69 -177 205.5t-62 319.5z" />
    <glyph glyph-name="uni208E" unicode="&#x208e;" horiz-adv-x="565" 
d="M-59 -498l-60 129q168 91 263.5 276t95.5 419q0 283 -160 419l98 111q115 -69 177.5 -205t62.5 -319q0 -191 -60.5 -363.5t-169.5 -295.5t-247 -171z" />
    <glyph glyph-name="lira" unicode="&#x20a4;" horiz-adv-x="1163" 
d="M508 221h516l-41 -221h-983l10 59q230 144 301 285h-227l31 186h237q-4 55 -22 121h-193l33 185h102q-12 50 -12 106q0 185 133 308.5t332 123.5q195 0 314 -107t139 -302l-242 -56q-27 209 -201 209q-91 0 -147 -60t-56 -157q0 -38 9 -65h358l-33 -185h-260
q20 -55 23 -121h217l-33 -186h-221q-37 -76 -84 -123z" />
    <glyph glyph-name="peseta" unicode="&#x20a7;" horiz-adv-x="1282" 
d="M1368 973l-39 -223h-153q-50 -177 -213 -279t-398 -102h-119l-63 -369h-277l132 750h-160l39 223h159l68 379h318q221 0 360.5 -101t165.5 -278h180zM664 1120h-84l-29 -162h364q-23 78 -87.5 120t-163.5 42zM905 764h-387l-29 -164h127q108 0 183 43t106 121z" />
    <glyph glyph-name="Euro" unicode="&#x20ac;" horiz-adv-x="1384" 
d="M1098 360l174 -157q-78 -109 -203.5 -168.5t-277.5 -59.5q-216 0 -369 118t-203 321h-225l35 196h168q0 51 10 123h-156l35 197h172q82 200 252 321q171 121 383 121q170 0 301 -67.5t205 -192.5l-199 -141q-47 69 -128.5 108t-178.5 39q-99 0 -183.5 -49.5
t-140.5 -138.5h498l-88 -197h-485q-13 -63 -13 -123h441l-88 -196h-314q38 -87 115 -136t176 -49q85 0 160.5 34t126.5 97z" />
    <glyph glyph-name="uni20AE" unicode="&#x20ae;" horiz-adv-x="1202" 
d="M1280 1102h-432l-41 -236l348 99l-41 -232l-348 -98l-23 -127l351 100l-43 -233l-349 -101l-49 -274h-276l37 209l-346 -96l41 233l346 96l22 127l-346 -98l41 234l346 98l53 299h-434l45 250h1143z" />
    <glyph glyph-name="uni20B4" unicode="&#x20b4;" horiz-adv-x="1107" 
d="M1049 926h116l-32 -195h-1072l33 195h678q12 30 12 65q0 64 -42.5 97.5t-114.5 33.5q-119 0 -250 -94l-103 203q181 145 394 145q175 0 288 -96q113 -94 113 -250q0 -54 -20 -104zM4 418l35 192h1071l-35 -192h-710q-7 -24 -7 -45q0 -144 191 -144q153 0 336 109l92 -207
q-225 -156 -457 -156q-198 0 -321 99t-123 268q0 34 10 76h-82z" />
    <glyph glyph-name="uni20B8" unicode="&#x20b8;" horiz-adv-x="1202" 
d="M137 1102l45 250h1143l-45 -250h-1143zM377 0l129 723h-434l43 248h1142l-43 -248h-432l-129 -723h-276z" />
    <glyph glyph-name="uni20B9" unicode="&#x20b9;" horiz-adv-x="1099" 
d="M1065 1155h-252q42 -54 57 -131h170l-34 -199h-146q-38 -128 -146 -216t-263 -117l411 -492h-330l-407 477l37 209h153q200 0 260 139h-389l35 199h359q-48 123 -222 123h-116l37 205h821z" />
    <glyph glyph-name="uni20BA" unicode="&#x20ba;" horiz-adv-x="1101" 
d="M1036 475q0 -238 -182.5 -369t-513.5 -131q-89 0 -227 15l77 444l-186 -80l39 232l188 80l21 127l-186 -80l40 231l187 78l57 330h279l-39 -217l375 157l-41 -231l-375 -160l-23 -125l375 160l-41 -234l-373 -157l-57 -326q191 0 278 81.5t91 264.5h231q6 -74 6 -90z" />
    <glyph glyph-name="uni20BD" unicode="&#x20bd;" horiz-adv-x="1226" 
d="M106 0l37 211h-159l39 221h159l23 129h-160l41 234h160l98 557h459q198 0 312 -99.5t114 -271.5q0 -188 -139.5 -304t-364.5 -116h-244l-22 -129h516l-39 -221h-516l-37 -211h-277zM522 795h230q90 0 142 46t52 126q0 72 -43.5 111.5t-122.5 39.5h-200z" />
    <glyph glyph-name="uni20BF" unicode="&#x20bf;" horiz-adv-x="1185" 
d="M1081 432q0 -132 -87.5 -227t-231.5 -125l-51 -279h-205l47 267h-127l-49 -267h-205l47 267h-137l213 1218h133l43 248h205l-43 -248h96h33l43 248h207l-56 -311q136 -85 136 -262q0 -181 -148 -269q137 -86 137 -260zM842 944q0 60 -40.5 93.5t-109.5 33.5h-192
l-49 -276h221q78 0 124 40.5t46 108.5zM834 440q0 68 -42.5 106t-117.5 38h-258l-54 -301h279q91 0 142 41t51 116z" />
    <glyph glyph-name="uni2113" unicode="&#x2113;" horiz-adv-x="1015" 
d="M670 223q72 0 188 17l-39 -234q-109 -31 -217 -31q-189 0 -292 83t-103 237q0 5 4 55l-125 -63l-86 223q179 93 260 139l84 486q37 211 145 318.5t285 107.5q152 0 230.5 -79t78.5 -231q0 -197 -141.5 -384.5t-435.5 -377.5l-14 -75q-7 -58 -7 -64q0 -66 45.5 -96.5
t139.5 -30.5zM616 1122l-55 -309q283 216 283 408q0 108 -84 108q-57 0 -91 -49t-53 -158z" />
    <glyph glyph-name="uni2116" unicode="&#x2116;" horiz-adv-x="2291" 
d="M1038 524l144 828h276l-241 -1377h-93l-635 859l-143 -834h-276l241 1376h90zM1581 803q0 148 107.5 251t259.5 103q139 0 234 -91.5t95 -225.5q0 -146 -108.5 -251.5t-259.5 -105.5q-142 0 -235 92t-93 228zM1790 809q0 -61 35 -99t92 -38q66 0 107.5 45t41.5 114
q0 62 -36 101t-93 39q-63 0 -105 -47t-42 -115zM1485 172l31 174h663l-31 -174h-663z" />
    <glyph glyph-name="uni2117" unicode="&#x2117;" horiz-adv-x="1615" 
d="M119 645q-4 142 57.5 278.5t164.5 236.5t244 160t289 56q138 2 265.5 -51t220 -143t147 -214.5t52.5 -258.5q5 -191 -100 -363t-281.5 -273.5t-372.5 -97.5q-139 -3 -267 50t-220.5 144t-146.5 216t-52 260zM1380 711q3 137 -66 254t-188.5 183.5t-259.5 63.5
q-113 2 -219 -43.5t-183.5 -122t-123 -182t-43.5 -217.5q0 -220 147 -364t371 -144q112 -2 217.5 44t182 123.5t122 184.5t43.5 220zM524 315l127 717h269q125 0 197.5 -63t72.5 -172q0 -121 -88.5 -195t-231.5 -74h-120l-39 -213h-187zM778 690h115q51 0 79.5 25t28.5 69
q0 41 -24 63.5t-68 22.5h-100z" />
    <glyph glyph-name="trademark" unicode="&#x2122;" horiz-adv-x="1978" 
d="M1952 1368h73l-163 -936h-232l72 406l-238 -242h-73l-158 252l-72 -416h-229l160 936h77l299 -483zM172 1352h789l-37 -207h-279l-125 -713h-229l125 713h-281z" />
    <glyph glyph-name="uni2126" unicode="&#x2126;" horiz-adv-x="1613" 
d="M1292 250h203l-43 -250h-604l43 250q189 73 290 198.5t101 284.5q0 173 -115 280t-299 107q-198 0 -329 -131t-131 -330q0 -129 65 -234t184 -175l-43 -250h-557l43 250h226q-95 87 -148 198t-53 228q-2 98 31 199t98 191.5t152.5 161t205.5 111t246 37.5
q196 3 360.5 -80t258 -227.5t90.5 -314.5q0 -150 -70 -281t-205 -223z" />
    <glyph glyph-name="estimated" unicode="&#x212e;" horiz-adv-x="1628" 
d="M1518 670h-1115v-406q73 -101 188.5 -157t260.5 -56q156 0 291.5 64t230.5 176l53 -47q-101 -124 -251 -194t-322 -70q-147 -2 -280 52.5t-228.5 147.5t-150.5 221t-52 267q-3 142 54.5 274t154 226.5t226.5 150.5t266 53q123 2 247 -43t221 -122.5t157 -190.5t57 -236
q0 -66 -8 -110zM403 1085v-344h863v375q-74 88 -179.5 135t-232.5 47q-141 0 -258 -56t-193 -157z" />
    <glyph glyph-name="uni2150" unicode="&#x2150;" horiz-adv-x="2004" 
d="M88 500l33 184h207l86 483h-191l33 185h395l-116 -668h176l-33 -184h-590zM444 0l1010 1352h229l-1011 -1352h-228zM1427 852h605l-11 -55l-491 -797h-240l424 668h-319z" />
    <glyph glyph-name="uni2151" unicode="&#x2151;" horiz-adv-x="2002" 
d="M88 500l33 184h207l86 483h-191l33 185h395l-116 -668h176l-33 -184h-590zM444 0l1010 1352h229l-1011 -1352h-228zM1958 565q0 -76 -31.5 -136.5t-111.5 -152.5l-244 -276h-260l229 264q-98 13 -162.5 93t-64.5 186q0 132 99.5 227.5t238.5 95.5q130 0 218.5 -87.5
t88.5 -213.5zM1753 561q0 51 -31.5 84t-79.5 33q-54 0 -88 -36.5t-34 -92.5q0 -51 29.5 -82t78.5 -31q52 0 88.5 36t36.5 89z" />
    <glyph glyph-name="uni2152" unicode="&#x2152;" horiz-adv-x="2928" 
d="M88 500l33 184h207l86 483h-191l33 185h395l-116 -668h176l-33 -184h-590zM444 0l1010 1352h229l-1011 -1352h-228zM1305 0l32 184h207l86 484h-190l33 184h395l-117 -668h176l-33 -184h-589zM2128 315q-1 71 14 146t48.5 149.5t82 132.5t121 92.5t158.5 32.5
q144 0 216.5 -85t72.5 -240q1 -92 -24 -187.5t-73.5 -181.5t-133.5 -139.5t-191 -50.5q-140 0 -215.5 88t-75.5 243zM2634 530q0 73 -29 111.5t-80 38.5q-49 0 -87 -35t-59 -90t-31.5 -113.5t-10.5 -115.5q0 -76 28.5 -115t77.5 -39q48 -2 87 34.5t60.5 94.5t32.5 117.5
t11 111.5z" />
    <glyph glyph-name="uni2153" unicode="&#x2153;" horiz-adv-x="2041" 
d="M88 500l33 184h207l86 483h-191l33 185h395l-116 -668h176l-33 -184h-590zM444 0l1010 1352h229l-1011 -1352h-228zM2019 852l-10 -55l-221 -267q67 -31 106 -93.5t39 -139.5q0 -132 -97.5 -222.5t-240.5 -90.5q-119 0 -202.5 60.5t-114.5 168.5l162 84q30 -67 66 -96
t91 -29q59 0 94 31.5t35 83.5q0 96 -141 96h-112l8 51l198 234h-254l35 184h559z" />
    <glyph glyph-name="uni2154" unicode="&#x2154;" horiz-adv-x="2070" 
d="M539 733l-60 -49h262l-34 -184l-635 -2l6 43l362 327q78 72 111 121.5t33 93.5t-25.5 70.5t-69.5 26.5q-51 0 -79.5 -38.5t-28.5 -107.5v-20h-205q-2 8 -2 30q0 138 93 231t231 93q131 0 214 -74.5t83 -195.5q0 -89 -56 -166q-59 -82 -200 -199zM475 0l1010 1352h229
l-1012 -1352h-227zM2048 852l-10 -55l-221 -267q67 -31 106 -93.5t39 -139.5q0 -132 -97.5 -222.5t-240.5 -90.5q-119 0 -202.5 60.5t-114.5 168.5l161 84q29 -66 66 -95.5t92 -29.5q59 0 94 31.5t35 83.5q0 96 -141 96h-113l8 51l199 234h-254l35 184h559z" />
    <glyph glyph-name="uni2155" unicode="&#x2155;" horiz-adv-x="2045" 
d="M88 500l33 184h207l86 483h-191l33 185h395l-116 -668h176l-33 -184h-590zM444 0l1010 1352h229l-1011 -1352h-228zM1970 668h-328l-20 -115q50 4 55 4q113 0 187.5 -71.5t74.5 -180.5q0 -137 -97.5 -229t-244.5 -92q-122 0 -209 61.5t-116 167.5l162 84
q49 -125 165 -125q60 0 97 32t37 83q0 96 -140 96h-198l84 469h524z" />
    <glyph glyph-name="uni2156" unicode="&#x2156;" horiz-adv-x="2076" 
d="M539 733l-60 -49h262l-34 -184l-635 -2l6 43l362 327q78 72 111 121.5t33 93.5t-25.5 70.5t-69.5 26.5q-51 0 -79.5 -38.5t-28.5 -107.5v-20h-205q-2 8 -2 30q0 138 93 231t231 93q131 0 214 -74.5t83 -195.5q0 -89 -56 -166q-59 -82 -200 -199zM475 0l1010 1352h229
l-1012 -1352h-227zM1999 668h-328l-20 -115q50 4 55 4q113 0 187.5 -71.5t74.5 -180.5q0 -137 -97.5 -229t-244.5 -92q-123 0 -210 61.5t-116 167.5l162 84q49 -125 166 -125q60 0 96.5 32t36.5 83q0 96 -139 96h-199l84 469h525z" />
    <glyph glyph-name="uni2157" unicode="&#x2157;" horiz-adv-x="1955" 
d="M803 1352l-10 -56l-222 -266q67 -31 106.5 -93.5t39.5 -139.5q0 -132 -98 -223t-240 -91q-119 0 -203 60.5t-115 169.5l162 84q29 -66 66 -95.5t92 -29.5q59 0 94 31.5t35 82.5q0 97 -141 97h-113l8 51l199 233h-254l35 185h559zM352 0l1010 1352h229l-1011 -1352h-228z
M1878 668h-328l-20 -115q50 4 55 4q113 0 187.5 -71.5t74.5 -180.5q0 -137 -97.5 -229t-244.5 -92q-122 0 -209 61.5t-116 167.5l161 84q49 -125 166 -125q60 0 96.5 32t36.5 83q0 96 -139 96h-198l83 469h525z" />
    <glyph glyph-name="uni2158" unicode="&#x2158;" horiz-adv-x="2080" 
d="M805 807l-33 -176h-100l-23 -131h-188l22 131h-434l10 55l349 668h227l-289 -547h168l41 215h184l-37 -215h103zM479 0l1010 1352h229l-1011 -1352h-228zM2003 668h-328l-20 -115q50 4 55 4q113 0 187.5 -71.5t74.5 -180.5q0 -137 -97.5 -229t-244.5 -92
q-122 0 -209 61.5t-116 167.5l161 84q49 -125 166 -125q60 0 96.5 32t36.5 83q0 96 -139 96h-199l84 469h525z" />
    <glyph glyph-name="uni2159" unicode="&#x2159;" horiz-adv-x="1900" 
d="M88 500l33 184h207l86 483h-191l33 185h395l-116 -668h176l-33 -184h-590zM444 0l1010 1352h229l-1011 -1352h-228zM1808 309q0 -132 -99.5 -227.5t-238.5 -95.5q-130 0 -218.5 87.5t-88.5 213.5q0 75 32 135t112 153l243 277h260l-229 -264q97 -14 162 -93.5t65 -185.5z
M1602 303q0 51 -30 82t-79 31q-52 0 -88.5 -36t-36.5 -89q0 -51 31.5 -84t79.5 -33q54 0 88.5 36.5t34.5 92.5z" />
    <glyph glyph-name="uni215A" unicode="&#x215a;" horiz-adv-x="1830" 
d="M770 1167h-328l-20 -114q50 4 55 4q113 0 187.5 -71.5t74.5 -180.5q0 -137 -97.5 -229.5t-244.5 -92.5q-122 0 -209 62t-116 168l161 84q49 -125 166 -125q60 0 96.5 31.5t36.5 82.5q0 97 -139 97h-198l84 469h524zM375 0l1009 1352h230l-1012 -1352h-227zM1739 309
q0 -132 -99.5 -227.5t-238.5 -95.5q-130 0 -218.5 87.5t-88.5 213.5q0 76 31.5 136t111.5 152l244 277h260l-230 -264q97 -14 162.5 -93.5t65.5 -185.5zM1532 303q0 51 -30 82t-79 31q-52 0 -88.5 -36t-36.5 -89q0 -51 31.5 -84t79.5 -33q54 0 88.5 36.5t34.5 92.5z" />
    </font>
</defs>
</svg>
