<?xml version="1.0" standalone="no"?>
<!DOCTYPE svg PUBLIC "-//W3C//DTD SVG 1.1//EN" "http://www.w3.org/Graphics/SVG/1.1/DTD/svg11.dtd" >
<svg xmlns="http://www.w3.org/2000/svg" xmlns:xlink="http://www.w3.org/1999/xlink" version="1.1">
<metadata>
Created by FontForge 20170731 at Mon Dec 21 18:11:30 2020
 By Aleksey,,,
Copyright (c) 2015, 2018 by Jakob Runge, under exclusive license to TypeMates. All rights reserved.
</metadata>
<defs>
<font id="CeraPro-Bold" horiz-adv-x="1146" >
  <font-face 
    font-family="Cera Pro"
    font-weight="700"
    font-stretch="normal"
    units-per-em="2048"
    panose-1="0 0 8 0 0 0 0 0 0 0"
    ascent="1655"
    descent="-393"
    x-height="1014"
    cap-height="1352"
    bbox="-973 -504 2810 2048"
    underline-thickness="178"
    underline-position="-382"
    unicode-range="U+0020-FB02"
  />
<missing-glyph horiz-adv-x="1460" 
d="M156 1352h1149v-1352h-1149v1352zM1116 158v1022h-776z" />
    <glyph glyph-name="fi" unicode="fi" horiz-adv-x="1282" 
d="M461 1155v-141h223v-234h-223v-780h-277v780h-143v234h143v166q0 188 102.5 284.5t288.5 96.5q75 0 152 -23v-231q-47 6 -82 6q-96 0 -140 -36.5t-44 -121.5zM868 0v1014h277v-1014h-277zM829 1382q0 73 51.5 122.5t125.5 49.5t126 -49.5t52 -122.5q0 -72 -52 -121
t-126 -49t-125.5 49t-51.5 121z" />
    <glyph glyph-name="fl" unicode="fl" horiz-adv-x="1282" 
d="M461 1155v-141h223v-234h-223v-780h-277v780h-143v234h143v166q0 188 102.5 284.5t288.5 96.5q75 0 152 -23v-231q-47 6 -82 6q-96 0 -140 -36.5t-44 -121.5zM868 0v1536h277v-1536h-277z" />
    <glyph glyph-name=".notdef" horiz-adv-x="1460" 
d="M156 1352h1149v-1352h-1149v1352zM1116 158v1022h-776z" />
    <glyph glyph-name=".null" horiz-adv-x="0" 
 />
    <glyph glyph-name="nonmarkingreturn" horiz-adv-x="682" 
 />
    <glyph glyph-name="space" unicode=" " horiz-adv-x="573" 
 />
    <glyph glyph-name="exclam" unicode="!" horiz-adv-x="710" 
d="M242 496l-54 856h330l-51 -856h-225zM166 166q0 81 54 135.5t138 54.5q79 0 134 -55t55 -135q0 -81 -54.5 -136t-134.5 -55q-84 0 -138 54.5t-54 136.5z" />
    <glyph glyph-name="quotedbl" unicode="&#x22;" horiz-adv-x="1101" 
d="M170 782l10 570h316l-115 -570h-211zM655 782l11 570h315l-115 -570h-211z" />
    <glyph glyph-name="numbersign" unicode="#" horiz-adv-x="1292" 
d="M1239 809h-199l-34 -266h188v-232h-221l-41 -311h-223l41 311h-306l-41 -311h-223l41 311h-166v232h197l37 266h-191v231h221l41 312h226l-41 -312h303l41 312h225l-41 -312h166v-231zM475 530h305l37 291h-303z" />
    <glyph glyph-name="dollar" unicode="$" horiz-adv-x="1101" 
d="M670 51v-250h-242v254q-119 26 -212 97.5t-150 179.5l186 139q119 -186 309 -186q82 0 130 31t48 90q0 47 -35.5 77t-121.5 64l-140 51q-305 116 -305 356q0 123 79.5 213t211.5 121v246h242v-242q204 -44 305 -235l-184 -139q-96 139 -236 139q-66 0 -106.5 -26.5
t-40.5 -78.5q0 -42 31.5 -70t105.5 -59l153 -53q312 -115 312 -360q0 -141 -92.5 -237.5t-247.5 -121.5z" />
    <glyph glyph-name="percent" unicode="%" horiz-adv-x="1763" 
d="M115 1040q0 142 102 239t248 97q144 0 246 -97.5t102 -238.5q0 -142 -102.5 -240t-245.5 -98q-145 0 -247.5 98t-102.5 240zM383 0l776 1352h223l-778 -1352h-221zM600 1040q0 63 -38 104.5t-95 41.5q-61 0 -99 -41t-38 -105q0 -66 37 -106.5t100 -40.5q58 0 95.5 41
t37.5 106zM950 315q0 141 102 238.5t246 97.5t247.5 -97.5t103.5 -238.5q0 -142 -103 -240t-248 -98q-143 0 -245.5 98t-102.5 240zM1434 315q0 63 -38.5 104.5t-95.5 41.5q-63 0 -100 -40t-37 -106t37 -105.5t100 -39.5q57 0 95.5 41t38.5 104z" />
    <glyph glyph-name="ampersand" unicode="&#x26;" horiz-adv-x="1380" 
d="M1317 602l-53 -78q-121 -174 -181 -248l228 -276h-324l-82 100q-162 -125 -366 -125q-197 0 -321 105t-124 272q0 106 60 197q60 87 213 209q-119 154 -119 295q0 146 96 234.5t254 88.5q149 0 243.5 -83t94.5 -214q0 -96 -51.5 -178t-169.5 -180l198 -240q29 40 117 168
q28 37 74 105zM496 1049q0 -35 17 -68t62 -90l5 2q60 47 84 83t24 77t-25 64.5t-69 23.5q-45 0 -71.5 -25t-26.5 -67zM745 295l-233 283q-84 -69 -112.5 -109t-28.5 -90q0 -72 51 -116t133 -44q99 0 190 76z" />
    <glyph glyph-name="quotesingle" unicode="'" horiz-adv-x="616" 
d="M170 782l10 570h316l-115 -570h-211z" />
    <glyph glyph-name="parenleft" unicode="(" horiz-adv-x="747" 
d="M139 621q0 347 120.5 573.5t326.5 318.5l108 -165q-313 -208 -313 -727q0 -517 313 -725l-108 -166q-205 92 -326 319t-121 572z" />
    <glyph glyph-name="parenright" unicode=")" horiz-adv-x="747" 
d="M164 -270l-111 166q316 210 316 725q0 277 -82 452t-234 275l111 165q195 -89 319 -311q125 -219 125 -581q0 -359 -125 -582q-126 -221 -319 -309z" />
    <glyph glyph-name="asterisk" unicode="*" horiz-adv-x="956" 
d="M877 1260l-187 -138l187 -139l-80 -137l-213 92l-27 -229h-158l-26 229l-213 -92l-80 137l186 139l-186 138l80 137l213 -92l26 229h158l27 -229l213 92z" />
    <glyph glyph-name="plus" unicode="+" 
d="M444 176v363h-352v235h352v361h265v-361h348v-235h-348v-363h-265z" />
    <glyph glyph-name="comma" unicode="," horiz-adv-x="573" 
d="M131 -365l12 617h316l-109 -617h-219z" />
    <glyph glyph-name="hyphen" unicode="-" horiz-adv-x="700" 
d="M92 541v231h516v-231h-516z" />
    <glyph glyph-name="period" unicode="." horiz-adv-x="573" 
d="M96 166q0 80 55.5 135t137.5 55q79 0 133.5 -55t54.5 -135q0 -82 -53.5 -136.5t-134.5 -54.5q-82 0 -137.5 54.5t-55.5 136.5z" />
    <glyph glyph-name="slash" unicode="/" horiz-adv-x="1376" 
d="M6 -248l1071 1845h293l-1071 -1845h-293z" />
    <glyph glyph-name="zero" unicode="0" horiz-adv-x="1300" 
d="M115 686q0 311 137 500q138 190 399 190q263 0 398 -190q137 -189 137 -500q0 -151 -34.5 -279.5t-100 -225.5t-168 -151.5t-232.5 -54.5q-105 0 -192.5 35.5t-150.5 99.5t-106.5 153t-65 195.5t-21.5 227.5zM901 684q0 436 -250 436q-129 0 -190.5 -109t-61.5 -327
q0 -453 252 -453q250 0 250 453z" />
    <glyph glyph-name="one" unicode="1" horiz-adv-x="821" 
d="M543 1352h92v-1352h-277v1024l-256 -82l-65 244z" />
    <glyph glyph-name="two" unicode="2" horiz-adv-x="1196" 
d="M586 236h504v-236l-998 -2v59l483 525q102 111 146.5 189t44.5 151q0 88 -51 143t-137 55t-138.5 -57t-52.5 -150q0 -30 10 -98h-278q-15 56 -15 115q0 86 34.5 166.5t95.5 142.5t152 99.5t196 37.5q202 0 335.5 -123.5t133.5 -308.5q0 -135 -74 -256q-76 -121 -217 -268
z" />
    <glyph glyph-name="three" unicode="3" horiz-adv-x="1124" 
d="M1032 442q0 -133 -68.5 -240.5t-185 -167t-256.5 -59.5q-164 0 -292 82.5t-199 225.5l192 135q64 -96 132 -141.5t159 -45.5q104 0 170 57t66 152q0 94 -71 144.5t-206 50.5h-170v72l283 395h-451v250h871v-74l-299 -422q137 -37 231 -145q94 -107 94 -269z" />
    <glyph glyph-name="four" unicode="4" horiz-adv-x="1181" 
d="M1153 455v-234h-172v-221h-276v221h-672v74l418 1057h284l-358 -897h328v379h276v-379h172z" />
    <glyph glyph-name="five" unicode="5" horiz-adv-x="1155" 
d="M1063 444q0 -135 -69 -243t-187 -167t-262 -59q-169 0 -300.5 83t-201.5 225l193 135q62 -95 133.5 -141t167.5 -46q106 0 173.5 57t67.5 152q0 96 -70.5 145.5t-205.5 49.5h-316v717h799v-250h-532v-246q82 16 153 16q88 0 169.5 -29t146 -82t103 -135.5t38.5 -181.5z
" />
    <glyph glyph-name="six" unicode="6" horiz-adv-x="1150" 
d="M1073 459q0 -134 -69.5 -246.5t-183.5 -175t-245 -62.5q-96 -1 -187.5 36t-160 101.5t-109 156t-38.5 192.5q0 76 22 147q22 64 55.5 119.5t106.5 157.5l338 467h326l-312 -434h9q112 3 216 -56.5t169.5 -167.5t62.5 -235zM799 459q0 97 -64.5 162t-159.5 65
q-94 0 -158.5 -65.5t-64.5 -161.5q0 -97 64.5 -163.5t158.5 -66.5t159 66t65 164z" />
    <glyph glyph-name="seven" unicode="7" horiz-adv-x="1075" 
d="M78 1352h950v-74l-618 -1278h-301l548 1102h-579v250z" />
    <glyph glyph-name="eight" unicode="8" horiz-adv-x="1204" 
d="M1108 360q0 -175 -141 -280t-365 -105q-225 0 -366.5 105t-141.5 280q0 232 266 340q-204 119 -204 318q0 168 125 262q128 96 321 96q192 0 320 -96q127 -95 127 -262q0 -201 -203 -318q262 -108 262 -340zM414 1006q0 -59 43.5 -101t144.5 -88q102 46 145.5 88
t43.5 103q0 66 -53 105.5t-136 39.5t-135.5 -39.5t-52.5 -107.5zM834 371q0 75 -54.5 122.5t-177.5 90.5q-122 -45 -176.5 -92.5t-54.5 -120.5q0 -77 60.5 -123.5t170.5 -46.5t171 46.5t61 123.5z" />
    <glyph glyph-name="nine" unicode="9" horiz-adv-x="1150" 
d="M1073 891q0 -115 -45 -201q-46 -93 -141 -223l-336 -467h-328l314 434h-11q-111 -3 -215 56.5t-169 167.5t-62 235q-3 132 66.5 245t184.5 176.5t244 61.5q132 0 246 -62t183 -174t69 -249zM799 893q0 97 -65 163t-159 66q-93 0 -158 -66t-65 -163q0 -96 65 -161.5
t158 -65.5q94 0 159 65.5t65 161.5z" />
    <glyph glyph-name="colon" unicode=":" horiz-adv-x="573" 
d="M96 842q0 80 55.5 135t137.5 55q79 0 133.5 -55t54.5 -135q0 -82 -53.5 -136.5t-134.5 -54.5q-82 0 -137.5 54.5t-55.5 136.5zM96 166q0 80 55.5 135t137.5 55q79 0 133.5 -55t54.5 -135q0 -82 -53.5 -136.5t-134.5 -54.5q-82 0 -137.5 54.5t-55.5 136.5z" />
    <glyph glyph-name="semicolon" unicode=";" horiz-adv-x="573" 
d="M96 842q0 80 55.5 135t137.5 55q79 0 133.5 -55t54.5 -135q0 -82 -53.5 -136.5t-134.5 -54.5q-82 0 -137.5 54.5t-55.5 136.5zM131 -365l12 617h316l-109 -617h-219z" />
    <glyph glyph-name="less" unicode="&#x3c;" 
d="M1026 1114v-240l-508 -217l508 -217v-241l-950 419v76z" />
    <glyph glyph-name="equal" unicode="=" 
d="M113 760v233h923v-233h-923zM113 319v234h923v-234h-923z" />
    <glyph glyph-name="greater" unicode="&#x3e;" 
d="M121 1114l950 -420v-76l-950 -419v241l508 217l-508 217v240z" />
    <glyph glyph-name="question" unicode="?" horiz-adv-x="925" 
d="M291 594q0 55 38.5 109t123.5 122q72 59 96 92.5t24 79.5q0 55 -36.5 90t-92.5 35q-112 0 -170 -155l-225 98q42 152 148 231.5t256 79.5q173 0 288 -100t115 -258q0 -85 -39 -152.5t-131 -146.5t-117.5 -110t-25.5 -70q0 -11 4 -43h-234q-22 52 -22 98zM246 166
q0 80 55.5 135t136.5 55t136 -55t55 -135q0 -82 -54.5 -136.5t-136.5 -54.5t-137 54.5t-55 136.5z" />
    <glyph glyph-name="at" unicode="@" horiz-adv-x="1951" 
d="M1872 578q0 -255 -160 -388q-159 -129 -426 -129h-100v103q-43 -60 -113.5 -92.5t-157.5 -32.5q-178 0 -294.5 126t-116.5 320q0 192 116.5 318.5t294.5 126.5q176 0 265 -115v96h231v-635q240 15 240 302q0 254 -176.5 414.5t-464.5 160.5q-202 3 -365 -81t-255 -237
t-89 -343q-2 -141 49.5 -264.5t142.5 -210t218 -135.5t272 -48q112 0 244 33l43 -193q-134 -51 -316 -51q-175 -3 -337.5 63.5t-282 181.5t-189.5 277.5t-67 341.5q-4 183 70 347.5t200 281t298 184t358 64.5q179 3 342 -60t279 -170t183 -253t64 -303zM1165 485
q0 101 -56.5 159t-141.5 58q-88 0 -147.5 -60.5t-59.5 -156.5q0 -97 58.5 -157t146.5 -60q86 0 143 57.5t57 159.5z" />
    <glyph glyph-name="A" unicode="A" horiz-adv-x="1353" 
d="M1028 0l-76 176h-553l-75 -176h-297l604 1376h92l602 -1376h-297zM856 403l-180 457l-180 -457h360z" />
    <glyph glyph-name="B" unicode="B" horiz-adv-x="1271" 
d="M1202 397q0 -175 -124.5 -286t-319.5 -111h-602v1352h479q188 0 308 -105.5t120 -271.5q0 -151 -100 -244q114 -42 176.5 -127.5t62.5 -206.5zM612 1114h-190v-309h190q84 0 130 41.5t46 114.5q0 72 -46 112.5t-130 40.5zM930 408q0 78 -51.5 124t-141.5 46h-315v-340
h315q91 0 142 45t51 125z" />
    <glyph glyph-name="C" unicode="C" horiz-adv-x="1474" 
d="M78 676q-3 190 95 353t265.5 257t360.5 90q192 0 348.5 -88.5t247.5 -247.5l-209 -147q-143 227 -387 227q-189 0 -313 -126.5t-124 -319.5t124 -318t313 -125q243 0 387 228l209 -148q-88 -158 -245.5 -247t-352.5 -89q-145 -3 -279.5 52t-231.5 149.5t-154 226
t-54 273.5z" />
    <glyph glyph-name="D" unicode="D" horiz-adv-x="1413" 
d="M156 0v1352h442q212 2 381 -82t264 -239t92 -351q2 -145 -53 -272t-152.5 -217.5t-235.5 -141.5t-296 -49h-442zM432 250h164q205 0 330 118t125 312q0 195 -123.5 308.5t-331.5 113.5h-164v-852z" />
    <glyph glyph-name="E" unicode="E" horiz-adv-x="1173" 
d="M156 0v1352h909v-250h-633v-275h465v-235h-465v-342h658v-250h-934z" />
    <glyph glyph-name="F" unicode="F" horiz-adv-x="1095" 
d="M156 0v1352h888v-250h-612v-338h502v-250h-502v-514h-276z" />
    <glyph glyph-name="G" unicode="G" horiz-adv-x="1529" 
d="M78 676q-3 143 54 274t154.5 225t232.5 148.5t282 52.5q177 0 323.5 -76t245.5 -217l-196 -161q-143 198 -377 198q-193 0 -314 -125t-121 -319q0 -198 125.5 -325.5t325.5 -127.5q115 0 206.5 44t149.5 124v111h-372v239h649v-399q-92 -164 -264 -266
q-168 -101 -381 -101q-117 -2 -228 32.5t-200.5 100t-156.5 152t-103.5 194.5t-34.5 222z" />
    <glyph glyph-name="H" unicode="H" horiz-adv-x="1460" 
d="M156 0v1352h276v-518h598v518h277v-1352h-277v584h-598v-584h-276z" />
    <glyph glyph-name="I" unicode="I" horiz-adv-x="585" 
d="M156 0v1352h276v-1352h-276z" />
    <glyph glyph-name="J" unicode="J" horiz-adv-x="796" 
d="M35 0v236q111 -9 135 -9q101 0 148 37.5t47 124.5v963h276v-992q0 -190 -106 -287.5t-306 -97.5q-91 0 -194 25z" />
    <glyph glyph-name="K" unicode="K" horiz-adv-x="1372" 
d="M1346 0h-334l-580 705v-705h-276v1352h276v-627l516 627h330l-518 -637z" />
    <glyph glyph-name="L" unicode="L" horiz-adv-x="1073" 
d="M156 0v1352h276v-1102h592v-250h-868z" />
    <glyph glyph-name="M" unicode="M" horiz-adv-x="1634" 
d="M1389 1376h90v-1376h-277v721l-340 -426h-90l-340 426v-721h-276v1376h90l571 -731z" />
    <glyph glyph-name="N" unicode="N" horiz-adv-x="1460" 
d="M1030 1352h277v-1377h-93l-782 836v-811h-276v1376h90l784 -831v807z" />
    <glyph glyph-name="O" unicode="O" horiz-adv-x="1593" 
d="M78 676q-2 142 55.5 273t154.5 225.5t230.5 149.5t276.5 52q143 3 277 -52t232 -149.5t156 -225.5t56 -273q2 -142 -56 -273.5t-156 -226t-232 -149.5t-277 -52q-143 -3 -276.5 52t-230.5 149.5t-154.5 226t-55.5 273.5zM1231 676q0 192 -124 318t-310 126
q-188 0 -311.5 -125t-123.5 -319t123.5 -319.5t311.5 -125.5q187 0 310.5 125.5t123.5 319.5z" />
    <glyph glyph-name="P" unicode="P" horiz-adv-x="1216" 
d="M156 0v1352h508q213 0 350 -121.5t137 -315.5q0 -193 -137 -315.5t-350 -122.5h-232v-477h-276zM432 719h232q95 0 149.5 53.5t54.5 142.5q0 87 -55.5 140t-148.5 53h-232v-389z" />
    <glyph glyph-name="Q" unicode="Q" horiz-adv-x="1593" 
d="M2165 -209v-217q-108 -27 -242 -27q-277 0 -509 118t-392 345q-113 -35 -227 -35q-143 -3 -276.5 52t-230.5 149.5t-154.5 226t-55.5 273.5q-2 142 55.5 273t154.5 225.5t230.5 149.5t276.5 52q143 3 277 -52t232 -149.5t156 -225.5t56 -273q0 -163 -70 -305t-195 -240
q137 -179 312 -263.5t413 -84.5q58 0 189 8zM797 231q187 0 310.5 125.5t123.5 319.5q0 192 -124 318t-310 126q-188 0 -311.5 -125t-123.5 -319t123.5 -319.5t311.5 -125.5z" />
    <glyph glyph-name="R" unicode="R" horiz-adv-x="1310" 
d="M1296 0h-311l-350 477h-203v-477h-276v1352h508q213 0 350 -121.5t137 -315.5q0 -128 -63 -228.5t-175 -156.5zM432 1108v-387h232q96 0 150 52.5t54 141.5q0 87 -55.5 140t-148.5 53h-232z" />
    <glyph glyph-name="S" unicode="S" horiz-adv-x="1144" 
d="M61 274l191 144q71 -97 149 -147t183 -50q90 0 141 40.5t51 109.5q0 57 -35 89t-137 79l-145 65q-162 72 -245 165.5t-83 223.5q0 171 127 277t322 106q152 0 266.5 -68t179.5 -188l-188 -145q-104 155 -258 155q-74 0 -121 -35t-47 -96q0 -52 33.5 -83.5t123.5 -71.5
l154 -68q174 -77 254 -169t80 -226q0 -183 -133.5 -294.5t-339.5 -111.5q-169 0 -306.5 80t-216.5 219z" />
    <glyph glyph-name="T" unicode="T" horiz-adv-x="1198" 
d="M461 0v1102h-432v250h1142v-250h-434v-1102h-276z" />
    <glyph glyph-name="U" unicode="U" horiz-adv-x="1433" 
d="M143 559v793h277v-813q0 -145 82 -226.5t215 -81.5q136 0 216.5 81t80.5 227v813h276v-793q0 -264 -161.5 -424t-411.5 -160q-124 0 -229.5 41.5t-182 116t-119.5 184.5t-43 242z" />
    <glyph glyph-name="V" unicode="V" horiz-adv-x="1353" 
d="M1014 1352h311l-602 -1377h-92l-604 1377h313l338 -820z" />
    <glyph glyph-name="W" unicode="W" horiz-adv-x="2119" 
d="M1761 1352h307l-540 -1377h-90l-377 848l-379 -848h-90l-541 1377h307l301 -799l355 823h92l354 -819z" />
    <glyph glyph-name="X" unicode="X" horiz-adv-x="1257" 
d="M1229 0h-314l-286 449l-287 -449h-315l448 688l-422 664h316l260 -426l258 426h313l-416 -664z" />
    <glyph glyph-name="Y" unicode="Y" horiz-adv-x="1277" 
d="M1243 1352l-465 -820v-532h-276v530l-467 822h307l299 -537l297 537h305z" />
    <glyph glyph-name="Z" unicode="Z" horiz-adv-x="1204" 
d="M467 250h680v-250h-1106v74l678 1028h-590v250h1016v-74z" />
    <glyph glyph-name="bracketleft" unicode="[" horiz-adv-x="731" 
d="M184 -266v1761h469v-223h-233v-1315h233v-223h-469z" />
    <glyph glyph-name="backslash" unicode="\" horiz-adv-x="1376" 
d="M1077 -248l-1071 1845h293l1071 -1845h-293z" />
    <glyph glyph-name="bracketright" unicode="]" horiz-adv-x="731" 
d="M78 -266v223h233v1315h-233v223h471v-1761h-471z" />
    <glyph glyph-name="asciicircum" unicode="^" horiz-adv-x="1097" 
d="M995 565h-264l-182 377l-184 -377h-265l404 807h90z" />
    <glyph glyph-name="underscore" unicode="_" horiz-adv-x="1028" 
d="M72 -350v217h884v-217h-884z" />
    <glyph glyph-name="grave" unicode="`" horiz-adv-x="1228" 
d="M653 1169l-280 379v49h332l149 -428h-201z" />
    <glyph glyph-name="a" unicode="a" horiz-adv-x="1116" 
d="M987 602v-602h-254v98q-120 -123 -309 -123q-159 0 -254.5 84.5t-95.5 219.5q0 136 103 215t280 79h254v45q0 85 -48.5 132t-140.5 47q-76 0 -137.5 -33t-130.5 -107l-143 170q176 209 442 209q201 0 317.5 -113t116.5 -321zM711 379v12h-217q-142 0 -142 -102
q0 -51 40 -81t106 -30q91 0 152 57t61 144z" />
    <glyph glyph-name="b" unicode="b" horiz-adv-x="1288" 
d="M1208 506q0 -229 -139.5 -380t-351.5 -151q-104 0 -188 39t-138 111v-125h-254v1536h277v-621q112 121 303 121q212 0 351.5 -150.5t139.5 -379.5zM928 508q0 123 -75 200.5t-187 77.5q-110 0 -183 -74.5t-73 -205.5t73.5 -205t182.5 -74q114 0 188 77.5t74 203.5z" />
    <glyph glyph-name="c" unicode="c" horiz-adv-x="1130" 
d="M80 508q0 146 72.5 267.5t197.5 191t273 69.5q147 0 260 -65.5t180 -184.5l-193 -149q-101 147 -243 147q-116 0 -191.5 -78.5t-75.5 -197.5q0 -122 75 -200.5t192 -78.5q75 0 133 36.5t110 109.5l193 -148q-67 -119 -181 -185.5t-259 -66.5q-146 -3 -272 69t-199.5 196
t-71.5 268z" />
    <glyph glyph-name="d" unicode="d" horiz-adv-x="1288" 
d="M874 1536h277v-1536h-254v125q-51 -72 -136 -111t-190 -39q-212 0 -351.5 151t-139.5 380t139.5 379.5t351.5 150.5q191 0 303 -121v621zM879 506q0 130 -73.5 205t-182.5 75q-112 0 -187.5 -77.5t-75.5 -200.5q0 -126 74.5 -203.5t188.5 -77.5q109 0 182.5 74t73.5 205z
" />
    <glyph glyph-name="e" unicode="e" horiz-adv-x="1165" 
d="M1069 414h-711q25 -96 99.5 -148.5t185.5 -52.5q151 0 283 102l114 -188q-184 -152 -405 -152q-153 -3 -282.5 68.5t-202.5 195t-70 267.5q-2 108 39.5 207t113 170.5t170.5 113t207 39.5q208 0 342.5 -135.5t134.5 -335.5q0 -75 -18 -151zM358 608h461
q-1 92 -63.5 148.5t-155.5 56.5q-88 0 -153.5 -55.5t-88.5 -149.5z" />
    <glyph glyph-name="f" unicode="f" horiz-adv-x="700" 
d="M461 1155v-141h223v-234h-223v-780h-277v780h-143v234h143v166q0 188 102.5 284.5t288.5 96.5q75 0 152 -23v-231q-47 6 -82 6q-96 0 -140 -36.5t-44 -121.5z" />
    <glyph glyph-name="g" unicode="g" horiz-adv-x="1292" 
d="M901 1014h254v-901q0 -243 -141 -374.5t-383 -131.5q-286 0 -498 188l146 193q91 -67 166 -99t163 -32q126 0 198.5 61.5t72.5 177.5v56q-112 -121 -310 -121q-212 0 -348.5 141t-136.5 363q0 223 137.5 362t347.5 139q220 0 332 -149v127zM883 539q0 125 -72.5 193.5
t-183.5 68.5q-115 0 -188.5 -71.5t-73.5 -192.5t75 -197t187 -76q108 0 182 74.5t74 200.5z" />
    <glyph glyph-name="h" unicode="h" horiz-adv-x="1198" 
d="M1069 629v-629h-274v590q0 88 -52 142t-137 54t-138.5 -54.5t-53.5 -141.5v-590h-277v1536h277v-608q108 108 278 108q172 0 274.5 -111t102.5 -296z" />
    <glyph glyph-name="i" unicode="i" horiz-adv-x="550" 
d="M137 0v1014h277v-1014h-277zM98 1382q0 73 51 122.5t125 49.5t126.5 -49.5t52.5 -122.5q0 -71 -52.5 -120.5t-126.5 -49.5t-125 49t-51 121z" />
    <glyph glyph-name="j" unicode="j" horiz-adv-x="550" 
d="M-129 -371v232q49 -6 84 -6q94 0 138 37t44 120v1002h277v-1026q0 -187 -102.5 -284t-286.5 -97q-80 0 -154 22zM98 1382q0 73 51 122.5t125 49.5t126.5 -49.5t52.5 -122.5q0 -71 -52.5 -120.5t-126.5 -49.5t-125 49t-51 121z" />
    <glyph glyph-name="k" unicode="k" 
d="M1137 0h-316l-407 561v-561h-277v1536h277v-954l364 432h328l-381 -449z" />
    <glyph glyph-name="l" unicode="l" horiz-adv-x="550" 
d="M137 0v1536h277v-1536h-277z" />
    <glyph glyph-name="m" unicode="m" horiz-adv-x="1826" 
d="M1700 629v-629h-277v590q0 90 -49 143t-131 53t-134 -53t-52 -137v-596h-277v590q0 90 -49 143t-131 53q-85 0 -135.5 -53t-50.5 -143v-590h-277v1014h254v-90q106 112 287 112q198 0 301 -145q61 69 148 107t190 38q177 0 280 -110.5t103 -296.5z" />
    <glyph glyph-name="n" unicode="n" horiz-adv-x="1198" 
d="M1069 629v-629h-274v592q0 88 -52 142t-137 54t-138.5 -54.5t-53.5 -141.5v-592h-277v1014h254v-92q114 114 297 114q176 0 278.5 -110.5t102.5 -296.5z" />
    <glyph glyph-name="o" unicode="o" horiz-adv-x="1245" 
d="M80 508q-3 142 70.5 265t200 194.5t272.5 68.5q146 2 273 -69.5t200.5 -194t70.5 -264.5q2 -106 -41.5 -205.5t-117.5 -171t-176 -114t-211 -40.5q-109 -2 -210 40t-174.5 114.5t-116 171.5t-40.5 205zM885 506q0 119 -75 198.5t-187 79.5q-115 0 -189 -78t-74 -200
q0 -119 74 -197t189 -78q113 0 187.5 78.5t74.5 196.5z" />
    <glyph glyph-name="p" unicode="p" horiz-adv-x="1288" 
d="M1208 508q0 -112 -37 -211t-102 -169.5t-156.5 -111.5t-195.5 -41q-189 0 -303 123v-467h-277v1383h254v-127q51 72 136 110.5t190 38.5q212 0 351.5 -150.5t139.5 -377.5zM928 506q0 126 -74 203t-188 77q-110 0 -183 -73.5t-73 -204.5t73 -206t183 -75q112 0 187 78
t75 201z" />
    <glyph glyph-name="q" unicode="q" horiz-adv-x="1288" 
d="M897 1014h254v-1383h-277v467q-114 -123 -303 -123q-104 0 -195.5 41t-156.5 111.5t-102 169.5t-37 211q0 227 139.5 377.5t351.5 150.5q105 0 190 -38.5t136 -110.5v127zM879 508q0 131 -73 204.5t-183 73.5q-114 0 -188.5 -77t-74.5 -203q0 -123 75.5 -201t187.5 -78
q109 0 182.5 75.5t73.5 205.5z" />
    <glyph glyph-name="r" unicode="r" horiz-adv-x="794" 
d="M760 1014v-244h-74q-127 0 -199.5 -68t-72.5 -196v-506h-277v1014h254v-121q108 133 279 133q50 0 90 -12z" />
    <glyph glyph-name="s" unicode="s" horiz-adv-x="931" 
d="M45 172l139 168q131 -137 285 -137q57 0 93 22t36 62q0 31 -21.5 48t-82.5 44l-109 45q-145 59 -210.5 129.5t-65.5 179.5q0 141 102 222t270 81q226 0 365 -151l-139 -170q-104 96 -228 96q-51 0 -79.5 -18.5t-28.5 -53.5q0 -28 22 -46t84 -44l98 -41q153 -62 219 -131
t66 -178q0 -154 -112 -238q-112 -86 -283 -86q-132 0 -241 52t-179 145z" />
    <glyph glyph-name="t" unicode="t" horiz-adv-x="851" 
d="M788 231v-231q-103 -25 -190 -25q-195 0 -300 96.5t-105 284.5v424h-160v234h160v256h276v-256h287v-234h-287v-399q0 -85 44.5 -121.5t143.5 -36.5q35 0 131 8z" />
    <glyph glyph-name="u" unicode="u" horiz-adv-x="1187" 
d="M127 446v568h276v-590q0 -87 54 -141t139 -54q81 0 134.5 54t53.5 141v590h277v-568q0 -210 -132 -340.5t-333 -130.5q-205 0 -337 130.5t-132 340.5z" />
    <glyph glyph-name="v" unicode="v" horiz-adv-x="1144" 
d="M827 1014h293l-502 -1039h-92l-501 1039h290l256 -574z" />
    <glyph glyph-name="w" unicode="w" horiz-adv-x="1755" 
d="M1440 1014h291l-471 -1039h-91l-290 590l-293 -590h-90l-471 1039h290l240 -578l276 600h93l280 -587z" />
    <glyph glyph-name="x" unicode="x" horiz-adv-x="1087" 
d="M1071 0h-309l-217 324l-219 -324h-310l371 522l-346 492h309l195 -293l192 293h310l-349 -490z" />
    <glyph glyph-name="y" unicode="y" horiz-adv-x="1144" 
d="M829 1014h291l-485 -1102q-69 -158 -166 -231.5t-238 -73.5q-87 0 -178 24v232q84 -8 119 -8q77 0 127 30.5t84 106.5l31 69l-389 953h292l248 -666z" />
    <glyph glyph-name="z" unicode="z" horiz-adv-x="958" 
d="M440 233h486v-233h-891v74l485 706h-438v234h840v-74z" />
    <glyph glyph-name="braceleft" unicode="{" horiz-adv-x="845" 
d="M522 1139q0 -39 21 -162q24 -132 24 -186q0 -142 -145 -179q75 -19 110 -61t35 -115q0 -36 -10 -108l-12 -74q-23 -128 -23 -166q0 -133 127 -133h119v-221h-166q-315 0 -315 286q0 72 26 222q19 108 19 147q0 107 -113 107h-127v235h127q113 0 113 107q0 35 -19 149
q-26 137 -26 219q0 289 315 289h166v-223h-119q-127 0 -127 -133z" />
    <glyph glyph-name="bar" unicode="|" horiz-adv-x="679" 
d="M225 -248v1845h230v-1845h-230z" />
    <glyph glyph-name="braceright" unicode="}" horiz-adv-x="845" 
d="M627 731h125v-235h-125q-113 0 -113 -107q0 -45 18 -147q27 -156 27 -222q0 -286 -315 -286h-166v221h117q62 0 95.5 34t33.5 99q0 38 -23 166l-12 74q-10 72 -10 108q0 73 34.5 115t108.5 61q-74 19 -108.5 62.5t-34.5 116.5q0 54 24 186q21 123 21 162q0 133 -129 133
h-117v223h166q315 0 315 -289q0 -76 -27 -219q-18 -108 -18 -149q0 -107 113 -107z" />
    <glyph glyph-name="asciitilde" unicode="~" 
d="M651 479l-180 109q-70 47 -113 47q-32 0 -49.5 -21.5t-17.5 -58.5v-39h-211q-4 70 -4 76q0 128 69 209q72 84 177 84q84 0 174 -54l180 -110q46 -27 68 -36t44 -9q31 0 50.5 22.5t19.5 55.5v41h209q6 -40 6 -76q0 -128 -71.5 -210.5t-176.5 -82.5q-88 0 -174 53z" />
    <glyph glyph-name="uni00A0" unicode="&#xa0;" horiz-adv-x="573" 
 />
    <glyph glyph-name="exclamdown" unicode="&#xa1;" horiz-adv-x="710" 
d="M166 848q0 82 54 135t138 53q80 0 134.5 -53.5t54.5 -134.5t-54.5 -136t-134.5 -55q-84 0 -138 54.5t-54 136.5zM190 -369l54 885h225l51 -885h-330z" />
    <glyph glyph-name="cent" unicode="&#xa2;" horiz-adv-x="1140" 
d="M860 537l191 -148q-56 -101 -149 -165t-210 -81v-342h-241v359q-168 49 -277 188q-106 135 -106 320q0 184 106 319q110 140 277 189v358h241v-342q117 -17 210 -81t151 -165l-193 -147q-52 72 -110.5 108.5t-135.5 36.5q-116 0 -190 -78.5t-74 -197.5q0 -120 74 -198.5
t190 -78.5q76 0 135 36.5t111 109.5z" />
    <glyph glyph-name="sterling" unicode="&#xa3;" horiz-adv-x="1165" 
d="M565 233h510v-233h-989v59q141 102 205.5 191t64.5 194v21h-250v233h162q-47 90 -67.5 151.5t-20.5 131.5q0 176 127 285.5t320 109.5q174 0 297 -95t172 -275l-232 -84q-64 198 -219 198q-85 0 -134.5 -50.5t-49.5 -133.5q0 -53 19 -100.5t71 -137.5h330v-233h-250v-16
q0 -125 -66 -216z" />
    <glyph glyph-name="currency" unicode="&#xa4;" horiz-adv-x="1345" 
d="M1090 416l221 -226l-164 -163l-229 233q-111 -63 -252 -63q-135 0 -248 61l-217 -231l-166 163l211 224q-80 115 -80 262q0 143 80 258l-211 215l166 166l217 -223q108 63 248 63q135 0 256 -65l223 225l166 -166l-219 -215q77 -118 77 -258q0 -147 -79 -260zM887 676
q0 98 -62.5 161.5t-156.5 63.5q-98 0 -158.5 -63t-60.5 -162t60.5 -162t158.5 -63q96 0 157.5 63t61.5 162z" />
    <glyph glyph-name="yen" unicode="&#xa5;" horiz-adv-x="1226" 
d="M1217 1352l-402 -584h307v-223h-368v-127h368v-223h-368v-195h-277v195h-371v223h371v127h-371v223h308l-404 584h307l297 -434l297 434h306z" />
    <glyph glyph-name="brokenbar" unicode="&#xa6;" horiz-adv-x="679" 
d="M225 983v614h230v-614h-230zM225 -248v615h230v-615h-230z" />
    <glyph glyph-name="section" unicode="&#xa7;" horiz-adv-x="1232" 
d="M936 109q4 -46 4 -52q0 -148 -105 -238.5t-278 -90.5q-133 0 -238 57t-167 162l174 141q94 -129 231 -129q123 0 123 98q0 47 -29.5 78t-124.5 96l-186 125q-150 95 -215.5 176.5t-65.5 184.5q0 107 63.5 183.5t174.5 109.5q-4 46 -4 51q0 148 105 239t278 91
q133 0 237 -57.5t166 -162.5l-174 -141q-97 129 -231 129q-123 0 -123 -98q0 -47 29 -77.5t127 -96.5l184 -125q152 -96 217.5 -176t65.5 -185q0 -107 -63.5 -183t-174.5 -109zM842 283q71 41 71 110q0 41 -32.5 78t-124.5 98l-201 133q-118 79 -168 132q-70 -40 -70 -109
q0 -41 33 -77t127 -99l185 -125q120 -74 180 -141z" />
    <glyph glyph-name="dieresis" unicode="&#xa8;" horiz-adv-x="1228" 
d="M205 1384q0 66 49.5 113t118.5 47q66 0 115 -47t49 -113t-49 -112.5t-115 -46.5q-69 0 -118.5 46.5t-49.5 112.5zM692 1384q0 66 49.5 113t118.5 47q66 0 115 -47t49 -113t-49 -112.5t-115 -46.5q-69 0 -118.5 46.5t-49.5 112.5z" />
    <glyph glyph-name="copyright" unicode="&#xa9;" horiz-adv-x="1593" 
d="M78 674q-3 143 55.5 275t157.5 225.5t232 148.5t274 53q140 3 273.5 -52t232 -149t157.5 -225.5t56 -273.5q3 -142 -56 -273.5t-158 -225.5t-233 -149.5t-274 -52.5q-141 -2 -273.5 53t-231 148.5t-157 224.5t-55.5 273zM1335 674q3 154 -74 280t-201 193t-265 65
q-105 1 -204 -38.5t-173 -109t-118 -172t-42 -218.5q-2 -116 42 -218t118 -171t172.5 -108t204.5 -38q104 -1 202.5 38t174 108t120.5 171t43 218zM424 676q0 161 112 271t275 110q92 0 171.5 -42.5t137.5 -119.5l-143 -125q-69 94 -164 94q-78 0 -127 -53t-49 -135
q0 -80 49.5 -133.5t126.5 -53.5q96 0 164 93l143 -125q-58 -76 -138 -118t-173 -42q-162 0 -273.5 109t-111.5 270z" />
    <glyph glyph-name="ordfeminine" unicode="&#xaa;" horiz-adv-x="749" 
d="M655 877v-377h-194v49q-72 -66 -185 -66q-102 0 -161.5 56.5t-59.5 144.5q0 90 66 139t184 49h137v23q0 86 -102 86q-75 0 -170 -68l-86 138q118 106 281 106q137 0 213.5 -72.5t76.5 -207.5zM442 733v19h-100q-34 0 -53 -16.5t-19 -43.5q0 -26 20 -41.5t52 -15.5
q43 0 71.5 27t28.5 71z" />
    <glyph glyph-name="guillemotleft" unicode="&#xab;" horiz-adv-x="1222" 
d="M459 92l-400 428v74l400 430l176 -154l-277 -311l277 -313zM985 92l-399 428v74l399 430l176 -154l-276 -311l276 -313z" />
    <glyph glyph-name="logicalnot" unicode="&#xac;" 
d="M733 211v328h-645v235h903v-563h-258z" />
    <glyph glyph-name="uni00AD" unicode="&#xad;" horiz-adv-x="700" 
d="M92 541v231h516v-231h-516z" />
    <glyph glyph-name="registered" unicode="&#xae;" horiz-adv-x="1175" 
d="M1108 893q2 -105 -40 -203t-113 -169.5t-167.5 -113.5t-197.5 -40q-103 -2 -200.5 40t-168.5 113.5t-113 169.5t-40 203q-2 103 40 201t113 169t168.5 113.5t200.5 40.5q101 2 197.5 -40.5t167.5 -113.5t113 -169t40 -201zM973 893q0 165 -112 280t-271 115
q-161 0 -273 -114.5t-112 -280.5q0 -167 112 -282t273 -115q159 0 271 115t112 282zM723 821l135 -186h-158l-118 153h-56v-153h-143v514h213q92 0 149.5 -49.5t57.5 -130.5q0 -95 -80 -148zM526 1024v-113h70q26 0 42.5 15.5t16.5 40.5q0 26 -16.5 41.5t-42.5 15.5h-70z
" />
    <glyph glyph-name="overscore" unicode="&#xaf;" horiz-adv-x="1228" 
d="M305 1274v217h619v-217h-619z" />
    <glyph glyph-name="degree" unicode="&#xb0;" horiz-adv-x="739" 
d="M49 1061q0 128 94.5 221.5t227.5 93.5q132 0 225.5 -92.5t93.5 -222.5q0 -131 -93.5 -223.5t-225.5 -92.5q-133 0 -227.5 94t-94.5 222zM508 1059q0 60 -38.5 99.5t-98.5 39.5t-99 -39.5t-39 -99.5q0 -58 39.5 -97.5t98.5 -39.5t98 39.5t39 97.5z" />
    <glyph glyph-name="plusminus" unicode="&#xb1;" 
d="M442 356v289h-329v223h329v275h265v-275h329v-223h-329v-289h-265zM113 0v221h923v-221h-923z" />
    <glyph glyph-name="uni00B2" unicode="&#xb2;" horiz-adv-x="788" 
d="M438 930h271v-185l-641 -2v43l305 332q58 66 82 109.5t24 89.5q0 49 -27 78.5t-71 29.5q-45 0 -72.5 -29.5t-27.5 -82.5q0 -3 0.5 -10.5t1.5 -21.5l2 -28h-203q-8 31 -8 72q0 115 87 202t222 87q130 0 219 -80q88 -76 88 -199q0 -84 -44.5 -160.5t-141.5 -175.5z" />
    <glyph glyph-name="uni00B3" unicode="&#xb3;" horiz-adv-x="737" 
d="M668 1028q0 -128 -95.5 -213.5t-232.5 -85.5q-107 0 -190.5 53.5t-126.5 147.5l141 100q39 -59 78 -85.5t92 -26.5q55 0 89 30t34 80q0 98 -156 98h-98v52l159 235h-272v184h563v-55l-172 -256q82 -27 134.5 -96t52.5 -162z" />
    <glyph glyph-name="acute" unicode="&#xb4;" horiz-adv-x="1228" 
d="M373 1169l149 428h332v-49l-281 -379h-200z" />
    <glyph glyph-name="uni00B5" unicode="&#xb5;" horiz-adv-x="1255" 
d="M1163 227l56 2v-229q-64 -20 -148 -20q-154 0 -217 106q-90 -111 -229 -111q-128 0 -211 93v-437h-277v1383h277v-584q0 -91 52 -148t136 -57q86 0 139.5 57t53.5 148v584h274v-662q0 -66 22 -95.5t72 -29.5z" />
    <glyph glyph-name="paragraph" unicode="&#xb6;" horiz-adv-x="1255" 
d="M66 901q0 202 142.5 326.5t364.5 124.5h119v-908h-119q-219 0 -363 128t-144 329zM504 -369v236q99 -8 131 -8q100 0 145 37.5t45 126.5v1329h277v-1358q0 -193 -105 -290t-303 -97q-96 0 -190 24z" />
    <glyph glyph-name="middot" unicode="&#xb7;" horiz-adv-x="573" 
d="M96 655q0 80 56 135.5t137 55.5q79 0 133.5 -55.5t54.5 -135.5q0 -82 -53 -136t-135 -54t-137.5 54.5t-55.5 135.5z" />
    <glyph glyph-name="cedilla" unicode="&#xb8;" horiz-adv-x="1228" 
d="M379 -373v183q87 -5 123 -5q60 0 93.5 30t33.5 87q0 55 -27 119l109 49q137 -76 137 -223q0 -115 -86.5 -187.5t-231.5 -72.5q-84 0 -151 20z" />
    <glyph glyph-name="uni00B9" unicode="&#xb9;" horiz-adv-x="757" 
d="M86 745v185h211v483h-193v184h400v-667h176v-185h-594z" />
    <glyph glyph-name="ordmasculine" unicode="&#xba;" horiz-adv-x="817" 
d="M59 821q0 141 102.5 238.5t246.5 97.5t247 -97.5t103 -238.5q0 -142 -102.5 -240t-247.5 -98q-144 0 -246.5 98.5t-102.5 239.5zM545 821q0 66 -37.5 106t-99.5 40q-61 0 -98.5 -40t-37.5 -106t37 -105.5t99 -39.5q61 0 99 41t38 104z" />
    <glyph glyph-name="guillemotright" unicode="&#xbb;" horiz-adv-x="1222" 
d="M240 92l-177 154l275 313l-275 311l177 154l397 -430v-74zM766 92l-176 154l274 313l-274 311l176 154l397 -430v-74z" />
    <glyph glyph-name="onequarter" unicode="&#xbc;" horiz-adv-x="1918" 
d="M86 500v184h211v483h-193v185h400v-668h176v-184h-594zM514 0l778 1352h224l-779 -1352h-223zM1896 299v-168h-102v-131h-186v131h-434v53l253 668h211l-213 -553h183l2 223h184v-223h102z" />
    <glyph glyph-name="onehalf" unicode="&#xbd;" horiz-adv-x="1988" 
d="M86 500v184h211v483h-193v185h400v-668h176v-184h-594zM514 0l778 1352h224l-779 -1352h-223zM1638 184h271v-184l-641 -2v43l305 332q58 66 82 109t24 89q0 49 -27 79t-71 30q-45 0 -72.5 -30t-27.5 -83q0 -3 0.5 -10l1.5 -21l2 -28h-203q-8 31 -8 72q0 115 87 201.5
t222 86.5q130 0 219 -80q88 -76 88 -198q0 -84 -44.5 -160.5t-141.5 -175.5z" />
    <glyph glyph-name="threequarters" unicode="&#xbe;" horiz-adv-x="1826" 
d="M668 782q0 -128 -95.5 -213.5t-232.5 -85.5q-107 0 -190.5 53.5t-126.5 147.5l141 100q39 -59 78 -85.5t92 -26.5q55 0 89 30t34 80q0 99 -156 99h-98v51l159 235h-272v185h563v-56l-172 -256q82 -27 134.5 -96t52.5 -162zM422 0l778 1352h223l-778 -1352h-223zM1804 299
v-168h-102v-131h-186v131h-435v53l254 668h211l-213 -553h183l2 223h184v-223h102z" />
    <glyph glyph-name="questiondown" unicode="&#xbf;" horiz-adv-x="923" 
d="M295 848q0 82 54 135t136 53t136.5 -53.5t54.5 -134.5q0 -82 -54.5 -136.5t-136.5 -54.5t-136 54.5t-54 136.5zM70 -23q0 94 40 162t128 146q87 78 115 113.5t28 76.5l-2 41h233q23 -64 23 -96q0 -62 -35 -109.5t-127 -130.5q-69 -63 -95 -101t-26 -83q0 -59 38 -96
t93 -37q109 0 166 153l228 -98q-42 -151 -147.5 -231t-254.5 -80q-171 0 -288 104.5t-117 265.5z" />
    <glyph glyph-name="Agrave" unicode="&#xc0;" horiz-adv-x="1353" 
d="M1028 0l-76 176h-553l-75 -176h-297l604 1376h92l602 -1376h-297zM856 403l-180 457l-180 -457h360zM578 1483l-281 332v49h332l149 -381h-200z" />
    <glyph glyph-name="Aacute" unicode="&#xc1;" horiz-adv-x="1353" 
d="M1028 0l-76 176h-553l-75 -176h-297l604 1376h92l602 -1376h-297zM856 403l-180 457l-180 -457h360zM569 1483l150 381h332v-49l-281 -332h-201z" />
    <glyph glyph-name="Acircumflex" unicode="&#xc2;" horiz-adv-x="1353" 
d="M1028 0l-76 176h-553l-75 -176h-297l604 1376h92l602 -1376h-297zM856 403l-180 457l-180 -457h360zM1071 1483h-211l-184 164l-184 -164h-209l303 381h182z" />
    <glyph glyph-name="Atilde" unicode="&#xc3;" horiz-adv-x="1353" 
d="M1028 0l-76 176h-553l-75 -176h-297l604 1376h92l602 -1376h-297zM856 403l-180 457l-180 -457h360zM694 1530l-61 33q-58 34 -90 34q-28 0 -43 -18.5t-15 -48.5v-25h-211q-4 62 -4 70q0 121 68.5 197.5t169.5 76.5q72 0 151 -43l62 -37q16 -11 45.5 -22.5t46.5 -11.5
q57 0 57 69v25h211q4 -62 4 -68q0 -122 -67.5 -199t-167.5 -77q-76 0 -156 45z" />
    <glyph glyph-name="Adieresis" unicode="&#xc4;" horiz-adv-x="1353" 
d="M1028 0l-76 176h-553l-75 -176h-297l604 1376h92l602 -1376h-297zM856 403l-180 457l-180 -457h360zM248 1667q0 67 48.5 113.5t115.5 46.5q69 0 118.5 -46.5t49.5 -113.5q0 -63 -49.5 -110.5t-118.5 -47.5q-63 0 -113.5 48.5t-50.5 109.5zM776 1665q0 67 49.5 114.5
t116.5 47.5q68 0 117 -47.5t49 -114.5q0 -63 -49.5 -110.5t-116.5 -47.5q-63 0 -114.5 48.5t-51.5 109.5z" />
    <glyph glyph-name="Aring" unicode="&#xc5;" horiz-adv-x="1353" 
d="M1028 0l-76 176h-553l-75 -176h-297l604 1376h92l602 -1376h-297zM856 403l-180 457l-180 -457h360zM418 1634q0 105 74 176.5t184 71.5q112 0 186 -71.5t74 -176.5q0 -107 -74 -179.5t-186 -72.5q-110 0 -184 73t-74 179zM762 1634q0 35 -24.5 59.5t-59.5 24.5
q-36 0 -60 -24t-24 -60q0 -37 23.5 -61.5t60.5 -24.5q35 0 59.5 24.5t24.5 61.5z" />
    <glyph glyph-name="AE" unicode="&#xc6;" horiz-adv-x="1744" 
d="M1163 250h500v-250h-727l-31 176h-506l-92 -176h-297l692 1352h936v-250h-616l45 -275h406v-235h-367zM778 954l-264 -551h352z" />
    <glyph glyph-name="Ccedilla" unicode="&#xc7;" horiz-adv-x="1474" 
d="M78 676q-3 190 95 353t265.5 257t360.5 90q192 0 348.5 -88.5t247.5 -247.5l-209 -147q-143 227 -387 227q-189 0 -313 -126.5t-124 -319.5t124 -318t313 -125q243 0 387 228l209 -148q-88 -158 -245.5 -247t-352.5 -89q-145 -3 -279.5 52t-231.5 149.5t-154 226
t-54 273.5zM520 -373v183q88 -5 123 -5q60 0 93.5 30t33.5 87q0 55 -27 119l109 49q137 -76 137 -223q0 -115 -86 -187.5t-231 -72.5q-85 0 -152 20z" />
    <glyph glyph-name="Egrave" unicode="&#xc8;" horiz-adv-x="1173" 
d="M156 0v1352h909v-250h-633v-275h465v-235h-465v-342h658v-250h-934zM504 1483l-281 332v49h332l150 -381h-201z" />
    <glyph glyph-name="Eacute" unicode="&#xc9;" horiz-adv-x="1173" 
d="M156 0v1352h909v-250h-633v-275h465v-235h-465v-342h658v-250h-934zM496 1483l149 381h332v-49l-281 -332h-200z" />
    <glyph glyph-name="Ecircumflex" unicode="&#xca;" horiz-adv-x="1173" 
d="M156 0v1352h909v-250h-633v-275h465v-235h-465v-342h658v-250h-934zM997 1483h-211l-184 164l-184 -164h-209l303 381h182z" />
    <glyph glyph-name="Edieresis" unicode="&#xcb;" horiz-adv-x="1173" 
d="M156 0v1352h909v-250h-633v-275h465v-235h-465v-342h658v-250h-934zM174 1667q0 67 48.5 113.5t115.5 46.5q69 0 118.5 -46.5t49.5 -113.5q0 -63 -49.5 -110.5t-118.5 -47.5q-63 0 -113.5 48.5t-50.5 109.5zM702 1665q0 67 49.5 114.5t116.5 47.5q68 0 117 -47.5
t49 -114.5q0 -63 -49.5 -110.5t-116.5 -47.5q-63 0 -114.5 48.5t-51.5 109.5z" />
    <glyph glyph-name="Igrave" unicode="&#xcc;" horiz-adv-x="585" 
d="M156 0v1352h276v-1352h-276zM195 1483l-281 332v49h332l149 -381h-200z" />
    <glyph glyph-name="Iacute" unicode="&#xcd;" horiz-adv-x="585" 
d="M156 0v1352h276v-1352h-276zM186 1483l150 381h332v-49l-281 -332h-201z" />
    <glyph glyph-name="Icircumflex" unicode="&#xce;" horiz-adv-x="585" 
d="M156 0v1352h276v-1352h-276zM688 1483h-211l-184 164l-184 -164h-209l303 381h182z" />
    <glyph glyph-name="Idieresis" unicode="&#xcf;" horiz-adv-x="585" 
d="M156 0v1352h276v-1352h-276zM-135 1667q0 67 48.5 113.5t115.5 46.5q69 0 118.5 -46.5t49.5 -113.5q0 -63 -49.5 -110.5t-118.5 -47.5q-63 0 -113.5 48.5t-50.5 109.5zM393 1665q0 67 49.5 114.5t116.5 47.5q68 0 117 -47.5t49 -114.5q0 -63 -49.5 -110.5t-116.5 -47.5
q-63 0 -114.5 48.5t-51.5 109.5z" />
    <glyph glyph-name="Eth" unicode="&#xd0;" horiz-adv-x="1413" 
d="M1335 680q2 -145 -53 -272t-152.5 -217.5t-235.5 -141.5t-296 -49h-442v526h-172v232h172v594h442q212 2 381 -82t264 -239t92 -351zM1051 680q0 195 -123.5 308.5t-331.5 113.5h-164v-344h221v-232h-221v-276h164q205 0 330 118t125 312z" />
    <glyph glyph-name="Ntilde" unicode="&#xd1;" horiz-adv-x="1460" 
d="M1030 1352h277v-1377h-93l-782 836v-811h-276v1376h90l784 -831v807zM748 1530l-62 33q-58 34 -90 34q-28 0 -42.5 -18t-14.5 -49v-25h-211q-4 62 -4 70q0 121 68 197.5t169 76.5q73 0 152 -43l61 -37q16 -11 45.5 -22.5t46.5 -11.5q28 0 43 18.5t15 50.5v25h211
q4 -62 4 -68q0 -122 -68 -199t-168 -77q-75 0 -155 45z" />
    <glyph glyph-name="Ograve" unicode="&#xd2;" horiz-adv-x="1593" 
d="M78 676q-2 142 55.5 273t154.5 225.5t230.5 149.5t276.5 52q143 3 277 -52t232 -149.5t156 -225.5t56 -273q2 -142 -56 -273.5t-156 -226t-232 -149.5t-277 -52q-143 -3 -276.5 52t-230.5 149.5t-154.5 226t-55.5 273.5zM1231 676q0 192 -124 318t-310 126
q-188 0 -311.5 -125t-123.5 -319t123.5 -319.5t311.5 -125.5q187 0 310.5 125.5t123.5 319.5zM696 1483l-280 332v49h332l149 -381h-201z" />
    <glyph glyph-name="Oacute" unicode="&#xd3;" horiz-adv-x="1593" 
d="M78 676q-2 142 55.5 273t154.5 225.5t230.5 149.5t276.5 52q143 3 277 -52t232 -149.5t156 -225.5t56 -273q2 -142 -56 -273.5t-156 -226t-232 -149.5t-277 -52q-143 -3 -276.5 52t-230.5 149.5t-154.5 226t-55.5 273.5zM1231 676q0 192 -124 318t-310 126
q-188 0 -311.5 -125t-123.5 -319t123.5 -319.5t311.5 -125.5q187 0 310.5 125.5t123.5 319.5zM688 1483l150 381h331v-49l-280 -332h-201z" />
    <glyph glyph-name="Ocircumflex" unicode="&#xd4;" horiz-adv-x="1593" 
d="M78 676q-2 142 55.5 273t154.5 225.5t230.5 149.5t276.5 52q143 3 277 -52t232 -149.5t156 -225.5t56 -273q2 -142 -56 -273.5t-156 -226t-232 -149.5t-277 -52q-143 -3 -276.5 52t-230.5 149.5t-154.5 226t-55.5 273.5zM1231 676q0 192 -124 318t-310 126
q-188 0 -311.5 -125t-123.5 -319t123.5 -319.5t311.5 -125.5q187 0 310.5 125.5t123.5 319.5zM1190 1483h-211l-184 164l-185 -164h-209l304 381h182z" />
    <glyph glyph-name="Otilde" unicode="&#xd5;" horiz-adv-x="1593" 
d="M78 676q-2 142 55.5 273t154.5 225.5t230.5 149.5t276.5 52q143 3 277 -52t232 -149.5t156 -225.5t56 -273q2 -142 -56 -273.5t-156 -226t-232 -149.5t-277 -52q-143 -3 -276.5 52t-230.5 149.5t-154.5 226t-55.5 273.5zM1231 676q0 192 -124 318t-310 126
q-188 0 -311.5 -125t-123.5 -319t123.5 -319.5t311.5 -125.5q187 0 310.5 125.5t123.5 319.5zM813 1530l-61 33q-58 34 -90 34q-28 0 -43 -18.5t-15 -48.5v-25h-211q-4 62 -4 70q0 121 68.5 197.5t169.5 76.5q72 0 151 -43l62 -37q16 -11 45.5 -22.5t46.5 -11.5q57 0 57 69
v25h211q4 -62 4 -68q0 -122 -67.5 -199t-167.5 -77q-76 0 -156 45z" />
    <glyph glyph-name="Odieresis" unicode="&#xd6;" horiz-adv-x="1593" 
d="M78 676q-2 142 55.5 273t154.5 225.5t230.5 149.5t276.5 52q143 3 277 -52t232 -149.5t156 -225.5t56 -273q2 -142 -56 -273.5t-156 -226t-232 -149.5t-277 -52q-143 -3 -276.5 52t-230.5 149.5t-154.5 226t-55.5 273.5zM1231 676q0 192 -124 318t-310 126
q-188 0 -311.5 -125t-123.5 -319t123.5 -319.5t311.5 -125.5q187 0 310.5 125.5t123.5 319.5zM367 1667q0 67 48 113.5t115 46.5q69 0 118.5 -46.5t49.5 -113.5q0 -63 -49.5 -110.5t-118.5 -47.5q-63 0 -113 48.5t-50 109.5zM895 1665q0 67 49.5 114.5t116.5 47.5
q68 0 117 -47.5t49 -114.5q0 -63 -49.5 -110.5t-116.5 -47.5q-63 0 -114.5 48.5t-51.5 109.5z" />
    <glyph glyph-name="multiply" unicode="&#xd7;" 
d="M270 195l-164 165l302 302l-302 301l164 163l303 -301l301 301l164 -163l-301 -301l301 -302l-164 -165l-303 301z" />
    <glyph glyph-name="Oslash" unicode="&#xd8;" horiz-adv-x="1593" 
d="M1530 1245l-154 -153q140 -182 140 -416q2 -142 -56 -273.5t-156 -226t-232 -149.5t-277 -52q-221 0 -410 121l-156 -155l-166 165l152 152q-137 186 -137 418q-2 142 55.5 273t154.5 225.5t230.5 149.5t276.5 52q227 0 411 -123l158 158zM350 676q0 -124 53 -227
l625 622q-109 62 -231 62q-194 0 -320.5 -129.5t-126.5 -327.5zM1243 676q0 123 -55 227l-623 -624q105 -60 232 -60q190 0 318 130t128 327z" />
    <glyph glyph-name="Ugrave" unicode="&#xd9;" horiz-adv-x="1433" 
d="M143 559v793h277v-813q0 -145 82 -226.5t215 -81.5q136 0 216.5 81t80.5 227v813h276v-793q0 -264 -161.5 -424t-411.5 -160q-124 0 -229.5 41.5t-182 116t-119.5 184.5t-43 242zM616 1483l-280 332v49h332l149 -381h-201z" />
    <glyph glyph-name="Uacute" unicode="&#xda;" horiz-adv-x="1433" 
d="M143 559v793h277v-813q0 -145 82 -226.5t215 -81.5q136 0 216.5 81t80.5 227v813h276v-793q0 -264 -161.5 -424t-411.5 -160q-124 0 -229.5 41.5t-182 116t-119.5 184.5t-43 242zM608 1483l150 381h332v-49l-281 -332h-201z" />
    <glyph glyph-name="Ucircumflex" unicode="&#xdb;" horiz-adv-x="1433" 
d="M143 559v793h277v-813q0 -145 82 -226.5t215 -81.5q136 0 216.5 81t80.5 227v813h276v-793q0 -264 -161.5 -424t-411.5 -160q-124 0 -229.5 41.5t-182 116t-119.5 184.5t-43 242zM1110 1483h-211l-184 164l-185 -164h-208l303 381h182z" />
    <glyph glyph-name="Udieresis" unicode="&#xdc;" horiz-adv-x="1433" 
d="M143 559v793h277v-813q0 -145 82 -226.5t215 -81.5q136 0 216.5 81t80.5 227v813h276v-793q0 -264 -161.5 -424t-411.5 -160q-124 0 -229.5 41.5t-182 116t-119.5 184.5t-43 242zM287 1667q0 67 48.5 113.5t115.5 46.5q69 0 118 -46.5t49 -113.5q0 -64 -49.5 -111
t-117.5 -47q-63 0 -113.5 48.5t-50.5 109.5zM815 1665q0 67 49.5 114.5t116.5 47.5q68 0 117 -47.5t49 -114.5q0 -63 -49.5 -110.5t-116.5 -47.5q-63 0 -114.5 48.5t-51.5 109.5z" />
    <glyph glyph-name="Yacute" unicode="&#xdd;" horiz-adv-x="1277" 
d="M1243 1352l-465 -820v-532h-276v530l-467 822h307l299 -537l297 537h305zM528 1483l150 381h332v-49l-281 -332h-201z" />
    <glyph glyph-name="Thorn" unicode="&#xde;" horiz-adv-x="1216" 
d="M156 0v1352h276v-207h232q214 0 350.5 -121.5t136.5 -318.5t-136.5 -320t-350.5 -123h-232v-262h-276zM432 504h232q95 0 149.5 54.5t54.5 143.5q0 92 -54 145.5t-150 53.5h-232v-397z" />
    <glyph glyph-name="germandbls" unicode="&#xdf;" horiz-adv-x="1331" 
d="M535 100l104 195q135 -86 256 -86q55 0 86 22t31 64q0 37 -29 63q-28 25 -131 84q-110 66 -159.5 122.5t-49.5 127.5q0 57 37 150l70 178q28 70 28 135q0 73 -41.5 114.5t-118.5 41.5q-95 0 -151.5 -64.5t-56.5 -189.5v-1057h-273v1069q0 231 132 361.5t362 130.5
q194 0 310 -91t116 -241q0 -77 -35 -170l-74 -191q-33 -73 -33 -112q0 -20 9 -38.5t19.5 -31.5t37.5 -32t43 -29t55 -33q105 -65 153 -131t48 -162q0 -147 -105.5 -235.5t-279.5 -88.5q-211 0 -360 125z" />
    <glyph glyph-name="agrave" unicode="&#xe0;" horiz-adv-x="1116" 
d="M987 602v-602h-254v98q-120 -123 -309 -123q-159 0 -254.5 84.5t-95.5 219.5q0 136 103 215t280 79h254v45q0 85 -48.5 132t-140.5 47q-76 0 -137.5 -33t-130.5 -107l-143 170q176 209 442 209q201 0 317.5 -113t116.5 -321zM711 379v12h-217q-142 0 -142 -102
q0 -51 40 -81t106 -30q91 0 152 57t61 144zM455 1169l-281 379v49h332l149 -428h-200z" />
    <glyph glyph-name="aacute" unicode="&#xe1;" horiz-adv-x="1116" 
d="M987 602v-602h-254v98q-120 -123 -309 -123q-159 0 -254.5 84.5t-95.5 219.5q0 136 103 215t280 79h254v45q0 85 -48.5 132t-140.5 47q-76 0 -137.5 -33t-130.5 -107l-143 170q176 209 442 209q201 0 317.5 -113t116.5 -321zM711 379v12h-217q-142 0 -142 -102
q0 -51 40 -81t106 -30q91 0 152 57t61 144zM453 1169l149 428h332v-49l-281 -379h-200z" />
    <glyph glyph-name="acircumflex" unicode="&#xe2;" horiz-adv-x="1116" 
d="M987 602v-602h-254v98q-120 -123 -309 -123q-159 0 -254.5 84.5t-95.5 219.5q0 136 103 215t280 79h254v45q0 85 -48.5 132t-140.5 47q-76 0 -137.5 -33t-130.5 -107l-143 170q176 209 442 209q201 0 317.5 -113t116.5 -321zM711 379v12h-217q-142 0 -142 -102
q0 -51 40 -81t106 -30q91 0 152 57t61 144zM920 1169h-203l-164 189l-164 -189h-203l277 428h182z" />
    <glyph glyph-name="atilde" unicode="&#xe3;" horiz-adv-x="1116" 
d="M987 602v-602h-254v98q-120 -123 -309 -123q-159 0 -254.5 84.5t-95.5 219.5q0 136 103 215t280 79h254v45q0 85 -48.5 132t-140.5 47q-76 0 -137.5 -33t-130.5 -107l-143 170q176 209 442 209q201 0 317.5 -113t116.5 -321zM711 379v12h-217q-142 0 -142 -102
q0 -51 40 -81t106 -30q91 0 152 57t61 144zM569 1231l-57 35q-56 39 -82 39q-57 0 -57 -72v-25h-211q-4 28 -4 68q0 125 65.5 201.5t165.5 76.5q80 0 148 -45l57 -36q48 -37 82 -37q57 0 57 71v25h209q6 -38 6 -70q0 -123 -66 -199.5t-167 -76.5q-78 0 -146 45z" />
    <glyph glyph-name="adieresis" unicode="&#xe4;" horiz-adv-x="1116" 
d="M987 602v-602h-254v98q-120 -123 -309 -123q-159 0 -254.5 84.5t-95.5 219.5q0 136 103 215t280 79h254v45q0 85 -48.5 132t-140.5 47q-76 0 -137.5 -33t-130.5 -107l-143 170q176 209 442 209q201 0 317.5 -113t116.5 -321zM711 379v12h-217q-142 0 -142 -102
q0 -51 40 -81t106 -30q91 0 152 57t61 144zM143 1384q0 66 49.5 113t118.5 47q66 0 115 -47t49 -113t-49 -112.5t-115 -46.5q-69 0 -118.5 46.5t-49.5 112.5zM631 1384q0 66 49.5 113t118.5 47q66 0 115 -47t49 -113t-49 -112.5t-115 -46.5q-69 0 -118.5 46.5t-49.5 112.5z
" />
    <glyph glyph-name="aring" unicode="&#xe5;" horiz-adv-x="1116" 
d="M987 602v-602h-254v98q-120 -123 -309 -123q-159 0 -254.5 84.5t-95.5 219.5q0 136 103 215t280 79h254v45q0 85 -48.5 132t-140.5 47q-76 0 -137.5 -33t-130.5 -107l-143 170q176 209 442 209q201 0 317.5 -113t116.5 -321zM711 379v12h-217q-142 0 -142 -102
q0 -51 40 -81t106 -30q91 0 152 57t61 144zM293 1374q0 106 74 178t184 72q113 0 186.5 -70.5t73.5 -179.5t-74 -180.5t-186 -71.5q-111 0 -184.5 71.5t-73.5 180.5zM637 1374q0 36 -24 60t-60 24t-60 -24t-24 -60q0 -37 23.5 -60.5t60.5 -23.5q35 0 59.5 24.5t24.5 59.5z
" />
    <glyph glyph-name="ae" unicode="&#xe6;" horiz-adv-x="1798" 
d="M1700 403h-707q26 -91 101 -140.5t182 -49.5q148 0 280 102l115 -188q-178 -152 -401 -152q-135 0 -245.5 53.5t-180.5 151.5q-60 -100 -163 -152.5t-237 -52.5q-174 0 -272 84.5t-98 221.5q0 141 103 223t280 82h254v32q0 85 -48.5 132t-138.5 47q-73 0 -136.5 -34
t-133.5 -106l-141 170q176 209 440 209q227 0 334 -149q140 149 358 149q205 0 340 -135.5t135 -335.5q0 -92 -20 -162zM985 586h467q1 103 -59 165t-158 62q-94 0 -162 -61.5t-88 -165.5zM711 377v26h-217q-68 0 -105 -27.5t-37 -78.5q0 -55 38.5 -86t105.5 -31
q92 0 153.5 55.5t61.5 141.5z" />
    <glyph glyph-name="ccedilla" unicode="&#xe7;" horiz-adv-x="1130" 
d="M80 508q0 146 72.5 267.5t197.5 191t273 69.5q147 0 260 -65.5t180 -184.5l-193 -149q-101 147 -243 147q-116 0 -191.5 -78.5t-75.5 -197.5q0 -122 75 -200.5t192 -78.5q75 0 133 36.5t110 109.5l193 -148q-67 -119 -181 -185.5t-259 -66.5q-146 -3 -272 69t-199.5 196
t-71.5 268zM332 -373v183q87 -5 123 -5q60 0 93.5 30t33.5 87q0 55 -27 119l109 49q137 -76 137 -223q0 -115 -86.5 -187.5t-231.5 -72.5q-84 0 -151 20z" />
    <glyph glyph-name="egrave" unicode="&#xe8;" horiz-adv-x="1165" 
d="M1069 414h-711q25 -96 99.5 -148.5t185.5 -52.5q151 0 283 102l114 -188q-184 -152 -405 -152q-153 -3 -282.5 68.5t-202.5 195t-70 267.5q-2 108 39.5 207t113 170.5t170.5 113t207 39.5q208 0 342.5 -135.5t134.5 -335.5q0 -75 -18 -151zM358 608h461
q-1 92 -63.5 148.5t-155.5 56.5q-88 0 -153.5 -55.5t-88.5 -149.5zM510 1169l-281 379v49h332l150 -428h-201z" />
    <glyph glyph-name="eacute" unicode="&#xe9;" horiz-adv-x="1165" 
d="M1069 414h-711q25 -96 99.5 -148.5t185.5 -52.5q151 0 283 102l114 -188q-184 -152 -405 -152q-153 -3 -282.5 68.5t-202.5 195t-70 267.5q-2 108 39.5 207t113 170.5t170.5 113t207 39.5q208 0 342.5 -135.5t134.5 -335.5q0 -75 -18 -151zM358 608h461
q-1 92 -63.5 148.5t-155.5 56.5q-88 0 -153.5 -55.5t-88.5 -149.5zM510 1169l149 428h332v-49l-280 -379h-201z" />
    <glyph glyph-name="ecircumflex" unicode="&#xea;" horiz-adv-x="1165" 
d="M1069 414h-711q25 -96 99.5 -148.5t185.5 -52.5q151 0 283 102l114 -188q-184 -152 -405 -152q-153 -3 -282.5 68.5t-202.5 195t-70 267.5q-2 108 39.5 207t113 170.5t170.5 113t207 39.5q208 0 342.5 -135.5t134.5 -335.5q0 -75 -18 -151zM358 608h461
q-1 92 -63.5 148.5t-155.5 56.5q-88 0 -153.5 -55.5t-88.5 -149.5zM977 1169h-203l-164 189l-164 -189h-202l276 428h182z" />
    <glyph glyph-name="edieresis" unicode="&#xeb;" horiz-adv-x="1165" 
d="M1069 414h-711q25 -96 99.5 -148.5t185.5 -52.5q151 0 283 102l114 -188q-184 -152 -405 -152q-153 -3 -282.5 68.5t-202.5 195t-70 267.5q-2 108 39.5 207t113 170.5t170.5 113t207 39.5q208 0 342.5 -135.5t134.5 -335.5q0 -75 -18 -151zM358 608h461
q-1 92 -63.5 148.5t-155.5 56.5q-88 0 -153.5 -55.5t-88.5 -149.5zM201 1384q0 66 49.5 113t118.5 47q66 0 114.5 -47t48.5 -113t-48.5 -112.5t-114.5 -46.5q-69 0 -118.5 46.5t-49.5 112.5zM688 1384q0 66 49.5 113t118.5 47q66 0 115 -47t49 -113t-49 -112.5t-115 -46.5
q-69 0 -118.5 46.5t-49.5 112.5z" />
    <glyph glyph-name="igrave" unicode="&#xec;" horiz-adv-x="550" 
d="M137 0v1014h277v-1014h-277zM180 1169l-219 379v49h332l88 -428h-201z" />
    <glyph glyph-name="iacute" unicode="&#xed;" horiz-adv-x="550" 
d="M137 0v1014h277v-1014h-277zM174 1169l88 428h332v-49l-219 -379h-201z" />
    <glyph glyph-name="icircumflex" unicode="&#xee;" horiz-adv-x="550" 
d="M137 0v1014h277v-1014h-277zM643 1169h-203l-164 189l-163 -189h-203l276 428h183z" />
    <glyph glyph-name="idieresis" unicode="&#xef;" horiz-adv-x="550" 
d="M137 0v1014h277v-1014h-277zM-115 1382q0 67 48.5 114.5t115.5 47.5q69 0 118.5 -47.5t49.5 -114.5q0 -63 -49.5 -110t-118.5 -47q-63 0 -113.5 48t-50.5 109zM336 1382q0 67 49.5 114.5t116.5 47.5q68 0 117 -47.5t49 -114.5q0 -63 -49.5 -110t-116.5 -47
q-63 0 -114.5 48t-51.5 109z" />
    <glyph glyph-name="eth" unicode="&#xf0;" horiz-adv-x="1173" 
d="M1094 465q0 -210 -144 -350t-360 -140q-220 0 -365 137t-145 339q0 130 63.5 236t172 165t239.5 59h20l-124 170l-279 -137l-96 197l243 121l-108 147l207 152l137 -183l319 158l99 -195l-283 -141l162 -213q61 -79 127 -180q115 -168 115 -342zM815 453
q0 100 -64.5 164.5t-164.5 64.5t-164 -64.5t-64 -166.5q0 -100 64 -165t164 -65q99 0 164 66t65 166z" />
    <glyph glyph-name="ntilde" unicode="&#xf1;" horiz-adv-x="1198" 
d="M1069 629v-629h-274v592q0 88 -52 142t-137 54t-138.5 -54.5t-53.5 -141.5v-592h-277v1014h254v-92q114 114 297 114q176 0 278.5 -110.5t102.5 -296.5zM592 1231l-57 35q-56 39 -82 39q-58 0 -58 -72v-25h-211q-4 28 -4 68q0 125 66 201.5t166 76.5q79 0 147 -45l57 -36
q48 -37 82 -37q58 0 58 71v25h209q6 -38 6 -70q0 -123 -66.5 -199.5t-167.5 -76.5q-77 0 -145 45z" />
    <glyph glyph-name="ograve" unicode="&#xf2;" horiz-adv-x="1245" 
d="M80 508q-3 142 70.5 265t200 194.5t272.5 68.5q146 2 273 -69.5t200.5 -194t70.5 -264.5q2 -106 -41.5 -205.5t-117.5 -171t-176 -114t-211 -40.5q-109 -2 -210 40t-174.5 114.5t-116 171.5t-40.5 205zM885 506q0 119 -75 198.5t-187 79.5q-115 0 -189 -78t-74 -200
q0 -119 74 -197t189 -78q113 0 187.5 78.5t74.5 196.5zM524 1169l-280 379v49h331l150 -428h-201z" />
    <glyph glyph-name="oacute" unicode="&#xf3;" horiz-adv-x="1245" 
d="M80 508q-3 142 70.5 265t200 194.5t272.5 68.5q146 2 273 -69.5t200.5 -194t70.5 -264.5q2 -106 -41.5 -205.5t-117.5 -171t-176 -114t-211 -40.5q-109 -2 -210 40t-174.5 114.5t-116 171.5t-40.5 205zM885 506q0 119 -75 198.5t-187 79.5q-115 0 -189 -78t-74 -200
q0 -119 74 -197t189 -78q113 0 187.5 78.5t74.5 196.5zM522 1169l150 428h332v-49l-281 -379h-201z" />
    <glyph glyph-name="ocircumflex" unicode="&#xf4;" horiz-adv-x="1245" 
d="M80 508q-3 142 70.5 265t200 194.5t272.5 68.5q146 2 273 -69.5t200.5 -194t70.5 -264.5q2 -106 -41.5 -205.5t-117.5 -171t-176 -114t-211 -40.5q-109 -2 -210 40t-174.5 114.5t-116 171.5t-40.5 205zM885 506q0 119 -75 198.5t-187 79.5q-115 0 -189 -78t-74 -200
q0 -119 74 -197t189 -78q113 0 187.5 78.5t74.5 196.5zM989 1169h-203l-163 189l-164 -189h-203l276 428h183z" />
    <glyph glyph-name="otilde" unicode="&#xf5;" horiz-adv-x="1245" 
d="M80 508q-3 142 70.5 265t200 194.5t272.5 68.5q146 2 273 -69.5t200.5 -194t70.5 -264.5q2 -106 -41.5 -205.5t-117.5 -171t-176 -114t-211 -40.5q-109 -2 -210 40t-174.5 114.5t-116 171.5t-40.5 205zM885 506q0 119 -75 198.5t-187 79.5q-115 0 -189 -78t-74 -200
q0 -119 74 -197t189 -78q113 0 187.5 78.5t74.5 196.5zM639 1231l-57 35q-56 39 -82 39q-58 0 -58 -72v-25h-211q-4 28 -4 68q0 125 66 201.5t166 76.5q79 0 147 -45l58 -36q48 -37 81 -37q58 0 58 71v25h209q6 -38 6 -70q0 -123 -66.5 -199.5t-167.5 -76.5q-77 0 -145 45z
" />
    <glyph glyph-name="odieresis" unicode="&#xf6;" horiz-adv-x="1245" 
d="M80 508q-3 142 70.5 265t200 194.5t272.5 68.5q146 2 273 -69.5t200.5 -194t70.5 -264.5q2 -106 -41.5 -205.5t-117.5 -171t-176 -114t-211 -40.5q-109 -2 -210 40t-174.5 114.5t-116 171.5t-40.5 205zM885 506q0 119 -75 198.5t-187 79.5q-115 0 -189 -78t-74 -200
q0 -119 74 -197t189 -78q113 0 187.5 78.5t74.5 196.5zM213 1384q0 66 49.5 113t118.5 47q66 0 115 -47t49 -113t-49 -112.5t-115 -46.5q-69 0 -118.5 46.5t-49.5 112.5zM700 1384q0 66 49.5 113t118.5 47q66 0 115 -47t49 -113t-49 -112.5t-115 -46.5q-69 0 -118.5 46.5
t-49.5 112.5z" />
    <glyph glyph-name="divide" unicode="&#xf7;" 
d="M403 1040q0 66 49.5 111t118.5 45q68 0 117 -45.5t49 -110.5q0 -67 -49 -113t-117 -46q-70 0 -119 46t-49 113zM90 539v235h965v-235h-965zM403 270q0 67 49 112.5t119 45.5q68 0 117 -45.5t49 -112.5q0 -66 -49 -111.5t-117 -45.5q-69 0 -118.5 45.5t-49.5 111.5z" />
    <glyph glyph-name="oslash" unicode="&#xf8;" horiz-adv-x="1253" 
d="M1192 907l-109 -108q88 -131 88 -293q0 -109 -43.5 -207.5t-117 -169t-174.5 -112.5t-211 -42q-152 0 -287 78l-111 -112l-166 165l109 109q-86 127 -86 291q-2 144 71.5 267.5t199.5 194.5t272 68q151 0 286 -78l113 113zM342 506q0 -69 25 -127l391 393q-60 31 -131 31
q-125 0 -205 -83.5t-80 -213.5zM911 506q0 72 -24 127l-395 -393q60 -31 133 -31q125 0 205.5 83.5t80.5 213.5z" />
    <glyph glyph-name="ugrave" unicode="&#xf9;" horiz-adv-x="1187" 
d="M127 446v568h276v-590q0 -87 54 -141t139 -54q81 0 134.5 54t53.5 141v590h277v-568q0 -210 -132 -340.5t-333 -130.5q-205 0 -337 130.5t-132 340.5zM496 1169l-281 379v49h332l149 -428h-200z" />
    <glyph glyph-name="uacute" unicode="&#xfa;" horiz-adv-x="1187" 
d="M127 446v568h276v-590q0 -87 54 -141t139 -54q81 0 134.5 54t53.5 141v590h277v-568q0 -210 -132 -340.5t-333 -130.5q-205 0 -337 130.5t-132 340.5zM494 1169l149 428h332v-49l-281 -379h-200z" />
    <glyph glyph-name="ucircumflex" unicode="&#xfb;" horiz-adv-x="1187" 
d="M127 446v568h276v-590q0 -87 54 -141t139 -54q81 0 134.5 54t53.5 141v590h277v-568q0 -210 -132 -340.5t-333 -130.5q-205 0 -337 130.5t-132 340.5zM961 1169h-203l-164 189l-164 -189h-203l277 428h182z" />
    <glyph glyph-name="udieresis" unicode="&#xfc;" horiz-adv-x="1187" 
d="M127 446v568h276v-590q0 -87 54 -141t139 -54q81 0 134.5 54t53.5 141v590h277v-568q0 -210 -132 -340.5t-333 -130.5q-205 0 -337 130.5t-132 340.5zM184 1384q0 66 49.5 113t118.5 47q66 0 115 -47t49 -113t-49 -112.5t-115 -46.5q-69 0 -118.5 46.5t-49.5 112.5z
M672 1384q0 66 49.5 113t118.5 47q66 0 115 -47t49 -113t-49 -112.5t-115 -46.5q-69 0 -118.5 46.5t-49.5 112.5z" />
    <glyph glyph-name="yacute" unicode="&#xfd;" horiz-adv-x="1144" 
d="M829 1014h291l-485 -1102q-69 -158 -166 -231.5t-238 -73.5q-87 0 -178 24v232q84 -8 119 -8q77 0 127 30.5t84 106.5l31 69l-389 953h292l248 -666zM471 1169l150 428h331v-49l-280 -379h-201z" />
    <glyph glyph-name="thorn" unicode="&#xfe;" horiz-adv-x="1288" 
d="M1208 508q0 -112 -37 -211t-102 -169.5t-156.5 -111.5t-195.5 -41q-189 0 -303 123v-467h-277v1905h277v-621q112 121 303 121q212 0 351.5 -150.5t139.5 -377.5zM928 506q0 126 -74 203t-188 77q-110 0 -183 -73.5t-73 -204.5t73 -206t183 -75q112 0 187 78t75 201z" />
    <glyph glyph-name="ydieresis" unicode="&#xff;" horiz-adv-x="1144" 
d="M829 1014h291l-485 -1102q-69 -158 -166 -231.5t-238 -73.5q-87 0 -178 24v232q84 -8 119 -8q77 0 127 30.5t84 106.5l31 69l-389 953h292l248 -666zM162 1384q0 66 49.5 113t118.5 47q66 0 115 -47t49 -113t-49 -112.5t-115 -46.5q-69 0 -118.5 46.5t-49.5 112.5z
M649 1384q0 66 49.5 113t118.5 47q66 0 115 -47t49 -113t-49 -112.5t-115 -46.5q-69 0 -118.5 46.5t-49.5 112.5z" />
    <glyph glyph-name="Amacron" unicode="&#x100;" horiz-adv-x="1353" 
d="M1028 0l-76 176h-553l-75 -176h-297l604 1376h92l602 -1376h-297zM856 403l-180 457l-180 -457h360zM348 1546v217h660v-217h-660z" />
    <glyph glyph-name="amacron" unicode="&#x101;" horiz-adv-x="1116" 
d="M987 602v-602h-254v98q-120 -123 -309 -123q-159 0 -254.5 84.5t-95.5 219.5q0 136 103 215t280 79h254v45q0 85 -48.5 132t-140.5 47q-76 0 -137.5 -33t-130.5 -107l-143 170q176 209 442 209q201 0 317.5 -113t116.5 -321zM711 379v12h-217q-142 0 -142 -102
q0 -51 40 -81t106 -30q91 0 152 57t61 144zM244 1274v217h618v-217h-618z" />
    <glyph glyph-name="Abreve" unicode="&#x102;" horiz-adv-x="1353" 
d="M1028 0l-76 176h-553l-75 -176h-297l604 1376h92l602 -1376h-297zM856 403l-180 457l-180 -457h360zM324 1833v31h217v-31q0 -69 37 -111.5t100 -42.5t100 41t37 113v31h215v-31q0 -157 -99 -258.5t-253 -101.5q-159 0 -256 100q-98 101 -98 260z" />
    <glyph glyph-name="abreve" unicode="&#x103;" horiz-adv-x="1116" 
d="M987 602v-602h-254v98q-120 -123 -309 -123q-159 0 -254.5 84.5t-95.5 219.5q0 136 103 215t280 79h254v45q0 85 -48.5 132t-140.5 47q-76 0 -137.5 -33t-130.5 -107l-143 170q176 209 442 209q201 0 317.5 -113t116.5 -321zM711 379v12h-217q-142 0 -142 -102
q0 -51 40 -81t106 -30q91 0 152 57t61 144zM199 1526v57h217v-55q0 -72 37 -113t100 -41t100 41t37 113v55h215v-57q0 -157 -98 -258q-99 -99 -254 -99t-254.5 100t-99.5 257z" />
    <glyph glyph-name="Aogonek" unicode="&#x104;" horiz-adv-x="1353" 
d="M1028 0l-76 176h-553l-75 -176h-297l604 1376h92l602 -1376h-297zM856 403l-180 457l-180 -457h360zM901 -188q0 90 73 160t238 139l113 -111l-82 -51q-44 -27 -61 -44t-17 -40q0 -60 74 -60q16 0 86 13v-180q-95 -31 -176 -31q-114 0 -181 56.5t-67 148.5z" />
    <glyph glyph-name="aogonek" unicode="&#x105;" horiz-adv-x="1116" 
d="M987 602v-602h-254v98q-120 -123 -309 -123q-159 0 -254.5 84.5t-95.5 219.5q0 136 103 215t280 79h254v45q0 85 -48.5 132t-140.5 47q-76 0 -137.5 -33t-130.5 -107l-143 170q176 209 442 209q201 0 317.5 -113t116.5 -321zM711 379v12h-217q-142 0 -142 -102
q0 -51 40 -81t106 -30q91 0 152 57t61 144zM563 -188q0 90 73 160t238 139l113 -111l-82 -51q-44 -27 -61 -44t-17 -40q0 -60 74 -60q16 0 86 13v-180q-95 -31 -176 -31q-114 0 -181 56.5t-67 148.5z" />
    <glyph glyph-name="Cacute" unicode="&#x106;" horiz-adv-x="1474" 
d="M78 676q-3 190 95 353t265.5 257t360.5 90q192 0 348.5 -88.5t247.5 -247.5l-209 -147q-143 227 -387 227q-189 0 -313 -126.5t-124 -319.5t124 -318t313 -125q243 0 387 228l209 -148q-88 -158 -245.5 -247t-352.5 -89q-145 -3 -279.5 52t-231.5 149.5t-154 226
t-54 273.5zM692 1483l150 381h332v-49l-281 -332h-201z" />
    <glyph glyph-name="cacute" unicode="&#x107;" horiz-adv-x="1130" 
d="M80 508q0 146 72.5 267.5t197.5 191t273 69.5q147 0 260 -65.5t180 -184.5l-193 -149q-101 147 -243 147q-116 0 -191.5 -78.5t-75.5 -197.5q0 -122 75 -200.5t192 -78.5q75 0 133 36.5t110 109.5l193 -148q-67 -119 -181 -185.5t-259 -66.5q-146 -3 -272 69t-199.5 196
t-71.5 268zM520 1169l150 428h331v-49l-280 -379h-201z" />
    <glyph glyph-name="Ccircumflex" unicode="&#x108;" horiz-adv-x="1474" 
d="M78 676q-3 190 95 353t265.5 257t360.5 90q192 0 348.5 -88.5t247.5 -247.5l-209 -147q-143 227 -387 227q-189 0 -313 -126.5t-124 -319.5t124 -318t313 -125q243 0 387 228l209 -148q-88 -158 -245.5 -247t-352.5 -89q-145 -3 -279.5 52t-231.5 149.5t-154 226
t-54 273.5zM1192 1483h-211l-184 164l-185 -164h-209l304 381h182z" />
    <glyph glyph-name="ccircumflex" unicode="&#x109;" horiz-adv-x="1130" 
d="M80 508q0 146 72.5 267.5t197.5 191t273 69.5q147 0 260 -65.5t180 -184.5l-193 -149q-101 147 -243 147q-116 0 -191.5 -78.5t-75.5 -197.5q0 -122 75 -200.5t192 -78.5q75 0 133 36.5t110 109.5l193 -148q-67 -119 -181 -185.5t-259 -66.5q-146 -3 -272 69t-199.5 196
t-71.5 268zM987 1169h-203l-163 189l-164 -189h-203l276 428h183z" />
    <glyph glyph-name="Cdotaccent" unicode="&#x10a;" horiz-adv-x="1474" 
d="M78 676q-3 190 95 353t265.5 257t360.5 90q192 0 348.5 -88.5t247.5 -247.5l-209 -147q-143 227 -387 227q-189 0 -313 -126.5t-124 -319.5t124 -318t313 -125q243 0 387 228l209 -148q-88 -158 -245.5 -247t-352.5 -89q-145 -3 -279.5 52t-231.5 149.5t-154 226
t-54 273.5zM621 1669q0 72 51 122t125 50t126 -50t52 -122t-52 -122t-126 -50t-125 50t-51 122z" />
    <glyph glyph-name="cdotaccent" unicode="&#x10b;" horiz-adv-x="1130" 
d="M80 508q0 146 72.5 267.5t197.5 191t273 69.5q147 0 260 -65.5t180 -184.5l-193 -149q-101 147 -243 147q-116 0 -191.5 -78.5t-75.5 -197.5q0 -122 75 -200.5t192 -78.5q75 0 133 36.5t110 109.5l193 -148q-67 -119 -181 -185.5t-259 -66.5q-146 -3 -272 69t-199.5 196
t-71.5 268zM442 1382q0 73 51 122.5t125 49.5t126.5 -49.5t52.5 -122.5q0 -71 -52.5 -120.5t-126.5 -49.5t-125 49t-51 121z" />
    <glyph glyph-name="Ccaron" unicode="&#x10c;" horiz-adv-x="1474" 
d="M78 676q-3 190 95 353t265.5 257t360.5 90q192 0 348.5 -88.5t247.5 -247.5l-209 -147q-143 227 -387 227q-189 0 -313 -126.5t-124 -319.5t124 -318t313 -125q243 0 387 228l209 -148q-88 -158 -245.5 -247t-352.5 -89q-145 -3 -279.5 52t-231.5 149.5t-154 226
t-54 273.5zM981 1864h211l-303 -381h-182l-304 381h209l185 -164z" />
    <glyph glyph-name="ccaron" unicode="&#x10d;" horiz-adv-x="1130" 
d="M80 508q0 146 72.5 267.5t197.5 191t273 69.5q147 0 260 -65.5t180 -184.5l-193 -149q-101 147 -243 147q-116 0 -191.5 -78.5t-75.5 -197.5q0 -122 75 -200.5t192 -78.5q75 0 133 36.5t110 109.5l193 -148q-67 -119 -181 -185.5t-259 -66.5q-146 -3 -272 69t-199.5 196
t-71.5 268zM784 1597h203l-274 -428h-183l-276 428h203l164 -188z" />
    <glyph glyph-name="Dcaron" unicode="&#x10e;" horiz-adv-x="1413" 
d="M156 0v1352h442q212 2 381 -82t264 -239t92 -351q2 -145 -53 -272t-152.5 -217.5t-235.5 -141.5t-296 -49h-442zM432 250h164q205 0 330 118t125 312q0 195 -123.5 308.5t-331.5 113.5h-164v-852zM756 1864h211l-303 -381h-183l-303 381h209l184 -164z" />
    <glyph glyph-name="dcaron" unicode="&#x10f;" horiz-adv-x="1626" 
d="M874 1536h277v-1536h-254v125q-51 -72 -136 -111t-190 -39q-212 0 -351.5 151t-139.5 380t139.5 379.5t351.5 150.5q191 0 303 -121v621zM879 506q0 130 -73.5 205t-182.5 75q-112 0 -187.5 -77.5t-75.5 -200.5q0 -126 74.5 -203.5t188.5 -77.5q109 0 182.5 74t73.5 205z
M1331 1114l10 422h285l-100 -422h-195z" />
    <glyph glyph-name="Dcroat" unicode="&#x110;" horiz-adv-x="1413" 
d="M1335 680q2 -145 -53 -272t-152.5 -217.5t-235.5 -141.5t-296 -49h-442v526h-172v232h172v594h442q212 2 381 -82t264 -239t92 -351zM1051 680q0 195 -123.5 308.5t-331.5 113.5h-164v-344h221v-232h-221v-276h164q205 0 330 118t125 312z" />
    <glyph glyph-name="dslash" unicode="&#x111;" horiz-adv-x="1302" 
d="M1311 1356v-223h-162v-1133h-252v129q-116 -154 -334 -154q-208 0 -346.5 141t-138.5 359q0 216 139 359t344 143q198 0 313 -131v287h-417v223h417v180h275v-180h162zM879 473q0 126 -74 198t-184 72q-111 0 -186 -74.5t-75 -193.5t74.5 -192.5t186.5 -73.5
q111 0 184.5 69.5t73.5 194.5z" />
    <glyph glyph-name="Emacron" unicode="&#x112;" horiz-adv-x="1173" 
d="M156 0v1352h909v-250h-633v-275h465v-235h-465v-342h658v-250h-934zM274 1546v217h660v-217h-660z" />
    <glyph glyph-name="emacron" unicode="&#x113;" horiz-adv-x="1165" 
d="M1069 414h-711q25 -96 99.5 -148.5t185.5 -52.5q151 0 283 102l114 -188q-184 -152 -405 -152q-153 -3 -282.5 68.5t-202.5 195t-70 267.5q-2 108 39.5 207t113 170.5t170.5 113t207 39.5q208 0 342.5 -135.5t134.5 -335.5q0 -75 -18 -151zM358 608h461
q-1 92 -63.5 148.5t-155.5 56.5q-88 0 -153.5 -55.5t-88.5 -149.5zM301 1274v217h619v-217h-619z" />
    <glyph glyph-name="Ebreve" unicode="&#x114;" horiz-adv-x="1173" 
d="M156 0v1352h909v-250h-633v-275h465v-235h-465v-342h658v-250h-934zM250 1833v31h217v-31q0 -69 37 -111.5t100 -42.5t100 41t37 113v31h215v-31q0 -157 -99 -258.5t-253 -101.5q-159 0 -256 100q-98 101 -98 260z" />
    <glyph glyph-name="ebreve" unicode="&#x115;" horiz-adv-x="1165" 
d="M1069 414h-711q25 -96 99.5 -148.5t185.5 -52.5q151 0 283 102l114 -188q-184 -152 -405 -152q-153 -3 -282.5 68.5t-202.5 195t-70 267.5q-2 108 39.5 207t113 170.5t170.5 113t207 39.5q208 0 342.5 -135.5t134.5 -335.5q0 -75 -18 -151zM358 608h461
q-1 92 -63.5 148.5t-155.5 56.5q-88 0 -153.5 -55.5t-88.5 -149.5zM256 1526v57h217v-55q0 -72 37 -113t100 -41t100.5 41t37.5 113v55h215v-57q0 -156 -99 -258q-99 -99 -254 -99t-254.5 100t-99.5 257z" />
    <glyph glyph-name="Edotaccent" unicode="&#x116;" horiz-adv-x="1173" 
d="M156 0v1352h909v-250h-633v-275h465v-235h-465v-342h658v-250h-934zM426 1669q0 72 51 122t125 50t126 -50t52 -122t-52 -122t-126 -50t-125 50t-51 122z" />
    <glyph glyph-name="edotaccent" unicode="&#x117;" horiz-adv-x="1165" 
d="M1069 414h-711q25 -96 99.5 -148.5t185.5 -52.5q151 0 283 102l114 -188q-184 -152 -405 -152q-153 -3 -282.5 68.5t-202.5 195t-70 267.5q-2 108 39.5 207t113 170.5t170.5 113t207 39.5q208 0 342.5 -135.5t134.5 -335.5q0 -75 -18 -151zM358 608h461
q-1 92 -63.5 148.5t-155.5 56.5q-88 0 -153.5 -55.5t-88.5 -149.5zM432 1382q0 73 51 122.5t125 49.5t126 -49.5t52 -122.5q0 -72 -52 -121t-126 -49t-125 49t-51 121z" />
    <glyph glyph-name="Eogonek" unicode="&#x118;" horiz-adv-x="1173" 
d="M156 0v1352h909v-250h-633v-275h465v-235h-465v-342h658v-250h-934zM666 -188q0 90 73 160t238 139l113 -111l-82 -51q-44 -27 -61 -44t-17 -40q0 -60 74 -60q16 0 86 13v-180q-95 -31 -177 -31q-114 0 -180.5 56.5t-66.5 148.5z" />
    <glyph glyph-name="eogonek" unicode="&#x119;" horiz-adv-x="1165" 
d="M1069 414h-711q25 -96 99.5 -148.5t185.5 -52.5q151 0 283 102l114 -188q-184 -152 -405 -152q-153 -3 -282.5 68.5t-202.5 195t-70 267.5q-2 108 39.5 207t113 170.5t170.5 113t207 39.5q208 0 342.5 -135.5t134.5 -335.5q0 -75 -18 -151zM358 608h461
q-1 92 -63.5 148.5t-155.5 56.5q-88 0 -153.5 -55.5t-88.5 -149.5zM553 -188q0 76 42.5 133t192.5 182h250l-168 -170q-30 -30 -41.5 -49.5t-11.5 -42.5q0 -60 74 -60q10 0 86 13v-180q-88 -31 -176 -31q-113 0 -180.5 55.5t-67.5 149.5z" />
    <glyph glyph-name="Ecaron" unicode="&#x11a;" horiz-adv-x="1173" 
d="M156 0v1352h909v-250h-633v-275h465v-235h-465v-342h658v-250h-934zM786 1864h211l-303 -381h-182l-303 381h209l184 -164z" />
    <glyph glyph-name="ecaron" unicode="&#x11b;" horiz-adv-x="1165" 
d="M1069 414h-711q25 -96 99.5 -148.5t185.5 -52.5q151 0 283 102l114 -188q-184 -152 -405 -152q-153 -3 -282.5 68.5t-202.5 195t-70 267.5q-2 108 39.5 207t113 170.5t170.5 113t207 39.5q208 0 342.5 -135.5t134.5 -335.5q0 -75 -18 -151zM358 608h461
q-1 92 -63.5 148.5t-155.5 56.5q-88 0 -153.5 -55.5t-88.5 -149.5zM774 1597h203l-275 -428h-182l-276 428h202l164 -188z" />
    <glyph glyph-name="Gcircumflex" unicode="&#x11c;" horiz-adv-x="1529" 
d="M78 676q-3 143 54 274t154.5 225t232.5 148.5t282 52.5q177 0 323.5 -76t245.5 -217l-196 -161q-143 198 -377 198q-193 0 -314 -125t-121 -319q0 -198 125.5 -325.5t325.5 -127.5q115 0 206.5 44t149.5 124v111h-372v239h649v-399q-92 -164 -264 -266
q-168 -101 -381 -101q-117 -2 -228 32.5t-200.5 100t-156.5 152t-103.5 194.5t-34.5 222zM1196 1483h-211l-184 164l-185 -164h-208l303 381h182z" />
    <glyph glyph-name="gcircumflex" unicode="&#x11d;" horiz-adv-x="1292" 
d="M901 1014h254v-901q0 -243 -141 -374.5t-383 -131.5q-286 0 -498 188l146 193q91 -67 166 -99t163 -32q126 0 198.5 61.5t72.5 177.5v56q-112 -121 -310 -121q-212 0 -348.5 141t-136.5 363q0 223 137.5 362t347.5 139q220 0 332 -149v127zM883 539q0 125 -72.5 193.5
t-183.5 68.5q-115 0 -188.5 -71.5t-73.5 -192.5t75 -197t187 -76q108 0 182 74.5t74 200.5zM1008 1169h-203l-164 189l-164 -189h-203l277 428h182z" />
    <glyph glyph-name="Gbreve" unicode="&#x11e;" horiz-adv-x="1529" 
d="M78 676q-3 143 54 274t154.5 225t232.5 148.5t282 52.5q177 0 323.5 -76t245.5 -217l-196 -161q-143 198 -377 198q-193 0 -314 -125t-121 -319q0 -198 125.5 -325.5t325.5 -127.5q115 0 206.5 44t149.5 124v111h-372v239h649v-399q-92 -164 -264 -266
q-168 -101 -381 -101q-117 -2 -228 32.5t-200.5 100t-156.5 152t-103.5 194.5t-34.5 222zM449 1833v31h217v-31q0 -69 37 -111.5t100 -42.5t100 41t37 113v31h215v-31q0 -157 -99 -258.5t-253 -101.5q-159 0 -256 100q-98 101 -98 260z" />
    <glyph glyph-name="gbreve" unicode="&#x11f;" horiz-adv-x="1292" 
d="M901 1014h254v-901q0 -243 -141 -374.5t-383 -131.5q-286 0 -498 188l146 193q91 -67 166 -99t163 -32q126 0 198.5 61.5t72.5 177.5v56q-112 -121 -310 -121q-212 0 -348.5 141t-136.5 363q0 223 137.5 362t347.5 139q220 0 332 -149v127zM883 539q0 125 -72.5 193.5
t-183.5 68.5q-115 0 -188.5 -71.5t-73.5 -192.5t75 -197t187 -76q108 0 182 74.5t74 200.5zM287 1526v57h217v-55q0 -72 37 -113t100 -41t100 41t37 113v55h215v-57q0 -157 -98 -258q-99 -99 -254 -99t-254.5 100t-99.5 257z" />
    <glyph glyph-name="Gdotaccent" unicode="&#x120;" horiz-adv-x="1529" 
d="M78 676q-3 143 54 274t154.5 225t232.5 148.5t282 52.5q177 0 323.5 -76t245.5 -217l-196 -161q-143 198 -377 198q-193 0 -314 -125t-121 -319q0 -198 125.5 -325.5t325.5 -127.5q115 0 206.5 44t149.5 124v111h-372v239h649v-399q-92 -164 -264 -266
q-168 -101 -381 -101q-117 -2 -228 32.5t-200.5 100t-156.5 152t-103.5 194.5t-34.5 222zM625 1669q0 72 51 122t125 50t126 -50t52 -122t-52 -122t-126 -50t-125 50t-51 122z" />
    <glyph glyph-name="gdotaccent" unicode="&#x121;" horiz-adv-x="1292" 
d="M901 1014h254v-901q0 -243 -141 -374.5t-383 -131.5q-286 0 -498 188l146 193q91 -67 166 -99t163 -32q126 0 198.5 61.5t72.5 177.5v56q-112 -121 -310 -121q-212 0 -348.5 141t-136.5 363q0 223 137.5 362t347.5 139q220 0 332 -149v127zM883 539q0 125 -72.5 193.5
t-183.5 68.5q-115 0 -188.5 -71.5t-73.5 -192.5t75 -197t187 -76q108 0 182 74.5t74 200.5zM463 1382q0 73 51 122.5t125 49.5t126 -49.5t52 -122.5q0 -72 -52 -121t-126 -49t-125 49t-51 121z" />
    <glyph glyph-name="uni0122" unicode="&#x122;" horiz-adv-x="1529" 
d="M78 676q-3 143 54 274t154.5 225t232.5 148.5t282 52.5q177 0 323.5 -76t245.5 -217l-196 -161q-143 198 -377 198q-193 0 -314 -125t-121 -319q0 -198 125.5 -325.5t325.5 -127.5q115 0 206.5 44t149.5 124v111h-372v239h649v-399q-92 -164 -264 -266
q-168 -101 -381 -101q-117 -2 -228 32.5t-200.5 100t-156.5 152t-103.5 194.5t-34.5 222zM670 -451l6 357h256l-53 -357h-209z" />
    <glyph glyph-name="uni0123" unicode="&#x123;" horiz-adv-x="1292" 
d="M901 1014h254v-901q0 -243 -141 -374.5t-383 -131.5q-286 0 -498 188l146 193q91 -67 166 -99t163 -32q126 0 198.5 61.5t72.5 177.5v56q-112 -121 -310 -121q-212 0 -348.5 141t-136.5 363q0 223 137.5 362t347.5 139q220 0 332 -149v127zM883 539q0 125 -72.5 193.5
t-183.5 68.5q-115 0 -188.5 -71.5t-73.5 -192.5t75 -197t187 -76q108 0 182 74.5t74 200.5zM504 1169l69 428h201l-10 -428h-260z" />
    <glyph glyph-name="Hcircumflex" unicode="&#x124;" horiz-adv-x="1460" 
d="M156 0v1352h276v-518h598v518h277v-1352h-277v584h-598v-584h-276zM1124 1483h-211l-184 164l-184 -164h-209l303 381h182z" />
    <glyph glyph-name="hcircumflex" unicode="&#x125;" horiz-adv-x="1198" 
d="M1069 629v-629h-274v590q0 88 -52 142t-137 54t-138.5 -54.5t-53.5 -141.5v-590h-277v1536h277v-608q108 108 278 108q172 0 274.5 -111t102.5 -296zM807 1667h-211l-184 164l-185 -164h-209l304 381h182z" />
    <glyph glyph-name="Hbar" unicode="&#x126;" horiz-adv-x="1499" 
d="M174 0v893h-190v231h190v228h277v-228h598v228h276v-228h188v-231h-188v-893h-276v438h-598v-438h-277zM451 676h598v217h-598v-217z" />
    <glyph glyph-name="hbar" unicode="&#x127;" horiz-adv-x="1214" 
d="M1085 569v-569h-276v530q0 88 -51 142.5t-135 54.5q-86 0 -140.5 -54.5t-54.5 -142.5v-530h-274v1128h-162v228h162v180h274v-180h391v-228h-391v-262q105 111 279 111q172 0 275 -111.5t103 -296.5z" />
    <glyph glyph-name="Itilde" unicode="&#x128;" horiz-adv-x="585" 
d="M156 0v1352h276v-1352h-276zM311 1530l-61 33q-58 34 -90 34q-28 0 -43 -18.5t-15 -48.5v-25h-211q-4 62 -4 70q0 121 68.5 197.5t169.5 76.5q72 0 151 -43l62 -37q16 -11 45.5 -22.5t46.5 -11.5q57 0 57 69v25h211q4 -62 4 -68q0 -122 -67.5 -199t-167.5 -77
q-76 0 -156 45z" />
    <glyph glyph-name="itilde" unicode="&#x129;" horiz-adv-x="550" 
d="M137 0v1014h277v-1014h-277zM281 1239l-39 31q-38 35 -66 35q-26 0 -39.5 -19.5t-13.5 -52.5v-25h-211q-6 30 -6 68q0 124 64.5 201t164.5 77q68 0 139 -53l39 -33q48 -32 66 -32q51 0 51 71v25h211q4 -54 4 -70q0 -124 -62.5 -200t-162.5 -76q-65 0 -139 53z" />
    <glyph glyph-name="Imacron" unicode="&#x12a;" horiz-adv-x="585" 
d="M156 0v1352h276v-1352h-276zM-35 1546v217h660v-217h-660z" />
    <glyph glyph-name="imacron" unicode="&#x12b;" horiz-adv-x="550" 
d="M137 0v1014h277v-1014h-277zM14 1274v219h525v-219h-525z" />
    <glyph glyph-name="Ibreve" unicode="&#x12c;" horiz-adv-x="585" 
d="M156 0v1352h276v-1352h-276zM-59 1833v31h217v-31q0 -69 37 -111.5t100 -42.5t100 41t37 113v31h215v-31q0 -157 -99 -258.5t-253 -101.5q-159 0 -256 100q-98 101 -98 260z" />
    <glyph glyph-name="ibreve" unicode="&#x12d;" horiz-adv-x="550" 
d="M137 0v1014h277v-1014h-277zM-78 1526v57h217v-55q0 -72 37 -113t100 -41t100.5 41t37.5 113v55h215v-57q0 -156 -99 -258q-99 -99 -254 -99t-254.5 100t-99.5 257z" />
    <glyph glyph-name="Iogonek" unicode="&#x12e;" horiz-adv-x="585" 
d="M156 0v1352h276v-1352h-276zM8 -188q0 90 73 160t238 139l113 -111l-82 -51q-44 -27 -61 -44t-17 -40q0 -60 74 -60q16 0 86 13v-180q-95 -31 -176 -31q-114 0 -181 56.5t-67 148.5z" />
    <glyph glyph-name="iogonek" unicode="&#x12f;" horiz-adv-x="550" 
d="M137 0v1014h277v-1014h-277zM98 1382q0 73 51 122.5t125 49.5t126.5 -49.5t52.5 -122.5q0 -71 -52.5 -120.5t-126.5 -49.5t-125 49t-51 121zM-10 -188q0 90 73 160t238 139l113 -111l-82 -51q-44 -27 -61 -44t-17 -40q0 -60 74 -60q16 0 86 13v-180q-95 -31 -176 -31
q-114 0 -181 56.5t-67 148.5z" />
    <glyph glyph-name="Idot" unicode="&#x130;" horiz-adv-x="585" 
d="M156 0v1352h276v-1352h-276zM117 1669q0 72 51 122t125 50t126 -50t52 -122t-52 -122t-126 -50t-125 50t-51 122z" />
    <glyph glyph-name="dotlessi" unicode="&#x131;" horiz-adv-x="550" 
d="M137 0v1014h277v-1014h-277z" />
    <glyph glyph-name="IJ" unicode="&#x132;" horiz-adv-x="1382" 
d="M156 0v1352h276v-1352h-276zM621 0v236q111 -9 135 -9q101 0 147.5 37.5t46.5 124.5v963h277v-992q0 -190 -106 -287.5t-306 -97.5q-91 0 -194 25z" />
    <glyph glyph-name="ij" unicode="&#x133;" horiz-adv-x="1101" 
d="M137 0v1014h277v-1014h-277zM98 1382q0 73 51 122.5t125 49.5t126.5 -49.5t52.5 -122.5q0 -71 -52.5 -120.5t-126.5 -49.5t-125 49t-51 121zM422 -371v232q50 -6 84 -6q94 0 138 37t44 120v1002h277v-1026q0 -187 -103 -284t-287 -97q-79 0 -153 22zM649 1382
q0 73 51 122.5t125 49.5t126.5 -49.5t52.5 -122.5q0 -71 -52.5 -120.5t-126.5 -49.5t-125 49t-51 121z" />
    <glyph glyph-name="Jcircumflex" unicode="&#x134;" horiz-adv-x="796" 
d="M35 0v236q111 -9 135 -9q101 0 148 37.5t47 124.5v963h276v-992q0 -190 -106 -287.5t-306 -97.5q-91 0 -194 25zM860 1483h-211l-184 164l-184 -164h-209l303 381h182z" />
    <glyph glyph-name="jcircumflex" unicode="&#x135;" horiz-adv-x="550" 
d="M-129 -371v232q49 -6 84 -6q94 0 138 37t44 120v1002h277v-1026q0 -187 -102.5 -284t-286.5 -97q-80 0 -154 22zM643 1169h-203l-164 189l-163 -189h-203l276 428h183z" />
    <glyph glyph-name="uni0136" unicode="&#x136;" horiz-adv-x="1372" 
d="M1346 0h-334l-580 705v-705h-276v1352h276v-627l516 627h330l-518 -637zM522 -451l6 357h256l-53 -357h-209z" />
    <glyph glyph-name="uni0137" unicode="&#x137;" 
d="M1137 0h-316l-407 561v-561h-277v1536h277v-954l364 432h328l-381 -449zM449 -451l6 357h256l-54 -357h-208z" />
    <glyph glyph-name="Lacute" unicode="&#x139;" horiz-adv-x="1073" 
d="M156 0v1352h276v-1102h592v-250h-868zM184 1483l150 381h332v-49l-281 -332h-201z" />
    <glyph glyph-name="lacute" unicode="&#x13a;" horiz-adv-x="550" 
d="M137 0v1536h277v-1536h-277zM168 1667l149 381h332v-49l-280 -332h-201z" />
    <glyph glyph-name="uni013B" unicode="&#x13b;" horiz-adv-x="1073" 
d="M156 0v1352h276v-1102h592v-250h-868zM446 -451l7 357h256l-54 -357h-209z" />
    <glyph glyph-name="uni013C" unicode="&#x13c;" horiz-adv-x="550" 
d="M137 0v1536h277v-1536h-277zM143 -451l7 357h256l-54 -357h-209z" />
    <glyph glyph-name="Lcaron" unicode="&#x13d;" horiz-adv-x="1073" 
d="M156 0v1352h276v-1102h592v-250h-868zM737 1053l11 422h284l-100 -422h-195z" />
    <glyph glyph-name="lcaron" unicode="&#x13e;" horiz-adv-x="888" 
d="M137 0v1536h277v-1536h-277zM594 1114l10 422h285l-101 -422h-194z" />
    <glyph glyph-name="Ldot" unicode="&#x13f;" horiz-adv-x="1073" 
d="M156 0v1352h276v-1102h592v-250h-868zM647 774q0 80 56 135.5t137 55.5q79 0 133.5 -55.5t54.5 -135.5q0 -82 -53 -136t-135 -54t-137.5 54.5t-55.5 135.5z" />
    <glyph glyph-name="ldot" unicode="&#x140;" horiz-adv-x="831" 
d="M137 0v1536h277v-1536h-277zM500 655q0 80 55.5 135.5t136.5 55.5q79 0 134 -55.5t55 -135.5q0 -82 -53.5 -136t-135.5 -54t-137 54t-55 136z" />
    <glyph glyph-name="Lslash" unicode="&#x141;" horiz-adv-x="1073" 
d="M432 250h592v-250h-868v420l-148 -68v254l148 68v678h276v-568l408 185v-256l-408 -185v-278z" />
    <glyph glyph-name="lslash" unicode="&#x142;" horiz-adv-x="677" 
d="M635 956v-256l-164 -75v-625h-276v518l-156 -72v256l156 72v762h276v-655z" />
    <glyph glyph-name="Nacute" unicode="&#x143;" horiz-adv-x="1460" 
d="M1030 1352h277v-1377h-93l-782 836v-811h-276v1376h90l784 -831v807zM623 1483l149 381h332v-49l-281 -332h-200z" />
    <glyph glyph-name="nacute" unicode="&#x144;" horiz-adv-x="1198" 
d="M1069 629v-629h-274v592q0 88 -52 142t-137 54t-138.5 -54.5t-53.5 -141.5v-592h-277v1014h254v-92q114 114 297 114q176 0 278.5 -110.5t102.5 -296.5zM475 1169l150 428h331v-49l-280 -379h-201z" />
    <glyph glyph-name="uni0145" unicode="&#x145;" horiz-adv-x="1460" 
d="M1030 1352h277v-1377h-93l-782 836v-811h-276v1376h90l784 -831v807zM598 -451l6 357h256l-53 -357h-209z" />
    <glyph glyph-name="uni0146" unicode="&#x146;" horiz-adv-x="1198" 
d="M1069 629v-629h-274v592q0 88 -52 142t-137 54t-138.5 -54.5t-53.5 -141.5v-592h-277v1014h254v-92q114 114 297 114q176 0 278.5 -110.5t102.5 -296.5zM475 -451l6 357h256l-53 -357h-209z" />
    <glyph glyph-name="Ncaron" unicode="&#x147;" horiz-adv-x="1460" 
d="M1030 1352h277v-1377h-93l-782 836v-811h-276v1376h90l784 -831v807zM913 1864h211l-303 -381h-182l-303 381h209l184 -164z" />
    <glyph glyph-name="ncaron" unicode="&#x148;" horiz-adv-x="1198" 
d="M1069 629v-629h-274v592q0 88 -52 142t-137 54t-138.5 -54.5t-53.5 -141.5v-592h-277v1014h254v-92q114 114 297 114q176 0 278.5 -110.5t102.5 -296.5zM739 1597h203l-274 -428h-183l-276 428h203l163 -188z" />
    <glyph glyph-name="Eng" unicode="&#x14a;" horiz-adv-x="1460" 
d="M1030 1352h277v-1364q0 -187 -103 -284t-289 -97q-77 0 -151 22v232q50 -6 84 -6q94 0 138 37t44 120v33l-598 717v-762h-276v1376h90l784 -927v903z" />
    <glyph glyph-name="eng" unicode="&#x14b;" horiz-adv-x="1198" 
d="M1069 629v-641q0 -188 -101.5 -284.5t-287.5 -96.5q-78 0 -152 22v232q46 -6 82 -6q96 0 140.5 36t44.5 121v578q0 88 -52 142t-137 54t-138.5 -54.5t-53.5 -141.5v-590h-277v1014h254v-92q114 114 297 114q176 0 278.5 -110.5t102.5 -296.5z" />
    <glyph glyph-name="Omacron" unicode="&#x14c;" horiz-adv-x="1593" 
d="M78 676q-2 142 55.5 273t154.5 225.5t230.5 149.5t276.5 52q143 3 277 -52t232 -149.5t156 -225.5t56 -273q2 -142 -56 -273.5t-156 -226t-232 -149.5t-277 -52q-143 -3 -276.5 52t-230.5 149.5t-154.5 226t-55.5 273.5zM1231 676q0 192 -124 318t-310 126
q-188 0 -311.5 -125t-123.5 -319t123.5 -319.5t311.5 -125.5q187 0 310.5 125.5t123.5 319.5zM467 1546v217h659v-217h-659z" />
    <glyph glyph-name="omacron" unicode="&#x14d;" horiz-adv-x="1245" 
d="M80 508q-3 142 70.5 265t200 194.5t272.5 68.5q146 2 273 -69.5t200.5 -194t70.5 -264.5q2 -106 -41.5 -205.5t-117.5 -171t-176 -114t-211 -40.5q-109 -2 -210 40t-174.5 114.5t-116 171.5t-40.5 205zM885 506q0 119 -75 198.5t-187 79.5q-115 0 -189 -78t-74 -200
q0 -119 74 -197t189 -78q113 0 187.5 78.5t74.5 196.5zM313 1274v217h619v-217h-619z" />
    <glyph glyph-name="Obreve" unicode="&#x14e;" horiz-adv-x="1593" 
d="M78 676q-2 142 55.5 273t154.5 225.5t230.5 149.5t276.5 52q143 3 277 -52t232 -149.5t156 -225.5t56 -273q2 -142 -56 -273.5t-156 -226t-232 -149.5t-277 -52q-143 -3 -276.5 52t-230.5 149.5t-154.5 226t-55.5 273.5zM1231 676q0 192 -124 318t-310 126
q-188 0 -311.5 -125t-123.5 -319t123.5 -319.5t311.5 -125.5q187 0 310.5 125.5t123.5 319.5zM442 1833v31h217v-31q0 -69 37.5 -111.5t100.5 -42.5t100 41t37 113v31h215v-31q0 -157 -99 -258.5t-253 -101.5q-159 0 -256 100q-99 102 -99 260z" />
    <glyph glyph-name="obreve" unicode="&#x14f;" horiz-adv-x="1245" 
d="M80 508q-3 142 70.5 265t200 194.5t272.5 68.5q146 2 273 -69.5t200.5 -194t70.5 -264.5q2 -106 -41.5 -205.5t-117.5 -171t-176 -114t-211 -40.5q-109 -2 -210 40t-174.5 114.5t-116 171.5t-40.5 205zM885 506q0 119 -75 198.5t-187 79.5q-115 0 -189 -78t-74 -200
q0 -119 74 -197t189 -78q113 0 187.5 78.5t74.5 196.5zM268 1526v57h217v-55q0 -72 37.5 -113t100.5 -41t100 41t37 113v55h215v-57q0 -157 -98 -258q-99 -99 -254 -99t-255 100t-100 257z" />
    <glyph glyph-name="Ohungarumlaut" unicode="&#x150;" horiz-adv-x="1593" 
d="M78 676q-2 142 55.5 273t154.5 225.5t230.5 149.5t276.5 52q143 3 277 -52t232 -149.5t156 -225.5t56 -273q2 -142 -56 -273.5t-156 -226t-232 -149.5t-277 -52q-143 -3 -276.5 52t-230.5 149.5t-154.5 226t-55.5 273.5zM1231 676q0 192 -124 318t-310 126
q-188 0 -311.5 -125t-123.5 -319t123.5 -319.5t311.5 -125.5q187 0 310.5 125.5t123.5 319.5zM436 1483l150 381h286v-49l-249 -332h-187zM922 1483l149 381h287v-49l-250 -332h-186z" />
    <glyph glyph-name="ohungarumlaut" unicode="&#x151;" horiz-adv-x="1245" 
d="M80 508q-3 142 70.5 265t200 194.5t272.5 68.5q146 2 273 -69.5t200.5 -194t70.5 -264.5q2 -106 -41.5 -205.5t-117.5 -171t-176 -114t-211 -40.5q-109 -2 -210 40t-174.5 114.5t-116 171.5t-40.5 205zM885 506q0 119 -75 198.5t-187 79.5q-115 0 -189 -78t-74 -200
q0 -119 74 -197t189 -78q113 0 187.5 78.5t74.5 196.5zM299 1169l150 428h286v-49l-250 -379h-186zM743 1169l150 428h287v-49l-250 -379h-187z" />
    <glyph glyph-name="OE" unicode="&#x152;" horiz-adv-x="2248" 
d="M1507 250h658v-250h-934v141q-80 -80 -194 -123t-244 -43q-117 -2 -226.5 32.5t-198.5 99.5t-155.5 151.5t-101.5 194.5t-33 223q-2 115 33.5 222.5t102 194t155 151.5t198.5 99.5t228 32.5q132 0 244.5 -43.5t191.5 -122.5v142h909v-250h-633v-275h467v-235h-467v-342z
M1231 674q0 193 -124 319.5t-312 126.5t-310.5 -126.5t-122.5 -319.5t122.5 -318t310.5 -125t312 125t124 318z" />
    <glyph glyph-name="oe" unicode="&#x153;" horiz-adv-x="1929" 
d="M1833 412h-700q25 -97 96 -148t180 -51q149 0 281 102l114 -188q-178 -152 -401 -152q-126 0 -231 49t-175 138q-141 -187 -381 -187q-142 -2 -267 69t-198.5 195t-70.5 267q-3 143 70.5 267t198.5 195t267 68q118 0 217 -48t162 -136q68 87 168 135.5t217 48.5
q133 0 241.5 -63.5t169 -171.5t60.5 -236q0 -77 -18 -153zM1130 606h453q-1 92 -63 149.5t-154 57.5q-88 0 -152 -55.5t-84 -151.5zM870 506q0 122 -69.5 200t-179.5 78q-113 0 -187 -78.5t-74 -199.5t74 -199t187 -78q109 0 179 79t70 198z" />
    <glyph glyph-name="Racute" unicode="&#x154;" horiz-adv-x="1310" 
d="M1296 0h-311l-350 477h-203v-477h-276v1352h508q213 0 350 -121.5t137 -315.5q0 -128 -63 -228.5t-175 -156.5zM432 1108v-387h232q96 0 150 52.5t54 141.5q0 87 -55.5 140t-148.5 53h-232zM434 1483l150 381h331v-49l-280 -332h-201z" />
    <glyph glyph-name="racute" unicode="&#x155;" horiz-adv-x="794" 
d="M760 1014v-244h-74q-127 0 -199.5 -68t-72.5 -196v-506h-277v1014h254v-121q108 133 279 133q50 0 90 -12zM291 1169l149 428h332v-49l-280 -379h-201z" />
    <glyph glyph-name="uni0156" unicode="&#x156;" horiz-adv-x="1310" 
d="M1296 0h-311l-350 477h-203v-477h-276v1352h508q213 0 350 -121.5t137 -315.5q0 -128 -63 -228.5t-175 -156.5zM432 1108v-387h232q96 0 150 52.5t54 141.5q0 87 -55.5 140t-148.5 53h-232zM537 -451l6 357h256l-54 -357h-208z" />
    <glyph glyph-name="uni0157" unicode="&#x157;" horiz-adv-x="794" 
d="M760 1014v-244h-74q-127 0 -199.5 -68t-72.5 -196v-506h-277v1014h254v-121q108 133 279 133q50 0 90 -12zM143 -451l7 357h256l-54 -357h-209z" />
    <glyph glyph-name="Rcaron" unicode="&#x158;" horiz-adv-x="1310" 
d="M1296 0h-311l-350 477h-203v-477h-276v1352h508q213 0 350 -121.5t137 -315.5q0 -128 -63 -228.5t-175 -156.5zM432 1108v-387h232q96 0 150 52.5t54 141.5q0 87 -55.5 140t-148.5 53h-232zM723 1864h211l-303 -381h-182l-304 381h209l185 -164z" />
    <glyph glyph-name="rcaron" unicode="&#x159;" horiz-adv-x="794" 
d="M760 1014v-244h-74q-127 0 -199.5 -68t-72.5 -196v-506h-277v1014h254v-121q108 133 279 133q50 0 90 -12zM555 1597h203l-275 -428h-182l-276 428h202l164 -188z" />
    <glyph glyph-name="Sacute" unicode="&#x15a;" horiz-adv-x="1144" 
d="M61 274l191 144q71 -97 149 -147t183 -50q90 0 141 40.5t51 109.5q0 57 -35 89t-137 79l-145 65q-162 72 -245 165.5t-83 223.5q0 171 127 277t322 106q152 0 266.5 -68t179.5 -188l-188 -145q-104 155 -258 155q-74 0 -121 -35t-47 -96q0 -52 33.5 -83.5t123.5 -71.5
l154 -68q174 -77 254 -169t80 -226q0 -183 -133.5 -294.5t-339.5 -111.5q-169 0 -306.5 80t-216.5 219zM467 1483l149 381h332v-49l-280 -332h-201z" />
    <glyph glyph-name="sacute" unicode="&#x15b;" horiz-adv-x="931" 
d="M45 172l139 168q131 -137 285 -137q57 0 93 22t36 62q0 31 -21.5 48t-82.5 44l-109 45q-145 59 -210.5 129.5t-65.5 179.5q0 141 102 222t270 81q226 0 365 -151l-139 -170q-104 96 -228 96q-51 0 -79.5 -18.5t-28.5 -53.5q0 -28 22 -46t84 -44l98 -41q153 -62 219 -131
t66 -178q0 -154 -112 -238q-112 -86 -283 -86q-132 0 -241 52t-179 145zM375 1169l149 428h332v-49l-281 -379h-200z" />
    <glyph glyph-name="Scircumflex" unicode="&#x15c;" horiz-adv-x="1144" 
d="M61 274l191 144q71 -97 149 -147t183 -50q90 0 141 40.5t51 109.5q0 57 -35 89t-137 79l-145 65q-162 72 -245 165.5t-83 223.5q0 171 127 277t322 106q152 0 266.5 -68t179.5 -188l-188 -145q-104 155 -258 155q-74 0 -121 -35t-47 -96q0 -52 33.5 -83.5t123.5 -71.5
l154 -68q174 -77 254 -169t80 -226q0 -183 -133.5 -294.5t-339.5 -111.5q-169 0 -306.5 80t-216.5 219zM969 1483h-211l-185 164l-184 -164h-209l303 381h183z" />
    <glyph glyph-name="scircumflex" unicode="&#x15d;" horiz-adv-x="931" 
d="M45 172l139 168q131 -137 285 -137q57 0 93 22t36 62q0 31 -21.5 48t-82.5 44l-109 45q-145 59 -210.5 129.5t-65.5 179.5q0 141 102 222t270 81q226 0 365 -151l-139 -170q-104 96 -228 96q-51 0 -79.5 -18.5t-28.5 -53.5q0 -28 22 -46t84 -44l98 -41q153 -62 219 -131
t66 -178q0 -154 -112 -238q-112 -86 -283 -86q-132 0 -241 52t-179 145zM842 1169h-203l-164 189l-164 -189h-202l276 428h182z" />
    <glyph glyph-name="Scedilla" unicode="&#x15e;" horiz-adv-x="1144" 
d="M61 274l191 144q71 -97 149 -147t183 -50q90 0 141 40.5t51 109.5q0 57 -35 89t-137 79l-145 65q-162 72 -245 165.5t-83 223.5q0 171 127 277t322 106q152 0 266.5 -68t179.5 -188l-188 -145q-104 155 -258 155q-74 0 -121 -35t-47 -96q0 -52 33.5 -83.5t123.5 -71.5
l154 -68q174 -77 254 -169t80 -226q0 -183 -133.5 -294.5t-339.5 -111.5q-169 0 -306.5 80t-216.5 219zM295 -373v183q88 -5 123 -5q60 0 93.5 30t33.5 87q0 55 -27 119l109 49q137 -76 137 -223q0 -115 -86.5 -187.5t-231.5 -72.5q-84 0 -151 20z" />
    <glyph glyph-name="scedilla" unicode="&#x15f;" horiz-adv-x="931" 
d="M45 172l139 168q131 -137 285 -137q57 0 93 22t36 62q0 31 -21.5 48t-82.5 44l-109 45q-145 59 -210.5 129.5t-65.5 179.5q0 141 102 222t270 81q226 0 365 -151l-139 -170q-104 96 -228 96q-51 0 -79.5 -18.5t-28.5 -53.5q0 -28 22 -46t84 -44l98 -41q153 -62 219 -131
t66 -178q0 -154 -112 -238q-112 -86 -283 -86q-132 0 -241 52t-179 145zM203 -373v183q87 -5 123 -5q60 0 93.5 30t33.5 87q0 55 -27 119l109 49q137 -76 137 -223q0 -115 -86.5 -187.5t-231.5 -72.5q-84 0 -151 20z" />
    <glyph glyph-name="Scaron" unicode="&#x160;" horiz-adv-x="1144" 
d="M61 274l191 144q71 -97 149 -147t183 -50q90 0 141 40.5t51 109.5q0 57 -35 89t-137 79l-145 65q-162 72 -245 165.5t-83 223.5q0 171 127 277t322 106q152 0 266.5 -68t179.5 -188l-188 -145q-104 155 -258 155q-74 0 -121 -35t-47 -96q0 -52 33.5 -83.5t123.5 -71.5
l154 -68q174 -77 254 -169t80 -226q0 -183 -133.5 -294.5t-339.5 -111.5q-169 0 -306.5 80t-216.5 219zM758 1864h211l-303 -381h-183l-303 381h209l184 -164z" />
    <glyph glyph-name="scaron" unicode="&#x161;" horiz-adv-x="931" 
d="M45 172l139 168q131 -137 285 -137q57 0 93 22t36 62q0 31 -21.5 48t-82.5 44l-109 45q-145 59 -210.5 129.5t-65.5 179.5q0 141 102 222t270 81q226 0 365 -151l-139 -170q-104 96 -228 96q-51 0 -79.5 -18.5t-28.5 -53.5q0 -28 22 -46t84 -44l98 -41q153 -62 219 -131
t66 -178q0 -154 -112 -238q-112 -86 -283 -86q-132 0 -241 52t-179 145zM639 1597h203l-275 -428h-182l-276 428h202l164 -188z" />
    <glyph glyph-name="uni0162" unicode="&#x162;" horiz-adv-x="1198" 
d="M461 0v1102h-432v250h1142v-250h-434v-1102h-276zM311 -373v183q87 -5 123 -5q60 0 93.5 30t33.5 87t-26 119l108 49q137 -76 137 -223q0 -115 -86 -187.5t-231 -72.5q-85 0 -152 20z" />
    <glyph glyph-name="uni0163" unicode="&#x163;" horiz-adv-x="851" 
d="M788 231v-231q-103 -25 -190 -25q-195 0 -300 96.5t-105 284.5v424h-160v234h160v256h276v-256h287v-234h-287v-399q0 -85 44.5 -121.5t143.5 -36.5q35 0 131 8zM182 -373v183q88 -5 123 -5q60 0 93.5 30t33.5 87t-26 119l108 49q137 -76 137 -223q0 -115 -86 -187.5
t-231 -72.5q-85 0 -152 20z" />
    <glyph glyph-name="Tcaron" unicode="&#x164;" horiz-adv-x="1198" 
d="M461 0v1102h-432v250h1142v-250h-434v-1102h-276zM782 1864h211l-303 -381h-182l-303 381h209l184 -164z" />
    <glyph glyph-name="tcaron" unicode="&#x165;" horiz-adv-x="851" 
d="M788 231v-231q-103 -25 -190 -25q-195 0 -300 96.5t-105 284.5v424h-160v234h160v256h276v-256h287v-234h-287v-399q0 -85 44.5 -121.5t143.5 -36.5q35 0 131 8zM645 1114l10 422h285l-100 -422h-195z" />
    <glyph glyph-name="Tbar" unicode="&#x166;" horiz-adv-x="1198" 
d="M461 0v465h-361v231h361v406h-432v250h1142v-250h-434v-406h361v-231h-361v-465h-276z" />
    <glyph glyph-name="tbar" unicode="&#x167;" horiz-adv-x="882" 
d="M807 231v-231q-98 -25 -189 -25q-195 0 -300 96.5t-105 284.5v47h-162v222h162v168h-162v221h162v256h274v-256h289v-221h-289v-168h289v-222h-289v-22q0 -85 44.5 -121.5t144.5 -36.5q35 0 131 8z" />
    <glyph glyph-name="Utilde" unicode="&#x168;" horiz-adv-x="1433" 
d="M143 559v793h277v-813q0 -145 82 -226.5t215 -81.5q136 0 216.5 81t80.5 227v813h276v-793q0 -264 -161.5 -424t-411.5 -160q-124 0 -229.5 41.5t-182 116t-119.5 184.5t-43 242zM733 1530l-61 33q-58 34 -90 34q-28 0 -43 -18.5t-15 -48.5v-25h-211q-4 62 -4 70
q0 121 68.5 197.5t169.5 76.5q72 0 151 -43l62 -37q16 -11 45.5 -22.5t46.5 -11.5q57 0 57 69v25h211q4 -62 4 -68q0 -122 -67.5 -199t-167.5 -77q-76 0 -156 45z" />
    <glyph glyph-name="utilde" unicode="&#x169;" horiz-adv-x="1187" 
d="M127 446v568h276v-590q0 -87 54 -141t139 -54q81 0 134.5 54t53.5 141v590h277v-568q0 -210 -132 -340.5t-333 -130.5q-205 0 -337 130.5t-132 340.5zM610 1231l-57 35q-56 39 -82 39q-57 0 -57 -72v-25h-211q-4 28 -4 68q0 125 65.5 201.5t165.5 76.5q80 0 148 -45
l57 -36q48 -37 82 -37q57 0 57 71v25h209q6 -38 6 -70q0 -123 -66 -199.5t-167 -76.5q-78 0 -146 45z" />
    <glyph glyph-name="Umacron" unicode="&#x16a;" horiz-adv-x="1433" 
d="M143 559v793h277v-813q0 -145 82 -226.5t215 -81.5q136 0 216.5 81t80.5 227v813h276v-793q0 -264 -161.5 -424t-411.5 -160q-124 0 -229.5 41.5t-182 116t-119.5 184.5t-43 242zM387 1546v217h660v-217h-660z" />
    <glyph glyph-name="umacron" unicode="&#x16b;" horiz-adv-x="1187" 
d="M127 446v568h276v-590q0 -87 54 -141t139 -54q81 0 134.5 54t53.5 141v590h277v-568q0 -210 -132 -340.5t-333 -130.5q-205 0 -337 130.5t-132 340.5zM285 1274v217h618v-217h-618z" />
    <glyph glyph-name="Ubreve" unicode="&#x16c;" horiz-adv-x="1433" 
d="M143 559v793h277v-813q0 -145 82 -226.5t215 -81.5q136 0 216.5 81t80.5 227v813h276v-793q0 -264 -161.5 -424t-411.5 -160q-124 0 -229.5 41.5t-182 116t-119.5 184.5t-43 242zM362 1833v31h218v-31q0 -69 37 -111.5t100 -42.5t100 41t37 113v31h215v-31
q0 -157 -99 -258.5t-253 -101.5q-159 0 -256 100q-99 102 -99 260z" />
    <glyph glyph-name="ubreve" unicode="&#x16d;" horiz-adv-x="1187" 
d="M127 446v568h276v-590q0 -87 54 -141t139 -54q81 0 134.5 54t53.5 141v590h277v-568q0 -210 -132 -340.5t-333 -130.5q-205 0 -337 130.5t-132 340.5zM240 1526v57h217v-55q0 -72 37 -113t100 -41t100 41t37 113v55h215v-57q0 -157 -98 -258q-99 -99 -254 -99t-254.5 100
t-99.5 257z" />
    <glyph glyph-name="Uring" unicode="&#x16e;" horiz-adv-x="1433" 
d="M143 559v793h277v-813q0 -145 82 -226.5t215 -81.5q136 0 216.5 81t80.5 227v813h276v-793q0 -264 -161.5 -424t-411.5 -160q-124 0 -229.5 41.5t-182 116t-119.5 184.5t-43 242zM457 1634q0 105 74 176.5t184 71.5q112 0 186 -71.5t74 -176.5q0 -107 -74 -179.5
t-186 -72.5q-110 0 -184 73t-74 179zM801 1634q0 35 -24.5 59.5t-59.5 24.5q-36 0 -60 -24t-24 -60q0 -37 23.5 -61.5t60.5 -24.5q35 0 59.5 24.5t24.5 61.5z" />
    <glyph glyph-name="uring" unicode="&#x16f;" horiz-adv-x="1187" 
d="M127 446v568h276v-590q0 -87 54 -141t139 -54q81 0 134.5 54t53.5 141v590h277v-568q0 -210 -132 -340.5t-333 -130.5q-205 0 -337 130.5t-132 340.5zM334 1374q0 106 74 178t184 72q113 0 186.5 -70.5t73.5 -179.5t-74 -180.5t-186 -71.5q-111 0 -184.5 71.5
t-73.5 180.5zM678 1374q0 36 -24 60t-60 24t-60 -24t-24 -60q0 -37 23.5 -60.5t60.5 -23.5q35 0 59.5 24.5t24.5 59.5z" />
    <glyph glyph-name="Uhungarumlaut" unicode="&#x170;" horiz-adv-x="1433" 
d="M143 559v793h277v-813q0 -145 82 -226.5t215 -81.5q136 0 216.5 81t80.5 227v813h276v-793q0 -264 -161.5 -424t-411.5 -160q-124 0 -229.5 41.5t-182 116t-119.5 184.5t-43 242zM356 1483l150 381h287v-49l-250 -332h-187zM842 1483l149 381h287v-49l-250 -332h-186z
" />
    <glyph glyph-name="uhungarumlaut" unicode="&#x171;" horiz-adv-x="1187" 
d="M127 446v568h276v-590q0 -87 54 -141t139 -54q81 0 134.5 54t53.5 141v590h277v-568q0 -210 -132 -340.5t-333 -130.5q-205 0 -337 130.5t-132 340.5zM270 1169l150 428h287v-49l-250 -379h-187zM715 1169l149 428h287v-49l-250 -379h-186z" />
    <glyph glyph-name="Uogonek" unicode="&#x172;" horiz-adv-x="1433" 
d="M143 559v793h277v-813q0 -145 82 -226.5t215 -81.5q136 0 216.5 81t80.5 227v813h276v-793q0 -264 -161.5 -424t-411.5 -160q-124 0 -229.5 41.5t-182 116t-119.5 184.5t-43 242zM633 -188q0 76 42.5 133t192.5 182h250l-168 -170q-30 -30 -41.5 -49.5t-11.5 -42.5
q0 -60 74 -60q10 0 86 13v-180q-88 -31 -176 -31q-113 0 -180.5 55.5t-67.5 149.5z" />
    <glyph glyph-name="uogonek" unicode="&#x173;" horiz-adv-x="1187" 
d="M784 1014h277v-568q0 -104 -27 -178q-29 -77 -78 -131q-56 -62 -157 -155q-37 -32 -52.5 -56.5t-15.5 -52.5q0 -32 20.5 -51t57.5 -19q16 0 86 13v-176q-95 -33 -182 -33q-113 0 -176.5 49.5t-63.5 140.5q0 100 86 180q-190 9 -311 138.5t-121 330.5v568h276v-590
q0 -87 54 -141t139 -54q81 0 134.5 54t53.5 141v590z" />
    <glyph glyph-name="Wcircumflex" unicode="&#x174;" horiz-adv-x="2119" 
d="M1761 1352h307l-540 -1377h-90l-377 848l-379 -848h-90l-541 1377h307l301 -799l355 823h92l354 -819zM1454 1483h-211l-184 164l-185 -164h-208l303 381h182z" />
    <glyph glyph-name="wcircumflex" unicode="&#x175;" horiz-adv-x="1755" 
d="M1440 1014h291l-471 -1039h-91l-290 590l-293 -590h-90l-471 1039h290l240 -578l276 600h93l280 -587zM1243 1169h-203l-163 189l-164 -189h-203l276 428h183z" />
    <glyph glyph-name="Ycircumflex" unicode="&#x176;" horiz-adv-x="1277" 
d="M1243 1352l-465 -820v-532h-276v530l-467 822h307l299 -537l297 537h305zM1030 1483h-211l-184 164l-184 -164h-209l303 381h182z" />
    <glyph glyph-name="ycircumflex" unicode="&#x177;" horiz-adv-x="1144" 
d="M829 1014h291l-485 -1102q-69 -158 -166 -231.5t-238 -73.5q-87 0 -178 24v232q84 -8 119 -8q77 0 127 30.5t84 106.5l31 69l-389 953h292l248 -666zM938 1169h-203l-164 189l-163 -189h-203l276 428h183z" />
    <glyph glyph-name="Ydieresis" unicode="&#x178;" horiz-adv-x="1277" 
d="M1243 1352l-465 -820v-532h-276v530l-467 822h307l299 -537l297 537h305zM207 1667q0 67 48.5 113.5t115.5 46.5q69 0 118.5 -46.5t49.5 -113.5q0 -63 -49.5 -110.5t-118.5 -47.5q-63 0 -113.5 48.5t-50.5 109.5zM735 1665q0 67 49.5 114.5t116.5 47.5q68 0 117 -47.5
t49 -114.5q0 -63 -49.5 -110.5t-116.5 -47.5q-63 0 -114.5 48.5t-51.5 109.5z" />
    <glyph glyph-name="Zacute" unicode="&#x179;" horiz-adv-x="1204" 
d="M467 250h680v-250h-1106v74l678 1028h-590v250h1016v-74zM506 1483l149 381h332v-49l-280 -332h-201z" />
    <glyph glyph-name="zacute" unicode="&#x17a;" horiz-adv-x="958" 
d="M440 233h486v-233h-891v74l485 706h-438v234h840v-74zM387 1169l150 428h331v-49l-280 -379h-201z" />
    <glyph glyph-name="Zdotaccent" unicode="&#x17b;" horiz-adv-x="1204" 
d="M467 250h680v-250h-1106v74l678 1028h-590v250h1016v-74zM434 1669q0 72 51 122t125 50t126 -50t52 -122t-52 -122t-126 -50t-125 50t-51 122z" />
    <glyph glyph-name="zdotaccent" unicode="&#x17c;" horiz-adv-x="958" 
d="M440 233h486v-233h-891v74l485 706h-438v234h840v-74zM309 1382q0 73 51 122.5t125 49.5t126.5 -49.5t52.5 -122.5q0 -71 -52.5 -120.5t-126.5 -49.5t-125 49t-51 121z" />
    <glyph glyph-name="Zcaron" unicode="&#x17d;" horiz-adv-x="1204" 
d="M467 250h680v-250h-1106v74l678 1028h-590v250h1016v-74zM795 1864h211l-304 -381h-182l-303 381h209l184 -164z" />
    <glyph glyph-name="zcaron" unicode="&#x17e;" horiz-adv-x="958" 
d="M440 233h486v-233h-891v74l485 706h-438v234h840v-74zM651 1597h203l-274 -428h-183l-276 428h203l163 -188z" />
    <glyph glyph-name="uni018F" unicode="&#x18f;" horiz-adv-x="1501" 
d="M1421 678q2 -142 -53.5 -273.5t-150 -226t-224.5 -150t-270 -53.5q-177 -3 -326 77.5t-235.5 224t-83.5 317.5q0 90 18 178h1037q-26 160 -135.5 255t-268.5 95q-238 0 -391 -209l-186 162q100 143 248 222t329 79q192 3 352.5 -90.5t251.5 -255t88 -352.5zM1126 547
h-780q2 -99 57 -172t140 -108.5t186 -35.5q148 0 254.5 86t142.5 230z" />
    <glyph glyph-name="florin" unicode="&#x192;" horiz-adv-x="923" 
d="M930 1354v-230q-86 4 -94 4q-88 0 -133 -37t-52 -120l-16 -140h186v-235h-217l-59 -490q-23 -189 -125 -283.5t-277 -94.5q-88 0 -147 20l-2 232l92 -5q88 0 133.5 37.5t52.5 118.5l58 465h-178v235h206l21 164q23 188 125 284.5t276 96.5q79 0 150 -22z" />
    <glyph glyph-name="uni01D4" unicode="&#x1d4;" horiz-adv-x="1187" 
d="M127 446v568h276v-590q0 -87 54 -141t139 -54q81 0 134.5 54t53.5 141v590h277v-568q0 -210 -132 -340.5t-333 -130.5q-205 0 -337 130.5t-132 340.5zM758 1597h203l-275 -428h-182l-277 428h203l164 -188z" />
    <glyph glyph-name="AEacute" unicode="&#x1fc;" horiz-adv-x="1744" 
d="M1163 250h500v-250h-727l-31 176h-506l-92 -176h-297l692 1352h936v-250h-616l45 -275h406v-235h-367zM778 954l-264 -551h352zM754 1483l149 381h332v-49l-281 -332h-200z" />
    <glyph glyph-name="aeacute" unicode="&#x1fd;" horiz-adv-x="1798" 
d="M1700 403h-707q26 -91 101 -140.5t182 -49.5q148 0 280 102l115 -188q-178 -152 -401 -152q-135 0 -245.5 53.5t-180.5 151.5q-60 -100 -163 -152.5t-237 -52.5q-174 0 -272 84.5t-98 221.5q0 141 103 223t280 82h254v32q0 85 -48.5 132t-138.5 47q-73 0 -136.5 -34
t-133.5 -106l-141 170q176 209 440 209q227 0 334 -149q140 149 358 149q205 0 340 -135.5t135 -335.5q0 -92 -20 -162zM985 586h467q1 103 -59 165t-158 62q-94 0 -162 -61.5t-88 -165.5zM711 377v26h-217q-68 0 -105 -27.5t-37 -78.5q0 -55 38.5 -86t105.5 -31
q92 0 153.5 55.5t61.5 141.5zM784 1169l150 428h332v-49l-281 -379h-201z" />
    <glyph glyph-name="Oslashacute" unicode="&#x1fe;" horiz-adv-x="1593" 
d="M1530 1245l-154 -153q140 -182 140 -416q2 -142 -56 -273.5t-156 -226t-232 -149.5t-277 -52q-221 0 -410 121l-156 -155l-166 165l152 152q-137 186 -137 418q-2 142 55.5 273t154.5 225.5t230.5 149.5t276.5 52q227 0 411 -123l158 158zM350 676q0 -124 53 -227
l625 622q-109 62 -231 62q-194 0 -320.5 -129.5t-126.5 -327.5zM1243 676q0 123 -55 227l-623 -624q105 -60 232 -60q190 0 318 130t128 327zM688 1483l150 381h331v-49l-280 -332h-201z" />
    <glyph glyph-name="oslashacute" unicode="&#x1ff;" horiz-adv-x="1253" 
d="M1192 907l-109 -108q88 -131 88 -293q0 -109 -43.5 -207.5t-117 -169t-174.5 -112.5t-211 -42q-152 0 -287 78l-111 -112l-166 165l109 109q-86 127 -86 291q-2 144 71.5 267.5t199.5 194.5t272 68q151 0 286 -78l113 113zM342 506q0 -69 25 -127l391 393q-60 31 -131 31
q-125 0 -205 -83.5t-80 -213.5zM911 506q0 72 -24 127l-395 -393q60 -31 133 -31q125 0 205.5 83.5t80.5 213.5zM528 1169l150 428h332v-49l-281 -379h-201z" />
    <glyph glyph-name="uni0218" unicode="&#x218;" horiz-adv-x="1144" 
d="M61 274l191 144q71 -97 149 -147t183 -50q90 0 141 40.5t51 109.5q0 57 -35 89t-137 79l-145 65q-162 72 -245 165.5t-83 223.5q0 171 127 277t322 106q152 0 266.5 -68t179.5 -188l-188 -145q-104 155 -258 155q-74 0 -121 -35t-47 -96q0 -52 33.5 -83.5t123.5 -71.5
l154 -68q174 -77 254 -169t80 -226q0 -183 -133.5 -294.5t-339.5 -111.5q-169 0 -306.5 80t-216.5 219zM451 -451l6 357h256l-54 -357h-208z" />
    <glyph glyph-name="uni0219" unicode="&#x219;" horiz-adv-x="931" 
d="M45 172l139 168q131 -137 285 -137q57 0 93 22t36 62q0 31 -21.5 48t-82.5 44l-109 45q-145 59 -210.5 129.5t-65.5 179.5q0 141 102 222t270 81q226 0 365 -151l-139 -170q-104 96 -228 96q-51 0 -79.5 -18.5t-28.5 -53.5q0 -28 22 -46t84 -44l98 -41q153 -62 219 -131
t66 -178q0 -154 -112 -238q-112 -86 -283 -86q-132 0 -241 52t-179 145zM358 -451l7 357h256l-54 -357h-209z" />
    <glyph glyph-name="uni021A" unicode="&#x21a;" horiz-adv-x="1198" 
d="M461 0v1102h-432v250h1142v-250h-434v-1102h-276zM467 -451l6 357h256l-53 -357h-209z" />
    <glyph glyph-name="uni021B" unicode="&#x21b;" horiz-adv-x="851" 
d="M788 231v-231q-103 -25 -190 -25q-195 0 -300 96.5t-105 284.5v424h-160v234h160v256h276v-256h287v-234h-287v-399q0 -85 44.5 -121.5t143.5 -36.5q35 0 131 8zM338 -451l6 357h256l-53 -357h-209z" />
    <glyph glyph-name="uni0237" unicode="&#x237;" horiz-adv-x="550" 
d="M-129 -371v232q49 -6 84 -6q94 0 138 37t44 120v1002h277v-1026q0 -187 -102.5 -284t-286.5 -97q-80 0 -154 22z" />
    <glyph glyph-name="uni0259" unicode="&#x259;" horiz-adv-x="1165" 
d="M1087 508q0 -146 -69.5 -268.5t-190.5 -193.5t-266 -71q-211 0 -346 136.5t-135 337.5q0 87 18 151h711q-25 96 -97.5 147.5t-183.5 51.5q-157 0 -288 -101l-115 189q177 149 412 149q236 0 393 -152t157 -376zM811 406h-465q4 -93 67 -149t158 -56q88 0 152.5 54.5
t87.5 150.5z" />
    <glyph glyph-name="circumflex" unicode="&#x2c6;" horiz-adv-x="1228" 
d="M981 1169h-203l-164 189l-163 -189h-203l276 428h183z" />
    <glyph glyph-name="caron" unicode="&#x2c7;" horiz-adv-x="1228" 
d="M778 1597h203l-274 -428h-183l-276 428h203l163 -188z" />
    <glyph glyph-name="breve" unicode="&#x2d8;" horiz-adv-x="1228" 
d="M260 1526v57h217v-55q0 -72 37 -113t100 -41t100.5 41t37.5 113v55h215v-57q0 -156 -99 -258q-99 -99 -254 -99t-254.5 100t-99.5 257z" />
    <glyph glyph-name="dotaccent" unicode="&#x2d9;" horiz-adv-x="1228" 
d="M436 1382q0 73 51 122.5t125 49.5t126.5 -49.5t52.5 -122.5q0 -71 -52.5 -120.5t-126.5 -49.5t-125 49t-51 121z" />
    <glyph glyph-name="ring" unicode="&#x2da;" horiz-adv-x="1228" 
d="M354 1374q0 106 74 178t184 72q113 0 186.5 -70.5t73.5 -179.5t-74 -180.5t-186 -71.5q-111 0 -184.5 71.5t-73.5 180.5zM698 1374q0 36 -24 60t-60 24t-60 -24t-24 -60q0 -37 23.5 -60.5t60.5 -23.5q35 0 59.5 24.5t24.5 59.5z" />
    <glyph glyph-name="ogonek" unicode="&#x2db;" horiz-adv-x="1228" 
d="M401 -188q0 90 73.5 160t238.5 139l112 -111l-82 -51q-44 -26 -60.5 -43t-16.5 -41q0 -60 73 -60q16 0 86 13v-180q-95 -31 -176 -31q-114 0 -181 56.5t-67 148.5z" />
    <glyph glyph-name="tilde" unicode="&#x2dc;" horiz-adv-x="1228" 
d="M631 1231l-58 35q-56 39 -81 39q-58 0 -58 -72v-25h-211q-4 28 -4 68q0 125 66 201.5t166 76.5q79 0 147 -45l57 -36q48 -37 82 -37q58 0 58 71v25h209q6 -38 6 -70q0 -123 -66.5 -199.5t-167.5 -76.5q-77 0 -145 45z" />
    <glyph glyph-name="hungarumlaut" unicode="&#x2dd;" horiz-adv-x="1228" 
d="M174 1169l150 428h286v-49l-250 -379h-186zM618 1169l150 428h287v-49l-250 -379h-187z" />
    <glyph glyph-name="gravecomb" unicode="&#x300;" horiz-adv-x="0" 
d="M-473 1169l-281 379v49h332l150 -428h-201z" />
    <glyph glyph-name="acutecomb" unicode="&#x301;" horiz-adv-x="0" 
d="M-754 1169l150 428h332v-49l-281 -379h-201z" />
    <glyph glyph-name="uni0302" unicode="&#x302;" horiz-adv-x="0" 
d="M-145 1169h-203l-164 189l-164 -189h-203l277 428h182z" />
    <glyph glyph-name="tildecomb" unicode="&#x303;" horiz-adv-x="0" 
d="M-496 1231l-57 35q-56 39 -82 39q-57 0 -57 -72v-25h-211q-4 28 -4 68q0 125 65.5 201.5t165.5 76.5q80 0 148 -45l57 -36q48 -37 82 -37q57 0 57 71v25h209q6 -38 6 -70q0 -123 -66 -199.5t-167 -76.5q-78 0 -146 45z" />
    <glyph glyph-name="uni0304" unicode="&#x304;" horiz-adv-x="0" 
d="M-821 1274v217h618v-217h-618z" />
    <glyph glyph-name="uni0306" unicode="&#x306;" horiz-adv-x="0" 
d="M-866 1526v57h217v-55q0 -72 37 -113t100 -41t100 41t37 113v55h215v-57q0 -157 -98 -258q-99 -99 -254 -99t-254.5 100t-99.5 257z" />
    <glyph glyph-name="uni0307" unicode="&#x307;" horiz-adv-x="0" 
d="M-690 1382q0 73 51 122.5t125 49.5t126 -49.5t52 -122.5q0 -72 -52 -121t-126 -49t-125 49t-51 121z" />
    <glyph glyph-name="uni0308" unicode="&#x308;" horiz-adv-x="0" 
d="M-922 1384q0 66 49.5 113t118.5 47q66 0 115 -47t49 -113t-49 -112.5t-115 -46.5q-69 0 -118.5 46.5t-49.5 112.5zM-434 1384q0 66 49.5 113t118.5 47q66 0 115 -47t49 -113t-49 -112.5t-115 -46.5q-69 0 -118.5 46.5t-49.5 112.5z" />
    <glyph glyph-name="uni030A" unicode="&#x30a;" horiz-adv-x="0" 
d="M-772 1374q0 106 74 178t184 72q113 0 186.5 -70.5t73.5 -179.5t-74 -180.5t-186 -71.5q-111 0 -184.5 71.5t-73.5 180.5zM-428 1374q0 36 -24 60t-60 24t-60 -24t-24 -60q0 -37 23.5 -60.5t60.5 -23.5q35 0 59.5 24.5t24.5 59.5z" />
    <glyph glyph-name="uni030B" unicode="&#x30b;" horiz-adv-x="0" 
d="M-952 1169l149 428h287v-49l-250 -379h-186zM-508 1169l150 428h286v-49l-250 -379h-186z" />
    <glyph glyph-name="uni030C" unicode="&#x30c;" horiz-adv-x="0" 
d="M-348 1597h203l-275 -428h-182l-277 428h203l164 -188z" />
    <glyph glyph-name="uni0326" unicode="&#x326;" horiz-adv-x="0" 
d="M-643 -451l6 357h256l-53 -357h-209z" />
    <glyph glyph-name="uni0327" unicode="&#x327;" horiz-adv-x="0" 
d="M-748 -373v183q88 -5 123 -5q60 0 93.5 30t33.5 87t-26 119l108 49q137 -76 137 -223q0 -115 -86 -187.5t-231 -72.5q-85 0 -152 20z" />
    <glyph glyph-name="uni0328" unicode="&#x328;" horiz-adv-x="0" 
d="M-725 -188q0 90 73 160t238 139l113 -111l-82 -51q-44 -27 -61 -44t-17 -40q0 -60 74 -60q16 0 86 13v-180q-95 -31 -176 -31q-114 0 -181 56.5t-67 148.5z" />
    <glyph glyph-name="tonos" unicode="&#x384;" horiz-adv-x="1024" 
d="M311 1169l74 428h328v-49l-199 -379h-203z" />
    <glyph glyph-name="dieresistonos" unicode="&#x385;" horiz-adv-x="1024" 
d="M330 1169l82 428h315v-49l-207 -379h-190zM-41 1382q0 66 49.5 114t112.5 48q68 0 116 -47.5t48 -114.5q0 -63 -48.5 -110t-115.5 -47q-62 0 -112 48t-50 109zM737 1382q0 66 50 114t114 48q68 0 116 -47.5t48 -114.5q0 -63 -49 -110t-115 -47q-62 0 -113 48t-51 109z
" />
    <glyph glyph-name="Alphatonos" unicode="&#x386;" horiz-adv-x="1353" 
d="M1028 0l-76 176h-553l-75 -176h-297l604 1376h92l602 -1376h-297zM856 403l-180 457l-180 -457h360zM-16 930l10 422h285l-101 -422h-194z" />
    <glyph glyph-name="anoteleia" unicode="&#x387;" horiz-adv-x="573" 
d="M96 655q0 80 56 135.5t137 55.5q79 0 133.5 -55.5t54.5 -135.5q0 -82 -53 -136t-135 -54t-137.5 54.5t-55.5 135.5z" />
    <glyph glyph-name="Epsilontonos" unicode="&#x388;" horiz-adv-x="1173" 
d="M156 0v1352h909v-250h-633v-275h465v-235h-465v-342h658v-250h-934zM-295 930l10 422h285l-100 -422h-195z" />
    <glyph glyph-name="Etatonos" unicode="&#x389;" horiz-adv-x="1460" 
d="M156 0v1352h276v-518h598v518h277v-1352h-277v584h-598v-584h-276zM-295 930l10 422h285l-100 -422h-195z" />
    <glyph glyph-name="Iotatonos" unicode="&#x38a;" horiz-adv-x="585" 
d="M156 0v1352h276v-1352h-276zM-295 930l10 422h285l-100 -422h-195z" />
    <glyph glyph-name="Omicrontonos" unicode="&#x38c;" horiz-adv-x="1593" 
d="M78 676q-2 142 55.5 273t154.5 225.5t230.5 149.5t276.5 52q143 3 277 -52t232 -149.5t156 -225.5t56 -273q2 -142 -56 -273.5t-156 -226t-232 -149.5t-277 -52q-143 -3 -276.5 52t-230.5 149.5t-154.5 226t-55.5 273.5zM1231 676q0 192 -124 318t-310 126
q-188 0 -311.5 -125t-123.5 -319t123.5 -319.5t311.5 -125.5q187 0 310.5 125.5t123.5 319.5zM-217 930l10 422h285l-101 -422h-194z" />
    <glyph glyph-name="Upsilontonos" unicode="&#x38e;" horiz-adv-x="1277" 
d="M1243 1352l-465 -820v-532h-276v530l-467 822h307l299 -537l297 537h305zM-338 930l10 422h285l-100 -422h-195z" />
    <glyph glyph-name="Omegatonos" unicode="&#x38f;" horiz-adv-x="1613" 
d="M1286 250h219v-250h-581v250q156 74 236.5 187t80.5 259q0 184 -123.5 304t-312.5 120q-191 0 -311.5 -117.5t-120.5 -302.5q0 -148 81 -262t236 -188v-250h-581v250h206q-227 184 -227 461q-3 135 54 259t154.5 213.5t231 142t277.5 50.5q144 2 278.5 -51t232 -143
t155.5 -214t55 -257q0 -139 -59 -251.5t-181 -209.5zM-168 930l10 422h285l-100 -422h-195z" />
    <glyph glyph-name="iotadieresistonos" unicode="&#x390;" horiz-adv-x="663" 
d="M133 340v674h275v-633q0 -84 31.5 -121t101.5 -37q32 0 100 8v-231q-80 -25 -168 -25q-340 0 -340 365zM119 1169l82 428h315v-49l-207 -379h-190zM-252 1382q0 66 49.5 114t112.5 48q68 0 116 -47.5t48 -114.5q0 -63 -48.5 -110t-115.5 -47q-62 0 -112 48t-50 109z
M526 1382q0 66 50 114t114 48q68 0 116 -47.5t48 -114.5q0 -63 -49 -110t-115 -47q-62 0 -113 48t-51 109z" />
    <glyph glyph-name="Alpha" unicode="&#x391;" horiz-adv-x="1353" 
d="M1028 0l-76 176h-553l-75 -176h-297l604 1376h92l602 -1376h-297zM856 403l-180 457l-180 -457h360z" />
    <glyph glyph-name="Beta" unicode="&#x392;" horiz-adv-x="1271" 
d="M1202 397q0 -175 -124.5 -286t-319.5 -111h-602v1352h479q188 0 308 -105.5t120 -271.5q0 -151 -100 -244q114 -42 176.5 -127.5t62.5 -206.5zM612 1114h-190v-309h190q84 0 130 41.5t46 114.5q0 72 -46 112.5t-130 40.5zM930 408q0 78 -51.5 124t-141.5 46h-315v-340
h315q91 0 142 45t51 125z" />
    <glyph glyph-name="Gamma" unicode="&#x393;" horiz-adv-x="1073" 
d="M156 0v1352h868v-250h-592v-1102h-276z" />
    <glyph glyph-name="uni0394" unicode="&#x394;" horiz-adv-x="1353" 
d="M723 1376l569 -1302v-74h-1233v74l572 1302h92zM922 250l-244 571l-246 -571h490z" />
    <glyph glyph-name="Epsilon" unicode="&#x395;" horiz-adv-x="1173" 
d="M156 0v1352h909v-250h-633v-275h465v-235h-465v-342h658v-250h-934z" />
    <glyph glyph-name="Zeta" unicode="&#x396;" horiz-adv-x="1204" 
d="M467 250h680v-250h-1106v74l678 1028h-590v250h1016v-74z" />
    <glyph glyph-name="Eta" unicode="&#x397;" horiz-adv-x="1460" 
d="M156 0v1352h276v-518h598v518h277v-1352h-277v584h-598v-584h-276z" />
    <glyph glyph-name="Theta" unicode="&#x398;" horiz-adv-x="1593" 
d="M78 676q-2 142 55.5 273t154.5 225.5t230.5 149.5t276.5 52q143 3 277 -52t232 -149.5t156 -225.5t56 -273q2 -142 -56 -273.5t-156 -226t-232 -149.5t-277 -52q-143 -3 -276.5 52t-230.5 149.5t-154.5 226t-55.5 273.5zM1247 674q0 201 -128.5 332t-323.5 131
t-322 -130.5t-127 -332.5q0 -200 128 -329.5t321 -129.5t322.5 130.5t129.5 328.5zM508 559v227h577v-227h-577z" />
    <glyph glyph-name="Iota" unicode="&#x399;" horiz-adv-x="585" 
d="M156 0v1352h276v-1352h-276z" />
    <glyph glyph-name="Kappa" unicode="&#x39a;" horiz-adv-x="1372" 
d="M1346 0h-334l-580 705v-705h-276v1352h276v-627l516 627h330l-518 -637z" />
    <glyph glyph-name="Lambda" unicode="&#x39b;" horiz-adv-x="1353" 
d="M1325 0h-297l-352 821l-352 -821h-297l604 1376h92z" />
    <glyph glyph-name="Mu" unicode="&#x39c;" horiz-adv-x="1634" 
d="M1389 1376h90v-1376h-277v721l-340 -426h-90l-340 426v-721h-276v1376h90l571 -731z" />
    <glyph glyph-name="Nu" unicode="&#x39d;" horiz-adv-x="1460" 
d="M1030 1352h277v-1377h-93l-782 836v-811h-276v1376h90l784 -831v807z" />
    <glyph glyph-name="Xi" unicode="&#x39e;" horiz-adv-x="1290" 
d="M84 1102v250h1124v-250h-1124zM227 545v250h838v-250h-838zM84 0v250h1124v-250h-1124z" />
    <glyph glyph-name="Omicron" unicode="&#x39f;" horiz-adv-x="1593" 
d="M78 676q-2 142 55.5 273t154.5 225.5t230.5 149.5t276.5 52q143 3 277 -52t232 -149.5t156 -225.5t56 -273q2 -142 -56 -273.5t-156 -226t-232 -149.5t-277 -52q-143 -3 -276.5 52t-230.5 149.5t-154.5 226t-55.5 273.5zM1231 676q0 192 -124 318t-310 126
q-188 0 -311.5 -125t-123.5 -319t123.5 -319.5t311.5 -125.5q187 0 310.5 125.5t123.5 319.5z" />
    <glyph glyph-name="Pi" unicode="&#x3a0;" horiz-adv-x="1415" 
d="M156 0v1352h1104v-1352h-277v1102h-551v-1102h-276z" />
    <glyph glyph-name="Rho" unicode="&#x3a1;" horiz-adv-x="1216" 
d="M156 0v1352h508q213 0 350 -121.5t137 -315.5q0 -193 -137 -315.5t-350 -122.5h-232v-477h-276zM432 719h232q95 0 149.5 53.5t54.5 142.5q0 87 -55.5 140t-148.5 53h-232v-389z" />
    <glyph glyph-name="Sigma" unicode="&#x3a3;" horiz-adv-x="1167" 
d="M489 250h594v-250h-1011v74l430 618l-430 586v74h987v-250h-559l288 -389v-39z" />
    <glyph glyph-name="Tau" unicode="&#x3a4;" horiz-adv-x="1198" 
d="M461 0v1102h-432v250h1142v-250h-434v-1102h-276z" />
    <glyph glyph-name="Upsilon" unicode="&#x3a5;" horiz-adv-x="1277" 
d="M1243 1352l-465 -820v-532h-276v530l-467 822h307l299 -537l297 537h305z" />
    <glyph glyph-name="Phi" unicode="&#x3a6;" horiz-adv-x="1716" 
d="M995 33v-121h-276v123q-181 5 -328.5 90t-231 231.5t-81.5 323.5q0 176 83.5 318.5t229.5 225.5t328 91v123h276v-121q182 -5 329 -88t230.5 -227.5t81.5 -321.5q0 -180 -83 -325t-229 -229.5t-329 -92.5zM719 272v807q-158 -9 -263.5 -124t-105.5 -283q0 -169 103 -281
q107 -110 266 -119zM1366 672q0 168 -106 283t-265 124v-807q160 9 267 119q104 110 104 281z" />
    <glyph glyph-name="Chi" unicode="&#x3a7;" horiz-adv-x="1257" 
d="M1229 0h-314l-286 449l-287 -449h-315l448 688l-422 664h316l260 -426l258 426h313l-416 -664z" />
    <glyph glyph-name="Psi" unicode="&#x3a8;" horiz-adv-x="1652" 
d="M688 0v297q-264 14 -411.5 166.5t-147.5 415.5v473h277v-457q0 -155 76.5 -248t205.5 -98v803h277v-803q129 5 206.5 99t77.5 247v457h277v-473q0 -263 -148.5 -415.5t-412.5 -166.5v-297h-277z" />
    <glyph glyph-name="uni03A9" unicode="&#x3a9;" horiz-adv-x="1613" 
d="M1286 250h219v-250h-581v250q156 74 236.5 187t80.5 259q0 184 -123.5 304t-312.5 120q-191 0 -311.5 -117.5t-120.5 -302.5q0 -148 81 -262t236 -188v-250h-581v250h206q-227 184 -227 461q-3 135 54 259t154.5 213.5t231 142t277.5 50.5q144 2 278.5 -51t232 -143
t155.5 -214t55 -257q0 -139 -59 -251.5t-181 -209.5z" />
    <glyph glyph-name="Iotadieresis" unicode="&#x3aa;" horiz-adv-x="585" 
d="M156 0v1352h276v-1352h-276zM-135 1667q0 67 48.5 113.5t115.5 46.5q69 0 118.5 -46.5t49.5 -113.5q0 -63 -49.5 -110.5t-118.5 -47.5q-63 0 -113.5 48.5t-50.5 109.5zM393 1665q0 67 49.5 114.5t116.5 47.5q68 0 117 -47.5t49 -114.5q0 -63 -49.5 -110.5t-116.5 -47.5
q-63 0 -114.5 48.5t-51.5 109.5z" />
    <glyph glyph-name="Upsilondieresis" unicode="&#x3ab;" horiz-adv-x="1277" 
d="M1243 1352l-465 -820v-532h-276v530l-467 822h307l299 -537l297 537h305zM209 1667q0 67 48.5 113.5t115.5 46.5q69 0 118.5 -46.5t49.5 -113.5q0 -63 -49.5 -110.5t-118.5 -47.5q-63 0 -113.5 48.5t-50.5 109.5zM737 1665q0 67 49.5 114.5t116.5 47.5q68 0 117 -47.5
t49 -114.5q0 -63 -49.5 -110.5t-116.5 -47.5q-63 0 -114.5 48.5t-51.5 109.5z" />
    <glyph glyph-name="alphatonos" unicode="&#x3ac;" horiz-adv-x="1318" 
d="M1225 227l59 2v-229q-64 -20 -151 -20q-186 0 -242 157q-51 -78 -137.5 -120t-192.5 -42q-209 0 -345 151t-136 380q0 227 136.5 378.5t344.5 151.5q110 0 196 -43t136 -121q2 56 8 142h254q-20 -293 -20 -475v-187q0 -64 21.5 -94.5t68.5 -30.5zM862 506
q0 129 -72 204.5t-180 75.5q-107 0 -178.5 -77.5t-71.5 -200.5q0 -125 71 -203t179 -78q109 0 180.5 74.5t71.5 204.5zM467 1169l74 428h327v-49l-198 -379h-203z" />
    <glyph glyph-name="epsilontonos" unicode="&#x3ad;" horiz-adv-x="1050" 
d="M827 330l156 -164q-150 -191 -451 -191q-213 0 -330.5 79t-117.5 220q0 79 46.5 142t131.5 98q-137 78 -137 223q0 139 112.5 219t309.5 80q288 0 430 -174l-156 -166q-92 103 -270 103q-156 0 -156 -97q0 -90 123 -90h184v-204h-194q-154 0 -154 -93q0 -54 42 -78
t136 -24q190 0 295 117zM403 1169l74 428h328v-49l-199 -379h-203z" />
    <glyph glyph-name="etatonos" unicode="&#x3ae;" horiz-adv-x="1245" 
d="M1116 629v-998h-274v959q0 88 -52 142t-137 54t-139.5 -54.5t-54.5 -141.5v-590h-275v662q0 124 -92 124l-57 -2v230q64 20 151 20q165 0 226 -116q57 56 139.5 87t175.5 31q177 0 283 -110.5t106 -296.5zM512 1169l74 428h327v-49l-198 -379h-203z" />
    <glyph glyph-name="iotatonos" unicode="&#x3af;" horiz-adv-x="663" 
d="M133 340v674h275v-633q0 -84 31.5 -121t101.5 -37q32 0 100 8v-231q-80 -25 -168 -25q-340 0 -340 365zM131 1169l74 428h327v-49l-198 -379h-203z" />
    <glyph glyph-name="upsilondieresistonos" unicode="&#x3b0;" horiz-adv-x="1204" 
d="M127 451v563h276v-588q0 -88 55.5 -144.5t143.5 -56.5t143.5 55.5t55.5 145.5v588h276v-563q0 -212 -131.5 -344t-343.5 -132t-343.5 132t-131.5 344zM444 1169l82 428h316v-49l-207 -379h-191zM74 1382q0 66 49.5 114t112.5 48q68 0 115.5 -47.5t47.5 -114.5
q0 -63 -48 -110t-115 -47q-62 0 -112 48t-50 109zM852 1382q0 66 50 114t114 48q68 0 116 -47.5t48 -114.5q0 -63 -49 -110t-115 -47q-62 0 -113 48t-51 109z" />
    <glyph glyph-name="alpha" unicode="&#x3b1;" horiz-adv-x="1318" 
d="M1225 227l59 2v-229q-64 -20 -151 -20q-186 0 -242 157q-51 -78 -137.5 -120t-192.5 -42q-209 0 -345 151t-136 380q0 227 136.5 378.5t344.5 151.5q110 0 196 -43t136 -121q2 56 8 142h254q-20 -293 -20 -475v-187q0 -64 21.5 -94.5t68.5 -30.5zM862 506
q0 129 -72 204.5t-180 75.5q-107 0 -178.5 -77.5t-71.5 -200.5q0 -125 71 -203t179 -78q109 0 180.5 74.5t71.5 204.5z" />
    <glyph glyph-name="beta" unicode="&#x3b2;" horiz-adv-x="1271" 
d="M1192 459q0 -207 -140 -345.5t-352 -138.5q-159 0 -286 95v-439h-277v1456q0 207 138 340.5t352 133.5q198 0 328 -112t130 -282q0 -198 -153 -301q123 -51 191.5 -158t68.5 -249zM913 467q0 113 -67 179.5t-182 66.5h-123v233h75q82 0 131.5 49t49.5 133q0 80 -50 130.5
t-131 50.5q-92 0 -147 -61.5t-55 -164.5v-757q117 -97 250 -97q113 0 181 65t68 173z" />
    <glyph glyph-name="gamma" unicode="&#x3b3;" horiz-adv-x="1148" 
d="M1124 1014l-411 -1032v-351h-275v344l-413 1039h290l258 -721l258 721h293z" />
    <glyph glyph-name="delta" unicode="&#x3b4;" horiz-adv-x="1236" 
d="M1159 506q3 -144 -70 -267.5t-199 -195t-272 -68.5q-230 0 -384 149t-154 370q0 200 129.5 342.5t331.5 167.5l-439 458v74h1008v-250h-494l318 -328q118 -121 171.5 -228.5t53.5 -223.5zM877 498q0 118 -74 196t-187 78q-112 0 -184 -76.5t-72 -195.5t71.5 -194.5
t186.5 -76.5q115 1 187 76.5t72 192.5z" />
    <glyph glyph-name="epsilon" unicode="&#x3b5;" horiz-adv-x="1050" 
d="M827 330l156 -164q-150 -191 -451 -191q-213 0 -330.5 79t-117.5 220q0 79 46.5 142t131.5 98q-137 78 -137 223q0 139 112.5 219t309.5 80q288 0 430 -174l-156 -166q-92 103 -270 103q-156 0 -156 -97q0 -90 123 -90h184v-204h-194q-154 0 -154 -93q0 -54 42 -78
t136 -24q190 0 295 117z" />
    <glyph glyph-name="zeta" unicode="&#x3b6;" horiz-adv-x="970" 
d="M989 1462l-457 -669q-98 -141 -139 -215q-37 -67 -37 -129q0 -82 52 -130.5t176 -80.5l100 -29q132 -36 200 -120.5t68 -207.5q0 -131 -61 -250h-270q53 103 53 183q0 74 -37.5 115.5t-124.5 66.5l-100 31q-165 49 -248.5 147.5t-83.5 239.5q0 97 51 202q49 100 193 312
l245 358h-460v250h880v-74z" />
    <glyph glyph-name="eta" unicode="&#x3b7;" horiz-adv-x="1245" 
d="M1116 629v-998h-274v959q0 88 -52 142t-137 54t-139.5 -54.5t-54.5 -141.5v-590h-275v662q0 124 -92 124l-57 -2v230q64 20 151 20q165 0 226 -116q57 56 139.5 87t175.5 31q177 0 283 -110.5t106 -296.5z" />
    <glyph glyph-name="theta" unicode="&#x3b8;" horiz-adv-x="1312" 
d="M1217 774q0 -381 -148.5 -590t-413.5 -209t-412 209t-147 590q0 378 147 582.5t412 204.5q267 0 414.5 -204.5t147.5 -582.5zM383 885h547q-23 422 -275 422q-125 0 -192.5 -103.5t-79.5 -318.5zM930 647h-547q26 -418 272 -418q249 0 275 418z" />
    <glyph glyph-name="iota" unicode="&#x3b9;" horiz-adv-x="663" 
d="M133 340v674h275v-633q0 -84 31.5 -121t101.5 -37q32 0 100 8v-231q-80 -25 -168 -25q-340 0 -340 365z" />
    <glyph glyph-name="kappa" unicode="&#x3ba;" horiz-adv-x="1148" 
d="M1139 0h-314l-411 530v-530h-277v1014h277v-467l383 467h327l-393 -477z" />
    <glyph glyph-name="lambda" unicode="&#x3bb;" horiz-adv-x="1171" 
d="M1110 231h49v-231q-61 -20 -123 -20q-99 0 -159 50.5t-101 168.5l-182 512l-309 -711h-291l465 1028l-43 131q-30 84 -71 119t-114 35q-39 0 -106 -6v231q74 23 154 23q144 0 233.5 -76.5t146.5 -233.5l349 -936q31 -84 102 -84z" />
    <glyph glyph-name="uni03BC" unicode="&#x3bc;" horiz-adv-x="1255" 
d="M1163 227l56 2v-229q-64 -20 -148 -20q-154 0 -217 106q-90 -111 -229 -111q-128 0 -211 93v-437h-277v1383h277v-584q0 -91 52 -148t136 -57q86 0 139.5 57t53.5 148v584h274v-662q0 -66 22 -95.5t72 -29.5z" />
    <glyph glyph-name="nu" unicode="&#x3bd;" horiz-adv-x="1144" 
d="M827 1014h293l-502 -1039h-92l-501 1039h290l256 -574z" />
    <glyph glyph-name="xi" unicode="&#x3be;" horiz-adv-x="997" 
d="M950 -119q0 -126 -59 -250h-268q49 98 49 183q0 78 -34.5 117.5t-119.5 58.5l-69 14q-168 35 -262.5 143.5t-94.5 266.5q0 123 56 221t159 153q-166 84 -166 267q0 66 31 126.5t88 104.5h-156v250h842v-250h-321q-95 0 -152 -55.5t-57 -136.5t54.5 -137t143.5 -56h242
v-235h-252q-106 0 -168.5 -56.5t-62.5 -154.5q0 -93 57.5 -147t190.5 -85l65 -14q132 -30 198 -114.5t66 -213.5z" />
    <glyph glyph-name="omicron" unicode="&#x3bf;" horiz-adv-x="1245" 
d="M80 508q-3 142 70.5 265t200 194.5t272.5 68.5q146 2 273 -69.5t200.5 -194t70.5 -264.5q2 -106 -41.5 -205.5t-117.5 -171t-176 -114t-211 -40.5q-109 -2 -210 40t-174.5 114.5t-116 171.5t-40.5 205zM885 506q0 119 -75 198.5t-187 79.5q-115 0 -189 -78t-74 -200
q0 -119 74 -197t189 -78q113 0 187.5 78.5t74.5 196.5z" />
    <glyph glyph-name="pi" unicode="&#x3c0;" horiz-adv-x="1214" 
d="M162 0v764h-144v250h1176v-250h-141v-764h-275v764h-342v-764h-274z" />
    <glyph glyph-name="rho" unicode="&#x3c1;" horiz-adv-x="1263" 
d="M1186 506q0 -229 -138 -380t-348 -151q-184 0 -297 119v-463h-276v867q0 244 144.5 391t381.5 147q235 0 384 -147t149 -383zM903 506q0 124 -71.5 202t-184.5 78t-181.5 -76.5t-68.5 -203.5q0 -125 70 -202t182 -77t183 78.5t71 200.5z" />
    <glyph glyph-name="uni03C2" unicode="&#x3c2;" horiz-adv-x="1087" 
d="M700 -186q0 73 -33.5 113.5t-113.5 66.5l-88 26q-197 66 -291 185.5t-94 300.5q0 233 147 381.5t377 148.5q148 0 263 -65.5t182 -188.5l-193 -147q-107 149 -246 149q-109 0 -179.5 -74.5t-70.5 -189.5q0 -111 60.5 -174.5t197.5 -105.5l109 -35q124 -38 188 -120
t64 -204q0 -121 -57 -250h-271q49 94 49 183z" />
    <glyph glyph-name="sigma" unicode="&#x3c3;" horiz-adv-x="1323" 
d="M1284 1014v-250h-246q113 -119 113 -283q0 -215 -155 -360.5t-384 -145.5q-146 -3 -270 67.5t-194.5 193t-67.5 266.5q0 227 152.5 369.5t396.5 142.5h655zM868 506q0 119 -71 194.5t-183 75.5t-183 -75.5t-71 -194.5q0 -121 71.5 -199t182.5 -78t182.5 78t71.5 199z" />
    <glyph glyph-name="tau" unicode="&#x3c4;" horiz-adv-x="1019" 
d="M954 764h-350v-383q0 -84 44.5 -121t144.5 -37q35 0 131 8v-231q-98 -25 -191 -25q-196 0 -299.5 98t-103.5 283v408h-303v250h927v-250z" />
    <glyph glyph-name="upsilon" unicode="&#x3c5;" horiz-adv-x="1204" 
d="M127 451v563h276v-588q0 -88 55.5 -144.5t143.5 -56.5t143.5 55.5t55.5 145.5v588h276v-563q0 -212 -131.5 -344t-343.5 -132t-343.5 132t-131.5 344z" />
    <glyph glyph-name="phi" unicode="&#x3c6;" horiz-adv-x="1585" 
d="M930 -23v-346h-275v344q-254 12 -414.5 158t-160.5 375t160 372.5t415 155.5v316h275v-316q255 -12 415 -155.5t160 -372.5q0 -228 -161 -375t-414 -156zM662 211v590q-143 -8 -228.5 -86t-85.5 -209q0 -132 85 -209.5t229 -85.5zM1237 506q0 132 -85 209.5t-230 85.5
v-590q145 8 230 85.5t85 209.5z" />
    <glyph glyph-name="chi" unicode="&#x3c7;" horiz-adv-x="1097" 
d="M1106 -137v-232q-59 -20 -145 -20q-90 0 -151.5 44.5t-115.5 149.5l-145 291l-227 -465h-306l379 717l-176 352q-24 44 -52.5 64t-74.5 20q-60 0 -74 -2v232q55 18 148 18q95 0 154.5 -44.5t111.5 -149.5l123 -252l211 428h305l-364 -682l198 -387q25 -47 52.5 -65.5
t74.5 -18.5q60 0 74 2z" />
    <glyph glyph-name="psi" unicode="&#x3c8;" horiz-adv-x="1626" 
d="M676 -369v344q-243 0 -396 148t-153 385v506h276v-484q0 -132 78 -219q77 -86 195 -86v1127h274v-1127q117 0 196 86.5t79 218.5v484h274v-506q0 -238 -152 -385.5t-397 -147.5v-344h-274z" />
    <glyph glyph-name="omega" unicode="&#x3c9;" horiz-adv-x="1638" 
d="M1559 494q0 -234 -121.5 -376.5t-323.5 -142.5q-189 0 -295 136q-102 -136 -295 -136q-202 0 -323 142.5t-121 376.5q0 204 95 344.5t267 187.5l93 -235q-179 -89 -179 -304q0 -121 49 -191.5t134 -70.5q69 0 109 50t40 137v288h260v-288q0 -88 40 -137.5t112 -49.5
q85 0 133.5 70t48.5 192q0 215 -176 304l90 235q172 -47 267.5 -187.5t95.5 -344.5z" />
    <glyph glyph-name="iotadieresis" unicode="&#x3ca;" horiz-adv-x="663" 
d="M133 340v674h275v-633q0 -84 31.5 -121t101.5 -37q32 0 100 8v-231q-80 -25 -168 -25q-340 0 -340 365zM-121 1382q0 67 48.5 114.5t115.5 47.5q69 0 118.5 -47.5t49.5 -114.5q0 -63 -49.5 -110t-118.5 -47q-63 0 -113.5 48t-50.5 109zM330 1382q0 67 49.5 114.5
t116.5 47.5q68 0 117 -47.5t49 -114.5q0 -63 -49.5 -110t-116.5 -47q-63 0 -114.5 48t-51.5 109z" />
    <glyph glyph-name="upsilondieresis" unicode="&#x3cb;" horiz-adv-x="1204" 
d="M127 451v563h276v-588q0 -88 55.5 -144.5t143.5 -56.5t143.5 55.5t55.5 145.5v588h276v-563q0 -212 -131.5 -344t-343.5 -132t-343.5 132t-131.5 344zM186 1384q0 66 49.5 113t118.5 47q66 0 115 -47t49 -113t-49 -112.5t-115 -46.5q-69 0 -118.5 46.5t-49.5 112.5z
M674 1384q0 66 49.5 113t118.5 47q66 0 115 -47t49 -113t-49 -112.5t-115 -46.5q-69 0 -118.5 46.5t-49.5 112.5z" />
    <glyph glyph-name="omicrontonos" unicode="&#x3cc;" horiz-adv-x="1245" 
d="M80 508q-3 142 70.5 265t200 194.5t272.5 68.5q146 2 273 -69.5t200.5 -194t70.5 -264.5q2 -106 -41.5 -205.5t-117.5 -171t-176 -114t-211 -40.5q-109 -2 -210 40t-174.5 114.5t-116 171.5t-40.5 205zM885 506q0 119 -75 198.5t-187 79.5q-115 0 -189 -78t-74 -200
q0 -119 74 -197t189 -78q113 0 187.5 78.5t74.5 196.5zM483 1169l74 428h328v-49l-199 -379h-203z" />
    <glyph glyph-name="upsilontonos" unicode="&#x3cd;" horiz-adv-x="1204" 
d="M127 451v563h276v-588q0 -88 55.5 -144.5t143.5 -56.5t143.5 55.5t55.5 145.5v588h276v-563q0 -212 -131.5 -344t-343.5 -132t-343.5 132t-131.5 344zM457 1169l73 428h328v-49l-199 -379h-202z" />
    <glyph glyph-name="omegatonos" unicode="&#x3ce;" horiz-adv-x="1638" 
d="M1559 494q0 -234 -121.5 -376.5t-323.5 -142.5q-189 0 -295 136q-102 -136 -295 -136q-202 0 -323 142.5t-121 376.5q0 204 95 344.5t267 187.5l93 -235q-179 -89 -179 -304q0 -121 49 -191.5t134 -70.5q69 0 109 50t40 137v288h260v-288q0 -88 40 -137.5t112 -49.5
q85 0 133.5 70t48.5 192q0 215 -176 304l90 235q172 -47 267.5 -187.5t95.5 -344.5zM680 1169l74 428h327v-49l-198 -379h-203z" />
    <glyph glyph-name="uni0400" unicode="&#x400;" horiz-adv-x="1173" 
d="M156 0v1352h909v-250h-633v-275h465v-235h-465v-342h658v-250h-934zM504 1483l-281 332v49h332l150 -381h-201z" />
    <glyph glyph-name="uni0401" unicode="&#x401;" horiz-adv-x="1173" 
d="M156 0v1352h909v-250h-633v-275h465v-235h-465v-342h658v-250h-934zM174 1667q0 67 48.5 113.5t115.5 46.5q69 0 118.5 -46.5t49.5 -113.5q0 -63 -49.5 -110.5t-118.5 -47.5q-63 0 -113.5 48.5t-50.5 109.5zM702 1665q0 67 49.5 114.5t116.5 47.5q68 0 117 -47.5
t49 -114.5q0 -63 -49.5 -110.5t-116.5 -47.5q-63 0 -114.5 48.5t-51.5 109.5z" />
    <glyph glyph-name="uni0402" unicode="&#x402;" horiz-adv-x="1540" 
d="M985 -37l-55 246q125 18 186.5 63.5t61.5 137.5q0 86 -58.5 133t-163.5 47q-136 0 -256 -49v-541h-276v1102h-395v250h1126v-250h-455v-318q118 47 271 47q213 0 351 -112t138 -305q0 -209 -135 -320q-134 -110 -340 -131z" />
    <glyph glyph-name="uni0403" unicode="&#x403;" horiz-adv-x="1073" 
d="M156 0v1352h868v-250h-592v-1102h-276zM465 1483l149 381h332v-49l-280 -332h-201z" />
    <glyph glyph-name="uni0404" unicode="&#x404;" horiz-adv-x="1474" 
d="M1186 459l209 -148q-88 -158 -245.5 -247t-352.5 -89q-145 -3 -279.5 52t-231.5 149.5t-154 226t-54 273.5q-3 190 95 353t265.5 257t360.5 90q192 0 348.5 -88.5t247.5 -247.5l-209 -147q-143 227 -387 227q-155 0 -269 -86.5t-151 -232.5h571v-236h-575
q32 -152 148 -243t276 -91q243 0 387 228z" />
    <glyph glyph-name="uni0405" unicode="&#x405;" horiz-adv-x="1144" 
d="M61 274l191 144q71 -97 149 -147t183 -50q90 0 141 40.5t51 109.5q0 57 -35 89t-137 79l-145 65q-162 72 -245 165.5t-83 223.5q0 171 127 277t322 106q152 0 266.5 -68t179.5 -188l-188 -145q-104 155 -258 155q-74 0 -121 -35t-47 -96q0 -52 33.5 -83.5t123.5 -71.5
l154 -68q174 -77 254 -169t80 -226q0 -183 -133.5 -294.5t-339.5 -111.5q-169 0 -306.5 80t-216.5 219z" />
    <glyph glyph-name="uni0406" unicode="&#x406;" horiz-adv-x="585" 
d="M156 0v1352h276v-1352h-276z" />
    <glyph glyph-name="uni0407" unicode="&#x407;" horiz-adv-x="585" 
d="M156 0v1352h276v-1352h-276zM-137 1667q0 67 48.5 113.5t115.5 46.5q69 0 118.5 -46.5t49.5 -113.5q0 -63 -49.5 -110.5t-118.5 -47.5q-63 0 -113.5 48.5t-50.5 109.5zM391 1665q0 67 49.5 114.5t116.5 47.5q68 0 117 -47.5t49 -114.5q0 -63 -49.5 -110.5t-116.5 -47.5
q-63 0 -114.5 48.5t-51.5 109.5z" />
    <glyph glyph-name="uni0408" unicode="&#x408;" horiz-adv-x="796" 
d="M35 0v236q111 -9 135 -9q101 0 148 37.5t47 124.5v963h276v-992q0 -190 -106 -287.5t-306 -97.5q-91 0 -194 25z" />
    <glyph glyph-name="uni0409" unicode="&#x409;" horiz-adv-x="1988" 
d="M1909 444q0 -198 -138 -321t-356 -123h-522v1102h-342q-5 -325 -31.5 -540t-81 -343.5t-131 -182.5t-190.5 -56q-61 0 -117 20v236q20 -5 55 -5q122 0 175 203.5t59 667.5l2 250h878v-465h246q217 0 355.5 -124.5t138.5 -318.5zM1626 442q0 93 -56 148t-155 55h-246v-401
h246q99 0 155 53.5t56 144.5z" />
    <glyph glyph-name="uni040A" unicode="&#x40a;" horiz-adv-x="2033" 
d="M156 0v1352h276v-484h504v484h276v-484h248q216 0 355 -122t139 -312q0 -193 -138 -313.5t-356 -120.5h-524v618h-504v-618h-276zM1212 244h248q98 0 154.5 51.5t56.5 136.5q0 87 -57 140t-154 53h-248v-381z" />
    <glyph glyph-name="uni040B" unicode="&#x40b;" horiz-adv-x="1597" 
d="M1470 309v-309h-276v283q0 144 -67.5 219.5t-190.5 75.5q-128 0 -236 -48v-530h-276v1102h-395v250h1126v-250h-455v-318q133 47 261 47q231 0 370 -137.5t139 -384.5z" />
    <glyph glyph-name="uni040C" unicode="&#x40c;" horiz-adv-x="1372" 
d="M1346 0h-334l-580 705v-705h-276v1352h276v-627l516 627h330l-518 -637zM580 1483l149 381h332v-49l-281 -332h-200z" />
    <glyph glyph-name="uni040D" unicode="&#x40d;" horiz-adv-x="1468" 
d="M1223 1376h92v-1376h-277v838l-792 -863h-90v1377h276v-830zM674 1483l-281 332v49h332l149 -381h-200z" />
    <glyph glyph-name="uni040E" unicode="&#x40e;" horiz-adv-x="1327" 
d="M1006 1352h294l-460 -1012q-39 -82 -69 -133.5t-68.5 -99t-80.5 -72.5t-98.5 -40.5t-130.5 -17.5q-73 0 -153 23v236q61 -7 108 -7q123 0 191 86l-504 1037h309l344 -736zM340 1833v31h221v-39q0 -74 35 -115t98 -41t98 41t35 115v39h220v-31q0 -158 -99 -260
q-97 -100 -254 -100q-159 0 -256 100q-98 101 -98 260z" />
    <glyph glyph-name="uni040F" unicode="&#x40f;" horiz-adv-x="1427" 
d="M1274 1352v-1352h-426v-289h-266v289h-426v1352h276v-1102h565v1102h277z" />
    <glyph glyph-name="uni0410" unicode="&#x410;" horiz-adv-x="1353" 
d="M1028 0l-76 176h-553l-75 -176h-297l604 1376h92l602 -1376h-297zM856 403l-180 457l-180 -457h360z" />
    <glyph glyph-name="uni0411" unicode="&#x411;" horiz-adv-x="1241" 
d="M156 0v1352h901v-250h-625v-281h285q202 0 328 -111t126 -294q0 -184 -126.5 -300t-327.5 -116h-561zM432 238h270q92 0 143.5 48t51.5 130t-51.5 130t-143.5 48h-270v-356z" />
    <glyph glyph-name="uni0412" unicode="&#x412;" horiz-adv-x="1271" 
d="M1202 397q0 -175 -124.5 -286t-319.5 -111h-602v1352h479q188 0 308 -105.5t120 -271.5q0 -151 -100 -244q114 -42 176.5 -127.5t62.5 -206.5zM612 1114h-190v-309h190q84 0 130 41.5t46 114.5q0 72 -46 112.5t-130 40.5zM930 408q0 78 -51.5 124t-141.5 46h-315v-340
h315q91 0 142 45t51 125z" />
    <glyph glyph-name="uni0413" unicode="&#x413;" horiz-adv-x="1073" 
d="M156 0v1352h868v-250h-592v-1102h-276z" />
    <glyph glyph-name="uni0414" unicode="&#x414;" horiz-adv-x="1476" 
d="M1247 250h180v-539h-276v289h-842v-289h-276v539h108q87 71 126.5 283t39.5 595v224h940v-1102zM442 250h529v852h-404q-9 -629 -125 -852z" />
    <glyph glyph-name="uni0415" unicode="&#x415;" horiz-adv-x="1173" 
d="M156 0v1352h909v-250h-633v-275h465v-235h-465v-342h658v-250h-934z" />
    <glyph glyph-name="uni0416" unicode="&#x416;" horiz-adv-x="2029" 
d="M2001 0h-334l-514 705v-705h-276v707l-517 -707h-333l548 713l-505 639h329l478 -629v629h276v-627l475 627h330l-504 -639z" />
    <glyph glyph-name="uni0417" unicode="&#x417;" horiz-adv-x="1204" 
d="M1126 399q0 -191 -140.5 -307.5t-373.5 -116.5q-179 0 -318.5 83.5t-213.5 230.5l192 139q132 -197 338 -197q106 0 175 50t69 133q0 75 -56.5 119.5t-162.5 44.5h-178v227h157q85 0 133 43t48 113q0 73 -50.5 116t-140.5 43q-178 0 -280 -176l-193 137q70 141 195.5 218
t291.5 77q208 0 328.5 -105t120.5 -288q0 -163 -135 -272q93 -44 143.5 -125.5t50.5 -186.5z" />
    <glyph glyph-name="uni0418" unicode="&#x418;" horiz-adv-x="1468" 
d="M1223 1376h92v-1376h-277v838l-792 -863h-90v1377h276v-830z" />
    <glyph glyph-name="uni0419" unicode="&#x419;" horiz-adv-x="1468" 
d="M1223 1376h92v-1376h-277v838l-792 -863h-90v1377h276v-830zM420 1833v31h221v-39q0 -74 35 -115t98 -41t98 41t35 115v39h219v-31q0 -159 -98 -260q-97 -100 -254 -100q-159 0 -256 100q-98 101 -98 260z" />
    <glyph glyph-name="uni041A" unicode="&#x41a;" horiz-adv-x="1372" 
d="M1346 0h-334l-580 705v-705h-276v1352h276v-627l516 627h330l-518 -637z" />
    <glyph glyph-name="uni041B" unicode="&#x41b;" horiz-adv-x="1374" 
d="M291 1352h928v-1352h-277v1102h-389q-6 -326 -33.5 -542t-83 -344t-131.5 -181t-188 -55q-61 0 -117 20v236q20 -5 55 -5q122 0 175 203.5t59 667.5z" />
    <glyph glyph-name="uni041C" unicode="&#x41c;" horiz-adv-x="1634" 
d="M1389 1376h90v-1376h-277v721l-340 -426h-90l-340 426v-721h-276v1376h90l571 -731z" />
    <glyph glyph-name="uni041D" unicode="&#x41d;" horiz-adv-x="1460" 
d="M156 0v1352h276v-518h598v518h277v-1352h-277v584h-598v-584h-276z" />
    <glyph glyph-name="uni041E" unicode="&#x41e;" horiz-adv-x="1593" 
d="M78 676q-2 142 55.5 273t154.5 225.5t230.5 149.5t276.5 52q143 3 277 -52t232 -149.5t156 -225.5t56 -273q2 -142 -56 -273.5t-156 -226t-232 -149.5t-277 -52q-143 -3 -276.5 52t-230.5 149.5t-154.5 226t-55.5 273.5zM1231 676q0 192 -124 318t-310 126
q-188 0 -311.5 -125t-123.5 -319t123.5 -319.5t311.5 -125.5q187 0 310.5 125.5t123.5 319.5z" />
    <glyph glyph-name="uni041F" unicode="&#x41f;" horiz-adv-x="1439" 
d="M156 0v1352h1130v-1352h-276v1102h-578v-1102h-276z" />
    <glyph glyph-name="uni0420" unicode="&#x420;" horiz-adv-x="1216" 
d="M156 0v1352h508q213 0 350 -121.5t137 -315.5q0 -193 -137 -315.5t-350 -122.5h-232v-477h-276zM432 719h232q95 0 149.5 53.5t54.5 142.5q0 87 -55.5 140t-148.5 53h-232v-389z" />
    <glyph glyph-name="uni0421" unicode="&#x421;" horiz-adv-x="1474" 
d="M78 676q-3 190 95 353t265.5 257t360.5 90q192 0 348.5 -88.5t247.5 -247.5l-209 -147q-143 227 -387 227q-189 0 -313 -126.5t-124 -319.5t124 -318t313 -125q243 0 387 228l209 -148q-88 -158 -245.5 -247t-352.5 -89q-145 -3 -279.5 52t-231.5 149.5t-154 226
t-54 273.5z" />
    <glyph glyph-name="uni0422" unicode="&#x422;" horiz-adv-x="1198" 
d="M461 0v1102h-432v250h1142v-250h-434v-1102h-276z" />
    <glyph glyph-name="uni0423" unicode="&#x423;" horiz-adv-x="1327" 
d="M1006 1352h294l-460 -1012q-39 -82 -69 -133.5t-68.5 -99t-80.5 -72.5t-98.5 -40.5t-130.5 -17.5q-73 0 -153 23v236q61 -7 108 -7q123 0 191 86l-504 1037h309l344 -736z" />
    <glyph glyph-name="uni0424" unicode="&#x424;" horiz-adv-x="1718" 
d="M995 123v-164h-276v164q-291 12 -468 162.5t-177 402.5q0 253 176 397q181 146 469 158v150h276v-150q192 -8 337.5 -74.5t229 -192t83.5 -294.5q0 -252 -178.5 -399.5t-471.5 -159.5zM1372 686q0 151 -98.5 233.5t-278.5 88.5v-648q178 5 277.5 90t99.5 236zM719 360
v648q-175 -8 -274 -94t-99 -234t97.5 -230t275.5 -90z" />
    <glyph glyph-name="uni0425" unicode="&#x425;" horiz-adv-x="1257" 
d="M1229 0h-314l-286 449l-287 -449h-315l448 688l-422 664h316l260 -426l258 426h313l-416 -664z" />
    <glyph glyph-name="uni0426" unicode="&#x426;" horiz-adv-x="1503" 
d="M1190 -289v289h-1034v1352h276v-1102h565v1102h277v-1102h180v-539h-264z" />
    <glyph glyph-name="uni0427" unicode="&#x427;" horiz-adv-x="1349" 
d="M918 1352h276v-1352h-276v498q-127 -47 -281 -47q-256 0 -397.5 138.5t-141.5 395.5v367h277v-340q0 -159 74.5 -234.5t232.5 -75.5q136 0 236 41v609z" />
    <glyph glyph-name="uni0428" unicode="&#x428;" horiz-adv-x="2027" 
d="M156 0v1352h276v-1102h445v1102h276v-1102h444v1102h277v-1352h-1718z" />
    <glyph glyph-name="uni0429" unicode="&#x429;" horiz-adv-x="2101" 
d="M1788 -289v289h-1632v1352h276v-1102h445v1102h276v-1102h444v1102h277v-1102h178v-539h-264z" />
    <glyph glyph-name="uni042A" unicode="&#x42a;" horiz-adv-x="1431" 
d="M336 0v1102h-307v250h583v-465h246q215 0 354.5 -125t139.5 -318q0 -198 -138 -321t-356 -123h-522zM612 244h246q98 0 154.5 53.5t56.5 144.5q0 92 -57 147.5t-154 55.5h-246v-401z" />
    <glyph glyph-name="uni042B" unicode="&#x42b;" horiz-adv-x="1816" 
d="M156 0v1352h276v-465h246q216 0 354.5 -124.5t138.5 -318.5q0 -198 -137.5 -321t-355.5 -123h-522zM432 244h246q98 0 154.5 53.5t56.5 144.5q0 92 -57 147.5t-154 55.5h-246v-401zM1386 0v1352h277v-1352h-277z" />
    <glyph glyph-name="uni042C" unicode="&#x42c;" horiz-adv-x="1251" 
d="M156 0v1352h276v-465h246q216 0 354.5 -124.5t138.5 -318.5q0 -198 -137.5 -321t-355.5 -123h-522zM432 244h246q98 0 154.5 53.5t56.5 144.5q0 92 -57 147.5t-154 55.5h-246v-401z" />
    <glyph glyph-name="uni042D" unicode="&#x42d;" horiz-adv-x="1474" 
d="M1395 676q4 -190 -93.5 -353.5t-264.5 -257.5t-359 -90q-195 0 -352.5 89t-245.5 247l209 148q144 -228 387 -228q160 0 276 91t148 243h-533v236h529q-37 146 -151.5 232.5t-268.5 86.5q-244 0 -387 -227l-209 147q91 159 247.5 247.5t348.5 88.5q194 4 361.5 -90
t264.5 -257t93 -353z" />
    <glyph glyph-name="uni042E" unicode="&#x42e;" horiz-adv-x="2062" 
d="M1985 676q2 -114 -33.5 -222t-101.5 -194.5t-153 -152t-193.5 -100t-217.5 -32.5q-175 0 -324.5 79.5t-243.5 218.5t-114 311h-172v-584h-276v1352h276v-518h182q50 239 236.5 390.5t435.5 151.5q140 3 270 -52t225 -149.5t151 -225.5t53 -273zM1700 676
q0 193 -117 318.5t-297 125.5q-181 0 -298.5 -125t-117.5 -319t117.5 -319.5t298.5 -125.5q180 0 297 126t117 319z" />
    <glyph glyph-name="uni042F" unicode="&#x42f;" horiz-adv-x="1294" 
d="M662 1352h477v-1352h-277v449h-176l-315 -449h-297l346 496q-130 56 -204.5 163t-74.5 242q0 201 145 326t376 125zM862 692v416h-209q-103 0 -166 -57.5t-63 -151.5t63 -150.5t166 -56.5h209z" />
    <glyph glyph-name="uni0430" unicode="&#x430;" horiz-adv-x="1116" 
d="M987 602v-602h-254v98q-120 -123 -309 -123q-159 0 -254.5 84.5t-95.5 219.5q0 136 103 215t280 79h254v45q0 85 -48.5 132t-140.5 47q-76 0 -137.5 -33t-130.5 -107l-143 170q176 209 442 209q201 0 317.5 -113t116.5 -321zM711 379v12h-217q-142 0 -142 -102
q0 -51 40 -81t106 -30q91 0 152 57t61 144z" />
    <glyph glyph-name="uni0431" unicode="&#x431;" horiz-adv-x="1263" 
d="M1186 489q0 -222 -153.5 -367t-385.5 -145q-246 0 -395.5 166.5t-149.5 438.5v153q1 121 13.5 212.5t42 174t80 142t126.5 108t181.5 80t245.5 49.5q216 29 305 58v-252q-79 -31 -303 -52q-136 -17 -219 -46t-131 -82.5t-66 -121.5t-23 -180q60 84 152 129t205 45
q201 0 338 -146.5t137 -363.5zM903 489q0 110 -76 183q-73 76 -184 76q-108 0 -184 -76q-74 -74 -74 -183q0 -107 74 -184q76 -76 184 -76q111 0 184 76q76 76 76 184z" />
    <glyph glyph-name="uni0432" unicode="&#x432;" horiz-adv-x="1132" 
d="M1047 309q0 -136 -103.5 -222.5t-261.5 -86.5h-539v1014h471q157 0 257 -78t100 -207q0 -110 -82 -186q75 -33 116.5 -93t41.5 -141zM406 807v-189h192q123 0 123 95q0 94 -123 94h-192zM793 317q0 51 -38 80t-104 29h-245v-221h245q66 0 104 30.5t38 81.5z" />
    <glyph glyph-name="uni0433" unicode="&#x433;" horiz-adv-x="927" 
d="M143 0v1014h746v-234h-471v-780h-275z" />
    <glyph glyph-name="uni0434" unicode="&#x434;" horiz-adv-x="1302" 
d="M1069 233h168v-522h-264v289h-692v-289h-265v522h109q61 59 89 182t36 347l8 252h811v-781zM408 233h387v547h-291l-2 -59q-9 -320 -94 -488z" />
    <glyph glyph-name="uni0435" unicode="&#x435;" horiz-adv-x="1165" 
d="M1069 414h-711q25 -96 99.5 -148.5t185.5 -52.5q151 0 283 102l114 -188q-184 -152 -405 -152q-153 -3 -282.5 68.5t-202.5 195t-70 267.5q-2 108 39.5 207t113 170.5t170.5 113t207 39.5q208 0 342.5 -135.5t134.5 -335.5q0 -75 -18 -151zM358 608h461
q-1 92 -63.5 148.5t-155.5 56.5q-88 0 -153.5 -55.5t-88.5 -149.5z" />
    <glyph glyph-name="uni0436" unicode="&#x436;" horiz-adv-x="1722" 
d="M1706 0h-330l-385 528v-528h-274v530l-387 -530h-314l392 537l-371 477h325l355 -467v467h274v-465l355 465h323l-360 -469z" />
    <glyph glyph-name="uni0437" unicode="&#x437;" horiz-adv-x="1005" 
d="M920 297q0 -156 -107 -239t-309 -83q-289 0 -436 191l155 164q102 -117 264 -117q79 0 121.5 28t42.5 78q0 45 -37.5 72t-105.5 27h-131v205h119q54 0 83 23t29 65t-32 65t-93 23q-144 0 -239 -103l-158 166q72 85 178.5 129.5t235.5 44.5q179 0 278 -78t99 -219
q0 -131 -101 -213q69 -37 106.5 -97t37.5 -132z" />
    <glyph glyph-name="uni0438" unicode="&#x438;" horiz-adv-x="1218" 
d="M985 1036h90v-1036h-276v549l-566 -574h-90v1039h275v-553z" />
    <glyph glyph-name="uni0439" unicode="&#x439;" horiz-adv-x="1218" 
d="M985 1036h90v-1036h-276v549l-566 -574h-90v1039h275v-553zM279 1526v57h221v-55q0 -78 35 -120t98 -42t98 42t35 120v55h219v-57q0 -157 -98 -258q-99 -99 -254 -99q-157 0 -256 99q-98 101 -98 258z" />
    <glyph glyph-name="uni043A" unicode="&#x43a;" horiz-adv-x="1163" 
d="M1147 0h-328l-401 537v-537h-275v1014h275v-473l383 473h313l-383 -463z" />
    <glyph glyph-name="uni043B" unicode="&#x43b;" horiz-adv-x="1175" 
d="M227 1014h805v-1014h-274v780h-273l-2 -78q-11 -395 -87 -555.5t-265 -164.5q-57 0 -104 18v227q20 -4 39 -4q84 0 120 125t39 424z" />
    <glyph glyph-name="uni043C" unicode="&#x43c;" horiz-adv-x="1419" 
d="M143 0v1036h90l476 -530l479 530h88v-1036h-277v487l-245 -276h-92l-244 274v-485h-275z" />
    <glyph glyph-name="uni043D" unicode="&#x43d;" horiz-adv-x="1210" 
d="M143 0v1014h275v-371h375v371h274v-1014h-274v408h-375v-408h-275z" />
    <glyph glyph-name="uni043E" unicode="&#x43e;" horiz-adv-x="1245" 
d="M80 508q-3 142 70.5 265t200 194.5t272.5 68.5q146 2 273 -69.5t200.5 -194t70.5 -264.5q2 -106 -41.5 -205.5t-117.5 -171t-176 -114t-211 -40.5q-109 -2 -210 40t-174.5 114.5t-116 171.5t-40.5 205zM885 506q0 119 -75 198.5t-187 79.5q-115 0 -189 -78t-74 -200
q0 -119 74 -197t189 -78q113 0 187.5 78.5t74.5 196.5z" />
    <glyph glyph-name="uni043F" unicode="&#x43f;" horiz-adv-x="1198" 
d="M143 0v1014h912v-1014h-277v780h-360v-780h-275z" />
    <glyph glyph-name="uni0440" unicode="&#x440;" horiz-adv-x="1288" 
d="M1208 508q0 -112 -37 -211t-102 -169.5t-156.5 -111.5t-195.5 -41q-189 0 -303 123v-467h-277v1383h254v-127q51 72 136 110.5t190 38.5q212 0 351.5 -150.5t139.5 -377.5zM928 506q0 126 -74 203t-188 77q-110 0 -183 -73.5t-73 -204.5t73 -206t183 -75q112 0 187 78
t75 201z" />
    <glyph glyph-name="uni0441" unicode="&#x441;" horiz-adv-x="1130" 
d="M80 508q0 146 72.5 267.5t197.5 191t273 69.5q147 0 260 -65.5t180 -184.5l-193 -149q-101 147 -243 147q-116 0 -191.5 -78.5t-75.5 -197.5q0 -122 75 -200.5t192 -78.5q75 0 133 36.5t110 109.5l193 -148q-67 -119 -181 -185.5t-259 -66.5q-146 -3 -272 69t-199.5 196
t-71.5 268z" />
    <glyph glyph-name="uni0442" unicode="&#x442;" horiz-adv-x="956" 
d="M340 0v780h-311v234h899v-234h-314v-780h-274z" />
    <glyph glyph-name="uni0443" unicode="&#x443;" horiz-adv-x="1144" 
d="M829 1014h291l-485 -1102q-69 -158 -166 -231.5t-238 -73.5q-87 0 -178 24v232q84 -8 119 -8q77 0 127 30.5t84 106.5l31 69l-389 953h292l248 -666z" />
    <glyph glyph-name="uni0444" unicode="&#x444;" horiz-adv-x="1585" 
d="M930 -18v-351h-275v351q-125 8 -230 46.5t-182 104t-120 162t-43 213.5q0 239 159 377.5t416 150.5v500h275v-500q167 -10 296 -74t204 -181.5t75 -272.5q0 -159 -75 -276.5t-203.5 -179.5t-296.5 -70zM662 215v586q-145 -8 -226.5 -84t-81.5 -211q0 -129 82.5 -204.5
t225.5 -86.5zM1231 512q0 130 -82.5 207t-224.5 82v-586q144 8 225.5 85t81.5 212z" />
    <glyph glyph-name="uni0445" unicode="&#x445;" horiz-adv-x="1087" 
d="M1071 0h-309l-217 324l-219 -324h-310l371 522l-346 492h309l195 -293l192 293h310l-349 -490z" />
    <glyph glyph-name="uni0446" unicode="&#x446;" horiz-adv-x="1273" 
d="M944 -289v289h-801v1014h275v-781h348v781h274v-781h168v-522h-264z" />
    <glyph glyph-name="uni0447" unicode="&#x447;" horiz-adv-x="1134" 
d="M715 1014h276v-1014h-276v356q-77 -32 -219 -32q-196 0 -306 115.5t-110 324.5v250h274v-230q0 -215 199 -215q95 0 162 27v418z" />
    <glyph glyph-name="uni0448" unicode="&#x448;" horiz-adv-x="1759" 
d="M143 0v1014h275v-781h325v781h275v-781h325v781h275v-1014h-1475z" />
    <glyph glyph-name="uni0449" unicode="&#x449;" horiz-adv-x="1849" 
d="M1522 -289v289h-1379v1014h275v-781h325v781h275v-781h325v781h275v-781h166v-522h-262z" />
    <glyph glyph-name="uni044A" unicode="&#x44a;" horiz-adv-x="1232" 
d="M274 0v780h-245v234h520v-293h184q181 0 303 -96q119 -94 119 -263q0 -168 -119 -266q-122 -96 -303 -96h-459zM549 233h176q70 0 109.5 32t39.5 93q0 60 -40.5 94.5t-108.5 34.5h-176v-254z" />
    <glyph glyph-name="uni044B" unicode="&#x44b;" horiz-adv-x="1556" 
d="M143 0v1014h275v-293h184q181 0 303 -96q119 -94 119 -263q0 -172 -119 -266q-122 -96 -303 -96h-459zM1139 0v1014h274v-1014h-274zM418 233h176q72 0 110.5 32t38.5 93t-40 95t-109 34h-176v-254z" />
    <glyph glyph-name="uni044C" unicode="&#x44c;" horiz-adv-x="1103" 
d="M143 0v1014h275v-293h184q184 0 303 -96q119 -94 119 -263q0 -165 -117 -263.5t-305 -98.5h-459zM418 233h176q70 0 109.5 32t39.5 93q0 60 -40.5 94.5t-108.5 34.5h-176v-254z" />
    <glyph glyph-name="uni044D" unicode="&#x44d;" horiz-adv-x="1130" 
d="M1053 508q0 -146 -72.5 -268.5t-198.5 -193.5t-276 -71q-282 0 -438 252l184 142q106 -150 254 -150q93 0 164 54t96 141h-332v196h330q-31 84 -99.5 133.5t-158.5 49.5q-145 0 -254 -148l-184 141q154 250 438 250q150 0 276 -69.5t198.5 -191t72.5 -267.5z" />
    <glyph glyph-name="uni044E" unicode="&#x44e;" horiz-adv-x="1667" 
d="M1587 508q2 -106 -40 -205.5t-113.5 -171t-169.5 -114t-203 -40.5q-190 0 -332 121.5t-176 309.5h-135v-408h-275v1014h275v-371h143q40 175 178 283q137 110 322 110q140 2 262.5 -69t194.5 -194t69 -265zM1311 506q0 119 -74 199q-70 79 -180 79q-112 0 -184 -78
t-72 -200q0 -120 71 -197q75 -78 183 -78q110 0 183 78.5t73 196.5z" />
    <glyph glyph-name="uni044F" unicode="&#x44f;" horiz-adv-x="1136" 
d="M535 1014h458v-1014h-274v311h-109l-250 -311h-311l287 350q-103 41 -159 123t-56 191q0 160 112.5 255t301.5 95zM719 535v245h-174q-66 0 -105 -33t-39 -88q0 -57 39 -90.5t105 -33.5h174z" />
    <glyph glyph-name="uni0450" unicode="&#x450;" horiz-adv-x="1165" 
d="M1069 414h-711q25 -96 99.5 -148.5t185.5 -52.5q151 0 283 102l114 -188q-184 -152 -405 -152q-153 -3 -282.5 68.5t-202.5 195t-70 267.5q-2 108 39.5 207t113 170.5t170.5 113t207 39.5q208 0 342.5 -135.5t134.5 -335.5q0 -75 -18 -151zM358 608h461
q-1 92 -63.5 148.5t-155.5 56.5q-88 0 -153.5 -55.5t-88.5 -149.5zM510 1169l-281 379v49h332l150 -428h-201z" />
    <glyph glyph-name="uni0451" unicode="&#x451;" horiz-adv-x="1165" 
d="M1069 414h-711q25 -96 99.5 -148.5t185.5 -52.5q151 0 283 102l114 -188q-184 -152 -405 -152q-153 -3 -282.5 68.5t-202.5 195t-70 267.5q-2 108 39.5 207t113 170.5t170.5 113t207 39.5q208 0 342.5 -135.5t134.5 -335.5q0 -75 -18 -151zM358 608h461
q-1 92 -63.5 148.5t-155.5 56.5q-88 0 -153.5 -55.5t-88.5 -149.5zM201 1384q0 66 49.5 113t118.5 47q66 0 114.5 -47t48.5 -113t-48.5 -112.5t-114.5 -46.5q-69 0 -118.5 46.5t-49.5 112.5zM688 1384q0 66 49.5 113t118.5 47q66 0 115 -47t49 -113t-49 -112.5t-115 -46.5
q-69 0 -118.5 46.5t-49.5 112.5z" />
    <glyph glyph-name="uni0452" unicode="&#x452;" horiz-adv-x="1214" 
d="M1085 569v-581q0 -188 -102.5 -284.5t-288.5 -96.5q-77 0 -151 22v232q49 -6 84 -6q95 0 138.5 36t43.5 121v518q0 88 -51 142.5t-135 54.5q-86 0 -140.5 -54.5t-54.5 -142.5v-530h-274v1130h-162v228h162v178h274v-178h391v-228h-391v-264q105 111 279 111
q172 0 275 -111.5t103 -296.5z" />
    <glyph glyph-name="uni0453" unicode="&#x453;" horiz-adv-x="927" 
d="M143 0v1014h746v-234h-471v-780h-275zM401 1169l150 428h332v-49l-281 -379h-201z" />
    <glyph glyph-name="uni0454" unicode="&#x454;" horiz-adv-x="1130" 
d="M879 369l184 -142q-156 -252 -436 -252q-149 -3 -276.5 69t-200.5 196t-70 268q-3 144 70.5 266.5t200.5 193t276 68.5q285 0 436 -250l-184 -141q-103 148 -254 148q-91 0 -158.5 -50t-97.5 -133h327v-196h-329q25 -87 95 -141t163 -54q148 0 254 150z" />
    <glyph glyph-name="uni0455" unicode="&#x455;" horiz-adv-x="931" 
d="M45 172l139 168q131 -137 285 -137q57 0 93 22t36 62q0 31 -21.5 48t-82.5 44l-109 45q-145 59 -210.5 129.5t-65.5 179.5q0 141 102 222t270 81q226 0 365 -151l-139 -170q-104 96 -228 96q-51 0 -79.5 -18.5t-28.5 -53.5q0 -28 22 -46t84 -44l98 -41q153 -62 219 -131
t66 -178q0 -154 -112 -238q-112 -86 -283 -86q-132 0 -241 52t-179 145z" />
    <glyph glyph-name="uni0456" unicode="&#x456;" horiz-adv-x="569" 
d="M106 1382q0 73 52.5 122.5t126.5 49.5t125 -49.5t51 -122.5q0 -72 -51 -121t-125 -49t-126.5 49.5t-52.5 120.5zM147 0v1014h275v-1014h-275z" />
    <glyph glyph-name="uni0457" unicode="&#x457;" horiz-adv-x="550" 
d="M2 1382q0 80 36 126t97 46q60 0 95.5 -46.5t35.5 -125.5q0 -80 -35 -125t-96 -45t-97 46t-36 124zM291 1382q0 80 36 126t97 46q60 0 95.5 -46.5t35.5 -125.5t-35.5 -124.5t-95.5 -45.5q-61 0 -97 46t-36 124zM137 0v1014h277v-1014h-277z" />
    <glyph glyph-name="uni0458" unicode="&#x458;" horiz-adv-x="550" 
d="M-129 -371v232q49 -6 84 -6q94 0 138 37t44 120v1002h277v-1026q0 -187 -102.5 -284t-286.5 -97q-80 0 -154 22zM98 1382q0 73 51 122.5t125 49.5t126.5 -49.5t52.5 -122.5q0 -71 -52.5 -120.5t-126.5 -49.5t-125 49t-51 121z" />
    <glyph glyph-name="uni0459" unicode="&#x459;" horiz-adv-x="1689" 
d="M1610 369q0 -173 -119 -271q-116 -98 -303 -98h-457v780h-246l-2 -78q-11 -395 -87 -555.5t-265 -164.5q-57 0 -104 18v227q20 -4 39 -4q84 0 120 125t39 424l2 242h779v-293h182q187 0 303 -94q119 -94 119 -258zM1329 365q0 55 -41.5 88.5t-107.5 33.5h-174v-254h174
q68 0 108.5 35t40.5 97z" />
    <glyph glyph-name="uni045A" unicode="&#x45a;" horiz-adv-x="1714" 
d="M1634 346q0 -162 -117 -254t-309 -92h-458v457h-332v-457h-275v1014h275v-324h332v324h274v-324h184q187 0 308 -92q118 -87 118 -252zM1354 346q0 54 -40.5 85.5t-107.5 31.5h-182v-236h182q68 0 108 31.5t40 87.5z" />
    <glyph glyph-name="uni045B" unicode="&#x45b;" horiz-adv-x="1214" 
d="M1085 569v-569h-276v530q0 88 -51 142.5t-135 54.5q-86 0 -140.5 -54.5t-54.5 -142.5v-530h-274v1128h-162v228h162v180h274v-180h391v-228h-391v-262q105 111 279 111q172 0 275 -111.5t103 -296.5z" />
    <glyph glyph-name="uni045C" unicode="&#x45c;" horiz-adv-x="1163" 
d="M1147 0h-328l-401 537v-537h-275v1014h275v-473l383 473h313l-383 -463zM504 1169l149 428h332v-49l-280 -379h-201z" />
    <glyph glyph-name="uni045D" unicode="&#x45d;" horiz-adv-x="1218" 
d="M985 1036h90v-1036h-276v549l-566 -574h-90v1039h275v-553zM532 1169l-280 379v49h332l149 -428h-201z" />
    <glyph glyph-name="uni045E" unicode="&#x45e;" horiz-adv-x="1144" 
d="M829 1014h291l-485 -1102q-69 -158 -166 -231.5t-238 -73.5q-87 0 -178 24v232q84 -8 119 -8q77 0 127 30.5t84 106.5l31 69l-389 953h292l248 -666zM217 1526v57h221v-55q0 -78 35 -120t98 -42t98.5 42t35.5 120v55h219v-57q0 -156 -99 -258q-99 -99 -254 -99
q-157 0 -256 99q-98 101 -98 258z" />
    <glyph glyph-name="uni045F" unicode="&#x45f;" horiz-adv-x="1183" 
d="M1042 1014v-1014h-317v-289h-264v289h-318v1014h275v-781h350v781h274z" />
    <glyph glyph-name="uni0462" unicode="&#x462;" horiz-adv-x="1431" 
d="M336 0v991h-307v226h307v159h276v-159h392v-226h-392v-172h254q225 0 355.5 -111t130.5 -300t-131.5 -298.5t-358.5 -109.5h-526zM612 244h256q93 0 147 45t54 121t-54 123t-147 47h-256v-336z" />
    <glyph glyph-name="uni0463" unicode="&#x463;" horiz-adv-x="1220" 
d="M260 0v797h-268v217h268v522h277v-522h333v-217h-333v-146h208q175 0 285 -88q111 -89 111 -235q0 -152 -111 -240q-110 -88 -285 -88h-485zM537 217h188q65 0 100 28.5t35 80.5q0 51 -35.5 79.5t-101.5 28.5h-186v-217z" />
    <glyph glyph-name="uni0472" unicode="&#x472;" horiz-adv-x="1593" 
d="M1516 676q2 -142 -56 -273.5t-156 -226t-232 -149.5t-277 -52q-143 -3 -276.5 52t-230.5 149.5t-154.5 226t-55.5 273.5q-2 142 55.5 273t154.5 225.5t230.5 149.5t276.5 52q143 3 277 -52t232 -149.5t156 -225.5t56 -273zM367 778q105 51 223 51q84 0 209 -32
q122 -35 207 -35q104 0 213 47q-38 146 -153 231.5t-271 85.5q-164 0 -280.5 -95t-147.5 -253zM1227 569q-107 -49 -221 -49q-50 0 -89.5 7t-121.5 28q-122 35 -205 35q-110 0 -217 -49q38 -143 153 -229.5t269 -86.5q164 0 280 94q117 92 152 250z" />
    <glyph glyph-name="uni0473" unicode="&#x473;" horiz-adv-x="1245" 
d="M1167 508q3 -144 -71.5 -268t-201.5 -195t-273 -68q-146 -3 -272 68.5t-199 195t-70 267.5q0 146 72.5 267.5t197.5 191t273 69.5t273 -69.5t198 -191t73 -267.5zM354 600q69 29 123 29q59 0 148 -27q1 0 17.5 -5t34 -9.5t44 -8.5t49.5 -4q54 0 119 27q-26 91 -98 145
t-168 54q-98 0 -170.5 -54.5t-98.5 -146.5zM895 428q-76 -29 -127 -29q-64 0 -147 27q-92 25 -144 25q-53 0 -125 -29q23 -94 96.5 -150.5t172.5 -56.5q102 0 176.5 58t97.5 155z" />
    <glyph glyph-name="uni0474" unicode="&#x474;" horiz-adv-x="1392" 
d="M1393 1350v-238q-43 6 -72 6q-55 0 -89.5 -29t-64.5 -96l-444 -1018h-92l-604 1377h313l338 -824l244 590q52 132 130.5 192t204.5 60q66 0 136 -20z" />
    <glyph glyph-name="uni0475" unicode="&#x475;" horiz-adv-x="1142" 
d="M1143 1014v-232l-60 2q-45 0 -70 -20t-50 -68l-345 -721h-92l-501 1039h290l258 -576l164 371q53 116 117 169.5t164 53.5q60 0 125 -18z" />
    <glyph glyph-name="uni0490" unicode="&#x490;" horiz-adv-x="1021" 
d="M156 0v1352h553v288h264v-538h-541v-1102h-276z" />
    <glyph glyph-name="uni0491" unicode="&#x491;" horiz-adv-x="927" 
d="M143 0v1014h482v289h264v-523h-471v-780h-275z" />
    <glyph glyph-name="uni0492" unicode="&#x492;" horiz-adv-x="1060" 
d="M1012 1102h-561v-357h317v-231h-317v-514h-277v514h-170v231h170v607h838v-250z" />
    <glyph glyph-name="uni0493" unicode="&#x493;" horiz-adv-x="927" 
d="M889 780h-471v-209h254v-223h-254v-348h-275v348h-151v223h151v443h746v-234z" />
    <glyph glyph-name="uni0496" unicode="&#x496;" horiz-adv-x="2035" 
d="M1808 250h215v-539h-264v289h-92l-514 705v-705h-276v707l-517 -707h-333l548 713l-505 639h329l478 -629v629h276v-627l475 627h330l-504 -639z" />
    <glyph glyph-name="uni0497" unicode="&#x497;" horiz-adv-x="1796" 
d="M1542 233h189v-522h-265v289h-67l-400 543v-543h-274v541l-397 -541h-312l398 547l-369 467h326l354 -453v453h274v-455l355 455h323l-366 -463z" />
    <glyph glyph-name="uni0498" unicode="&#x498;" horiz-adv-x="1204" 
d="M1126 399q0 -191 -140.5 -307.5t-373.5 -116.5q-179 0 -318.5 83.5t-213.5 230.5l192 139q132 -197 338 -197q106 0 175 50t69 133q0 75 -56.5 119.5t-162.5 44.5h-178v227h157q85 0 133 43t48 113q0 73 -50.5 116t-140.5 43q-178 0 -280 -176l-193 137q70 141 195.5 218
t291.5 77q208 0 328.5 -105t120.5 -288q0 -163 -135 -272q93 -44 143.5 -125.5t50.5 -186.5zM336 -373v183q87 -5 123 -5q60 0 93.5 30t33.5 87q0 55 -27 119l109 49q137 -76 137 -223q0 -115 -86.5 -187.5t-231.5 -72.5q-84 0 -151 20z" />
    <glyph glyph-name="uni0499" unicode="&#x499;" horiz-adv-x="1005" 
d="M920 297q0 -156 -107 -239t-309 -83q-289 0 -436 191l155 164q102 -117 264 -117q79 0 121.5 28t42.5 78q0 45 -37.5 72t-105.5 27h-131v205h119q54 0 83 23t29 65t-32 65t-93 23q-144 0 -239 -103l-158 166q72 85 178.5 129.5t235.5 44.5q179 0 278 -78t99 -219
q0 -131 -101 -213q69 -37 106.5 -97t37.5 -132zM244 -373v183q88 -5 123 -5q60 0 93.5 30t33.5 87q0 55 -27 119l108 49q138 -77 138 -223q0 -115 -86.5 -187.5t-231.5 -72.5q-84 0 -151 20z" />
    <glyph glyph-name="uni049A" unicode="&#x49a;" horiz-adv-x="1378" 
d="M1145 250h221v-539h-264v289h-90l-580 705v-705h-276v1352h276v-627l516 627h330l-516 -635z" />
    <glyph glyph-name="uni049B" unicode="&#x49b;" horiz-adv-x="1224" 
d="M969 233h190v-522h-264v289h-68l-409 543v-543h-275v1014h275v-455l377 455h315l-387 -459z" />
    <glyph glyph-name="uni04A0" unicode="&#x4a0;" horiz-adv-x="1720" 
d="M1692 0h-334l-580 705v-705h-276v1102h-473v250h749v-627l516 627h330l-518 -637z" />
    <glyph glyph-name="uni04A1" unicode="&#x4a1;" horiz-adv-x="1425" 
d="M1409 0h-315l-414 549v-549h-277v780h-374v234h651v-461l381 461h315l-387 -459z" />
    <glyph glyph-name="uni04A2" unicode="&#x4a2;" horiz-adv-x="1536" 
d="M1221 -289v289h-191v584h-598v-584h-276v1352h276v-518h598v518h277v-1102h180v-539h-266z" />
    <glyph glyph-name="uni04A3" unicode="&#x4a3;" horiz-adv-x="1288" 
d="M961 -289v289h-168v408h-375v-408h-275v1014h275v-371h375v371h274v-781h156v-522h-262z" />
    <glyph glyph-name="uni04AA" unicode="&#x4aa;" horiz-adv-x="1474" 
d="M78 676q-3 190 95 353t265.5 257t360.5 90q192 0 348.5 -88.5t247.5 -247.5l-209 -147q-143 227 -387 227q-189 0 -313 -126.5t-124 -319.5t124 -318t313 -125q243 0 387 228l209 -148q-88 -158 -245.5 -247t-352.5 -89q-145 -3 -279.5 52t-231.5 149.5t-154 226
t-54 273.5zM520 -373v183q88 -5 123 -5q60 0 93.5 30t33.5 87q0 55 -27 119l109 49q137 -76 137 -223q0 -115 -86 -187.5t-231 -72.5q-85 0 -152 20z" />
    <glyph glyph-name="uni04AB" unicode="&#x4ab;" horiz-adv-x="1130" 
d="M80 508q0 146 72.5 267.5t197.5 191t273 69.5q147 0 260 -65.5t180 -184.5l-193 -149q-101 147 -243 147q-116 0 -191.5 -78.5t-75.5 -197.5q0 -122 75 -200.5t192 -78.5q75 0 133 36.5t110 109.5l193 -148q-67 -119 -181 -185.5t-259 -66.5q-146 -3 -272 69t-199.5 196
t-71.5 268zM332 -373v183q87 -5 123 -5q60 0 93.5 30t33.5 87q0 55 -27 119l109 49q137 -76 137 -223q0 -115 -86.5 -187.5t-231.5 -72.5q-84 0 -151 20z" />
    <glyph glyph-name="uni04AE" unicode="&#x4ae;" horiz-adv-x="1277" 
d="M1243 1352l-465 -820v-532h-276v530l-467 822h307l299 -537l297 537h305z" />
    <glyph glyph-name="uni04AF" unicode="&#x4af;" horiz-adv-x="1144" 
d="M1120 1014l-411 -1016v-367h-275v363l-409 1020h290l258 -740l254 740h293z" />
    <glyph glyph-name="uni04B0" unicode="&#x4b0;" horiz-adv-x="1277" 
d="M1243 1352l-461 -811h291v-232h-295v-309h-276v309h-295v232h289l-461 811h307l299 -537l297 537h305z" />
    <glyph glyph-name="uni04B1" unicode="&#x4b1;" horiz-adv-x="1144" 
d="M1120 1014l-405 -1014h252v-221h-258v-148h-275v148h-256v221h252l-405 1014h290l258 -742l254 742h293z" />
    <glyph glyph-name="uni04B2" unicode="&#x4b2;" horiz-adv-x="1284" 
d="M1069 250h203v-539h-264v289h-93l-286 449l-287 -449h-315l448 688l-422 664h316l260 -426l258 426h313l-416 -664z" />
    <glyph glyph-name="uni04B3" unicode="&#x4b3;" horiz-adv-x="1159" 
d="M905 233h189v-522h-265v289h-67l-219 322l-219 -322h-308l373 524l-348 490h307l195 -291l196 291h308l-351 -490z" />
    <glyph glyph-name="uni04B6" unicode="&#x4b6;" horiz-adv-x="1423" 
d="M1194 250h180v-539h-264v289h-192v498q-127 -47 -281 -47q-256 0 -397.5 138.5t-141.5 395.5v367h277v-340q0 -159 74.5 -234.5t232.5 -75.5q136 0 236 41v609h276v-1102z" />
    <glyph glyph-name="uni04B7" unicode="&#x4b7;" horiz-adv-x="1224" 
d="M991 233h168v-522h-262v289h-180v371q-100 -47 -221 -47q-196 0 -306 115.5t-110 324.5v250h274v-230q0 -215 187 -215q97 0 176 39v406h274v-781z" />
    <glyph glyph-name="uni04BA" unicode="&#x4ba;" horiz-adv-x="1349" 
d="M1251 367v-367h-276v340q0 159 -74.5 234t-232.5 75q-136 0 -236 -41v-608h-276v1352h276v-498q127 47 281 47q255 0 396.5 -138t141.5 -396z" />
    <glyph glyph-name="uni04BB" unicode="&#x4bb;" horiz-adv-x="1198" 
d="M1069 629v-629h-274v590q0 88 -52 142t-137 54t-138.5 -54.5t-53.5 -141.5v-590h-277v1536h277v-608q108 108 278 108q172 0 274.5 -111t102.5 -296z" />
    <glyph glyph-name="uni04C0" unicode="&#x4c0;" horiz-adv-x="585" 
d="M156 0v1352h276v-1352h-276z" />
    <glyph glyph-name="uni04C1" unicode="&#x4c1;" horiz-adv-x="2029" 
d="M2001 0h-334l-514 705v-705h-276v707l-517 -707h-333l548 713l-505 639h329l478 -629v629h276v-627l475 627h330l-504 -639zM659 1833v31h222v-39q0 -74 35 -115t98 -41t98 41t35 115v39h219v-31q0 -159 -98 -260q-97 -100 -254 -100q-159 0 -256 100q-99 102 -99 260z
" />
    <glyph glyph-name="uni04C2" unicode="&#x4c2;" horiz-adv-x="1722" 
d="M1706 0h-330l-385 528v-528h-274v530l-387 -530h-314l392 537l-371 477h325l355 -467v467h274v-465l355 465h323l-360 -469zM500 1526v57h221v-55q0 -78 35 -120t98 -42t98 42t35 120v55h219v-57q0 -157 -98 -258q-99 -99 -254 -99q-157 0 -256 99q-98 101 -98 258z" />
    <glyph glyph-name="uni04CF" unicode="&#x4cf;" horiz-adv-x="561" 
d="M143 0v1536h275v-1536h-275z" />
    <glyph glyph-name="uni04D0" unicode="&#x4d0;" horiz-adv-x="1353" 
d="M1028 0l-76 176h-553l-75 -176h-297l604 1376h92l602 -1376h-297zM856 403l-180 457l-180 -457h360zM324 1833v31h221v-39q0 -74 35 -115t98 -41t98 41t35 115v39h219v-31q0 -159 -98 -260q-97 -100 -254 -100q-159 0 -256 100q-98 101 -98 260z" />
    <glyph glyph-name="uni04D1" unicode="&#x4d1;" horiz-adv-x="1116" 
d="M987 602v-602h-254v98q-120 -123 -309 -123q-159 0 -254.5 84.5t-95.5 219.5q0 136 103 215t280 79h254v45q0 85 -48.5 132t-140.5 47q-76 0 -137.5 -33t-130.5 -107l-143 170q176 209 442 209q201 0 317.5 -113t116.5 -321zM711 379v12h-217q-142 0 -142 -102
q0 -51 40 -81t106 -30q91 0 152 57t61 144zM201 1526v57h221v-55q0 -78 35 -120t98 -42t98 42t35 120v55h219v-57q0 -157 -98 -258q-99 -99 -254 -99q-157 0 -256 99q-98 101 -98 258z" />
    <glyph glyph-name="uni04D4" unicode="&#x4d4;" horiz-adv-x="1744" 
d="M1163 250h500v-250h-727l-31 176h-506l-92 -176h-297l692 1352h936v-250h-616l45 -275h406v-235h-367zM778 954l-264 -551h352z" />
    <glyph glyph-name="uni04D5" unicode="&#x4d5;" horiz-adv-x="1798" 
d="M1700 403h-707q26 -91 101 -140.5t182 -49.5q148 0 280 102l115 -188q-178 -152 -401 -152q-135 0 -245.5 53.5t-180.5 151.5q-60 -100 -163 -152.5t-237 -52.5q-174 0 -272 84.5t-98 221.5q0 141 103 223t280 82h254v32q0 85 -48.5 132t-138.5 47q-73 0 -136.5 -34
t-133.5 -106l-141 170q176 209 440 209q227 0 334 -149q140 149 358 149q205 0 340 -135.5t135 -335.5q0 -92 -20 -162zM985 586h467q1 103 -59 165t-158 62q-94 0 -162 -61.5t-88 -165.5zM711 377v26h-217q-68 0 -105 -27.5t-37 -78.5q0 -55 38.5 -86t105.5 -31
q92 0 153.5 55.5t61.5 141.5z" />
    <glyph glyph-name="uni04D6" unicode="&#x4d6;" horiz-adv-x="1173" 
d="M156 0v1352h909v-250h-633v-275h465v-235h-465v-342h658v-250h-934zM233 1833v31h222v-39q0 -74 35 -115t98 -41t98 41t35 115v39h219v-31q0 -159 -98 -260q-97 -100 -254 -100q-159 0 -256 100q-99 102 -99 260z" />
    <glyph glyph-name="uni04D7" unicode="&#x4d7;" horiz-adv-x="1165" 
d="M1069 414h-711q25 -96 99.5 -148.5t185.5 -52.5q151 0 283 102l114 -188q-184 -152 -405 -152q-153 -3 -282.5 68.5t-202.5 195t-70 267.5q-2 108 39.5 207t113 170.5t170.5 113t207 39.5q208 0 342.5 -135.5t134.5 -335.5q0 -75 -18 -151zM358 608h461
q-1 92 -63.5 148.5t-155.5 56.5q-88 0 -153.5 -55.5t-88.5 -149.5zM229 1526v57h222v-55q0 -78 35 -120t98 -42t98 42t35 120v55h219v-57q0 -157 -98 -258q-99 -99 -254 -99q-157 0 -256 99q-99 102 -99 258z" />
    <glyph glyph-name="uni04D8" unicode="&#x4d8;" horiz-adv-x="1501" 
d="M1421 678q2 -142 -53.5 -273.5t-150 -226t-224.5 -150t-270 -53.5q-177 -3 -326 77.5t-235.5 224t-83.5 317.5q0 90 18 178h1037q-26 160 -135.5 255t-268.5 95q-238 0 -391 -209l-186 162q100 143 248 222t329 79q192 3 352.5 -90.5t251.5 -255t88 -352.5zM1126 547
h-780q2 -99 57 -172t140 -108.5t186 -35.5q148 0 254.5 86t142.5 230z" />
    <glyph glyph-name="uni04D9" unicode="&#x4d9;" horiz-adv-x="1165" 
d="M1087 508q0 -146 -69.5 -268.5t-190.5 -193.5t-266 -71q-211 0 -346 136.5t-135 337.5q0 87 18 151h711q-25 96 -97.5 147.5t-183.5 51.5q-157 0 -288 -101l-115 189q177 149 412 149q236 0 393 -152t157 -376zM811 406h-465q4 -93 67 -149t158 -56q88 0 152.5 54.5
t87.5 150.5z" />
    <glyph glyph-name="uni04E2" unicode="&#x4e2;" horiz-adv-x="1468" 
d="M1223 1376h92v-1376h-277v838l-792 -863h-90v1377h276v-830zM444 1546v217h660v-217h-660z" />
    <glyph glyph-name="uni04E3" unicode="&#x4e3;" horiz-adv-x="1218" 
d="M985 1036h90v-1036h-276v549l-566 -574h-90v1039h275v-553zM324 1274v217h618v-217h-618z" />
    <glyph glyph-name="uni04E6" unicode="&#x4e6;" horiz-adv-x="1593" 
d="M78 676q-2 142 55.5 273t154.5 225.5t230.5 149.5t276.5 52q143 3 277 -52t232 -149.5t156 -225.5t56 -273q2 -142 -56 -273.5t-156 -226t-232 -149.5t-277 -52q-143 -3 -276.5 52t-230.5 149.5t-154.5 226t-55.5 273.5zM1231 676q0 192 -124 318t-310 126
q-188 0 -311.5 -125t-123.5 -319t123.5 -319.5t311.5 -125.5q187 0 310.5 125.5t123.5 319.5zM367 1667q0 67 48 113.5t115 46.5q69 0 118.5 -46.5t49.5 -113.5q0 -63 -49.5 -110.5t-118.5 -47.5q-63 0 -113 48.5t-50 109.5zM895 1665q0 67 49.5 114.5t116.5 47.5
q68 0 117 -47.5t49 -114.5q0 -63 -49.5 -110.5t-116.5 -47.5q-63 0 -114.5 48.5t-51.5 109.5z" />
    <glyph glyph-name="uni04E7" unicode="&#x4e7;" horiz-adv-x="1245" 
d="M80 508q-3 142 70.5 265t200 194.5t272.5 68.5q146 2 273 -69.5t200.5 -194t70.5 -264.5q2 -106 -41.5 -205.5t-117.5 -171t-176 -114t-211 -40.5q-109 -2 -210 40t-174.5 114.5t-116 171.5t-40.5 205zM885 506q0 119 -75 198.5t-187 79.5q-115 0 -189 -78t-74 -200
q0 -119 74 -197t189 -78q113 0 187.5 78.5t74.5 196.5zM213 1384q0 66 49.5 113t118.5 47q66 0 115 -47t49 -113t-49 -112.5t-115 -46.5q-69 0 -118.5 46.5t-49.5 112.5zM700 1384q0 66 49.5 113t118.5 47q66 0 115 -47t49 -113t-49 -112.5t-115 -46.5q-69 0 -118.5 46.5
t-49.5 112.5z" />
    <glyph glyph-name="uni04E8" unicode="&#x4e8;" horiz-adv-x="1593" 
d="M1516 676q2 -142 -56 -273.5t-156 -226t-232 -149.5t-277 -52q-143 -3 -276.5 52t-230.5 149.5t-154.5 226t-55.5 273.5q-2 142 55.5 273t154.5 225.5t230.5 149.5t276.5 52q143 3 277 -52t232 -149.5t156 -225.5t56 -273zM375 811h844q-38 143 -153.5 229t-268.5 86
q-155 0 -269.5 -86t-152.5 -229zM1227 575h-860q29 -159 146.5 -254.5t283.5 -95.5q164 0 281.5 96t148.5 254z" />
    <glyph glyph-name="uni04E9" unicode="&#x4e9;" horiz-adv-x="1245" 
d="M1167 508q3 -144 -71.5 -268t-201.5 -195t-273 -68q-146 -3 -272 68.5t-199 195t-70 267.5q0 146 72.5 267.5t197.5 191t273 69.5t273 -69.5t198 -191t73 -267.5zM358 610h529q-29 88 -100 139.5t-164 51.5q-96 0 -165.5 -51t-99.5 -140zM891 414h-537
q26 -92 97.5 -145.5t169.5 -53.5t171 54t99 145z" />
    <glyph glyph-name="uni04EE" unicode="&#x4ee;" horiz-adv-x="1327" 
d="M1006 1352h294l-460 -1012q-39 -82 -69 -133.5t-68.5 -99t-80.5 -72.5t-98.5 -40.5t-130.5 -17.5q-73 0 -153 23v236q61 -7 108 -7q123 0 191 86l-504 1037h309l344 -736zM365 1546v217h659v-217h-659z" />
    <glyph glyph-name="uni04EF" unicode="&#x4ef;" horiz-adv-x="1144" 
d="M829 1014h291l-485 -1102q-69 -158 -166 -231.5t-238 -73.5q-87 0 -178 24v232q84 -8 119 -8q77 0 127 30.5t84 106.5l31 69l-389 953h292l248 -666zM264 1274v217h619v-217h-619z" />
    <glyph glyph-name="uni04F2" unicode="&#x4f2;" horiz-adv-x="1327" 
d="M1006 1352h294l-460 -1012q-39 -82 -69 -133.5t-68.5 -99t-80.5 -72.5t-98.5 -40.5t-130.5 -17.5q-73 0 -153 23v236q61 -7 108 -7q123 0 191 86l-504 1037h309l344 -736zM334 1483l149 381h287v-49l-250 -332h-186zM819 1483l150 381h286v-49l-249 -332h-187z" />
    <glyph glyph-name="uni04F3" unicode="&#x4f3;" horiz-adv-x="1144" 
d="M829 1014h291l-485 -1102q-69 -158 -166 -231.5t-238 -73.5q-87 0 -178 24v232q84 -8 119 -8q77 0 127 30.5t84 106.5l31 69l-389 953h292l248 -666zM248 1169l149 428h287v-49l-250 -379h-186zM692 1169l150 428h286v-49l-249 -379h-187z" />
    <glyph glyph-name="Wgrave" unicode="&#x1e80;" horiz-adv-x="2119" 
d="M1761 1352h307l-540 -1377h-90l-377 848l-379 -848h-90l-541 1377h307l301 -799l355 823h92l354 -819zM961 1483l-281 332v49h332l149 -381h-200z" />
    <glyph glyph-name="wgrave" unicode="&#x1e81;" horiz-adv-x="1755" 
d="M1440 1014h291l-471 -1039h-91l-290 590l-293 -590h-90l-471 1039h290l240 -578l276 600h93l280 -587zM778 1169l-280 379v49h331l150 -428h-201z" />
    <glyph glyph-name="Wacute" unicode="&#x1e82;" horiz-adv-x="2119" 
d="M1761 1352h307l-540 -1377h-90l-377 848l-379 -848h-90l-541 1377h307l301 -799l355 823h92l354 -819zM952 1483l150 381h332v-49l-281 -332h-201z" />
    <glyph glyph-name="wacute" unicode="&#x1e83;" horiz-adv-x="1755" 
d="M1440 1014h291l-471 -1039h-91l-290 590l-293 -590h-90l-471 1039h290l240 -578l276 600h93l280 -587zM776 1169l150 428h331v-49l-280 -379h-201z" />
    <glyph glyph-name="Wdieresis" unicode="&#x1e84;" horiz-adv-x="2119" 
d="M1761 1352h307l-540 -1377h-90l-377 848l-379 -848h-90l-541 1377h307l301 -799l355 823h92l354 -819zM631 1667q0 67 48.5 113.5t115.5 46.5q69 0 118.5 -46.5t49.5 -113.5q0 -63 -49.5 -110.5t-118.5 -47.5q-63 0 -113.5 48.5t-50.5 109.5zM1159 1665q0 67 49.5 114.5
t116.5 47.5q68 0 117 -47.5t49 -114.5q0 -63 -49.5 -110.5t-116.5 -47.5q-63 0 -114.5 48.5t-51.5 109.5z" />
    <glyph glyph-name="wdieresis" unicode="&#x1e85;" horiz-adv-x="1755" 
d="M1440 1014h291l-471 -1039h-91l-290 590l-293 -590h-90l-471 1039h290l240 -578l276 600h93l280 -587zM467 1384q0 66 49.5 113t118.5 47q66 0 115 -47t49 -113t-49 -112.5t-115 -46.5q-69 0 -118.5 46.5t-49.5 112.5zM954 1384q0 66 49.5 113t118.5 47q66 0 115 -47
t49 -113t-49 -112.5t-115 -46.5q-69 0 -118.5 46.5t-49.5 112.5z" />
    <glyph glyph-name="uni1E9E" unicode="&#x1e9e;" horiz-adv-x="1497" 
d="M1419 426q0 -198 -136.5 -324.5t-332.5 -126.5q-111 0 -215 45t-184 125l147 197q107 -113 236 -113q92 0 148.5 55.5t56.5 147.5q0 99 -73 152t-208 53h-141v70l219 395h-504v-1102h-276v1352h1159v-74l-230 -420q147 -38 240.5 -153.5t93.5 -278.5z" />
    <glyph glyph-name="Ygrave" unicode="&#x1ef2;" horiz-adv-x="1277" 
d="M1243 1352l-465 -820v-532h-276v530l-467 822h307l299 -537l297 537h305zM537 1483l-281 332v49h332l149 -381h-200z" />
    <glyph glyph-name="ygrave" unicode="&#x1ef3;" horiz-adv-x="1144" 
d="M829 1014h291l-485 -1102q-69 -158 -166 -231.5t-238 -73.5q-87 0 -178 24v232q84 -8 119 -8q77 0 127 30.5t84 106.5l31 69l-389 953h292l248 -666zM473 1169l-280 379v49h331l150 -428h-201z" />
    <glyph glyph-name="uni2009" unicode="&#x2009;" horiz-adv-x="286" 
 />
    <glyph glyph-name="endash" unicode="&#x2013;" horiz-adv-x="1028" 
d="M72 541v231h884v-231h-884z" />
    <glyph glyph-name="emdash" unicode="&#x2014;" horiz-adv-x="2048" 
d="M102 541v231h1844v-231h-1844z" />
    <glyph glyph-name="uni2015" unicode="&#x2015;" horiz-adv-x="2048" 
d="M102 541v231h1844v-231h-1844z" />
    <glyph glyph-name="quoteleft" unicode="&#x2018;" horiz-adv-x="616" 
d="M121 782l115 570h210l-10 -570h-315z" />
    <glyph glyph-name="quoteright" unicode="&#x2019;" horiz-adv-x="616" 
d="M170 782l10 570h316l-115 -570h-211z" />
    <glyph glyph-name="quotesinglbase" unicode="&#x201a;" horiz-adv-x="616" 
d="M170 -317l10 569h316l-115 -569h-211z" />
    <glyph glyph-name="quotedblleft" unicode="&#x201c;" horiz-adv-x="1101" 
d="M121 782l115 570h210l-10 -570h-315zM606 782l115 570h211l-10 -570h-316z" />
    <glyph glyph-name="quotedblright" unicode="&#x201d;" horiz-adv-x="1101" 
d="M170 782l10 570h316l-115 -570h-211zM655 782l11 570h315l-115 -570h-211z" />
    <glyph glyph-name="quotedblbase" unicode="&#x201e;" horiz-adv-x="1101" 
d="M170 -317l10 569h316l-115 -569h-211zM655 -317l11 569h315l-115 -569h-211z" />
    <glyph glyph-name="dagger" unicode="&#x2020;" horiz-adv-x="989" 
d="M356 508v498h-260v233h260v297h277v-297h260v-233h-260v-498h-277z" />
    <glyph glyph-name="daggerdbl" unicode="&#x2021;" horiz-adv-x="989" 
d="M356 336v237h-260v234h260v260h-260v233h260v236h277v-236h260v-233h-260v-260h260v-234h-260v-237h-277z" />
    <glyph glyph-name="bullet" unicode="&#x2022;" horiz-adv-x="874" 
d="M104 555q0 137 98 231.5t236 94.5q139 0 235.5 -94.5t96.5 -231.5t-96.5 -230.5t-235.5 -93.5q-137 0 -235.5 95t-98.5 229z" />
    <glyph glyph-name="ellipsis" unicode="&#x2026;" horiz-adv-x="1634" 
d="M627 166q0 80 55.5 135t136.5 55q79 0 134 -55t55 -135q0 -82 -53.5 -136.5t-135.5 -54.5t-137 54.5t-55 136.5zM96 166q0 80 55.5 135t137.5 55q79 0 133.5 -55t54.5 -135q0 -82 -53.5 -136.5t-134.5 -54.5q-82 0 -137.5 54.5t-55.5 136.5zM1157 166q0 80 55.5 135
t137.5 55q79 0 133.5 -55t54.5 -135q0 -82 -53.5 -136.5t-134.5 -54.5q-82 0 -137.5 54.5t-55.5 136.5z" />
    <glyph glyph-name="perthousand" unicode="&#x2030;" horiz-adv-x="2512" 
d="M115 1040q0 142 102 239t248 97q144 0 246 -97.5t102 -238.5q0 -142 -102.5 -240t-245.5 -98q-145 0 -247.5 98t-102.5 240zM383 0l776 1352h223l-778 -1352h-221zM600 1040q0 63 -38 104.5t-95 41.5q-61 0 -99 -41t-38 -105q0 -66 37 -106.5t100 -40.5q58 0 95.5 41
t37.5 106zM1700 317q0 141 102 238.5t246 97.5t247 -97.5t103 -238.5q0 -142 -102 -239.5t-248 -97.5q-144 0 -246 98t-102 239zM950 315q0 141 102 238.5t246 97.5t247.5 -97.5t103.5 -238.5q0 -142 -103 -240t-248 -98q-143 0 -245.5 98t-102.5 240zM2185 317
q0 63 -37.5 104.5t-97.5 41.5q-62 0 -99.5 -40t-37.5 -106t37.5 -105.5t99.5 -39.5q60 0 97.5 41t37.5 104zM1434 315q0 63 -38.5 104.5t-95.5 41.5q-63 0 -100 -40t-37 -106t37 -105.5t100 -39.5q57 0 95.5 41t38.5 104z" />
    <glyph glyph-name="minute" unicode="&#x2032;" horiz-adv-x="589" 
d="M135 770l74 582h315l-178 -582h-211z" />
    <glyph glyph-name="second" unicode="&#x2033;" horiz-adv-x="1075" 
d="M135 770l74 582h315l-178 -582h-211zM621 770l73 582h316l-179 -582h-210z" />
    <glyph glyph-name="guilsinglleft" unicode="&#x2039;" horiz-adv-x="696" 
d="M459 92l-400 428v74l400 430l176 -154l-277 -311l277 -313z" />
    <glyph glyph-name="guilsinglright" unicode="&#x203a;" horiz-adv-x="696" 
d="M240 92l-177 154l275 313l-275 311l177 154l397 -430v-74z" />
    <glyph glyph-name="fraction" unicode="&#x2044;" horiz-adv-x="514" 
d="M-244 0l779 1352h223l-778 -1352h-224z" />
    <glyph glyph-name="uni2070" unicode="&#x2070;" horiz-adv-x="862" 
d="M86 1178q0 197 90 316.5t254 119.5q167 0 257.5 -118t90.5 -318q0 -196 -90 -324q-88 -125 -258 -125q-162 0 -253 124t-91 325zM567 1176q0 128 -32.5 188.5t-104.5 60.5q-69 0 -102 -61t-33 -188q0 -258 135 -258q137 0 137 258z" />
    <glyph glyph-name="uni2074" unicode="&#x2074;" horiz-adv-x="770" 
d="M748 1044v-167h-103v-132h-186v132h-434v53l254 667h210l-213 -553h183l2 224h184v-224h103z" />
    <glyph glyph-name="uni2075" unicode="&#x2075;" horiz-adv-x="759" 
d="M690 1032q0 -131 -96.5 -217t-239.5 -86q-109 0 -193.5 53.5t-129.5 147.5l143 100q37 -58 78 -85t94 -27q61 0 97 29t36 79q0 100 -155 100h-201v471h524v-184h-328v-121q57 11 82 11q116 0 202.5 -74.5t86.5 -196.5z" />
    <glyph glyph-name="uni2076" unicode="&#x2076;" horiz-adv-x="761" 
d="M702 1040q0 -131 -96.5 -221t-226.5 -90t-225 90t-95 225q0 67 26.5 124.5t90.5 140.5l211 288h240l-191 -262q103 -6 184.5 -91t81.5 -204zM498 1040q0 54 -34 88.5t-85 34.5q-49 0 -83 -36t-34 -87q0 -53 33.5 -87.5t83.5 -34.5q51 0 85 34t34 88z" />
    <glyph glyph-name="uni2077" unicode="&#x2077;" horiz-adv-x="700" 
d="M57 1597h607v-55l-369 -797h-221l319 668h-336v184z" />
    <glyph glyph-name="uni2078" unicode="&#x2078;" horiz-adv-x="794" 
d="M723 977q0 -114 -90.5 -181t-235.5 -67t-235 67t-90 181q0 144 151 209q-114 76 -114 196q0 107 79.5 169.5t208.5 62.5t209 -62.5t80 -169.5q0 -122 -117 -196q154 -68 154 -209zM297 1372q0 -31 22 -53t78 -49q54 26 77.5 48.5t23.5 53.5q0 35 -29 56.5t-72 21.5
t-71.5 -21.5t-28.5 -56.5zM520 985q0 39 -29 65t-94 52q-67 -26 -96 -52t-29 -65q0 -42 32.5 -66t92.5 -24q59 0 91 24t32 66z" />
    <glyph glyph-name="uni2079" unicode="&#x2079;" horiz-adv-x="761" 
d="M702 1298q0 -66 -25 -120.5t-91 -143.5l-213 -289h-240l193 263q-105 6 -186 91t-81 204q0 131 96.5 221t225.5 90q132 0 226.5 -90.5t94.5 -225.5zM500 1303q0 53 -34.5 87.5t-84.5 34.5t-84.5 -34.5t-34.5 -87.5q0 -51 35 -87t84 -36t84 36t35 87z" />
    <glyph glyph-name="uni207A" unicode="&#x207a;" horiz-adv-x="874" 
d="M332 805v274h-264v187h264v272h209v-272h264v-187h-264v-274h-209z" />
    <glyph glyph-name="uni207B" unicode="&#x207b;" horiz-adv-x="874" 
d="M68 1081v183h737v-183h-737z" />
    <glyph glyph-name="uni207C" unicode="&#x207c;" horiz-adv-x="874" 
d="M84 1247v187h707v-187h-707zM84 911v189h707v-189h-707z" />
    <glyph glyph-name="uni207D" unicode="&#x207d;" horiz-adv-x="563" 
d="M98 1171q0 262 92.5 435t251.5 243l84 -129q-241 -155 -241 -549q0 -390 241 -550l-84 -127q-161 82 -252.5 251.5t-91.5 425.5z" />
    <glyph glyph-name="uni207E" unicode="&#x207e;" horiz-adv-x="563" 
d="M123 494l-86 127q242 155 242 550q0 388 -242 549l86 129q156 -71 249 -244t93 -434q0 -262 -93 -435t-249 -242z" />
    <glyph glyph-name="uni2080" unicode="&#x2080;" horiz-adv-x="862" 
d="M86 186q0 197 90.5 317t253.5 120q167 0 257.5 -118.5t90.5 -318.5q0 -193 -90 -321q-89 -127 -258 -127q-162 0 -253 123.5t-91 324.5zM567 184q0 128 -33 189t-104 61q-69 0 -102 -61t-33 -189q0 -258 135 -258q137 0 137 258z" />
    <glyph glyph-name="uni2081" unicode="&#x2081;" horiz-adv-x="757" 
d="M86 -246v185h211v483h-193v184h400v-667h176v-185h-594z" />
    <glyph glyph-name="uni2082" unicode="&#x2082;" horiz-adv-x="788" 
d="M438 -61h271v-185l-641 -2v43l305 332q58 66 82 109.5t24 89.5q0 49 -27 78.5t-71 29.5q-45 0 -72.5 -29.5t-27.5 -82.5q0 -3 0.5 -10.5t1.5 -21.5l2 -28h-203q-8 31 -8 72q0 115 87 202t222 87q130 0 219 -80q88 -76 88 -199q0 -84 -44.5 -160.5t-141.5 -175.5z" />
    <glyph glyph-name="uni2083" unicode="&#x2083;" horiz-adv-x="737" 
d="M668 37q0 -128 -95.5 -213.5t-232.5 -85.5q-107 0 -190.5 53.5t-126.5 147.5l141 100q40 -59 79 -86t91 -27q55 0 89 30.5t34 80.5q0 98 -156 98h-98v51l159 236h-272v184h563v-55l-172 -256q82 -27 134.5 -96t52.5 -162z" />
    <glyph glyph-name="uni2084" unicode="&#x2084;" horiz-adv-x="770" 
d="M748 53v-168h-103v-131h-186v131h-434v54l254 667h210l-213 -553h183l2 223h184v-223h103z" />
    <glyph glyph-name="uni2085" unicode="&#x2085;" horiz-adv-x="759" 
d="M690 41q0 -131 -96.5 -217t-239.5 -86q-109 0 -193.5 53.5t-129.5 147.5l143 100q38 -58 78.5 -85.5t93.5 -27.5q61 0 97 29t36 80q0 100 -155 100h-201v471h524v-184h-328v-121q52 10 82 10q117 0 203 -74t86 -196z" />
    <glyph glyph-name="uni2086" unicode="&#x2086;" horiz-adv-x="761" 
d="M702 49q0 -131 -96.5 -221t-226.5 -90t-225 90t-95 225q0 67 26.5 124t90.5 140l211 289h240l-191 -262q103 -6 184.5 -91t81.5 -204zM498 49q0 54 -34 88.5t-85 34.5q-49 0 -83 -36t-34 -87q0 -54 33.5 -88.5t83.5 -34.5q51 0 85 34.5t34 88.5z" />
    <glyph glyph-name="uni2087" unicode="&#x2087;" horiz-adv-x="700" 
d="M57 606h607v-55l-369 -797h-221l319 668h-336v184z" />
    <glyph glyph-name="uni2088" unicode="&#x2088;" horiz-adv-x="794" 
d="M723 -14q0 -114 -90.5 -181t-235.5 -67t-235 67t-90 181q0 144 151 209q-114 77 -114 196q0 107 79.5 169.5t208.5 62.5t209 -62.5t80 -169.5q0 -123 -117 -196q154 -68 154 -209zM297 381q0 -31 22 -53t78 -49q54 26 77.5 48.5t23.5 53.5q0 35 -29 56.5t-72 21.5
t-71.5 -21.5t-28.5 -56.5zM520 -6q0 39 -29 65t-94 52q-67 -26 -96 -52t-29 -65q0 -42 32.5 -66t92.5 -24q59 0 91 24t32 66z" />
    <glyph glyph-name="uni2089" unicode="&#x2089;" horiz-adv-x="761" 
d="M702 307q0 -66 -25 -120.5t-91 -143.5l-213 -289h-240l193 262q-105 6 -186 91t-81 204q0 131 96.5 221.5t225.5 90.5q132 0 226.5 -90.5t94.5 -225.5zM500 311q0 53 -34.5 88t-84.5 35t-84.5 -35t-34.5 -88q0 -51 35 -87t84 -36t84 36t35 87z" />
    <glyph glyph-name="uni208A" unicode="&#x208a;" horiz-adv-x="874" 
d="M332 -188v274h-264v186h264v273h209v-273h264v-186h-264v-274h-209z" />
    <glyph glyph-name="uni208B" unicode="&#x208b;" horiz-adv-x="874" 
d="M68 88v182h737v-182h-737z" />
    <glyph glyph-name="uni208C" unicode="&#x208c;" horiz-adv-x="874" 
d="M84 254v186h707v-186h-707zM84 -82v188h707v-188h-707z" />
    <glyph glyph-name="uni208D" unicode="&#x208d;" horiz-adv-x="563" 
d="M98 178q0 262 92.5 435t251.5 243l84 -129q-241 -155 -241 -549q0 -391 241 -551l-84 -127q-161 82 -252.5 252t-91.5 426z" />
    <glyph glyph-name="uni208E" unicode="&#x208e;" horiz-adv-x="563" 
d="M123 -500l-86 127q242 155 242 551q0 388 -242 549l86 129q156 -71 249 -244t93 -434q0 -262 -93 -435.5t-249 -242.5z" />
    <glyph glyph-name="lira" unicode="&#x20a4;" horiz-adv-x="1165" 
d="M557 221h518v-221h-989v59q106 78 167.5 145t86.5 140h-234v186h238q-13 53 -49 121h-189v185h99q-25 77 -25 145q0 176 127 285.5t320 109.5q174 0 297 -95t172 -275l-232 -84q-64 198 -219 198q-85 0 -134.5 -50.5t-49.5 -133.5q0 -44 18 -100h363v-185h-267
q33 -56 48 -121h219v-186h-226q-18 -63 -59 -123z" />
    <glyph glyph-name="peseta" unicode="&#x20a7;" horiz-adv-x="1282" 
d="M1282 973v-223h-162q-37 -173 -182 -279q-144 -102 -352 -102h-117v-369h-276v750h-160v223h160v379h393q209 0 353 -102.5t181 -276.5h162zM586 1120h-117v-162h379q-25 79 -93 120.5t-169 41.5zM850 764h-381v-164h117q102 0 171 42t93 122z" />
    <glyph glyph-name="Euro" unicode="&#x20ac;" horiz-adv-x="1384" 
d="M1112 379l193 -150q-70 -118 -201 -186t-295 -68q-217 0 -376 118t-226 321h-203v196h164q-2 14 -2 68q0 43 2 55h-162v197h197q64 206 224.5 326t381.5 120q164 0 295 -68t201 -186l-193 -149q-51 69 -127 108t-168 39q-105 0 -185 -49t-128 -141h483l-53 -197h-483
q-2 -12 -2 -57q0 -12 4 -66h444l-53 -196h-334q48 -87 127 -135t180 -48q92 0 168 39.5t127 108.5z" />
    <glyph glyph-name="uni20AE" unicode="&#x20ae;" horiz-adv-x="1198" 
d="M1171 1102h-434v-236l330 99v-232l-330 -98v-127l330 100v-233l-330 -99v-276h-276v211l-330 -98v233l330 96v127l-330 -98v234l330 96v301h-432v250h1142v-250z" />
    <glyph glyph-name="uni20B4" unicode="&#x20b4;" horiz-adv-x="1105" 
d="M971 926h119v-195h-1072v195h660q20 26 20 65q0 60 -43 94.5t-118 34.5q-149 0 -265 -116l-147 180q69 92 176.5 142t237.5 50q197 0 320.5 -106t123.5 -275q0 -42 -12 -69zM18 418v192h1072v-192h-707q-4 -36 -4 -41q0 -69 47.5 -107.5t134.5 -38.5q93 0 184 36.5
t158 101.5l135 -183q-87 -100 -211.5 -155.5t-265.5 -55.5q-213 0 -340 109q-127 112 -127 293q0 21 4 41h-80z" />
    <glyph glyph-name="uni20B8" unicode="&#x20b8;" horiz-adv-x="1198" 
d="M29 1102v250h1142v-250h-1142zM461 0v731h-432v248h1142v-248h-434v-731h-276z" />
    <glyph glyph-name="uni20B9" unicode="&#x20b9;" horiz-adv-x="1099" 
d="M948 1155h-215q37 -52 58 -131h157v-199h-155q-25 -129 -111.5 -213.5t-224.5 -117.5l491 -494h-344l-477 477v209h158q170 0 219 139h-379v199h375q-52 123 -215 123h-158v205h821v-197z" />
    <glyph glyph-name="uni20BA" unicode="&#x20ba;" horiz-adv-x="1101" 
d="M1047 489q0 -244 -189 -378t-530 -134h-129v459l-174 -80v232l174 80v127l-174 -80v231l174 80v326h276v-217l346 157v-231l-346 -160v-125l346 160v-234l-346 -157v-307q155 19 244.5 92t89.5 184q0 44 -6 96h227q17 -56 17 -121z" />
    <glyph glyph-name="uni20BD" unicode="&#x20bd;" horiz-adv-x="1226" 
d="M193 0v211h-160v221h160v129h-160v234h160v557h518q194 0 313 -107q123 -108 123 -289t-121.5 -288t-314.5 -107h-242v-129h516v-221h-516v-211h-276zM469 795h223q81 0 129.5 42.5t48.5 116.5q0 75 -49 119.5t-129 44.5h-223v-323z" />
    <glyph glyph-name="uni20BF" unicode="&#x20bf;" horiz-adv-x="1187" 
d="M834 86v-285h-207v267h-129v-267h-205v267h-137v1218h137v248h205v-248h129v248h207v-295q86 -43 133 -120t47 -175q0 -143 -103 -229q89 -42 138 -117t49 -174q0 -122 -71 -212.5t-193 -125.5zM608 1069h-211v-274h211q74 0 116 36.5t42 102.5t-41 100.5t-117 34.5z
M850 434q0 72 -45.5 113t-124.5 41h-283v-305h283q80 0 125 39.5t45 111.5z" />
    <glyph glyph-name="uni2113" unicode="&#x2113;" horiz-adv-x="1015" 
d="M690 223q51 0 201 21v-232q-136 -37 -254 -37q-190 0 -296 91.5t-116 269.5l-106 -70l-123 215l227 156v479q0 221 101.5 333t285.5 112q167 0 254.5 -89.5t87.5 -269.5q0 -190 -106 -354.5t-346 -349.5v-92q0 -94 46.5 -138.5t143.5 -44.5zM500 1128v-311
q116 103 165.5 188.5t49.5 184.5q0 137 -94 137q-121 0 -121 -199z" />
    <glyph glyph-name="uni2116" unicode="&#x2116;" horiz-adv-x="2299" 
d="M1030 545v807h277v-1377h-93l-782 836v-811h-276v1376h90zM1524 821q0 142 100.5 239t247.5 97q144 0 246 -97.5t102 -238.5q0 -142 -102.5 -240t-245.5 -98q-146 0 -247 98t-101 240zM1733 821q0 -63 39 -104t100 -41t100 41t39 104t-39 104.5t-100 41.5t-100 -41.5
t-39 -104.5zM1540 172v174h664v-174h-664z" />
    <glyph glyph-name="uni2117" unicode="&#x2117;" horiz-adv-x="1593" 
d="M78 674q-3 143 56 275t158 225.5t231.5 148.5t271.5 53q112 2 221.5 -32.5t199.5 -99.5t159 -151.5t106 -194.5t35 -222q3 -142 -56 -273.5t-158 -225.5t-233 -149.5t-274 -52.5q-141 -2 -273.5 53t-231 148.5t-157 224.5t-55.5 273zM1335 674q3 154 -74 280t-201 193
t-265 65q-105 1 -204 -38.5t-173 -109t-118 -172t-42 -218.5q-2 -116 42 -218t118 -171t172.5 -108t204.5 -38q104 -1 202.5 38t174 108t120.5 171t43 218zM547 315v717h307q126 0 207.5 -69t81.5 -183t-81.5 -183t-207.5 -69h-121v-213h-186zM733 692h121q45 0 71.5 23.5
t26.5 64.5t-27 65.5t-71 24.5h-121v-178z" />
    <glyph glyph-name="trademark" unicode="&#x2122;" horiz-adv-x="1978" 
d="M940 432v936h76l391 -485l391 485h72v-936h-230v414l-198 -250h-74l-197 250v-414h-231zM299 432v713h-281v207h791v-207h-281v-713h-229z" />
    <glyph glyph-name="uni2126" unicode="&#x2126;" horiz-adv-x="1613" 
d="M1286 250h219v-250h-581v250q156 74 236.5 187t80.5 259q0 184 -123.5 304t-312.5 120q-191 0 -311.5 -117.5t-120.5 -302.5q0 -148 81 -262t236 -188v-250h-581v250h206q-227 184 -227 461q-3 135 54 259t154.5 213.5t231 142t277.5 50.5q144 2 278.5 -51t232 -143
t155.5 -214t55 -257q0 -139 -59 -251.5t-181 -209.5z" />
    <glyph glyph-name="estimated" unicode="&#x212e;" horiz-adv-x="1628" 
d="M1497 670h-1114v-406q73 -102 188 -157.5t260 -55.5q156 0 292 64t231 176l53 -47q-101 -124 -251 -194t-322 -70q-147 -2 -280 52.5t-228.5 147.5t-150.5 221t-52 267q-3 142 54.5 274t153.5 226.5t226 150.5t266 53q123 2 247 -43t221 -122.5t157 -190.5t57 -236
q0 -66 -8 -110zM383 1085v-344h862v375q-74 88 -179 135t-232 47q-141 0 -258 -56t-193 -157z" />
    <glyph glyph-name="uni2150" unicode="&#x2150;" horiz-adv-x="1972" 
d="M86 500v184h211v483h-193v185h400v-668h176v-184h-594zM514 0l778 1352h224l-779 -1352h-223zM1329 852h606v-55l-368 -797h-221l319 668h-336v184z" />
    <glyph glyph-name="uni2151" unicode="&#x2151;" horiz-adv-x="1972" 
d="M86 500v184h211v483h-193v185h400v-668h176v-184h-594zM514 0l778 1352h224l-779 -1352h-223zM1913 553q0 -66 -25 -120t-92 -144l-213 -289h-240l193 262q-105 6 -185.5 91t-80.5 204q0 131 96 221t225 90q132 0 227 -90t95 -225zM1710 557q0 53 -34.5 88t-84.5 35
t-84 -35t-34 -88q0 -51 34.5 -87t83.5 -36t84 36t35 87z" />
    <glyph glyph-name="uni2152" unicode="&#x2152;" horiz-adv-x="2893" 
d="M86 500v184h211v483h-193v185h400v-668h176v-184h-594zM514 0l778 1352h224l-779 -1352h-223zM1358 0v184h211v484h-193v184h400v-668h176v-184h-594zM2118 432q0 197 90 316.5t254 119.5q167 0 257.5 -118t90.5 -318q0 -195 -90 -323q-88 -125 -258 -125
q-162 0 -253 123.5t-91 324.5zM2599 430q0 128 -33 189t-104 61q-69 0 -102 -61t-33 -189q0 -258 135 -258q137 0 137 258z" />
    <glyph glyph-name="uni2153" unicode="&#x2153;" horiz-adv-x="2009" 
d="M86 500v184h211v483h-193v185h400v-668h176v-184h-594zM514 0l778 1352h224l-779 -1352h-223zM1939 283q0 -128 -95.5 -213.5t-231.5 -85.5q-108 0 -191.5 53.5t-126.5 146.5l142 101q40 -59 79 -86t91 -27q55 0 89 30.5t34 80.5q0 98 -156 98h-98v51l159 236h-272v184
h563v-55l-172 -256q82 -27 134 -96t52 -162z" />
    <glyph glyph-name="uni2154" unicode="&#x2154;" horiz-adv-x="2039" 
d="M438 684h271v-184l-641 -2v43l305 331q58 66 82 109.5t24 89.5q0 49 -27 79t-71 30q-45 0 -72.5 -30t-27.5 -83q0 -3 0.5 -10l1.5 -21l2 -28h-203q-8 31 -8 71q0 115 87 202t222 87q130 0 219 -80q88 -76 88 -198q0 -84 -44.5 -160.5t-141.5 -175.5zM545 0l778 1352h223
l-778 -1352h-223zM1970 283q0 -128 -95.5 -213.5t-232.5 -85.5q-107 0 -190.5 53.5t-126.5 146.5l141 101q40 -59 79 -86t91 -27q55 0 89 30.5t34 80.5q0 98 -155 98h-99v51l160 236h-272v184h563v-55l-172 -256q82 -27 134 -96t52 -162z" />
    <glyph glyph-name="uni2155" unicode="&#x2155;" horiz-adv-x="2015" 
d="M86 500v184h211v483h-193v185h400v-668h176v-184h-594zM514 0l778 1352h224l-779 -1352h-223zM1946 287q0 -131 -96.5 -217t-239.5 -86q-109 0 -194 53.5t-130 146.5l144 101q38 -58 78.5 -85.5t93.5 -27.5q61 0 97 29t36 80q0 100 -156 100h-201v471h525v-184h-328v-121
q52 10 82 10q117 0 203 -74t86 -196z" />
    <glyph glyph-name="uni2156" unicode="&#x2156;" horiz-adv-x="2043" 
d="M438 684h271v-184l-641 -2v43l305 331q58 66 82 109.5t24 89.5q0 49 -27 79t-71 30q-45 0 -72.5 -30t-27.5 -83q0 -3 0.5 -10l1.5 -21l2 -28h-203q-8 31 -8 71q0 115 87 202t222 87q130 0 219 -80q88 -76 88 -198q0 -84 -44.5 -160.5t-141.5 -175.5zM545 0l778 1352h223
l-778 -1352h-223zM1976 287q0 -131 -96.5 -217t-239.5 -86q-109 0 -193.5 53.5t-129.5 146.5l143 101q38 -58 78.5 -85.5t93.5 -27.5q61 0 97 29t36 80q0 100 -155 100h-201v471h524v-184h-327v-121q52 10 82 10q117 0 202.5 -74t85.5 -196z" />
    <glyph glyph-name="uni2157" unicode="&#x2157;" horiz-adv-x="1923" 
d="M668 782q0 -128 -95.5 -213.5t-232.5 -85.5q-107 0 -190.5 53.5t-126.5 147.5l141 100q39 -59 78 -85.5t92 -26.5q55 0 89 30t34 80q0 99 -156 99h-98v51l159 235h-272v185h563v-56l-172 -256q82 -27 134.5 -96t52.5 -162zM422 0l778 1352h223l-778 -1352h-223zM1853 287
q0 -131 -96 -217t-239 -86q-109 0 -194 53.5t-130 146.5l143 101q38 -58 78.5 -85.5t93.5 -27.5q61 0 97 29t36 80q0 100 -155 100h-201v471h524v-184h-327v-121q52 10 82 10q117 0 202.5 -74t85.5 -196z" />
    <glyph glyph-name="uni2158" unicode="&#x2158;" horiz-adv-x="2045" 
d="M748 799v-168h-103v-131h-186v131h-434v53l254 668h210l-213 -553h183l2 223h184v-223h103zM547 0l778 1352h223l-778 -1352h-223zM1978 287q0 -131 -96.5 -217t-239.5 -86q-109 0 -193.5 53.5t-129.5 146.5l143 101q38 -58 78.5 -85.5t93.5 -27.5q61 0 97 29t36 80
q0 100 -155 100h-201v471h524v-184h-327v-121q52 10 82 10q117 0 202.5 -74t85.5 -196z" />
    <glyph glyph-name="uni2159" unicode="&#x2159;" horiz-adv-x="1869" 
d="M86 500v184h211v483h-193v185h400v-668h176v-184h-594zM514 0l778 1352h224l-779 -1352h-223zM1810 295q0 -131 -96.5 -221t-226.5 -90t-225 90t-95 225q0 67 26.5 124t90.5 140l211 289h240l-191 -262q103 -6 184.5 -91t81.5 -204zM1606 295q0 54 -34 88.5t-85 34.5
q-49 0 -83 -36t-34 -87q0 -54 33.5 -88.5t83.5 -34.5q51 0 85 34.5t34 88.5z" />
    <glyph glyph-name="uni215A" unicode="&#x215a;" horiz-adv-x="1798" 
d="M690 786q0 -131 -96.5 -217t-239.5 -86q-109 0 -193.5 53.5t-129.5 147.5l143 100q37 -58 78 -85t94 -27q61 0 97 29t36 79q0 101 -155 101h-201v471h524v-185h-328v-120q52 10 82 10q116 0 202.5 -74.5t86.5 -196.5zM444 0l779 1352h223l-778 -1352h-224zM1741 295
q0 -131 -97 -221t-227 -90t-224.5 90t-94.5 225q0 67 26 124t90 140l211 289h240l-190 -262q103 -6 184.5 -91t81.5 -204zM1536 295q0 54 -34 88.5t-85 34.5q-49 0 -83 -36t-34 -87q0 -54 33.5 -88.5t83.5 -34.5q51 0 85 34.5t34 88.5z" />
    <glyph glyph-name="oneeighth" unicode="&#x215b;" horiz-adv-x="1974" 
d="M86 500v184h211v483h-193v185h400v-668h176v-184h-594zM514 0l778 1352h224l-779 -1352h-223zM1903 231q0 -114 -90.5 -180.5t-235.5 -66.5t-235.5 66.5t-90.5 180.5q0 144 152 209q-115 77 -115 197q0 107 79.5 169t209.5 62t209.5 -62t79.5 -169q0 -123 -117 -197
q154 -68 154 -209zM1477 627q0 -31 22.5 -53.5t77.5 -49.5q53 26 76.5 49t23.5 54q0 35 -28.5 56.5t-71.5 21.5t-71.5 -21.5t-28.5 -56.5zM1700 240q0 39 -28.5 64.5t-94.5 51.5q-67 -26 -96 -51.5t-29 -64.5q0 -42 32.5 -66t92.5 -24q59 0 91 24t32 66z" />
    <glyph glyph-name="threeeighths" unicode="&#x215c;" horiz-adv-x="1882" 
d="M668 782q0 -128 -95.5 -213.5t-232.5 -85.5q-107 0 -190.5 53.5t-126.5 147.5l141 100q39 -59 78 -85.5t92 -26.5q55 0 89 30t34 80q0 99 -156 99h-98v51l159 235h-272v185h563v-56l-172 -256q82 -27 134.5 -96t52.5 -162zM422 0l778 1352h223l-778 -1352h-223zM1810 231
q0 -114 -90 -180.5t-235 -66.5t-235.5 66.5t-90.5 180.5q0 144 152 209q-115 77 -115 197q0 107 79.5 169t209.5 62t209.5 -62t79.5 -169q0 -123 -117 -197q153 -68 153 -209zM1384 627q0 -31 22.5 -53.5t78.5 -49.5q53 26 76.5 49t23.5 54q0 35 -28.5 56.5t-71.5 21.5
t-72 -21.5t-29 -56.5zM1608 240q0 39 -28.5 64.5t-94.5 51.5q-67 -26 -96 -51.5t-29 -64.5q0 -42 32.5 -66t92.5 -24q59 0 91 24t32 66z" />
    <glyph glyph-name="fiveeighths" unicode="&#x215d;" horiz-adv-x="1904" 
d="M690 786q0 -131 -96.5 -217t-239.5 -86q-109 0 -193.5 53.5t-129.5 147.5l143 100q37 -58 78 -85t94 -27q61 0 97 29t36 79q0 101 -155 101h-201v471h524v-185h-328v-120q52 10 82 10q116 0 202.5 -74.5t86.5 -196.5zM444 0l779 1352h223l-778 -1352h-224zM1833 231
q0 -114 -90.5 -180.5t-235.5 -66.5t-235 66.5t-90 180.5q0 144 151 209q-114 76 -114 197q0 107 79.5 169t208.5 62q130 0 209.5 -62t79.5 -169q0 -123 -117 -197q154 -68 154 -209zM1407 627q0 -31 22.5 -53.5t77.5 -49.5q54 26 77.5 49t23.5 54q0 35 -29 56.5t-72 21.5
t-71.5 -21.5t-28.5 -56.5zM1630 240q0 39 -28.5 64.5t-94.5 51.5q-67 -26 -96 -51.5t-29 -64.5q0 -42 32.5 -66t92.5 -24q59 0 91 24t32 66z" />
    <glyph glyph-name="seveneighths" unicode="&#x215e;" horiz-adv-x="1716" 
d="M57 1352h607v-56l-369 -796h-221l319 667h-336v185zM256 0l778 1352h223l-778 -1352h-223zM1645 231q0 -114 -90.5 -180.5t-235.5 -66.5t-235.5 66.5t-90.5 180.5q0 144 152 209q-115 77 -115 197q0 107 79.5 169t209.5 62t209.5 -62t79.5 -169q0 -123 -117 -197
q154 -68 154 -209zM1219 627q0 -31 22.5 -53.5t77.5 -49.5q53 26 76.5 49t23.5 54q0 35 -28.5 56.5t-71.5 21.5t-71.5 -21.5t-28.5 -56.5zM1442 240q0 39 -28.5 64.5t-94.5 51.5q-67 -26 -96 -51.5t-29 -64.5q0 -42 32.5 -66t92.5 -24q59 0 91 24t32 66z" />
    <glyph glyph-name="arrowleft" unicode="&#x2190;" horiz-adv-x="1331" 
d="M1239 541h-608l-142 6l326 -326l-162 -162l-571 570v53l571 571l162 -163l-321 -322l137 6h608v-233z" />
    <glyph glyph-name="arrowup" unicode="&#x2191;" horiz-adv-x="1331" 
d="M1262 664l-164 -164l-312 313l5 -131v-600h-250v600l4 131l-312 -313l-163 164l569 569h53z" />
    <glyph glyph-name="arrowright" unicode="&#x2192;" horiz-adv-x="1331" 
d="M678 1253l571 -571v-53l-571 -570l-162 162l326 326l-142 -6h-608v233h608l138 -6l-322 322z" />
    <glyph glyph-name="arrowdown" unicode="&#x2193;" horiz-adv-x="1331" 
d="M1098 813l164 -162l-570 -571h-53l-569 571l163 162l312 -313l-4 131v602h250v-602l-5 -131z" />
    <glyph glyph-name="arrowboth" unicode="&#x2194;" horiz-adv-x="1990" 
d="M1317 1253l571 -571v-53l-571 -570l-162 162l326 326l-140 -6h-710l-142 6l326 -326l-162 -162l-571 570v53l571 571l162 -163l-321 -322l137 6h710l136 -6l-322 322z" />
    <glyph glyph-name="arrowupdn" unicode="&#x2195;" horiz-adv-x="1331" 
d="M788 272l302 303l163 -161l-561 -564h-53l-561 564l164 161l303 -305l-4 131v549l4 131l-303 -305l-164 162l561 563h53l561 -563l-163 -162l-302 303l5 -129v-549z" />
    <glyph glyph-name="uni2196" unicode="&#x2196;" horiz-adv-x="1331" 
d="M705 766l485 -485l-170 -170l-483 483l-80 88v-473h-240v840l37 36h827v-231h-473z" />
    <glyph glyph-name="uni2197" unicode="&#x2197;" horiz-adv-x="1331" 
d="M1077 1085l37 -36v-840h-240v473l-79 -88l-484 -483l-170 170l486 485l96 88h-473v231h827z" />
    <glyph glyph-name="uni2198" unicode="&#x2198;" horiz-adv-x="1331" 
d="M874 1065h240v-840l-37 -39h-827v234h473l-96 88l-486 485l170 170l484 -483l79 -88v473z" />
    <glyph glyph-name="uni2199" unicode="&#x2199;" horiz-adv-x="1331" 
d="M705 508l-97 -88h473v-234h-827l-37 39v840h240v-473l80 88l483 483l170 -170z" />
    <glyph glyph-name="partialdiff" unicode="&#x2202;" horiz-adv-x="1288" 
d="M1174 743q2 -129 -27.5 -247.5t-86 -213t-133 -165t-173.5 -107.5t-203 -35q-126 0 -228 47.5t-164.5 144t-62.5 226.5q0 196 138.5 319.5t371.5 123.5q138 0 283 -43q-6 170 -68.5 251.5t-185.5 81.5q-78 0 -137 -33.5t-121 -107.5l-174 148q145 243 444 243
q245 0 386 -169.5t141 -463.5zM877 561q-152 35 -256 35q-120 0 -182 -52.5t-62 -140.5q0 -83 52.5 -134.5t141.5 -51.5q113 0 195 89t111 255z" />
    <glyph glyph-name="uni2206" unicode="&#x2206;" horiz-adv-x="1353" 
d="M723 1376l569 -1302v-74h-1233v74l572 1302h92zM922 250l-244 571l-246 -571h490z" />
    <glyph glyph-name="product" unicode="&#x220f;" horiz-adv-x="1435" 
d="M156 -248v1600h1124v-1600h-276v1350h-572v-1350h-276z" />
    <glyph glyph-name="summation" unicode="&#x2211;" horiz-adv-x="1167" 
d="M496 2h587v-250h-1011v62l430 759l-430 717v62h987v-250h-555l299 -496v-61z" />
    <glyph glyph-name="minus" unicode="&#x2212;" 
d="M90 541v233h965v-233h-965z" />
    <glyph glyph-name="uni2219" unicode="&#x2219;" horiz-adv-x="573" 
d="M96 655q0 80 56 135.5t137 55.5q79 0 133.5 -55.5t54.5 -135.5q0 -82 -53 -136t-135 -54t-137.5 54.5t-55.5 135.5z" />
    <glyph glyph-name="radical" unicode="&#x221a;" horiz-adv-x="1503" 
d="M1247 1536h250l-1051 -1808h-90v632h-336v222h560v-193z" />
    <glyph glyph-name="infinity" unicode="&#x221e;" horiz-adv-x="1796" 
d="M1759 653q0 -108 -51 -200t-148.5 -148.5t-222.5 -56.5q-130 0 -233 59.5t-207 177.5q-104 -118 -207 -177.5t-233 -59.5q-186 0 -303 119t-117 286q0 109 50.5 201.5t148 149.5t223.5 57q130 0 232 -58t206 -174q103 116 205.5 174t230.5 58q190 0 308 -119.5
t118 -288.5zM754 657q-73 82 -135 121t-132 39q-83 0 -132.5 -43t-49.5 -117q0 -75 50 -120t134 -45q69 0 131.5 40.5t133.5 124.5zM1491 657q0 75 -49.5 117.5t-134.5 42.5q-71 0 -132.5 -39t-132.5 -121q73 -84 135.5 -124.5t131.5 -40.5q82 0 132 45t50 120z" />
    <glyph glyph-name="integral" unicode="&#x222b;" horiz-adv-x="735" 
d="M4 -248v232l102 -4q189 0 189 200q0 98 -64 473l-28 174q-45 270 -45 398q0 193 106.5 293t300.5 100q89 0 166 -21v-231l-102 4q-189 0 -189 -201q0 -94 62 -446q76 -454 76 -598q0 -192 -106.5 -292.5t-299.5 -100.5q-95 0 -168 20z" />
    <glyph glyph-name="approxequal" unicode="&#x2248;" 
d="M639 713l-180 108q-70 47 -113 47q-32 0 -49.5 -21.5t-17.5 -58.5v-38h-211q-1 14 -2 30.5t-2 27.5t-1 17q0 127 70 209q72 84 176 84q86 0 174 -53l181 -111q46 -27 68 -36t44 -9q31 0 50.5 22.5t19.5 55.5v41h209q6 -40 6 -76q0 -128 -71.5 -210.5t-176.5 -82.5
q-86 0 -174 54zM639 244l-180 108q-70 47 -113 47q-32 0 -49.5 -21.5t-17.5 -58.5v-38h-211q-1 14 -2 30.5t-2 27.5t-1 17q0 127 70 209q72 84 176 84q86 0 174 -53l181 -111q46 -27 68 -36t44 -9q31 0 50.5 22.5t19.5 55.5v41h209q6 -41 6 -76q0 -128 -71.5 -210.5
t-176.5 -82.5q-86 0 -174 54z" />
    <glyph glyph-name="notequal" unicode="&#x2260;" 
d="M1036 760h-278l-123 -207h401v-234h-542l-123 -204h-244l123 204h-137v234h278l125 207h-403v233h544l121 201h242l-121 -201h137v-233z" />
    <glyph glyph-name="lessequal" unicode="&#x2264;" 
d="M1028 1147v-238l-469 -170l469 -170v-237l-950 370v74zM104 0v221h924v-221h-924z" />
    <glyph glyph-name="greaterequal" unicode="&#x2265;" 
d="M119 1147l950 -371v-74l-950 -370v237l469 170l-469 170v238zM119 0v221h923v-221h-923z" />
    <glyph glyph-name="uni24EA" unicode="&#x24ea;" horiz-adv-x="2002" 
d="M117 676q-4 176 67 341t191 285t285 191t341 68q174 4 339 -67.5t285 -192.5t191.5 -286t67.5 -339q4 -175 -67.5 -340t-191.5 -285.5t-285 -192t-339 -67.5q-176 -4 -341 67t-285 191.5t-191 285.5t-67 341zM1669 676q2 139 -51 266t-143.5 217t-214.5 142.5t-259 50.5
q-180 3 -334.5 -86.5t-245 -246.5t-87.5 -343q-3 -186 87.5 -343t245 -246.5t334.5 -86.5q135 -2 259 50.5t214.5 142.5t143.5 217t51 266zM627 682q0 214 97.5 341.5t276.5 127.5t277 -127.5t98 -341.5q0 -208 -96 -348q-94 -135 -279 -135q-183 0 -278 135
q-96 140 -96 348zM1151 680q0 266 -150 266q-75 0 -111 -65.5t-36 -200.5q0 -277 147 -277q150 0 150 277z" />
    <glyph glyph-name="uni24FF" unicode="&#x24ff;" horiz-adv-x="2002" 
d="M117 676q-4 176 67 341t191 285t285 191t341 68q174 4 339 -67.5t285 -192.5t191.5 -286t67.5 -339q4 -175 -67.5 -340t-191.5 -285.5t-285 -192t-339 -67.5q-176 -4 -341 67t-285 191.5t-191 285.5t-67 341zM1378 682q0 214 -98 341.5t-279 127.5t-278.5 -127.5
t-97.5 -341.5q0 -208 96 -348q95 -135 280 -135t279 135q98 137 98 348zM858 680q0 134 35 198t108 64q146 0 146 -262q0 -272 -146 -272q-143 0 -143 272z" />
    <glyph glyph-name="filledbox" unicode="&#x25a0;" horiz-adv-x="1495" 
d="M184 113v1126h1127v-1126h-1127z" />
    <glyph glyph-name="uni25A1" unicode="&#x25a1;" horiz-adv-x="1495" 
d="M184 113v1126h1127v-1126h-1127zM424 342h647v668h-647v-668z" />
    <glyph glyph-name="uni25AA" unicode="&#x25aa;" horiz-adv-x="1085" 
d="M152 119v778h780v-778h-780z" />
    <glyph glyph-name="uni25AB" unicode="&#x25ab;" horiz-adv-x="1085" 
d="M152 119v778h780v-778h-780zM375 334h334v346h-334v-346z" />
    <glyph glyph-name="triagup" unicode="&#x25b2;" horiz-adv-x="1495" 
d="M59 113l-18 32l688 1207h37l688 -1207l-18 -32h-1377z" />
    <glyph glyph-name="uni25B3" unicode="&#x25b3;" horiz-adv-x="1495" 
d="M766 1352l688 -1207l-18 -32h-1377l-18 32l688 1207h37zM1067 348l-319 559l-320 -559h639z" />
    <glyph glyph-name="uni25B4" unicode="&#x25b4;" horiz-adv-x="1085" 
d="M72 119l-19 33l471 825h37l471 -825l-18 -33h-942z" />
    <glyph glyph-name="uni25B5" unicode="&#x25b5;" horiz-adv-x="1085" 
d="M561 977l471 -825l-18 -33h-942l-19 33l471 825h37zM721 297l-178 315l-178 -315h356z" />
    <glyph glyph-name="uni25B6" unicode="&#x25b6;" horiz-adv-x="1495" 
d="M279 -25l-33 19v1364l33 18l1056 -682v-37z" />
    <glyph glyph-name="uni25B7" unicode="&#x25b7;" horiz-adv-x="1495" 
d="M279 1376l1056 -682v-37l-1056 -682l-33 19v1364zM932 676l-447 287v-576z" />
    <glyph glyph-name="uni25B8" unicode="&#x25b8;" horiz-adv-x="1085" 
d="M258 27l-33 16v930l33 18l723 -465v-37z" />
    <glyph glyph-name="uni25B9" unicode="&#x25b9;" horiz-adv-x="1085" 
d="M258 991l723 -465v-37l-723 -462l-33 16v930zM662 508l-252 162v-322z" />
    <glyph glyph-name="triagrt" unicode="&#x25ba;" horiz-adv-x="1968" 
d="M238 -25l-33 19v1364l33 18l1689 -682v-37z" />
    <glyph glyph-name="uni25BB" unicode="&#x25bb;" horiz-adv-x="1968" 
d="M238 1376l1689 -682v-37l-1689 -682l-33 19v1364zM1341 676l-897 362v-725z" />
    <glyph glyph-name="triagdn" unicode="&#x25bc;" horiz-adv-x="1495" 
d="M59 1239h1377l18 -33l-688 -1206h-37l-688 1206z" />
    <glyph glyph-name="uni25BD" unicode="&#x25bd;" horiz-adv-x="1495" 
d="M1436 1239l18 -33l-688 -1206h-37l-688 1206l18 33h1377zM1067 1004h-639l320 -560z" />
    <glyph glyph-name="uni25BE" unicode="&#x25be;" horiz-adv-x="1085" 
d="M524 39l-471 825l19 33h942l18 -33l-471 -825h-37z" />
    <glyph glyph-name="uni25BF" unicode="&#x25bf;" horiz-adv-x="1085" 
d="M1014 897l18 -33l-471 -825h-37l-471 825l19 33h942zM721 717h-354l176 -314z" />
    <glyph glyph-name="uni25C0" unicode="&#x25c0;" horiz-adv-x="1495" 
d="M1217 -25l-1057 682v37l1057 682l32 -18v-1364z" />
    <glyph glyph-name="uni25C1" unicode="&#x25c1;" horiz-adv-x="1495" 
d="M1217 1376l32 -18v-1364l-32 -19l-1057 682v37zM1010 963l-447 -287l447 -289v576z" />
    <glyph glyph-name="uni25C2" unicode="&#x25c2;" horiz-adv-x="1085" 
d="M827 27l-723 462v37l723 465l33 -18v-930z" />
    <glyph glyph-name="uni25C3" unicode="&#x25c3;" horiz-adv-x="1085" 
d="M827 991l33 -18v-930l-33 -16l-723 462v37zM676 348v322l-252 -162z" />
    <glyph glyph-name="triaglf" unicode="&#x25c4;" horiz-adv-x="1968" 
d="M1731 -25l-1690 682v37l1690 682l32 -18v-1364z" />
    <glyph glyph-name="uni25C5" unicode="&#x25c5;" horiz-adv-x="1968" 
d="M1731 1376l32 -18v-1364l-32 -19l-1690 682v37zM1524 1038l-897 -362l897 -363v725z" />
    <glyph glyph-name="lozenge" unicode="&#x25ca;" horiz-adv-x="1361" 
d="M727 1376l436 -700l-436 -701h-92l-436 701l436 700h92zM475 676l213 -336l203 336l-207 334z" />
    <glyph glyph-name="circle" unicode="&#x25cb;" horiz-adv-x="1495" 
d="M72 676q-4 175 90 333t253 251.5t335 89.5q105 2 207.5 -32t186 -98t147.5 -148t98 -186.5t32 -207.5q2 -105 -32 -208t-98 -188t-147.5 -149.5t-186 -99.5t-207.5 -33q-175 -4 -333.5 90t-253.5 252.5t-91 333.5zM1184 678q0 183 -127 311.5t-307 128.5
q-183 0 -312 -129.5t-129 -312.5q0 -184 128.5 -314.5t310.5 -130.5q181 0 308.5 130.5t127.5 316.5z" />
    <glyph glyph-name="uni25CF" unicode="&#x25cf;" horiz-adv-x="1495" 
d="M72 676q-4 175 90 333t253 251.5t335 89.5q105 2 207.5 -32t186 -98t147.5 -148t98 -186.5t32 -207.5q2 -105 -32 -208t-98 -188t-147.5 -149.5t-186 -99.5t-207.5 -33q-175 -4 -333.5 90t-253.5 252.5t-91 333.5z" />
    <glyph glyph-name="uni261C" unicode="&#x261c;" horiz-adv-x="2478" 
d="M2410 584v-80l-180 -152l105 -362l-72 -49l-475 301q-197 -101 -391.5 -159t-341.5 -58q-122 0 -184 40t-62 111q0 46 27 76q-93 35 -93 119q0 61 52 98q-74 35 -74 109q0 41 22 69l-372 4q-168 2 -249 53.5t-81 159.5q0 115 91.5 159t305.5 44q131 0 334 -16
q4 89 64 142.5t141 53.5q86 0 166 -51l508 -311q7 -3 33 -10.5t52.5 -16.5t43.5 -16l483 305l72 -47l-105 -365zM969 1028q71 -9 237 -37l-127 72q-30 18 -55 18q-46 0 -55 -53zM1726 389v303q-242 99 -610 156q-381 59 -766 59q-69 0 -97 -10.5t-28 -36.5q0 -25 24.5 -37.5
t84.5 -13.5l217 -4q352 -6 588 -21v-141l-226 2q-12 0 -20 -7.5t-8 -19.5t8 -21t18 -9h250v-139h-225q-11 0 -19 -8.5t-8 -20.5t7.5 -20.5t19.5 -8.5h248v-141q-95 -12 -164 -12h-16q-13 0 -21 -8.5t-8 -20.5q0 -31 45 -31q114 0 328 60q202 56 378 151zM1898 727v-367
l207 -127l-57 193l152 119l-152 117l57 192z" />
    </font>
</defs>
</svg>
