<?xml version="1.0" standalone="no"?>
<!DOCTYPE svg PUBLIC "-//W3C//DTD SVG 1.1//EN" "http://www.w3.org/Graphics/SVG/1.1/DTD/svg11.dtd" >
<svg xmlns="http://www.w3.org/2000/svg" xmlns:xlink="http://www.w3.org/1999/xlink" version="1.1">
<metadata>
Created by FontForge 20170731 at Mon Dec 21 18:11:25 2020
 By Aleksey,,,
Copyright (c) 2015, 2018 by Jakob Runge, under exclusive license to TypeMates. All rights reserved.
</metadata>
<defs>
<font id="CeraPro-BlackItalic" horiz-adv-x="1146" >
  <font-face 
    font-family="Cera Pro"
    font-weight="900"
    font-style="italic"
    font-stretch="normal"
    units-per-em="2048"
    panose-1="0 0 10 0 0 0 0 0 0 0"
    ascent="1655"
    descent="-393"
    x-height="1024"
    cap-height="1352"
    bbox="-922 -522 2931.06 2048"
    underline-thickness="204"
    underline-position="-409"
    slope="-10"
    unicode-range="U+0020-FB02"
  />
<missing-glyph horiz-adv-x="1468" 
d="M287 1352h1198l-238 -1352h-1198zM1047 193l165 946h-731z" />
    <glyph glyph-name="fi" unicode="fi" horiz-adv-x="1370" 
d="M639 1120l-16 -96h206l-51 -291h-207l-131 -751q-32 -184 -144.5 -279.5t-295.5 -95.5q-107 0 -219 41l47 284q95 -10 117 -10q72 0 108 29.5t47 95.5l119 686h-143l51 291h143l29 162q32 184 144.5 279.5t295.5 95.5q107 0 219 -41l-47 -285q-95 10 -116 10
q-72 0 -108.5 -29.5t-47.5 -95.5zM817 0l180 1024h353l-181 -1024h-352zM1024 1386q0 88 62 148.5t153 60.5t154 -60.5t63 -148.5q0 -86 -63 -146t-154 -60t-153 59t-62 147z" />
    <glyph glyph-name="fl" unicode="fl" horiz-adv-x="1370" 
d="M639 1120l-16 -96h206l-51 -291h-207l-131 -751q-32 -184 -144.5 -279.5t-295.5 -95.5q-107 0 -219 41l47 284q95 -10 117 -10q72 0 108 29.5t47 95.5l119 686h-143l51 291h143l29 162q32 184 144.5 279.5t295.5 95.5q107 0 219 -41l-47 -285q-95 10 -116 10
q-72 0 -108.5 -29.5t-47.5 -95.5zM817 0l270 1536h353l-271 -1536h-352z" />
    <glyph glyph-name=".notdef" horiz-adv-x="1468" 
d="M287 1352h1198l-238 -1352h-1198zM1047 193l165 946h-731z" />
    <glyph glyph-name=".null" horiz-adv-x="0" 
 />
    <glyph glyph-name="nonmarkingreturn" horiz-adv-x="682" 
 />
    <glyph glyph-name="space" unicode=" " horiz-adv-x="573" 
 />
    <glyph glyph-name="exclam" unicode="!" horiz-adv-x="768" 
d="M248 541l74 811h426l-213 -811h-287zM102 205q0 98 66 163.5t168 65.5q98 0 162.5 -66t64.5 -163q0 -99 -64.5 -164.5t-162.5 -65.5q-102 0 -168 65.5t-66 164.5z" />
    <glyph glyph-name="quotedbl" unicode="&#x22;" horiz-adv-x="1202" 
d="M203 754l104 598h402l-232 -598h-274zM760 754l104 598h402l-232 -598h-274z" />
    <glyph glyph-name="numbersign" unicode="#" horiz-adv-x="1294" 
d="M1292 774h-188l-35 -196h191l-52 -295h-192l-49 -283h-285l49 283h-246l-49 -283h-284l49 283h-185l52 295h186l35 196h-189l52 295h190l49 283h285l-49 -283h245l50 283h284l-49 -283h186zM535 557h245l43 238h-245z" />
    <glyph glyph-name="dollar" unicode="$" horiz-adv-x="1103" 
d="M1016 453q0 -154 -109 -269t-276 -137l-45 -250h-295l51 281q-191 77 -295 272l254 166q116 -162 262 -162q107 0 107 64q0 29 -23.5 49.5t-87.5 50.5l-119 60q-130 63 -191 144t-61 191q0 148 101 252q101 107 266 131l43 236h295l-49 -268q137 -61 227 -220l-258 -174
q-43 63 -88 91t-102 28q-86 0 -86 -57q0 -25 20 -45t68 -43l135 -64q131 -62 193.5 -141.5t62.5 -185.5z" />
    <glyph glyph-name="percent" unicode="%" horiz-adv-x="1730" 
d="M174 1026q0 142 107.5 245t255.5 103q140 0 238.5 -95t98.5 -232q0 -142 -107.5 -246.5t-254.5 -104.5q-140 0 -239 97t-99 233zM209 0l1100 1352h276l-1102 -1352h-274zM623 1038q0 44 -26.5 71.5t-68.5 27.5q-44 0 -72 -29t-28 -76q0 -44 26.5 -71t69.5 -27t71 30
t28 74zM922 307q0 142 107 245t255 103q140 0 239 -95t99 -232q0 -142 -107.5 -246.5t-254.5 -104.5q-140 0 -239 97t-99 233zM1370 319q0 44 -26.5 71.5t-67.5 27.5q-44 0 -72 -29t-28 -76q0 -44 26.5 -71t69.5 -27t70.5 29.5t27.5 74.5z" />
    <glyph glyph-name="ampersand" unicode="&#x26;" horiz-adv-x="1445" 
d="M1391 584l-74 -82q-151 -168 -215 -232l172 -270h-383l-43 66q-163 -91 -332 -91q-196 0 -322 102t-126 259q0 227 327 438q-76 122 -76 242q0 154 117.5 257t294.5 103q161 0 261 -82t100 -215q0 -99 -64.5 -187t-204.5 -181l111 -176q100 103 233 256zM643 1026
q0 -34 33 -84l8 -14q51 35 70.5 58t19.5 46q0 26 -17 42t-46 16q-31 0 -49.5 -17.5t-18.5 -46.5zM684 322l-139 219q-72 -47 -97.5 -79t-25.5 -73q0 -50 34.5 -81.5t88.5 -31.5q63 0 139 46z" />
    <glyph glyph-name="quotesingle" unicode="'" horiz-adv-x="645" 
d="M203 754l104 598h402l-232 -598h-274z" />
    <glyph glyph-name="parenleft" unicode="(" horiz-adv-x="792" 
d="M139 432q-3 250 80 480.5t232 391.5t333 216l103 -211q-212 -108 -332 -342q-121 -236 -121 -533q0 -178 49 -299.5t160 -220.5l-170 -186q-160 91 -247 274t-87 430z" />
    <glyph glyph-name="parenright" unicode=")" horiz-adv-x="790" 
d="M53 -272l-102 211q212 108 332 342t120 532q0 178 -49 300t-159 220l170 187q160 -91 246.5 -274.5t86.5 -430.5q3 -250 -80.5 -480t-232.5 -391t-332 -216z" />
    <glyph glyph-name="asterisk" unicode="*" horiz-adv-x="1032" 
d="M1081 1141l-207 -109l158 -174l-127 -149l-196 125l-72 -224l-195 35l11 234l-230 -50l-67 185l206 108l-157 174l127 150l196 -125l72 223l195 -35l-11 -233l230 49z" />
    <glyph glyph-name="plus" unicode="+" 
d="M350 170l62 344h-334l51 295h334l61 344h332l-61 -344h331l-51 -295h-332l-61 -344h-332z" />
    <glyph glyph-name="comma" unicode="," horiz-adv-x="573" 
d="M-45 -362l117 659h399l-240 -659h-276z" />
    <glyph glyph-name="hyphen" unicode="-" horiz-adv-x="696" 
d="M88 518l51 295h533l-51 -295h-533z" />
    <glyph glyph-name="period" unicode="." horiz-adv-x="573" 
d="M6 205q0 98 66 163.5t168 65.5q98 0 162.5 -66t64.5 -163q0 -99 -64.5 -164.5t-162.5 -65.5q-102 0 -168 65.5t-66 164.5z" />
    <glyph glyph-name="slash" unicode="/" horiz-adv-x="1435" 
d="M-129 -248l1380 1845h377l-1384 -1845h-373z" />
    <glyph glyph-name="zero" unicode="0" horiz-adv-x="1327" 
d="M123 508q0 193 70 391q71 201 223 338q154 139 391 139q227 0 346 -138t119 -382q0 -185 -72 -395q-71 -205 -225 -344q-154 -142 -389 -142q-224 0 -343.5 143t-119.5 390zM915 848q0 104 -37.5 154.5t-115.5 50.5q-61 2 -110 -33t-80 -91.5t-52.5 -130t-30 -145
t-8.5 -141.5q0 -213 150 -213q59 -2 108.5 35.5t81 97t53.5 135t31.5 147t9.5 134.5z" />
    <glyph glyph-name="one" unicode="1" horiz-adv-x="849" 
d="M727 1352h113l-238 -1352h-352l168 958l-236 -53l-35 316z" />
    <glyph glyph-name="two" unicode="2" horiz-adv-x="1226" 
d="M780 367l-90 -76h397l-51 -291l-1034 -2l12 72l576 518q115 105 166 180.5t51 146.5q0 63 -35 100.5t-96 37.5q-72 0 -115 -58t-43 -157v-37h-352q-2 10 -2 49q0 148 68.5 268.5t189 189t268.5 68.5q211 0 344 -120.5t133 -313.5q0 -147 -88 -272q-92 -132 -299 -303z
" />
    <glyph glyph-name="three" unicode="3" horiz-adv-x="1138" 
d="M1186 1352l-17 -92l-340 -418q101 -56 160.5 -155t59.5 -214q0 -138 -71 -252.5t-196 -180t-276 -65.5q-195 0 -330.5 97t-185.5 270l272 150q47 -103 104.5 -149t139.5 -46t130 42t48 114q0 139 -205 139h-186l16 90l285 358h-369l56 312h905z" />
    <glyph glyph-name="four" unicode="4" horiz-adv-x="1220" 
d="M1202 492l-53 -291h-160l-35 -201h-350l35 201h-666l17 92l555 1061h377l-457 -862h225l60 335h350l-60 -335h162z" />
    <glyph glyph-name="five" unicode="5" horiz-adv-x="1167" 
d="M1108 1040h-498l-26 -155q31 8 80 8q103 0 196 -47.5t155 -143t62 -217.5q0 -78 -23.5 -152t-70.5 -139t-112.5 -114t-156 -77t-194.5 -28q-203 0 -342 99.5t-184 267.5l272 150q81 -195 254 -195q89 0 141 44t52 114q0 137 -203 137h-317l133 760h837z" />
    <glyph glyph-name="six" unicode="6" horiz-adv-x="1169" 
d="M1102 492q3 -135 -72.5 -256t-204 -192.5t-272.5 -68.5q-136 -3 -251.5 61t-181.5 176t-63 245q0 111 47 207q51 97 185 249l389 439h434l-369 -420q152 -25 255.5 -151t103.5 -289zM758 483q0 78 -46.5 125t-121.5 47q-82 0 -136.5 -54t-54.5 -134q0 -75 48.5 -125.5
t121.5 -50.5q80 0 134.5 55t54.5 137z" />
    <glyph glyph-name="seven" unicode="7" horiz-adv-x="1105" 
d="M233 1352h979l-16 -92l-784 -1260h-398l666 1040h-502z" />
    <glyph glyph-name="eight" unicode="8" horiz-adv-x="1218" 
d="M1124 393q0 -116 -68 -211.5t-185.5 -150t-260.5 -54.5q-237 0 -394 108t-157 271q0 133 82 230t232 141q-63 55 -92 114.5t-29 133.5q0 176 133.5 287.5t341.5 111.5q212 0 340.5 -97.5t128.5 -258.5q0 -230 -252 -356q180 -98 180 -269zM573 977q0 -37 22.5 -66.5
t88.5 -76.5q103 36 144.5 70.5t41.5 82.5q0 49 -42 81t-105 32q-66 0 -108 -34.5t-42 -88.5zM774 391q0 44 -32 82t-107 82q-121 -32 -171 -71t-50 -99t47 -94.5t129 -34.5q85 0 134.5 36.5t49.5 98.5z" />
    <glyph glyph-name="nine" unicode="9" horiz-adv-x="1167" 
d="M1176 895q0 -111 -50 -211q-51 -97 -182 -246l-389 -438h-434l368 420q-152 25 -255 151t-103 289q-2 101 42.5 197.5t119.5 166.5t177 112t210 40q102 2 194.5 -35t159.5 -101.5t105.5 -155t36.5 -189.5zM834 885q0 75 -48.5 125.5t-121.5 50.5q-80 0 -134.5 -55.5
t-54.5 -137.5q0 -78 46.5 -125t121.5 -47q81 0 136 54.5t55 134.5z" />
    <glyph glyph-name="colon" unicode=":" horiz-adv-x="573" 
d="M115 819q0 98 65.5 164t167.5 66q98 0 162.5 -66.5t64.5 -163.5q0 -98 -64.5 -163.5t-162.5 -65.5q-102 0 -167.5 65t-65.5 164zM6 205q0 98 66 163.5t168 65.5q98 0 162.5 -66t64.5 -163q0 -99 -64.5 -164.5t-162.5 -65.5q-102 0 -168 65.5t-66 164.5z" />
    <glyph glyph-name="semicolon" unicode=";" horiz-adv-x="573" 
d="M115 819q0 98 65.5 164t167.5 66q98 0 162.5 -66.5t64.5 -163.5q0 -98 -64.5 -163.5t-162.5 -65.5q-102 0 -167.5 65t-65.5 164zM-45 -362l117 659h399l-240 -659h-276z" />
    <glyph glyph-name="less" unicode="&#x3c;" 
d="M1157 1155l-53 -313l-475 -189l409 -190l-53 -289l-907 444l16 93z" />
    <glyph glyph-name="equal" unicode="=" 
d="M139 741l51 295h957l-51 -295h-957zM59 291l52 295h956l-51 -295h-957z" />
    <glyph glyph-name="greater" unicode="&#x3e;" 
d="M221 1155l907 -444l-16 -93l-1063 -444l55 315l480 189l-412 194z" />
    <glyph glyph-name="question" unicode="?" horiz-adv-x="933" 
d="M475 852q80 51 103.5 76.5t23.5 60.5q0 31 -19 48.5t-51 17.5q-38 0 -69.5 -25.5t-73.5 -89.5l-262 150q148 286 448 286q180 0 288 -87.5t108 -235.5q0 -96 -50.5 -176t-156.5 -154l-59 -39q-94 -64 -117 -141h-285q0 102 38 173.5t134 135.5zM182 205q0 97 66.5 163
t165.5 66t164 -66t65 -163q0 -98 -65.5 -164t-163.5 -66t-165 66.5t-67 163.5z" />
    <glyph glyph-name="at" unicode="@" horiz-adv-x="1992" 
d="M1939 631q0 -275 -179.5 -432.5t-493.5 -157.5h-164l16 117q-88 -119 -248 -119q-157 0 -258.5 113t-101.5 288q0 138 58 251.5t160 179t226 65.5q190 0 269 -127l18 104h283l-109 -616q115 1 183.5 91t68.5 237q0 227 -155 356t-427 129q-209 3 -382 -87t-271 -248.5
t-94 -348.5q-3 -160 80.5 -291.5t231.5 -205.5t329 -72q72 0 192 14l21 -236q-101 -38 -260 -38q-179 -3 -340.5 60t-277 171.5t-182.5 261t-64 320.5q-3 157 47.5 305t145.5 267.5t221.5 209t284 137.5t323.5 45q182 2 341 -53.5t271.5 -153.5t175.5 -237t61 -299z
M1151 494q0 69 -41 114t-104 45q-69 0 -119.5 -54.5t-50.5 -129.5q0 -68 39.5 -110t105.5 -42q72 0 121 51t49 126z" />
    <glyph glyph-name="A" unicode="A" horiz-adv-x="1351" 
d="M893 0l-31 113h-475l-70 -113h-397l858 1376h113l371 -1376h-369zM788 395l-59 301l-168 -301h227z" />
    <glyph glyph-name="B" unicode="B" horiz-adv-x="1275" 
d="M1200 408q0 -177 -139.5 -292.5t-351.5 -115.5h-660l238 1352h446q187 0 306.5 -108t119.5 -277q0 -170 -123 -269q79 -48 121.5 -122.5t42.5 -167.5zM686 1057h-113l-43 -240h136q66 0 105.5 34t39.5 91q0 51 -34 83t-91 32zM854 418q0 112 -123 112h-250l-43 -233h273
q143 0 143 121z" />
    <glyph glyph-name="C" unicode="C" horiz-adv-x="1482" 
d="M102 631q-3 150 59.5 289t168.5 240t251.5 160t301.5 56q214 0 373.5 -101.5t234.5 -287.5l-287 -170q-108 236 -342 236q-173 0 -286 -115.5t-113 -290.5q0 -158 94 -253t252 -95q209 0 362 205l248 -195q-109 -160 -274.5 -247t-362.5 -87q-191 -3 -348 82.5t-246 237
t-86 336.5z" />
    <glyph glyph-name="D" unicode="D" horiz-adv-x="1415" 
d="M49 0l238 1352h409q192 3 350 -79.5t246.5 -227.5t85.5 -322q2 -154 -58 -289t-166 -231t-254.5 -150.5t-317.5 -52.5h-533zM457 315l147 2q187 5 300.5 111t113.5 279q0 152 -93 238.5t-255 86.5h-86z" />
    <glyph glyph-name="E" unicode="E" horiz-adv-x="1185" 
d="M49 0l238 1352h938l-56 -318h-585l-33 -186h418l-54 -295h-417l-41 -236h610l-55 -317h-963z" />
    <glyph glyph-name="F" unicode="F" horiz-adv-x="1110" 
d="M49 0l238 1352h917l-57 -318h-565l-45 -258h458l-53 -317h-459l-82 -459h-352z" />
    <glyph glyph-name="G" unicode="G" horiz-adv-x="1538" 
d="M102 631q-3 150 59.5 289t168.5 240t252 160t303 56q192 0 340 -84t239 -245l-266 -197q-63 105 -143.5 154t-188.5 49q-177 0 -290 -114.5t-113 -293.5q0 -164 95 -260t257 -96q176 0 287 108l14 76h-315l53 303h668l-82 -463q-104 -159 -279 -247q-180 -91 -377 -91
q-144 -2 -272 47.5t-218.5 137t-142 210.5t-49.5 261z" />
    <glyph glyph-name="H" unicode="H" horiz-adv-x="1468" 
d="M49 0l238 1352h352l-86 -494h494l86 494h352l-238 -1352h-352l94 541h-493l-95 -541h-352z" />
    <glyph glyph-name="I" unicode="I" horiz-adv-x="622" 
d="M49 0l238 1352h352l-238 -1352h-352z" />
    <glyph glyph-name="J" unicode="J" horiz-adv-x="821" 
d="M-57 25l51 290q112 -16 158 -16q80 0 119 31t51 104l161 918h353l-172 -985q-32 -192 -146 -292t-299 -100q-144 0 -276 50z" />
    <glyph glyph-name="K" unicode="K" horiz-adv-x="1423" 
d="M1495 1352l-588 -674l426 -678h-385l-428 678l-119 -678h-352l238 1352h352l-107 -611l529 611h434z" />
    <glyph glyph-name="L" unicode="L" horiz-adv-x="1095" 
d="M49 0l238 1352h352l-182 -1035h559l-55 -317h-912z" />
    <glyph glyph-name="M" unicode="M" horiz-adv-x="1646" 
d="M1554 1376h113l-242 -1376h-352l94 535l-305 -295h-112l-244 356l-105 -596h-352l242 1376h112l453 -702z" />
    <glyph glyph-name="N" unicode="N" horiz-adv-x="1468" 
d="M1133 1352h352l-242 -1377h-113l-604 738l-125 -713h-352l242 1376h112l607 -723z" />
    <glyph glyph-name="O" unicode="O" horiz-adv-x="1589" 
d="M102 631q-3 150 59.5 289.5t168.5 239.5t250.5 159t298.5 57q188 3 344 -83t244 -237.5t85 -334.5q3 -150 -59.5 -289.5t-168 -240t-250 -159.5t-298.5 -57q-141 -2 -267 48.5t-216 138t-141.5 210t-49.5 259.5zM1192 705q0 157 -94 252.5t-244 95.5q-166 0 -278.5 -116
t-112.5 -290q0 -157 94 -252.5t244 -95.5q166 0 278.5 116t112.5 290z" />
    <glyph glyph-name="P" unicode="P" horiz-adv-x="1255" 
d="M49 0l238 1352h471q233 0 370 -119q138 -120 138 -320q0 -221 -165.5 -357t-432.5 -136h-193l-74 -420h-352zM528 727h199q82 0 130 44.5t48 119.5q0 72 -39.5 112.5t-111.5 40.5h-168z" />
    <glyph glyph-name="Q" unicode="Q" horiz-adv-x="1587" 
d="M1931 -178l99 2l-48 -273q-81 -24 -217 -24q-264 0 -493 125q-230 122 -365 334q-86 -11 -131 -11q-141 -2 -267 48.5t-216 138t-141.5 210t-49.5 259.5q-3 148 59 286.5t167 240t250 161.5t301 57q188 3 344 -83t244 -237.5t85 -334.5q0 -185 -88 -347t-243 -265
q116 -156 278 -220q165 -67 432 -67zM801 299q166 0 278.5 117t112.5 289q0 156 -93 252t-245 96q-166 0 -278.5 -117t-112.5 -289q0 -156 93 -252t245 -96z" />
    <glyph glyph-name="R" unicode="R" horiz-adv-x="1335" 
d="M963 485l282 -485h-381l-252 420h-137l-74 -420h-352l238 1352h471q230 0 369 -118t139 -312q0 -142 -80.5 -258t-222.5 -179zM586 1044l-58 -317h199q82 0 130 44.5t48 119.5q0 72 -39.5 112.5t-111.5 40.5h-168z" />
    <glyph glyph-name="S" unicode="S" 
d="M12 315l256 166q131 -192 307 -192q68 0 106 25.5t38 72.5q0 37 -29.5 66.5t-103.5 66.5l-135 68q-137 69 -206 157t-69 211q0 181 140 300.5t352 119.5q303 0 467 -280l-258 -174q-54 74 -108.5 107.5t-121.5 33.5q-57 0 -89 -23.5t-32 -64.5q0 -37 27 -65.5t84 -55.5
l149 -72q281 -133 281 -360q0 -189 -144.5 -318t-359.5 -129q-180 0 -321.5 87.5t-229.5 252.5z" />
    <glyph glyph-name="T" unicode="T" horiz-adv-x="1204" 
d="M340 0l182 1034h-405l55 318h1163l-55 -318h-406l-182 -1034h-352z" />
    <glyph glyph-name="U" unicode="U" horiz-adv-x="1449" 
d="M133 477q0 64 14 135l132 740h352l-131 -742q-15 -76 -15 -106q0 -90 65 -147.5t165 -57.5t172.5 63.5t91.5 167.5l143 822h353l-150 -844q-44 -251 -210.5 -392t-414.5 -141q-250 0 -408.5 140.5t-158.5 361.5z" />
    <glyph glyph-name="V" unicode="V" horiz-adv-x="1351" 
d="M1100 1352h397l-858 -1377h-113l-370 1377h368l174 -652z" />
    <glyph glyph-name="W" unicode="W" horiz-adv-x="2078" 
d="M1798 1352h400l-799 -1377h-113l-207 715l-483 -715h-113l-315 1377h358l146 -658l458 682h113l189 -661z" />
    <glyph glyph-name="X" unicode="X" horiz-adv-x="1275" 
d="M1397 1352l-525 -701l314 -651h-371l-186 391l-285 -391h-426l555 725l-293 627h371l162 -369l258 369h426z" />
    <glyph glyph-name="Y" unicode="Y" horiz-adv-x="1288" 
d="M1427 1352l-610 -842l-90 -510h-352l92 524l-320 828h351l192 -473l332 473h405z" />
    <glyph glyph-name="Z" unicode="Z" horiz-adv-x="1202" 
d="M1305 1352l-17 -92l-758 -943h594l-55 -317h-1130l16 92l756 942h-502l55 318h1041z" />
    <glyph glyph-name="bracketleft" unicode="[" horiz-adv-x="751" 
d="M37 -266l309 1761h518l-49 -274h-227l-211 -1213h227l-49 -274h-518z" />
    <glyph glyph-name="backslash" unicode="\" horiz-adv-x="1441" 
d="M981 -248l-784 1845h327l785 -1845h-328z" />
    <glyph glyph-name="bracketright" unicode="]" horiz-adv-x="751" 
d="M-70 -266l47 274h228l213 1213h-228l48 274h518l-307 -1761h-519z" />
    <glyph glyph-name="asciicircum" unicode="^" horiz-adv-x="1132" 
d="M98 553l566 819h112l279 -819h-320l-96 299l-201 -299h-340z" />
    <glyph glyph-name="underscore" unicode="_" horiz-adv-x="1024" 
d="M-94 -393l47 274h901l-47 -274h-901z" />
    <glyph glyph-name="grave" unicode="`" horiz-adv-x="1024" 
d="M627 1176l-172 360l20 61h397v-421h-245z" />
    <glyph glyph-name="a" unicode="a" horiz-adv-x="1288" 
d="M909 1024h353l-175 -1024h-329l14 84q-106 -109 -272 -109q-188 0 -313.5 138t-125.5 348q-3 160 70 297t200 215.5t277 75.5q195 0 287 -109zM827 518q0 97 -53 157t-139 60q-91 0 -151 -67.5t-60 -171.5q0 -94 50.5 -150.5t135.5 -56.5q94 0 155.5 65.5t61.5 163.5z
" />
    <glyph glyph-name="b" unicode="b" horiz-adv-x="1284" 
d="M1231 555q3 -158 -71 -292.5t-202 -212t-276 -75.5q-200 0 -285 119l-16 -94h-352l270 1536h352l-102 -569q98 82 244 82q189 0 313.5 -140t124.5 -354zM868 524q0 97 -50.5 154t-135.5 57q-94 0 -155.5 -68t-61.5 -173q0 -91 52.5 -148t137.5 -57q91 0 152 67.5
t61 167.5z" />
    <glyph glyph-name="c" unicode="c" horiz-adv-x="1144" 
d="M63 481q-3 156 75 288t214.5 207.5t298.5 72.5q161 0 281 -76.5t174 -212.5l-260 -172q-86 145 -209 145q-94 0 -155.5 -67t-61.5 -170q0 -91 53.5 -148t138.5 -57q121 0 215 125l226 -193q-75 -119 -196 -183.5t-267 -64.5q-231 0 -379 142t-148 364z" />
    <glyph glyph-name="d" unicode="d" horiz-adv-x="1286" 
d="M1004 1536h352l-271 -1536h-321l16 96q-103 -121 -282 -121q-188 0 -313.5 138.5t-125.5 345.5q-3 162 69 299t198.5 215.5t275.5 75.5q205 0 293 -119zM825 524q0 92 -52.5 150.5t-137.5 58.5q-92 0 -152.5 -68t-60.5 -171q0 -93 51 -149t135 -56q94 0 155.5 66.5
t61.5 168.5z" />
    <glyph glyph-name="e" unicode="e" 
d="M1061 391h-647q46 -125 221 -125q133 0 274 78l113 -238q-170 -131 -418 -131q-240 0 -391.5 140.5t-151.5 365.5q-4 151 75 284t214 210t289 74q201 0 332 -127t131 -322q0 -109 -41 -209zM412 616h358q0 72 -44 116t-116 44q-69 0 -122 -43t-76 -117z" />
    <glyph glyph-name="f" unicode="f" horiz-adv-x="757" 
d="M639 1120l-16 -96h206l-51 -291h-207l-131 -751q-32 -184 -144.5 -279.5t-295.5 -95.5q-107 0 -219 41l47 284q95 -10 117 -10q72 0 108 29.5t47 95.5l119 686h-143l51 291h143l29 162q32 184 144.5 279.5t295.5 95.5q107 0 219 -41l-47 -285q-95 10 -116 10
q-72 0 -108.5 -29.5t-47.5 -95.5z" />
    <glyph glyph-name="g" unicode="g" horiz-adv-x="1292" 
d="M913 1024h353l-162 -950q-37 -216 -193 -342q-155 -125 -387 -125q-323 0 -538 229l204 236q92 -79 170.5 -114.5t163.5 -35.5q97 0 157 41t73 119l6 35q-104 -72 -244 -72q-197 0 -325 124t-128 314q0 156 72.5 286t198.5 205t276 75q195 0 289 -113zM612 328
q92 0 154.5 64.5t62.5 160.5q0 90 -53 146.5t-135 56.5q-91 0 -153 -67t-62 -165q0 -88 51 -142t135 -54z" />
    <glyph glyph-name="h" unicode="h" horiz-adv-x="1222" 
d="M1145 702q0 -44 -12 -118l-103 -584h-352l98 567q6 38 6 51q0 59 -38.5 94.5t-100.5 35.5q-59 0 -101.5 -37t-54.5 -103l-106 -608h-352l270 1536h352l-100 -565q104 78 240 78q154 0 256 -97q98 -94 98 -250z" />
    <glyph glyph-name="i" unicode="i" horiz-adv-x="581" 
d="M29 0l180 1024h352l-180 -1024h-352zM236 1386q0 88 62 148.5t153 60.5t154 -60.5t63 -148.5q0 -86 -63 -146t-154 -60t-153 59t-62 147z" />
    <glyph glyph-name="j" unicode="j" horiz-adv-x="583" 
d="M-266 -352l51 291q71 -11 98 -11q71 0 107 28.5t47 92.5l172 975h352l-182 -1040q-32 -184 -145.5 -280.5t-292.5 -96.5q-114 0 -207 41zM233 1386q0 88 62.5 148.5t153.5 60.5t154 -60.5t63 -148.5q0 -86 -63 -146t-154 -60t-153.5 59.5t-62.5 146.5z" />
    <glyph glyph-name="k" unicode="k" horiz-adv-x="1210" 
d="M1280 1024l-432 -477l276 -547h-379l-270 541l-94 -541h-352l270 1536h352l-164 -930l383 418h410z" />
    <glyph glyph-name="l" unicode="l" horiz-adv-x="581" 
d="M29 0l270 1536h352l-270 -1536h-352z" />
    <glyph glyph-name="m" unicode="m" horiz-adv-x="1851" 
d="M1774 702q0 -38 -13 -118l-102 -584h-352l98 561q6 37 6 57q0 60 -35 95t-96 35q-57 0 -99.5 -37t-54.5 -103l-106 -608h-352l98 563q6 38 6 55q0 60 -35 95t-96 35q-57 0 -99.5 -37t-54.5 -103l-106 -608h-352l180 1024h321l-14 -82q119 107 281 107q91 0 164.5 -33
t117.5 -94q147 127 340 127q165 0 260 -94t95 -253z" />
    <glyph glyph-name="n" unicode="n" horiz-adv-x="1222" 
d="M1145 700q0 -48 -12 -116l-103 -584h-352l96 549q8 41 8 67q0 61 -38.5 96.5t-100.5 35.5q-59 0 -101.5 -36.5t-54.5 -103.5l-106 -608h-352l180 1024h321l-14 -84q121 109 279 109q150 0 252 -97q98 -94 98 -252z" />
    <glyph glyph-name="o" unicode="o" horiz-adv-x="1241" 
d="M63 489q-3 150 77 280.5t216.5 206.5t292.5 73q146 2 270.5 -66.5t196 -188.5t68.5 -262q2 -112 -45 -216t-126.5 -179.5t-190 -119.5t-228.5 -42q-147 -3 -270.5 65t-193.5 187.5t-67 261.5zM823 524q0 94 -51.5 151.5t-136.5 57.5q-91 0 -151 -68t-60 -171
q0 -93 50 -148t134 -55q94 0 154.5 65.5t60.5 167.5z" />
    <glyph glyph-name="p" unicode="p" horiz-adv-x="1284" 
d="M1231 567q3 -162 -70.5 -299.5t-201 -216.5t-277.5 -76q-196 0 -287 111l-80 -455h-352l246 1393h321l-16 -90q103 115 279 115q188 0 313 -137.5t125 -344.5zM870 532q0 91 -51.5 146t-136.5 55q-94 0 -155.5 -65.5t-61.5 -165.5q0 -94 53 -153.5t137 -59.5
q92 0 153.5 69.5t61.5 173.5z" />
    <glyph glyph-name="q" unicode="q" horiz-adv-x="1286" 
d="M913 1024h353l-246 -1395h-352l75 430q-96 -84 -245 -84q-188 0 -313.5 138.5t-125.5 345.5q-2 121 41 231.5t116.5 189.5t176.5 125t215 44q204 0 289 -123zM608 289q94 0 155.5 66.5t61.5 168.5q0 94 -52.5 151.5t-137.5 57.5q-92 0 -152.5 -67.5t-60.5 -171.5
q0 -93 51 -149t135 -56z" />
    <glyph glyph-name="r" unicode="r" horiz-adv-x="829" 
d="M887 1010l-56 -310q-101 11 -120 11q-109 0 -166.5 -53t-77.5 -171l-86 -487h-352l180 1024h321l-16 -98q98 110 244 110q73 0 129 -26z" />
    <glyph glyph-name="s" unicode="s" horiz-adv-x="933" 
d="M-10 207l207 190q68 -78 128.5 -113.5t127.5 -35.5q86 0 86 45q0 32 -56 53l-96 37q-274 105 -274 334q0 149 105 240.5t278 91.5q258 0 403 -177l-197 -196q-44 47 -97 73.5t-101 26.5q-27 0 -43.5 -12t-16.5 -35t15 -41.5t41 -25.5l92 -35q276 -105 276 -301
q0 -152 -118.5 -251.5t-298.5 -99.5q-152 0 -273.5 61.5t-187.5 170.5z" />
    <glyph glyph-name="t" unicode="t" horiz-adv-x="899" 
d="M569 733l-55 -301q-4 -28 -4 -43q0 -60 47 -86.5t156 -26.5h82l-52 -290q-83 -11 -131 -11q-216 0 -337 91t-121 253q0 41 10 109l53 305h-151l51 291h153l43 246h353l-45 -246h278l-51 -291h-279z" />
    <glyph glyph-name="u" unicode="u" horiz-adv-x="1214" 
d="M100 397q0 36 11 107l90 520h352l-98 -567q-4 -32 -4 -39q0 -55 39.5 -91t99.5 -36t102.5 35.5t52.5 95.5l105 602h352l-106 -604q-37 -210 -175 -327.5t-348 -117.5q-211 0 -342 117t-131 305z" />
    <glyph glyph-name="v" unicode="v" horiz-adv-x="1169" 
d="M854 1024h391l-708 -1049h-113l-340 1049h360l127 -455z" />
    <glyph glyph-name="w" unicode="w" horiz-adv-x="1763" 
d="M1454 1024h385l-684 -1049h-113l-170 492l-352 -492h-112l-324 1049h360l131 -496l334 521h113l152 -486z" />
    <glyph glyph-name="x" unicode="x" horiz-adv-x="1132" 
d="M1202 1024l-438 -520l283 -504h-371l-141 264l-209 -264h-412l455 530l-258 494h370l119 -254l191 254h411z" />
    <glyph glyph-name="y" unicode="y" horiz-adv-x="1222" 
d="M850 1024h352l-168 -948q-40 -217 -186 -342q-148 -127 -363 -127q-150 0 -287 60.5t-229 168.5l205 236q95 -84 165 -117t146 -33q169 0 199 164l6 39q-104 -72 -237 -72q-155 0 -255 97t-100 245q0 38 11 109l92 520h352l-90 -508q-4 -32 -4 -39q0 -55 39.5 -91
t99.5 -36q57 0 101.5 35.5t54.5 95.5z" />
    <glyph glyph-name="z" unicode="z" horiz-adv-x="978" 
d="M1047 1024l-17 -92l-532 -637h426l-52 -295h-938l17 92l541 637h-388l54 295h889z" />
    <glyph glyph-name="braceleft" unicode="{" horiz-adv-x="862" 
d="M786 1495h189l-47 -274h-127q-69 0 -102 -40.5t-33 -127.5v-172q0 -144 -40.5 -203t-158.5 -74q69 -12 101 -43.5t32 -87.5q0 -61 -57 -217q-47 -127 -47 -168q0 -38 24.5 -59t67.5 -21h127l-47 -274h-197q-131 0 -208 67.5t-77 182.5q0 91 66 252q43 107 43 149
q0 70 -90 70h-133l53 295h145q64 0 89.5 30t25.5 107v190q0 204 102.5 311t298.5 107z" />
    <glyph glyph-name="bar" unicode="|" horiz-adv-x="679" 
d="M227 -248v1845h291v-1845h-291z" />
    <glyph glyph-name="braceright" unicode="}" horiz-adv-x="866" 
d="M700 750h134l-54 -295h-145q-63 0 -89 -34t-26 -116v-143q0 -428 -401 -428h-189l47 274h127q72 0 104 42t32 136v140q0 147 41 203t165 71q-72 17 -106.5 51.5t-34.5 91.5q0 72 57 224q48 133 48 174q0 38 -25 59t-68 21h-127l48 274h196q131 0 208 -67.5t77 -182.5
q0 -86 -66 -268q-43 -118 -43 -164q0 -63 90 -63z" />
    <glyph glyph-name="asciitilde" unicode="~" 
d="M643 465l-151 100q-73 49 -109 49q-55 0 -68 -94h-262q13 201 94 306.5t213 105.5q100 0 203 -68l152 -100q73 -49 108 -49q55 0 68 94h262q-13 -201 -94 -306.5t-213 -105.5q-100 0 -203 68z" />
    <glyph glyph-name="uni00A0" unicode="&#xa0;" horiz-adv-x="573" 
 />
    <glyph glyph-name="exclamdown" unicode="&#xa1;" horiz-adv-x="768" 
d="M211 819q0 99 64.5 164.5t162.5 65.5q102 0 168 -65.5t66 -164.5q0 -98 -66 -163.5t-168 -65.5q-98 0 -162.5 66t-64.5 163zM23 -369l217 852h286l-77 -852h-426z" />
    <glyph glyph-name="cent" unicode="&#xa2;" horiz-adv-x="1144" 
d="M885 571l221 -188q-69 -109 -177.5 -174.5t-238.5 -77.5l-57 -334h-295l65 377q-143 57 -227 181t-84 282q0 205 139 361.5t351 193.5l59 340h295l-62 -356q100 -32 174.5 -101.5t112.5 -167.5l-256 -168q-89 148 -225 148q-99 0 -163 -67.5t-64 -172.5
q0 -94 53.5 -148.5t146.5 -54.5q143 0 232 127z" />
    <glyph glyph-name="sterling" unicode="&#xa3;" horiz-adv-x="1218" 
d="M606 295h484l-52 -295h-1058l14 72q150 105 228.5 192.5t101.5 177.5h-248l51 295h154q-37 110 -37 189q0 195 141 321.5t358 126.5q214 0 340.5 -113.5t145.5 -320.5l-305 -80q-24 189 -170 189q-74 0 -119 -49.5t-45 -131.5q0 -61 33 -131h331l-51 -295h-227
q-18 -80 -70 -147z" />
    <glyph glyph-name="currency" unicode="&#xa4;" horiz-adv-x="1366" 
d="M1174 379l141 -164l-217 -201l-152 179q-113 -52 -235 -52q-146 0 -281 66l-190 -193l-199 219l176 177q-61 107 -61 231q0 170 94 313l-137 160l217 203l143 -166q115 59 248 59q155 0 283 -67l192 174l199 -217l-178 -164q59 -103 59 -229q0 -178 -102 -328zM915 688
q0 88 -52.5 143.5t-137.5 55.5q-91 0 -150 -64t-59 -161q0 -88 51 -142.5t135 -54.5q92 0 152.5 63t60.5 160z" />
    <glyph glyph-name="yen" unicode="&#xa5;" horiz-adv-x="1288" 
d="M1436 1352l-488 -566h275l-47 -274h-351l-16 -90h350l-47 -275h-350l-27 -147h-352l27 147h-351l47 275h351l16 90h-350l47 274h272l-286 566h370l189 -377l319 377h402z" />
    <glyph glyph-name="brokenbar" unicode="&#xa6;" horiz-adv-x="679" 
d="M227 983v614h291v-614h-291zM227 -248v615h291v-615h-291z" />
    <glyph glyph-name="section" unicode="&#xa7;" horiz-adv-x="1261" 
d="M1198 444q0 -109 -74.5 -195.5t-203.5 -129.5q6 -30 6 -60q0 -151 -122 -251.5t-308 -100.5q-155 0 -270.5 69.5t-166.5 194.5l220 164q37 -67 94.5 -104t126.5 -37q49 0 75.5 18t26.5 51q0 27 -22.5 52.5t-81.5 66.5l-150 107q-137 97 -200.5 183.5t-63.5 178.5
q0 109 74.5 196t203.5 130q-6 30 -6 59q0 151 122.5 252t307.5 101q155 0 270.5 -70t166.5 -195l-219 -163q-37 67 -95 104t-127 37q-49 0 -75.5 -18.5t-26.5 -51.5q0 -27 22.5 -52.5t81.5 -66.5l150 -106q137 -97 200.5 -184t63.5 -179zM535 514l167 -119q66 -49 97 -80
q73 46 73 109q0 75 -124 158l-168 118q-66 49 -97 80q-73 -46 -73 -108q0 -74 125 -158z" />
    <glyph glyph-name="dieresis" unicode="&#xa8;" horiz-adv-x="1024" 
d="M199 1386q0 80 59 136q60 57 139 57q85 0 143 -55.5t58 -137.5q0 -76 -60 -133t-141 -57q-77 0 -137 57q-61 58 -61 133zM741 1386q0 79 60 136t139 57q85 0 143 -55.5t58 -137.5q0 -76 -60 -133t-141 -57q-77 0 -137 57q-62 59 -62 133z" />
    <glyph glyph-name="copyright" unicode="&#xa9;" horiz-adv-x="1611" 
d="M104 645q-3 143 59.5 279t167 236t248 159.5t293.5 56.5q188 3 349 -86t255 -244t91 -337q3 -143 -59.5 -280t-167.5 -237t-247.5 -160t-291.5 -57q-142 -2 -272 51t-223.5 143t-148.5 215t-53 261zM1352 711q0 199 -141.5 334t-348.5 135q-146 3 -272 -69.5t-199.5 -197
t-71.5 -266.5q0 -207 139.5 -341t356.5 -134q144 -3 269 70.5t198 199t70 269.5zM457 653q0 164 117 279t284 115q203 0 313 -179l-186 -139q-29 47 -60.5 67.5t-74.5 20.5q-62 0 -100.5 -43t-38.5 -112q0 -60 35 -95t92 -35q73 0 135 74l157 -153q-130 -148 -309 -148
q-157 0 -260.5 99.5t-103.5 248.5z" />
    <glyph glyph-name="ordfeminine" unicode="&#xaa;" horiz-adv-x="854" 
d="M625 1151h260l-115 -651h-229l4 53q-64 -70 -168 -70q-119 0 -199 86t-80 215q0 157 102 269t244 112q113 0 172 -65zM569 825q0 44 -27.5 74.5t-68.5 30.5q-47 0 -77.5 -33t-30.5 -84q0 -41 26.5 -67.5t69.5 -26.5q47 0 77.5 29.5t30.5 76.5z" />
    <glyph glyph-name="guillemotleft" unicode="&#xab;" horiz-adv-x="1347" 
d="M403 59l-352 455l17 92l489 457l199 -205l-324 -311l215 -303zM1008 59l-353 455l17 92l489 457l199 -205l-324 -311l215 -303z" />
    <glyph glyph-name="logicalnot" unicode="&#xac;" 
d="M637 221l51 295h-612l53 295h936l-104 -590h-324z" />
    <glyph glyph-name="uni00AD" unicode="&#xad;" horiz-adv-x="696" 
d="M88 518l51 295h533l-51 -295h-533z" />
    <glyph glyph-name="registered" unicode="&#xae;" horiz-adv-x="1183" 
d="M1200 918q2 -109 -44 -213.5t-123 -181.5t-181.5 -122.5t-214.5 -42.5q-103 -2 -199 38t-165 109t-109.5 164.5t-38.5 198.5q-2 109 44 213t123 180t182.5 121t215.5 43q213 0 361.5 -148t148.5 -359zM1047 920q0 152 -105.5 257t-259.5 105q-166 0 -284.5 -121
t-118.5 -291q0 -161 103.5 -264.5t264.5 -103.5q164 0 282 123t118 295zM799 823l100 -176h-174l-84 141h-49l-25 -141h-157l90 514h213q82 0 135 -49t53 -127q0 -108 -102 -162zM633 1024l-17 -98h56q30 0 47.5 14t17.5 39q0 21 -13 33t-36 12h-55z" />
    <glyph glyph-name="overscore" unicode="&#xaf;" horiz-adv-x="1024" 
d="M317 1249l50 275h655l-49 -275h-656z" />
    <glyph glyph-name="degree" unicode="&#xb0;" horiz-adv-x="737" 
d="M135 1044q0 133 103 231.5t241 98.5q134 0 228 -90.5t94 -220.5q0 -136 -103 -235t-243 -99q-132 0 -226 92.5t-94 222.5zM584 1055q0 51 -31 80.5t-82 29.5q-54 0 -86.5 -32.5t-32.5 -83.5q0 -49 32 -80t83 -31q53 0 85 32.5t32 84.5z" />
    <glyph glyph-name="plusminus" unicode="&#xb1;" 
d="M389 387l47 266h-313l49 275h313l43 243h332l-43 -243h311l-49 -275h-311l-47 -266h-332zM8 0l47 274h957l-47 -274h-957z" />
    <glyph glyph-name="uni00B2" unicode="&#xb2;" horiz-adv-x="808" 
d="M610 971h205l-41 -226l-661 -2l8 52l362 333q68 62 97.5 106t29.5 83q0 67 -67 67q-80 0 -80 -122v-19h-252q-2 10 -2 31q0 146 98.5 243t245.5 97q139 0 226 -78t87 -203q0 -85 -53 -162q-48 -70 -203 -200z" />
    <glyph glyph-name="uni00B3" unicode="&#xb3;" horiz-adv-x="745" 
d="M868 1597l-12 -67l-205 -256q60 -35 93.5 -95.5t33.5 -129.5q0 -134 -101.5 -227t-248.5 -93q-128 0 -215.5 63.5t-116.5 178.5l195 100q26 -61 58.5 -87t80.5 -26q44 0 69 20.5t25 55.5t-26 50.5t-86 15.5h-136l11 59l172 213h-217l41 225h585z" />
    <glyph glyph-name="acute" unicode="&#xb4;" horiz-adv-x="1024" 
d="M344 1176l205 421h444l-10 -61l-365 -360h-274z" />
    <glyph glyph-name="uni00B5" unicode="&#xb5;" horiz-adv-x="1273" 
d="M1167 276h50l-52 -290q-71 -11 -123 -11q-172 0 -243 109q-106 -109 -244 -109q-99 0 -170 56l-68 -400h-354l246 1393h352l-98 -565q-6 -37 -6 -53q0 -57 38.5 -92t100.5 -35q61 0 102.5 37t53.5 102l108 606h352l-110 -621q-8 -44 -8 -67q0 -32 17 -46t56 -14z" />
    <glyph glyph-name="paragraph" unicode="&#xb6;" horiz-adv-x="1488" 
d="M131 883q0 203 147 336t375 133h117v-932h-117q-231 0 -376.5 129.5t-145.5 333.5zM604 -369v299l129 -4q97 0 136.5 30.5t39.5 104.5v1291h353v-1329q0 -206 -115 -311t-336 -105q-105 0 -207 24z" />
    <glyph glyph-name="middot" unicode="&#xb7;" horiz-adv-x="573" 
d="M88 664q0 98 66 163.5t168 65.5q98 0 162.5 -66t64.5 -163q0 -99 -64.5 -164.5t-162.5 -65.5q-102 0 -168 65.5t-66 164.5z" />
    <glyph glyph-name="cedilla" unicode="&#xb8;" horiz-adv-x="1024" 
d="M106 -358l39 225q83 -12 123 -12q57 0 86 23.5t41 78.5q12 57 17 96l143 45q48 -36 76 -89t28 -109q0 -123 -103.5 -208t-252.5 -85q-104 0 -197 35z" />
    <glyph glyph-name="uni00B9" unicode="&#xb9;" horiz-adv-x="782" 
d="M127 745l39 226h205l69 401h-182l39 225h432l-108 -626h170l-39 -226h-625z" />
    <glyph glyph-name="ordmasculine" unicode="&#xba;" horiz-adv-x="802" 
d="M102 809q0 148 110 253t265 105q147 0 244.5 -92.5t97.5 -230.5q0 -148 -112 -253.5t-267 -105.5q-147 0 -242.5 92.5t-95.5 231.5zM553 836q0 44 -24 71t-62 27q-44 0 -73 -34t-29 -85q0 -43 25 -69.5t63 -26.5q44 0 72 33t28 84z" />
    <glyph glyph-name="guillemotright" unicode="&#xbb;" horiz-adv-x="1347" 
d="M815 59l-199 205l324 311l-215 304l244 184l352 -455l-16 -92zM211 59l-199 205l324 311l-215 304l244 184l352 -455l-17 -92z" />
    <glyph glyph-name="onequarter" unicode="&#xbc;" horiz-adv-x="2017" 
d="M84 500l39 225h205l69 401h-182l39 226h432l-108 -627h170l-39 -225h-625zM449 0l1007 1352h287l-1010 -1352h-284zM1974 334l-39 -215h-92l-20 -119h-230l21 119h-440l12 67l338 668h276l-266 -520h119l37 184h223l-33 -184h94z" />
    <glyph glyph-name="onehalf" unicode="&#xbd;" horiz-adv-x="2080" 
d="M84 500l39 225h205l69 401h-182l39 226h432l-108 -627h170l-39 -225h-625zM449 0l1007 1352h287l-1010 -1352h-284zM1751 225h205l-41 -225l-662 -2l9 51l362 334q69 63 98 106.5t29 81.5q0 32 -18 50t-50 18q-79 0 -79 -123v-18h-252q-2 10 -2 30q0 146 98.5 243
t245.5 97q139 0 226 -77.5t87 -202.5q0 -85 -53 -162q-49 -72 -203 -201z" />
    <glyph glyph-name="threequarters" unicode="&#xbe;" horiz-adv-x="1908" 
d="M825 1352l-12 -68l-205 -256q60 -35 93.5 -95.5t33.5 -129.5q0 -134 -101.5 -227t-248.5 -93q-128 0 -215.5 63.5t-116.5 178.5l195 100q26 -61 58.5 -86.5t80.5 -25.5q44 0 69 20t25 55t-26 50.5t-86 15.5h-136l11 59l172 213h-217l41 226h585zM340 0l1008 1352h286
l-1009 -1352h-285zM1866 334l-39 -215h-92l-21 -119h-229l20 119h-440l12 67l338 668h277l-267 -520h119l37 184h223l-32 -184h94z" />
    <glyph glyph-name="questiondown" unicode="&#xbf;" horiz-adv-x="933" 
d="M291 819q0 98 65.5 164t163.5 66q100 0 166 -66t66 -164q0 -97 -66.5 -163t-165.5 -66t-164 66t-65 163zM-37 -70q0 96 50.5 176t156.5 154q71 48 112.5 93t63.5 108h285q0 -106 -39 -186.5t-133 -143.5q-80 -51 -103.5 -76.5t-23.5 -60.5q0 -31 18.5 -48.5t50.5 -17.5
q38 0 70.5 26t73.5 89l262 -149q-148 -287 -449 -287q-180 0 -287.5 87.5t-107.5 235.5z" />
    <glyph glyph-name="Agrave" unicode="&#xc0;" horiz-adv-x="1351" 
d="M893 0l-31 113h-475l-70 -113h-397l858 1376h113l371 -1376h-369zM788 395l-59 301l-168 -301h227zM721 1483l-225 319l12 62h397l66 -381h-250z" />
    <glyph glyph-name="Aacute" unicode="&#xc1;" horiz-adv-x="1351" 
d="M893 0l-31 113h-475l-70 -113h-397l858 1376h113l371 -1376h-369zM788 395l-59 301l-168 -301h227zM713 1483l176 381h444l-10 -62l-346 -319h-264z" />
    <glyph glyph-name="Acircumflex" unicode="&#xc2;" horiz-adv-x="1351" 
d="M893 0l-31 113h-475l-70 -113h-397l858 1376h113l371 -1376h-369zM788 395l-59 301l-168 -301h227zM1274 1483h-246l-127 133l-184 -133h-289l373 381h235z" />
    <glyph glyph-name="Atilde" unicode="&#xc3;" horiz-adv-x="1351" 
d="M893 0l-31 113h-475l-70 -113h-397l858 1376h113l371 -1376h-369zM788 395l-59 301l-168 -301h227zM852 1520l-37 18q-53 27 -80 27q-26 0 -44.5 -21.5t-24.5 -58.5h-263q14 192 85 294.5t198 102.5q28 0 55.5 -4.5t50 -12.5t38.5 -15t30.5 -14.5t16.5 -8.5l36 -19
q2 0 16 -7t31.5 -13t32.5 -6q55 0 70 80h262q-30 -398 -287 -398q-49 0 -88 12.5t-98 43.5z" />
    <glyph glyph-name="Adieresis" unicode="&#xc4;" horiz-adv-x="1351" 
d="M893 0l-31 113h-475l-70 -113h-397l858 1376h113l371 -1376h-369zM788 395l-59 301l-168 -301h227zM408 1673q0 79 59 135q61 58 139 58q85 0 143 -55.5t58 -137.5q0 -76 -60 -133t-141 -57q-77 0 -137 57q-61 58 -61 133zM991 1671q0 78 60 135q61 58 139 58
q85 0 143 -55.5t58 -137.5q0 -76 -60 -133t-141 -57q-77 0 -137 57q-62 59 -62 133z" />
    <glyph glyph-name="Aring" unicode="&#xc5;" horiz-adv-x="1351" 
d="M893 0l-31 113h-475l-70 -113h-397l858 1376h113l371 -1376h-369zM788 395l-59 301l-168 -301h227zM598 1608q0 118 85 199t210 81q118 0 193 -71.5t75 -182.5q0 -118 -85 -199t-210 -81q-118 0 -193 71.5t-75 182.5zM952 1626q0 31 -18 49.5t-49 18.5q-32 0 -54 -22
t-22 -54q0 -31 18 -50.5t47 -19.5q32 0 55 23t23 55z" />
    <glyph glyph-name="AE" unicode="&#xc6;" horiz-adv-x="1792" 
d="M1776 1034h-596v-186h395l-51 -295h-344v-236h493l-55 -317h-782v113h-428l-76 -113h-418l922 1352h995zM846 801l-252 -406h244z" />
    <glyph glyph-name="Ccedilla" unicode="&#xc7;" horiz-adv-x="1482" 
d="M102 631q-3 150 59.5 289t168.5 240t251.5 160t301.5 56q214 0 373.5 -101.5t234.5 -287.5l-287 -170q-108 236 -342 236q-173 0 -286 -115.5t-113 -290.5q0 -158 94 -253t252 -95q209 0 362 205l248 -195q-109 -160 -274.5 -247t-362.5 -87q-191 -3 -348 82.5t-246 237
t-86 336.5zM348 -358l39 225q83 -12 123 -12q57 0 86 23.5t41 78.5q10 46 16 96l144 45q48 -36 76 -89t28 -109q0 -123 -103.5 -208t-252.5 -85q-104 0 -197 35z" />
    <glyph glyph-name="Egrave" unicode="&#xc8;" horiz-adv-x="1185" 
d="M49 0l238 1352h938l-56 -318h-585l-33 -186h418l-54 -295h-417l-41 -236h610l-55 -317h-963zM635 1483l-225 319l12 62h397l66 -381h-250z" />
    <glyph glyph-name="Eacute" unicode="&#xc9;" horiz-adv-x="1185" 
d="M49 0l238 1352h938l-56 -318h-585l-33 -186h418l-54 -295h-417l-41 -236h610l-55 -317h-963zM627 1483l176 381h444l-10 -62l-346 -319h-264z" />
    <glyph glyph-name="Ecircumflex" unicode="&#xca;" horiz-adv-x="1185" 
d="M49 0l238 1352h938l-56 -318h-585l-33 -186h418l-54 -295h-417l-41 -236h610l-55 -317h-963zM1188 1483h-246l-127 133l-184 -133h-289l373 381h235z" />
    <glyph glyph-name="Edieresis" unicode="&#xcb;" horiz-adv-x="1185" 
d="M49 0l238 1352h938l-56 -318h-585l-33 -186h418l-54 -295h-417l-41 -236h610l-55 -317h-963zM322 1673q0 79 59 135q61 58 139 58q85 0 143 -55.5t58 -137.5q0 -76 -60 -133t-141 -57q-77 0 -137 57q-61 58 -61 133zM905 1671q0 78 60 135q61 58 139 58q85 0 143 -55.5
t58 -137.5q0 -76 -60 -133t-141 -57q-77 0 -137 57q-62 59 -62 133z" />
    <glyph glyph-name="Igrave" unicode="&#xcc;" horiz-adv-x="622" 
d="M49 0l238 1352h352l-238 -1352h-352zM354 1483l-225 319l12 62h398l65 -381h-250z" />
    <glyph glyph-name="Iacute" unicode="&#xcd;" horiz-adv-x="622" 
d="M49 0l238 1352h352l-238 -1352h-352zM346 1483l176 381h445l-11 -62l-346 -319h-264z" />
    <glyph glyph-name="Icircumflex" unicode="&#xce;" horiz-adv-x="622" 
d="M49 0l238 1352h352l-238 -1352h-352zM907 1483h-245l-127 133l-185 -133h-289l373 381h236z" />
    <glyph glyph-name="Idieresis" unicode="&#xcf;" horiz-adv-x="622" 
d="M49 0l238 1352h352l-238 -1352h-352zM41 1673q0 79 59 135q61 58 140 58q85 0 142.5 -55.5t57.5 -137.5q0 -76 -59.5 -133t-140.5 -57q-78 0 -138 57q-61 58 -61 133zM625 1671q0 79 59 135q61 58 139 58q85 0 143 -55.5t58 -137.5q0 -76 -60 -133t-141 -57
q-77 0 -137 57q-61 58 -61 133z" />
    <glyph glyph-name="Eth" unicode="&#xd0;" horiz-adv-x="1429" 
d="M1393 723q2 -154 -58.5 -289t-166 -231t-254.5 -150.5t-318 -52.5h-533l89 504h-170l51 295h172l96 553h410q192 3 350 -79.5t246.5 -227.5t85.5 -322zM1032 707q0 152 -93 238.5t-255 86.5h-86l-41 -233h174l-51 -295h-176l-33 -189l147 2q187 5 300.5 111t113.5 279z
" />
    <glyph glyph-name="Ntilde" unicode="&#xd1;" horiz-adv-x="1468" 
d="M1133 1352h352l-242 -1377h-113l-604 738l-125 -713h-352l242 1376h112l607 -723zM909 1520l-37 18q-52 27 -79 27q-26 0 -45 -21.5t-25 -58.5h-262q14 192 84.5 294.5t197.5 102.5q28 0 55.5 -4.5t50 -12.5t38.5 -15t30.5 -14.5t16.5 -8.5l37 -19q2 0 16 -7t31.5 -13
t32.5 -6q54 0 69 80h262q-30 -398 -286 -398q-49 0 -88.5 12.5t-98.5 43.5z" />
    <glyph glyph-name="Ograve" unicode="&#xd2;" horiz-adv-x="1589" 
d="M102 631q-3 150 59.5 289.5t168.5 239.5t250.5 159t298.5 57q188 3 344 -83t244 -237.5t85 -334.5q3 -150 -59.5 -289.5t-168 -240t-250 -159.5t-298.5 -57q-141 -2 -267 48.5t-216 138t-141.5 210t-49.5 259.5zM1192 705q0 157 -94 252.5t-244 95.5q-166 0 -278.5 -116
t-112.5 -290q0 -157 94 -252.5t244 -95.5q166 0 278.5 116t112.5 290zM838 1483l-226 319l13 62h397l65 -381h-249z" />
    <glyph glyph-name="Oacute" unicode="&#xd3;" horiz-adv-x="1589" 
d="M102 631q-3 150 59.5 289.5t168.5 239.5t250.5 159t298.5 57q188 3 344 -83t244 -237.5t85 -334.5q3 -150 -59.5 -289.5t-168 -240t-250 -159.5t-298.5 -57q-141 -2 -267 48.5t-216 138t-141.5 210t-49.5 259.5zM1192 705q0 157 -94 252.5t-244 95.5q-166 0 -278.5 -116
t-112.5 -290q0 -157 94 -252.5t244 -95.5q166 0 278.5 116t112.5 290zM829 1483l177 381h444l-10 -62l-346 -319h-265z" />
    <glyph glyph-name="Ocircumflex" unicode="&#xd4;" horiz-adv-x="1589" 
d="M102 631q-3 150 59.5 289.5t168.5 239.5t250.5 159t298.5 57q188 3 344 -83t244 -237.5t85 -334.5q3 -150 -59.5 -289.5t-168 -240t-250 -159.5t-298.5 -57q-141 -2 -267 48.5t-216 138t-141.5 210t-49.5 259.5zM1192 705q0 157 -94 252.5t-244 95.5q-166 0 -278.5 -116
t-112.5 -290q0 -157 94 -252.5t244 -95.5q166 0 278.5 116t112.5 290zM1391 1483h-246l-127 133l-184 -133h-289l373 381h235z" />
    <glyph glyph-name="Otilde" unicode="&#xd5;" horiz-adv-x="1589" 
d="M102 631q-3 150 59.5 289.5t168.5 239.5t250.5 159t298.5 57q188 3 344 -83t244 -237.5t85 -334.5q3 -150 -59.5 -289.5t-168 -240t-250 -159.5t-298.5 -57q-141 -2 -267 48.5t-216 138t-141.5 210t-49.5 259.5zM1192 705q0 157 -94 252.5t-244 95.5q-166 0 -278.5 -116
t-112.5 -290q0 -157 94 -252.5t244 -95.5q166 0 278.5 116t112.5 290zM969 1520l-37 18q-52 27 -80 27q-26 0 -45 -21.5t-25 -58.5h-262q14 192 85 294.5t198 102.5q28 0 55.5 -4.5t50 -12.5t38 -15t30 -14.5t16.5 -8.5l37 -19q2 0 16 -7t31.5 -13t32.5 -6q55 0 70 80h262
q-30 -398 -287 -398q-49 0 -88 12.5t-98 43.5z" />
    <glyph glyph-name="Odieresis" unicode="&#xd6;" horiz-adv-x="1589" 
d="M102 631q-3 150 59.5 289.5t168.5 239.5t250.5 159t298.5 57q188 3 344 -83t244 -237.5t85 -334.5q3 -150 -59.5 -289.5t-168 -240t-250 -159.5t-298.5 -57q-141 -2 -267 48.5t-216 138t-141.5 210t-49.5 259.5zM1192 705q0 157 -94 252.5t-244 95.5q-166 0 -278.5 -116
t-112.5 -290q0 -157 94 -252.5t244 -95.5q166 0 278.5 116t112.5 290zM524 1673q0 78 60 135q61 58 139 58q85 0 143 -55.5t58 -137.5q0 -76 -60 -133t-141 -57q-77 0 -137 57q-62 59 -62 133zM1108 1671q0 79 59 135q61 58 140 58q85 0 142.5 -55.5t57.5 -137.5
q0 -76 -59.5 -133t-140.5 -57q-78 0 -138 57q-61 58 -61 133z" />
    <glyph glyph-name="multiply" unicode="&#xd7;" 
d="M813 158l-235 303l-347 -264l-178 237l346 260l-231 307l233 181l232 -303l344 260l180 -232l-346 -260l236 -311z" />
    <glyph glyph-name="Oslash" unicode="&#xd8;" horiz-adv-x="1550" 
d="M1575 1214l-143 -137q100 -150 100 -356q3 -147 -59.5 -286t-168 -240.5t-250.5 -162t-298 -57.5q-204 0 -367 97l-149 -144l-199 209l141 137q-98 154 -98 357q-3 147 59 286t166.5 240.5t249 161.5t297.5 57q209 0 371 -98l149 145zM430 645q0 -60 14 -117l535 512
q-70 27 -145 27q-174 0 -289 -119.5t-115 -302.5zM1186 707q0 52 -17 118l-534 -514q59 -26 143 -26q173 0 290.5 121t117.5 301z" />
    <glyph glyph-name="Ugrave" unicode="&#xd9;" horiz-adv-x="1449" 
d="M133 477q0 64 14 135l132 740h352l-131 -742q-15 -76 -15 -106q0 -90 65 -147.5t165 -57.5t172.5 63.5t91.5 167.5l143 822h353l-150 -844q-44 -251 -210.5 -392t-414.5 -141q-250 0 -408.5 140.5t-158.5 361.5zM768 1483l-225 319l12 62h397l66 -381h-250z" />
    <glyph glyph-name="Uacute" unicode="&#xda;" horiz-adv-x="1449" 
d="M133 477q0 64 14 135l132 740h352l-131 -742q-15 -76 -15 -106q0 -90 65 -147.5t165 -57.5t172.5 63.5t91.5 167.5l143 822h353l-150 -844q-44 -251 -210.5 -392t-414.5 -141q-250 0 -408.5 140.5t-158.5 361.5zM760 1483l176 381h444l-10 -62l-346 -319h-264z" />
    <glyph glyph-name="Ucircumflex" unicode="&#xdb;" horiz-adv-x="1449" 
d="M133 477q0 64 14 135l132 740h352l-131 -742q-15 -76 -15 -106q0 -90 65 -147.5t165 -57.5t172.5 63.5t91.5 167.5l143 822h353l-150 -844q-44 -251 -210.5 -392t-414.5 -141q-250 0 -408.5 140.5t-158.5 361.5zM1321 1483h-246l-127 133l-184 -133h-289l373 381h235z
" />
    <glyph glyph-name="Udieresis" unicode="&#xdc;" horiz-adv-x="1449" 
d="M133 477q0 64 14 135l132 740h352l-131 -742q-15 -76 -15 -106q0 -90 65 -147.5t165 -57.5t172.5 63.5t91.5 167.5l143 822h353l-150 -844q-44 -251 -210.5 -392t-414.5 -141q-250 0 -408.5 140.5t-158.5 361.5zM455 1673q0 79 59 135q61 58 139 58q85 0 143 -55.5
t58 -137.5q0 -76 -60 -133t-141 -57q-77 0 -137 57q-61 58 -61 133zM1038 1671q0 78 60 135q61 58 139 58q85 0 143 -55.5t58 -137.5q0 -76 -60 -133t-141 -57q-77 0 -137 57q-62 59 -62 133z" />
    <glyph glyph-name="Yacute" unicode="&#xdd;" horiz-adv-x="1288" 
d="M1427 1352l-610 -842l-90 -510h-352l92 524l-320 828h351l192 -473l332 473h405zM668 1483l176 381h444l-10 -62l-346 -319h-264z" />
    <glyph glyph-name="Thorn" unicode="&#xde;" horiz-adv-x="1241" 
d="M1221 729q0 -221 -165.5 -357t-432.5 -136h-181l-41 -236h-352l238 1352h352l-33 -185h107q234 0 370 -118q138 -120 138 -320zM860 707q0 72 -39.5 112.5t-111.5 40.5h-156l-55 -317h184q82 0 130 44.5t48 119.5z" />
    <glyph glyph-name="germandbls" unicode="&#xdf;" horiz-adv-x="1386" 
d="M500 115l143 243q56 -41 128 -68.5t126 -27.5q74 0 74 60q0 23 -13.5 39t-64.5 55l-45 37q-85 70 -119.5 118t-34.5 107q0 67 64 174l69 117q58 94 58 159q0 55 -35 86t-98 31q-157 0 -191 -198l-180 -1047h-352l192 1092q38 226 190.5 347.5t397.5 121.5
q185 0 310.5 -99t125.5 -245q0 -113 -74 -228l-81 -127q-50 -73 -50 -112q0 -30 19.5 -54.5t70.5 -64.5q14 -9 44 -35q71 -60 106 -120t35 -136q0 -157 -120 -261t-300 -104q-225 0 -395 140z" />
    <glyph glyph-name="agrave" unicode="&#xe0;" horiz-adv-x="1288" 
d="M909 1024h353l-175 -1024h-329l14 84q-106 -109 -272 -109q-188 0 -313.5 138t-125.5 348q-3 160 70 297t200 215.5t277 75.5q195 0 287 -109zM827 518q0 97 -53 157t-139 60q-91 0 -151 -67.5t-60 -171.5q0 -94 50.5 -150.5t135.5 -56.5q94 0 155.5 65.5t61.5 163.5z
M524 1176l-172 360l21 61h397v-421h-246z" />
    <glyph glyph-name="aacute" unicode="&#xe1;" horiz-adv-x="1288" 
d="M909 1024h353l-175 -1024h-329l14 84q-106 -109 -272 -109q-188 0 -313.5 138t-125.5 348q-3 160 70 297t200 215.5t277 75.5q195 0 287 -109zM827 518q0 97 -53 157t-139 60q-91 0 -151 -67.5t-60 -171.5q0 -94 50.5 -150.5t135.5 -56.5q94 0 155.5 65.5t61.5 163.5z
M528 1176l205 421h445l-11 -61l-364 -360h-275z" />
    <glyph glyph-name="acircumflex" unicode="&#xe2;" horiz-adv-x="1288" 
d="M909 1024h353l-175 -1024h-329l14 84q-106 -109 -272 -109q-188 0 -313.5 138t-125.5 348q-3 160 70 297t200 215.5t277 75.5q195 0 287 -109zM827 518q0 97 -53 157t-139 60q-91 0 -151 -67.5t-60 -171.5q0 -94 50.5 -150.5t135.5 -56.5q94 0 155.5 65.5t61.5 163.5z
M1069 1176h-238l-108 153l-170 -153h-266l348 421h235z" />
    <glyph glyph-name="atilde" unicode="&#xe3;" horiz-adv-x="1288" 
d="M909 1024h353l-175 -1024h-329l14 84q-106 -109 -272 -109q-188 0 -313.5 138t-125.5 348q-3 160 70 297t200 215.5t277 75.5q195 0 287 -109zM827 518q0 97 -53 157t-139 60q-91 0 -151 -67.5t-60 -171.5q0 -94 50.5 -150.5t135.5 -56.5q94 0 155.5 65.5t61.5 163.5z
M731 1204l-59 33q-46 27 -78 27q-26 0 -45 -21.5t-25 -58.5h-262q14 192 84.5 294.5t196.5 102.5q76 0 153 -41l60 -33q45 -26 78 -26q26 0 44.5 21.5t24.5 58.5h262q-14 -192 -84 -295t-196 -103q-77 0 -154 41z" />
    <glyph glyph-name="adieresis" unicode="&#xe4;" horiz-adv-x="1288" 
d="M909 1024h353l-175 -1024h-329l14 84q-106 -109 -272 -109q-188 0 -313.5 138t-125.5 348q-3 160 70 297t200 215.5t277 75.5q195 0 287 -109zM827 518q0 97 -53 157t-139 60q-91 0 -151 -67.5t-60 -171.5q0 -94 50.5 -150.5t135.5 -56.5q94 0 155.5 65.5t61.5 163.5z
M266 1386q0 79 60 136t139 57q85 0 143 -55.5t58 -137.5q0 -76 -60 -133t-141 -57q-77 0 -137 57q-62 59 -62 133zM809 1386q0 80 59 136q60 57 140 57q85 0 142.5 -55.5t57.5 -137.5q0 -76 -59.5 -133t-140.5 -57q-78 0 -138 57q-61 58 -61 133z" />
    <glyph glyph-name="aring" unicode="&#xe5;" horiz-adv-x="1288" 
d="M909 1024h353l-175 -1024h-329l14 84q-106 -109 -272 -109q-188 0 -313.5 138t-125.5 348q-3 160 70 297t200 215.5t277 75.5q195 0 287 -109zM827 518q0 97 -53 157t-139 60q-91 0 -151 -67.5t-60 -171.5q0 -94 50.5 -150.5t135.5 -56.5q94 0 155.5 65.5t61.5 163.5z
M432 1364q0 119 85.5 200t209.5 81q118 0 193 -71.5t75 -182.5q0 -119 -85.5 -200t-209.5 -81q-118 0 -193 71.5t-75 182.5zM786 1382q0 31 -18 49.5t-49 18.5q-32 0 -54 -22t-22 -54q0 -31 18.5 -50t47.5 -19q32 0 54.5 22.5t22.5 54.5z" />
    <glyph glyph-name="ae" unicode="&#xe6;" horiz-adv-x="1753" 
d="M1667 389h-645q46 -123 219 -123q134 0 275 78l112 -233q-195 -136 -411 -136q-121 0 -221.5 42t-168.5 120q-82 -85 -180 -123.5t-231 -38.5q-183 0 -285 77t-102 214q0 161 118 247.5t338 86.5h209v18q0 63 -37 97.5t-106 34.5q-63 0 -126 -28.5t-140 -94.5l-125 256
q213 166 446 166q214 0 309 -121q148 121 338 121q194 0 324.5 -129t130.5 -322q0 -109 -41 -209zM1016 600h360v12q0 75 -43.5 119.5t-115.5 44.5q-73 0 -127 -47t-74 -129zM655 365l4 24h-161q-51 0 -80 -22.5t-29 -63.5q0 -80 100 -80q66 0 110.5 39t55.5 103z" />
    <glyph glyph-name="ccedilla" unicode="&#xe7;" horiz-adv-x="1144" 
d="M63 481q-3 156 75 288t214.5 207.5t298.5 72.5q161 0 281 -76.5t174 -212.5l-260 -172q-86 145 -209 145q-94 0 -155.5 -67t-61.5 -170q0 -91 53.5 -148t138.5 -57q121 0 215 125l226 -193q-75 -119 -196 -183.5t-267 -64.5q-231 0 -379 142t-148 364zM203 -358l39 225
q82 -12 123 -12q57 0 86 23.5t41 78.5q10 46 16 96l143 45q48 -36 76.5 -89t28.5 -109q0 -123 -104 -208t-253 -85q-103 0 -196 35z" />
    <glyph glyph-name="egrave" unicode="&#xe8;" 
d="M1061 391h-647q46 -125 221 -125q133 0 274 78l113 -238q-170 -131 -418 -131q-240 0 -391.5 140.5t-151.5 365.5q-4 151 75 284t214 210t289 74q201 0 332 -127t131 -322q0 -109 -41 -209zM412 616h358q0 72 -44 116t-116 44q-69 0 -122 -43t-76 -117zM508 1176
l-172 360l20 61h398v-421h-246z" />
    <glyph glyph-name="eacute" unicode="&#xe9;" 
d="M1061 391h-647q46 -125 221 -125q133 0 274 78l113 -238q-170 -131 -418 -131q-240 0 -391.5 140.5t-151.5 365.5q-4 151 75 284t214 210t289 74q201 0 332 -127t131 -322q0 -109 -41 -209zM412 616h358q0 72 -44 116t-116 44q-69 0 -122 -43t-76 -117zM512 1176l205 421
h444l-10 -61l-365 -360h-274z" />
    <glyph glyph-name="ecircumflex" unicode="&#xea;" 
d="M1061 391h-647q46 -125 221 -125q133 0 274 78l113 -238q-170 -131 -418 -131q-240 0 -391.5 140.5t-151.5 365.5q-4 151 75 284t214 210t289 74q201 0 332 -127t131 -322q0 -109 -41 -209zM412 616h358q0 72 -44 116t-116 44q-69 0 -122 -43t-76 -117zM1053 1176h-238
l-108 153l-170 -153h-267l348 421h236z" />
    <glyph glyph-name="edieresis" unicode="&#xeb;" 
d="M1061 391h-647q46 -125 221 -125q133 0 274 78l113 -238q-170 -131 -418 -131q-240 0 -391.5 140.5t-151.5 365.5q-4 151 75 284t214 210t289 74q201 0 332 -127t131 -322q0 -109 -41 -209zM412 616h358q0 72 -44 116t-116 44q-69 0 -122 -43t-76 -117zM250 1386
q0 80 59 136q60 57 140 57q85 0 142.5 -55.5t57.5 -137.5q0 -76 -59.5 -133t-140.5 -57q-78 0 -138 57q-61 58 -61 133zM793 1386q0 80 59 136q60 57 139 57q85 0 143 -55.5t58 -137.5q0 -76 -60 -133t-141 -57q-77 0 -137 57q-61 58 -61 133z" />
    <glyph glyph-name="igrave" unicode="&#xec;" horiz-adv-x="581" 
d="M29 0l180 1024h352l-180 -1024h-352zM283 1176l-168 360l10 61h414l-4 -421h-252z" />
    <glyph glyph-name="iacute" unicode="&#xed;" horiz-adv-x="581" 
d="M29 0l180 1024h352l-180 -1024h-352zM283 1176l143 421h451l-11 -61l-315 -360h-268z" />
    <glyph glyph-name="icircumflex" unicode="&#xee;" horiz-adv-x="581" 
d="M29 0l180 1024h352l-180 -1024h-352zM780 1176h-237l-109 153l-170 -153h-266l348 421h236z" />
    <glyph glyph-name="idieresis" unicode="&#xef;" horiz-adv-x="581" 
d="M29 0l180 1024h352l-180 -1024h-352zM0 1386q0 80 59 136q60 57 140 57q85 0 142.5 -55.5t57.5 -137.5q0 -76 -59.5 -133t-140.5 -57q-78 0 -138 57q-61 58 -61 133zM522 1386q0 79 60 136t139 57q85 0 143 -55.5t58 -137.5q0 -76 -60 -133t-141 -57q-77 0 -137 57
q-62 59 -62 133z" />
    <glyph glyph-name="eth" unicode="&#xf0;" horiz-adv-x="1169" 
d="M1108 502q2 -105 -42.5 -203t-120 -170t-180 -114t-216.5 -40q-217 0 -355.5 127t-138.5 328q0 131 65.5 240.5t181 174t255.5 68.5l-70 115l-280 -121l-96 254l233 101l-78 124l289 177l107 -166l331 141l99 -252l-285 -121l88 -139q118 -185 166 -305q47 -115 47 -219z
M754 469q0 67 -46.5 112.5t-115.5 45.5q-75 0 -128.5 -55t-53.5 -130q0 -69 45 -113t114 -44q78 0 131.5 53t53.5 131z" />
    <glyph glyph-name="ntilde" unicode="&#xf1;" horiz-adv-x="1222" 
d="M1145 700q0 -48 -12 -116l-103 -584h-352l96 549q8 41 8 67q0 61 -38.5 96.5t-100.5 35.5q-59 0 -101.5 -36.5t-54.5 -103.5l-106 -608h-352l180 1024h321l-14 -84q121 109 279 109q150 0 252 -97q98 -94 98 -252zM782 1204l-59 33q-47 27 -78 27q-26 0 -45 -21.5
t-25 -58.5h-262q14 192 84.5 294.5t196.5 102.5q77 0 154 -41l59 -33q45 -26 78 -26q26 0 44.5 21.5t24.5 58.5h263q-14 -192 -84.5 -295t-196.5 -103q-77 0 -154 41z" />
    <glyph glyph-name="ograve" unicode="&#xf2;" horiz-adv-x="1241" 
d="M63 489q-3 150 77 280.5t216.5 206.5t292.5 73q146 2 270.5 -66.5t196 -188.5t68.5 -262q2 -112 -45 -216t-126.5 -179.5t-190 -119.5t-228.5 -42q-147 -3 -270.5 65t-193.5 187.5t-67 261.5zM823 524q0 94 -51.5 151.5t-136.5 57.5q-91 0 -151 -68t-60 -171
q0 -93 50 -148t134 -55q94 0 154.5 65.5t60.5 167.5zM535 1176l-173 360l21 61h397v-421h-245z" />
    <glyph glyph-name="oacute" unicode="&#xf3;" horiz-adv-x="1241" 
d="M63 489q-3 150 77 280.5t216.5 206.5t292.5 73q146 2 270.5 -66.5t196 -188.5t68.5 -262q2 -112 -45 -216t-126.5 -179.5t-190 -119.5t-228.5 -42q-147 -3 -270.5 65t-193.5 187.5t-67 261.5zM823 524q0 94 -51.5 151.5t-136.5 57.5q-91 0 -151 -68t-60 -171
q0 -93 50 -148t134 -55q94 0 154.5 65.5t60.5 167.5zM539 1176l204 421h445l-10 -61l-365 -360h-274z" />
    <glyph glyph-name="ocircumflex" unicode="&#xf4;" horiz-adv-x="1241" 
d="M63 489q-3 150 77 280.5t216.5 206.5t292.5 73q146 2 270.5 -66.5t196 -188.5t68.5 -262q2 -112 -45 -216t-126.5 -179.5t-190 -119.5t-228.5 -42q-147 -3 -270.5 65t-193.5 187.5t-67 261.5zM823 524q0 94 -51.5 151.5t-136.5 57.5q-91 0 -151 -68t-60 -171
q0 -93 50 -148t134 -55q94 0 154.5 65.5t60.5 167.5zM1079 1176h-237l-109 153l-170 -153h-266l348 421h236z" />
    <glyph glyph-name="otilde" unicode="&#xf5;" horiz-adv-x="1241" 
d="M63 489q-3 150 77 280.5t216.5 206.5t292.5 73q146 2 270.5 -66.5t196 -188.5t68.5 -262q2 -112 -45 -216t-126.5 -179.5t-190 -119.5t-228.5 -42q-147 -3 -270.5 65t-193.5 187.5t-67 261.5zM823 524q0 94 -51.5 151.5t-136.5 57.5q-91 0 -151 -68t-60 -171
q0 -93 50 -148t134 -55q94 0 154.5 65.5t60.5 167.5zM741 1204l-59 33q-46 27 -78 27q-26 0 -44.5 -21.5t-24.5 -58.5h-263q14 192 84.5 294.5t196.5 102.5q77 0 154 -41l59 -33q45 -26 78 -26q26 0 44.5 21.5t24.5 58.5h263q-14 -192 -84.5 -295t-196.5 -103q-77 0 -154 41
z" />
    <glyph glyph-name="odieresis" unicode="&#xf6;" horiz-adv-x="1241" 
d="M63 489q-3 150 77 280.5t216.5 206.5t292.5 73q146 2 270.5 -66.5t196 -188.5t68.5 -262q2 -112 -45 -216t-126.5 -179.5t-190 -119.5t-228.5 -42q-147 -3 -270.5 65t-193.5 187.5t-67 261.5zM823 524q0 94 -51.5 151.5t-136.5 57.5q-91 0 -151 -68t-60 -171
q0 -93 50 -148t134 -55q94 0 154.5 65.5t60.5 167.5zM276 1386q0 79 60 136t139 57q85 0 143 -55.5t58 -137.5q0 -76 -60 -133t-141 -57q-77 0 -137 57q-62 59 -62 133zM819 1386q0 79 60 136t139 57q85 0 143 -55.5t58 -137.5q0 -76 -60 -133t-141 -57q-77 0 -137 57
q-62 59 -62 133z" />
    <glyph glyph-name="divide" unicode="&#xf7;" 
d="M475 1061q0 79 58 133.5t143 54.5t144 -54.5t59 -133.5q0 -80 -59 -135.5t-144 -55.5q-84 0 -142.5 55.5t-58.5 135.5zM78 516l53 295h997l-53 -295h-997zM336 266q0 80 58.5 135.5t142.5 55.5q85 0 143.5 -55.5t58.5 -135.5q0 -79 -58.5 -133.5t-143.5 -54.5t-143 54.5
t-58 133.5z" />
    <glyph glyph-name="oslash" unicode="&#xf8;" horiz-adv-x="1202" 
d="M1221 877l-115 -105q59 -109 59 -235q3 -148 -78.5 -279t-219.5 -208.5t-292 -74.5q-138 0 -262 68l-135 -125l-190 209l123 113q-66 123 -66 247q-3 148 77 279t217 208.5t292 74.5q153 0 278 -76l121 112zM377 492q0 -12 4 -48l321 295q-46 17 -84 17q-102 0 -172 -76
q-69 -75 -69 -188zM834 526q0 25 -3 37l-311 -284q42 -11 68 -11q104 0 175 74t71 184z" />
    <glyph glyph-name="ugrave" unicode="&#xf9;" horiz-adv-x="1214" 
d="M100 397q0 36 11 107l90 520h352l-98 -567q-4 -32 -4 -39q0 -55 39.5 -91t99.5 -36t102.5 35.5t52.5 95.5l105 602h352l-106 -604q-37 -210 -175 -327.5t-348 -117.5q-211 0 -342 117t-131 305zM553 1176l-172 360l20 61h398v-421h-246z" />
    <glyph glyph-name="uacute" unicode="&#xfa;" horiz-adv-x="1214" 
d="M100 397q0 36 11 107l90 520h352l-98 -567q-4 -32 -4 -39q0 -55 39.5 -91t99.5 -36t102.5 35.5t52.5 95.5l105 602h352l-106 -604q-37 -210 -175 -327.5t-348 -117.5q-211 0 -342 117t-131 305zM557 1176l205 421h444l-10 -61l-365 -360h-274z" />
    <glyph glyph-name="ucircumflex" unicode="&#xfb;" horiz-adv-x="1214" 
d="M100 397q0 36 11 107l90 520h352l-98 -567q-4 -32 -4 -39q0 -55 39.5 -91t99.5 -36t102.5 35.5t52.5 95.5l105 602h352l-106 -604q-37 -210 -175 -327.5t-348 -117.5q-211 0 -342 117t-131 305zM1098 1176h-238l-108 153l-170 -153h-267l349 421h235z" />
    <glyph glyph-name="udieresis" unicode="&#xfc;" horiz-adv-x="1214" 
d="M100 397q0 36 11 107l90 520h352l-98 -567q-4 -32 -4 -39q0 -55 39.5 -91t99.5 -36t102.5 35.5t52.5 95.5l105 602h352l-106 -604q-37 -210 -175 -327.5t-348 -117.5q-211 0 -342 117t-131 305zM295 1386q0 80 59 136q60 57 140 57q85 0 142.5 -55.5t57.5 -137.5
q0 -76 -59.5 -133t-140.5 -57q-78 0 -138 57q-61 58 -61 133zM838 1386q0 80 59 136q60 57 139 57q85 0 143 -55.5t58 -137.5q0 -76 -60 -133t-141 -57q-77 0 -137 57q-61 58 -61 133z" />
    <glyph glyph-name="yacute" unicode="&#xfd;" horiz-adv-x="1222" 
d="M850 1024h352l-168 -948q-40 -217 -186 -342q-148 -127 -363 -127q-150 0 -287 60.5t-229 168.5l205 236q95 -84 165 -117t146 -33q169 0 199 164l6 39q-104 -72 -237 -72q-155 0 -255 97t-100 245q0 38 11 109l92 520h352l-90 -508q-4 -32 -4 -39q0 -55 39.5 -91
t99.5 -36q57 0 101.5 35.5t54.5 95.5zM557 1176l205 421h444l-10 -61l-365 -360h-274z" />
    <glyph glyph-name="thorn" unicode="&#xfe;" horiz-adv-x="1284" 
d="M1231 565q2 -121 -41 -231.5t-116.5 -189.5t-176.5 -125t-215 -44q-196 0 -287 111l-80 -455h-352l336 1905h352l-100 -567q95 80 242 80q187 0 312.5 -138.5t125.5 -345.5zM868 530q0 93 -51 149t-135 56q-94 0 -155.5 -66.5t-61.5 -168.5q0 -94 52.5 -152.5
t137.5 -58.5q92 0 152.5 68.5t60.5 172.5z" />
    <glyph glyph-name="ydieresis" unicode="&#xff;" horiz-adv-x="1222" 
d="M850 1024h352l-168 -948q-40 -217 -186 -342q-148 -127 -363 -127q-150 0 -287 60.5t-229 168.5l205 236q95 -84 165 -117t146 -33q169 0 199 164l6 39q-104 -72 -237 -72q-155 0 -255 97t-100 245q0 38 11 109l92 520h352l-90 -508q-4 -32 -4 -39q0 -55 39.5 -91
t99.5 -36q57 0 101.5 35.5t54.5 95.5zM295 1386q0 80 59 136q60 57 140 57q85 0 142.5 -55.5t57.5 -137.5q0 -76 -59.5 -133t-140.5 -57q-78 0 -138 57q-61 58 -61 133zM838 1386q0 80 59 136q60 57 139 57q85 0 143 -55.5t58 -137.5q0 -76 -60 -133t-141 -57q-77 0 -137 57
q-61 58 -61 133z" />
    <glyph glyph-name="Amacron" unicode="&#x100;" horiz-adv-x="1351" 
d="M893 0l-31 113h-475l-70 -113h-397l858 1376h113l371 -1376h-369zM788 395l-59 301l-168 -301h227zM512 1526l49 274h696l-49 -274h-696z" />
    <glyph glyph-name="amacron" unicode="&#x101;" horiz-adv-x="1288" 
d="M909 1024h353l-175 -1024h-329l14 84q-106 -109 -272 -109q-188 0 -313.5 138t-125.5 348q-3 160 70 297t200 215.5t277 75.5q195 0 287 -109zM827 518q0 97 -53 157t-139 60q-91 0 -151 -67.5t-60 -171.5q0 -94 50.5 -150.5t135.5 -56.5q94 0 155.5 65.5t61.5 163.5z
M385 1249l49 275h656l-50 -275h-655z" />
    <glyph glyph-name="Abreve" unicode="&#x102;" horiz-adv-x="1351" 
d="M893 0l-31 113h-475l-70 -113h-397l858 1376h113l371 -1376h-369zM788 395l-59 301l-168 -301h227zM535 1802q0 16 6 62h272l-4 -41q0 -49 26.5 -76t73.5 -27q107 0 119 125l2 19h273l-3 -19q-20 -174 -131 -277.5t-278 -103.5q-160 0 -258 93t-98 245z" />
    <glyph glyph-name="abreve" unicode="&#x103;" horiz-adv-x="1288" 
d="M909 1024h353l-175 -1024h-329l14 84q-106 -109 -272 -109q-188 0 -313.5 138t-125.5 348q-3 160 70 297t200 215.5t277 75.5q195 0 287 -109zM827 518q0 97 -53 157t-139 60q-91 0 -151 -67.5t-60 -171.5q0 -94 50.5 -150.5t135.5 -56.5q94 0 155.5 65.5t61.5 163.5z
M371 1503q0 29 12 94h270q-8 -44 -8 -73q0 -49 26.5 -76t73.5 -27q48 0 80 32.5t39 92.5l8 51h273l-8 -51q-26 -173 -138 -277t-272 -104t-258 93t-98 245z" />
    <glyph glyph-name="Aogonek" unicode="&#x104;" horiz-adv-x="1351" 
d="M893 0l-31 113h-475l-70 -113h-397l858 1376h113l371 -1376h-369zM788 395l-59 301l-168 -301h227zM752 -193q0 97 83 155t281 99l146 -61l-107 -47q-33 -14 -46 -27.5t-13 -36.5t19 -36t52 -13l66 4l-39 -219q-74 -18 -168 -18q-131 0 -202.5 52t-71.5 148z" />
    <glyph glyph-name="aogonek" unicode="&#x105;" horiz-adv-x="1288" 
d="M909 1024h353l-175 -1024h-329l14 84q-106 -109 -272 -109q-188 0 -313.5 138t-125.5 348q-3 160 70 297t200 215.5t277 75.5q195 0 287 -109zM827 518q0 97 -53 157t-139 60q-91 0 -151 -67.5t-60 -171.5q0 -94 50.5 -150.5t135.5 -56.5q94 0 155.5 65.5t61.5 163.5z
M575 -193q0 97 83.5 155t281.5 99l145 -61l-106 -47q-33 -14 -46 -27.5t-13 -36.5t19 -36t52 -13l66 4l-39 -219q-74 -18 -168 -18q-131 0 -203 52t-72 148z" />
    <glyph glyph-name="Cacute" unicode="&#x106;" horiz-adv-x="1482" 
d="M102 631q-3 150 59.5 289t168.5 240t251.5 160t301.5 56q214 0 373.5 -101.5t234.5 -287.5l-287 -170q-108 236 -342 236q-173 0 -286 -115.5t-113 -290.5q0 -158 94 -253t252 -95q209 0 362 205l248 -195q-109 -160 -274.5 -247t-362.5 -87q-191 -3 -348 82.5t-246 237
t-86 336.5zM834 1483l176 381h444l-10 -62l-346 -319h-264z" />
    <glyph glyph-name="cacute" unicode="&#x107;" horiz-adv-x="1144" 
d="M63 481q-3 156 75 288t214.5 207.5t298.5 72.5q161 0 281 -76.5t174 -212.5l-260 -172q-86 145 -209 145q-94 0 -155.5 -67t-61.5 -170q0 -91 53.5 -148t138.5 -57q121 0 215 125l226 -193q-75 -119 -196 -183.5t-267 -64.5q-231 0 -379 142t-148 364zM508 1176l205 421
h444l-10 -61l-365 -360h-274z" />
    <glyph glyph-name="Ccircumflex" unicode="&#x108;" horiz-adv-x="1482" 
d="M102 631q-3 150 59.5 289t168.5 240t251.5 160t301.5 56q214 0 373.5 -101.5t234.5 -287.5l-287 -170q-108 236 -342 236q-173 0 -286 -115.5t-113 -290.5q0 -158 94 -253t252 -95q209 0 362 205l248 -195q-109 -160 -274.5 -247t-362.5 -87q-191 -3 -348 82.5t-246 237
t-86 336.5zM1395 1483h-246l-127 133l-184 -133h-289l373 381h235z" />
    <glyph glyph-name="ccircumflex" unicode="&#x109;" horiz-adv-x="1144" 
d="M63 481q-3 156 75 288t214.5 207.5t298.5 72.5q161 0 281 -76.5t174 -212.5l-260 -172q-86 145 -209 145q-94 0 -155.5 -67t-61.5 -170q0 -91 53.5 -148t138.5 -57q121 0 215 125l226 -193q-75 -119 -196 -183.5t-267 -64.5q-231 0 -379 142t-148 364zM1049 1176h-238
l-109 153l-170 -153h-266l348 421h236z" />
    <glyph glyph-name="Cdotaccent" unicode="&#x10a;" horiz-adv-x="1482" 
d="M102 631q-3 150 59.5 289t168.5 240t251.5 160t301.5 56q214 0 373.5 -101.5t234.5 -287.5l-287 -170q-108 236 -342 236q-173 0 -286 -115.5t-113 -290.5q0 -158 94 -253t252 -95q209 0 362 205l248 -195q-109 -160 -274.5 -247t-362.5 -87q-191 -3 -348 82.5t-246 237
t-86 336.5zM795 1675q0 88 62 148.5t153 60.5t154 -60.5t63 -148.5q0 -86 -63 -146.5t-154 -60.5t-153 59.5t-62 147.5z" />
    <glyph glyph-name="cdotaccent" unicode="&#x10b;" horiz-adv-x="1144" 
d="M63 481q-3 156 75 288t214.5 207.5t298.5 72.5q161 0 281 -76.5t174 -212.5l-260 -172q-86 145 -209 145q-94 0 -155.5 -67t-61.5 -170q0 -91 53.5 -148t138.5 -57q121 0 215 125l226 -193q-75 -119 -196 -183.5t-267 -64.5q-231 0 -379 142t-148 364zM504 1386
q0 88 62 148.5t153 60.5t154 -60.5t63 -148.5q0 -86 -63 -146t-154 -60t-153 59t-62 147z" />
    <glyph glyph-name="Ccaron" unicode="&#x10c;" horiz-adv-x="1482" 
d="M102 631q-3 150 59.5 289t168.5 240t251.5 160t301.5 56q214 0 373.5 -101.5t234.5 -287.5l-287 -170q-108 236 -342 236q-173 0 -286 -115.5t-113 -290.5q0 -158 94 -253t252 -95q209 0 362 205l248 -195q-109 -160 -274.5 -247t-362.5 -87q-191 -3 -348 82.5t-246 237
t-86 336.5zM1174 1864h288l-372 -381h-236l-238 381h246l127 -133z" />
    <glyph glyph-name="ccaron" unicode="&#x10d;" horiz-adv-x="1144" 
d="M63 481q-3 156 75 288t214.5 207.5t298.5 72.5q161 0 281 -76.5t174 -212.5l-260 -172q-86 145 -209 145q-94 0 -155.5 -67t-61.5 -170q0 -91 53.5 -148t138.5 -57q121 0 215 125l226 -193q-75 -119 -196 -183.5t-267 -64.5q-231 0 -379 142t-148 364zM877 1597h266
l-348 -421h-236l-199 421h238l109 -153z" />
    <glyph glyph-name="Dcaron" unicode="&#x10e;" horiz-adv-x="1415" 
d="M49 0l238 1352h409q192 3 350 -79.5t246.5 -227.5t85.5 -322q2 -154 -58 -289t-166 -231t-254.5 -150.5t-317.5 -52.5h-533zM457 315l147 2q187 5 300.5 111t113.5 279q0 152 -93 238.5t-255 86.5h-86zM940 1864h289l-373 -381h-235l-238 381h246l127 -133z" />
    <glyph glyph-name="dcaron" unicode="&#x10f;" horiz-adv-x="1695" 
d="M1004 1536h352l-271 -1536h-321l16 96q-103 -121 -282 -121q-188 0 -313.5 138.5t-125.5 345.5q-3 162 69 299t198.5 215.5t275.5 75.5q205 0 293 -119zM825 524q0 92 -52.5 150.5t-137.5 58.5q-92 0 -152.5 -68t-60.5 -171q0 -93 51 -149t135 -56q94 0 155.5 66.5
t61.5 168.5zM1448 1122l74 414h358l-186 -414h-246z" />
    <glyph glyph-name="Dcroat" unicode="&#x110;" horiz-adv-x="1429" 
d="M1393 723q2 -154 -58.5 -289t-166 -231t-254.5 -150.5t-318 -52.5h-533l89 504h-170l51 295h172l96 553h410q192 3 350 -79.5t246.5 -227.5t85.5 -322zM1032 707q0 152 -93 238.5t-255 86.5h-86l-41 -233h174l-51 -295h-176l-33 -189l147 2q187 5 300.5 111t113.5 279z
" />
    <glyph glyph-name="dslash" unicode="&#x111;" horiz-adv-x="1298" 
d="M1475 1376l-50 -282h-155l-193 -1094h-321l10 63q-101 -88 -262 -88q-198 0 -325.5 125t-127.5 320q-3 150 70.5 278.5t201 203t275.5 71.5q187 0 281 -113l39 234h-398l49 282h398l28 160h353l-29 -160h156zM817 489q0 85 -51.5 137t-136.5 52q-91 0 -153 -62.5
t-62 -154.5t50.5 -147.5t135.5 -55.5q94 0 155.5 65.5t61.5 165.5z" />
    <glyph glyph-name="Emacron" unicode="&#x112;" horiz-adv-x="1185" 
d="M49 0l238 1352h938l-56 -318h-585l-33 -186h418l-54 -295h-417l-41 -236h610l-55 -317h-963zM426 1526l49 274h696l-49 -274h-696z" />
    <glyph glyph-name="emacron" unicode="&#x113;" 
d="M1061 391h-647q46 -125 221 -125q133 0 274 78l113 -238q-170 -131 -418 -131q-240 0 -391.5 140.5t-151.5 365.5q-4 151 75 284t214 210t289 74q201 0 332 -127t131 -322q0 -109 -41 -209zM412 616h358q0 72 -44 116t-116 44q-69 0 -122 -43t-76 -117zM369 1249l49 275
h655l-49 -275h-655z" />
    <glyph glyph-name="Ebreve" unicode="&#x114;" horiz-adv-x="1185" 
d="M49 0l238 1352h938l-56 -318h-585l-33 -186h418l-54 -295h-417l-41 -236h610l-55 -317h-963zM449 1802q0 16 6 62h272l-4 -41q0 -49 26.5 -76t73.5 -27q107 0 119 125l2 19h273l-3 -19q-20 -174 -131 -277.5t-278 -103.5q-160 0 -258 93t-98 245z" />
    <glyph glyph-name="ebreve" unicode="&#x115;" 
d="M1061 391h-647q46 -125 221 -125q133 0 274 78l113 -238q-170 -131 -418 -131q-240 0 -391.5 140.5t-151.5 365.5q-4 151 75 284t214 210t289 74q201 0 332 -127t131 -322q0 -109 -41 -209zM412 616h358q0 72 -44 116t-116 44q-69 0 -122 -43t-76 -117zM354 1503
q0 24 13 94h270q-8 -44 -8 -73q0 -49 26.5 -76t73.5 -27q48 0 80 32.5t39 92.5l8 51h272l-8 -51q-26 -173 -137.5 -277t-271.5 -104t-258.5 93t-98.5 245z" />
    <glyph glyph-name="Edotaccent" unicode="&#x116;" horiz-adv-x="1185" 
d="M49 0l238 1352h938l-56 -318h-585l-33 -186h418l-54 -295h-417l-41 -236h610l-55 -317h-963zM588 1675q0 88 62 148.5t153 60.5t154 -60.5t63 -148.5q0 -86 -63 -146.5t-154 -60.5t-153 59.5t-62 147.5z" />
    <glyph glyph-name="edotaccent" unicode="&#x117;" 
d="M1061 391h-647q46 -125 221 -125q133 0 274 78l113 -238q-170 -131 -418 -131q-240 0 -391.5 140.5t-151.5 365.5q-4 151 75 284t214 210t289 74q201 0 332 -127t131 -322q0 -109 -41 -209zM412 616h358q0 72 -44 116t-116 44q-69 0 -122 -43t-76 -117zM508 1386
q0 88 62 148.5t153 60.5t154 -60.5t63 -148.5q0 -86 -63 -146t-154 -60t-153 59t-62 147z" />
    <glyph glyph-name="Eogonek" unicode="&#x118;" horiz-adv-x="1185" 
d="M49 0l238 1352h938l-56 -318h-585l-33 -186h418l-54 -295h-417l-41 -236h610l-55 -317h-963zM502 -193q0 97 83 155t281 99l146 -61l-107 -47q-33 -14 -46 -27.5t-13 -36.5t19.5 -36t52.5 -13l65 4l-39 -219q-74 -18 -168 -18q-131 0 -202.5 52t-71.5 148z" />
    <glyph glyph-name="eogonek" unicode="&#x119;" 
d="M1061 391h-647q46 -125 221 -125q133 0 274 78l113 -238q-170 -131 -418 -131q-240 0 -391.5 140.5t-151.5 365.5q-4 151 75 284t214 210t289 74q201 0 332 -127t131 -322q0 -109 -41 -209zM412 616h358q0 72 -44 116t-116 44q-69 0 -122 -43t-76 -117zM479 -193
q0 103 98.5 185.5t258.5 113.5h186l-123 -106q-47 -41 -61.5 -62.5t-14.5 -48.5q0 -23 19.5 -36t52.5 -13l66 4l-39 -219q-74 -18 -168 -18q-133 0 -204 53t-71 147z" />
    <glyph glyph-name="Ecaron" unicode="&#x11a;" horiz-adv-x="1185" 
d="M49 0l238 1352h938l-56 -318h-585l-33 -186h418l-54 -295h-417l-41 -236h610l-55 -317h-963zM967 1864h288l-372 -381h-236l-237 381h245l127 -133z" />
    <glyph glyph-name="ecaron" unicode="&#x11b;" 
d="M1061 391h-647q46 -125 221 -125q133 0 274 78l113 -238q-170 -131 -418 -131q-240 0 -391.5 140.5t-151.5 365.5q-4 151 75 284t214 210t289 74q201 0 332 -127t131 -322q0 -109 -41 -209zM412 616h358q0 72 -44 116t-116 44q-69 0 -122 -43t-76 -117zM881 1597h266
l-348 -421h-236l-198 421h237l109 -153z" />
    <glyph glyph-name="Gcircumflex" unicode="&#x11c;" horiz-adv-x="1538" 
d="M102 631q-3 150 59.5 289t168.5 240t252 160t303 56q192 0 340 -84t239 -245l-266 -197q-63 105 -143.5 154t-188.5 49q-177 0 -290 -114.5t-113 -293.5q0 -164 95 -260t257 -96q176 0 287 108l14 76h-315l53 303h668l-82 -463q-104 -159 -279 -247q-180 -91 -377 -91
q-144 -2 -272 47.5t-218.5 137t-142 210.5t-49.5 261zM1397 1483h-246l-127 133l-184 -133h-289l373 381h235z" />
    <glyph glyph-name="gcircumflex" unicode="&#x11d;" horiz-adv-x="1292" 
d="M913 1024h353l-162 -950q-37 -216 -193 -342q-155 -125 -387 -125q-323 0 -538 229l204 236q92 -79 170.5 -114.5t163.5 -35.5q97 0 157 41t73 119l6 35q-104 -72 -244 -72q-197 0 -325 124t-128 314q0 156 72.5 286t198.5 205t276 75q195 0 289 -113zM612 328
q92 0 154.5 64.5t62.5 160.5q0 90 -53 146.5t-135 56.5q-91 0 -153 -67t-62 -165q0 -88 51 -142t135 -54zM1092 1176h-238l-109 153l-170 -153h-266l348 421h236z" />
    <glyph glyph-name="Gbreve" unicode="&#x11e;" horiz-adv-x="1538" 
d="M102 631q-3 150 59.5 289t168.5 240t252 160t303 56q192 0 340 -84t239 -245l-266 -197q-63 105 -143.5 154t-188.5 49q-177 0 -290 -114.5t-113 -293.5q0 -164 95 -260t257 -96q176 0 287 108l14 76h-315l53 303h668l-82 -463q-104 -159 -279 -247q-180 -91 -377 -91
q-144 -2 -272 47.5t-218.5 137t-142 210.5t-49.5 261zM657 1802q0 8 7 62h272l-4 -41q0 -49 26.5 -76t73.5 -27q106 0 119 125l2 19h272l-2 -19q-20 -174 -131 -277.5t-278 -103.5q-160 0 -258.5 93t-98.5 245z" />
    <glyph glyph-name="gbreve" unicode="&#x11f;" horiz-adv-x="1292" 
d="M913 1024h353l-162 -950q-37 -216 -193 -342q-155 -125 -387 -125q-323 0 -538 229l204 236q92 -79 170.5 -114.5t163.5 -35.5q97 0 157 41t73 119l6 35q-104 -72 -244 -72q-197 0 -325 124t-128 314q0 156 72.5 286t198.5 205t276 75q195 0 289 -113zM612 328
q92 0 154.5 64.5t62.5 160.5q0 90 -53 146.5t-135 56.5q-91 0 -153 -67t-62 -165q0 -88 51 -142t135 -54zM393 1503q0 24 13 94h270q-8 -44 -8 -73q0 -49 26.5 -76t73.5 -27q48 0 80 32.5t39 92.5l8 51h272l-8 -51q-26 -173 -137.5 -277t-271.5 -104t-258.5 93t-98.5 245z
" />
    <glyph glyph-name="Gdotaccent" unicode="&#x120;" horiz-adv-x="1538" 
d="M102 631q-3 150 59.5 289t168.5 240t252 160t303 56q192 0 340 -84t239 -245l-266 -197q-63 105 -143.5 154t-188.5 49q-177 0 -290 -114.5t-113 -293.5q0 -164 95 -260t257 -96q176 0 287 108l14 76h-315l53 303h668l-82 -463q-104 -159 -279 -247q-180 -91 -377 -91
q-144 -2 -272 47.5t-218.5 137t-142 210.5t-49.5 261zM797 1675q0 88 62 148.5t153 60.5t154 -60.5t63 -148.5q0 -86 -63 -146.5t-154 -60.5t-153 59.5t-62 147.5z" />
    <glyph glyph-name="gdotaccent" unicode="&#x121;" horiz-adv-x="1292" 
d="M913 1024h353l-162 -950q-37 -216 -193 -342q-155 -125 -387 -125q-323 0 -538 229l204 236q92 -79 170.5 -114.5t163.5 -35.5q97 0 157 41t73 119l6 35q-104 -72 -244 -72q-197 0 -325 124t-128 314q0 156 72.5 286t198.5 205t276 75q195 0 289 -113zM612 328
q92 0 154.5 64.5t62.5 160.5q0 90 -53 146.5t-135 56.5q-91 0 -153 -67t-62 -165q0 -88 51 -142t135 -54zM547 1386q0 88 62 148.5t153 60.5t154 -60.5t63 -148.5q0 -86 -63 -146t-154 -60t-153 59t-62 147z" />
    <glyph glyph-name="uni0122" unicode="&#x122;" horiz-adv-x="1538" 
d="M102 631q-3 150 59.5 289t168.5 240t252 160t303 56q192 0 340 -84t239 -245l-266 -197q-63 105 -143.5 154t-188.5 49q-177 0 -290 -114.5t-113 -293.5q0 -164 95 -260t257 -96q176 0 287 108l14 76h-315l53 303h668l-82 -463q-104 -159 -279 -247q-180 -91 -377 -91
q-144 -2 -272 47.5t-218.5 137t-142 210.5t-49.5 261zM479 -451l64 361h319l-117 -361h-266z" />
    <glyph glyph-name="uni0123" unicode="&#x123;" horiz-adv-x="1292" 
d="M913 1024h353l-162 -950q-37 -216 -193 -342q-155 -125 -387 -125q-323 0 -538 229l204 236q92 -79 170.5 -114.5t163.5 -35.5q97 0 157 41t73 119l6 35q-104 -72 -244 -72q-197 0 -325 124t-128 314q0 156 72.5 286t198.5 205t276 75q195 0 289 -113zM612 328
q92 0 154.5 64.5t62.5 160.5q0 90 -53 146.5t-135 56.5q-91 0 -153 -67t-62 -165q0 -88 51 -142t135 -54zM547 1176l147 421h254l-74 -421h-327z" />
    <glyph glyph-name="Hcircumflex" unicode="&#x124;" horiz-adv-x="1468" 
d="M49 0l238 1352h352l-86 -494h494l86 494h352l-238 -1352h-352l94 541h-493l-95 -541h-352zM1331 1483h-246l-127 133l-184 -133h-289l373 381h236z" />
    <glyph glyph-name="hcircumflex" unicode="&#x125;" horiz-adv-x="1222" 
d="M1145 702q0 -44 -12 -118l-103 -584h-352l98 567q6 38 6 51q0 59 -38.5 94.5t-100.5 35.5q-59 0 -101.5 -37t-54.5 -103l-106 -608h-352l270 1536h352l-100 -565q104 78 240 78q154 0 256 -97q98 -94 98 -250zM926 1667h-246l-127 133l-184 -133h-289l373 381h235z" />
    <glyph glyph-name="Hbar" unicode="&#x126;" horiz-adv-x="1517" 
d="M1655 1155l-51 -295h-181l-151 -860h-352l67 387h-493l-68 -387h-352l151 860h-180l51 295h180l35 197h353l-35 -197h493l35 197h352l-34 -197h180zM1040 684l31 176h-493l-31 -176h493z" />
    <glyph glyph-name="hbar" unicode="&#x127;" horiz-adv-x="1243" 
d="M1151 621q0 -51 -12 -119l-88 -502h-353l80 469q6 37 6 51q0 59 -38.5 94t-100.5 35q-59 0 -101.5 -36t-54.5 -103l-88 -510h-352l193 1092h-156l49 284h156l28 160h353l-29 -160h377l-49 -284h-377l-37 -203q104 78 240 78q154 0 256 -97q98 -94 98 -249z" />
    <glyph glyph-name="Itilde" unicode="&#x128;" horiz-adv-x="622" 
d="M49 0l238 1352h352l-238 -1352h-352zM485 1520l-36 18q-53 27 -80 27q-26 0 -45 -21.5t-25 -58.5h-262q14 192 84.5 294.5t197.5 102.5q28 0 55.5 -4.5t50 -12.5t38.5 -15t30.5 -14.5t16.5 -8.5l37 -19q2 0 16 -7t31.5 -13t32.5 -6q54 0 69 80h262q-30 -398 -286 -398
q-49 0 -88.5 12.5t-98.5 43.5z" />
    <glyph glyph-name="itilde" unicode="&#x129;" horiz-adv-x="581" 
d="M29 0l180 1024h352l-180 -1024h-352zM436 1223l-30 20q-30 21 -54 21q-50 0 -63 -80h-262q14 190 83 293.5t187 103.5q43 0 78.5 -13.5t81.5 -45.5l30 -21q29 -20 54 -20q50 0 63 80h262q-14 -191 -83 -294.5t-187 -103.5q-43 0 -78.5 14t-81.5 46z" />
    <glyph glyph-name="Imacron" unicode="&#x12a;" horiz-adv-x="622" 
d="M49 0l238 1352h352l-238 -1352h-352zM145 1526l50 274h696l-49 -274h-697z" />
    <glyph glyph-name="imacron" unicode="&#x12b;" horiz-adv-x="581" 
d="M29 0l180 1024h352l-180 -1024h-352zM137 1249l49 275h574l-49 -275h-574z" />
    <glyph glyph-name="Ibreve" unicode="&#x12c;" horiz-adv-x="622" 
d="M49 0l238 1352h352l-238 -1352h-352zM168 1802q0 16 6 62h272l-4 -41q0 -49 26.5 -76t74.5 -27q107 0 119 125l2 19h272l-2 -19q-20 -174 -131.5 -277.5t-278.5 -103.5q-160 0 -258 93t-98 245z" />
    <glyph glyph-name="ibreve" unicode="&#x12d;" horiz-adv-x="581" 
d="M29 0l180 1024h352l-180 -1024h-352zM82 1503q0 29 12 94h271q-9 -49 -9 -73q0 -49 26.5 -76t74.5 -27t79.5 32t38.5 93l9 51h272l-8 -51q-26 -173 -138 -277t-272 -104t-258 93t-98 245z" />
    <glyph glyph-name="Iogonek" unicode="&#x12e;" horiz-adv-x="622" 
d="M49 0l238 1352h352l-238 -1352h-352zM-109 -193q0 97 83.5 155t281.5 99l145 -61l-106 -47q-33 -14 -46 -27.5t-13 -36.5t19 -36t52 -13l66 4l-39 -219q-74 -18 -168 -18q-131 0 -203 52t-72 148z" />
    <glyph glyph-name="iogonek" unicode="&#x12f;" horiz-adv-x="581" 
d="M29 0l180 1024h352l-180 -1024h-352zM236 1386q0 88 62 148.5t153 60.5t154 -60.5t63 -148.5q0 -86 -63 -146t-154 -60t-153 59t-62 147zM-129 -193q0 97 83.5 155t281.5 99l145 -61l-107 -47q-33 -14 -46 -27.5t-13 -36.5t19.5 -36t52.5 -13l65 4l-39 -219
q-73 -18 -168 -18q-131 0 -202.5 52t-71.5 148z" />
    <glyph glyph-name="Idot" unicode="&#x130;" horiz-adv-x="622" 
d="M49 0l238 1352h352l-238 -1352h-352zM307 1675q0 88 62 148.5t153 60.5t154 -60.5t63 -148.5q0 -86 -63 -146.5t-154 -60.5t-153 59.5t-62 147.5z" />
    <glyph glyph-name="dotlessi" unicode="&#x131;" horiz-adv-x="581" 
d="M29 0l180 1024h352l-180 -1024h-352z" />
    <glyph glyph-name="IJ" unicode="&#x132;" horiz-adv-x="1443" 
d="M49 0l238 1352h352l-238 -1352h-352zM565 25l51 290q112 -16 158 -16q80 0 119 31t51 104l162 918h352l-172 -985q-32 -192 -145.5 -292t-298.5 -100q-145 0 -277 50z" />
    <glyph glyph-name="ij" unicode="&#x133;" horiz-adv-x="1165" 
d="M29 0l180 1024h352l-180 -1024h-352zM236 1386q0 88 62 148.5t153 60.5t154 -60.5t63 -148.5q0 -86 -63 -146t-154 -60t-153 59t-62 147zM315 -352l52 291q71 -11 98 -11q71 0 106.5 28.5t46.5 92.5l173 975h352l-182 -1040q-32 -183 -145.5 -280t-293.5 -97
q-114 0 -207 41zM815 1386q0 88 62 148.5t153 60.5t154 -60.5t63 -148.5q0 -86 -63 -146t-154 -60t-153 59t-62 147z" />
    <glyph glyph-name="Jcircumflex" unicode="&#x134;" horiz-adv-x="821" 
d="M-57 25l51 290q112 -16 158 -16q80 0 119 31t51 104l161 918h353l-172 -985q-32 -192 -146 -292t-299 -100q-144 0 -276 50zM1057 1483h-246l-127 133l-184 -133h-289l373 381h235z" />
    <glyph glyph-name="jcircumflex" unicode="&#x135;" horiz-adv-x="583" 
d="M-266 -352l51 291q71 -11 98 -11q71 0 107 28.5t47 92.5l172 975h352l-182 -1040q-32 -184 -145.5 -280.5t-292.5 -96.5q-114 0 -207 41zM778 1176h-237l-109 153l-170 -153h-266l348 421h236z" />
    <glyph glyph-name="uni0136" unicode="&#x136;" horiz-adv-x="1423" 
d="M1495 1352l-588 -674l426 -678h-385l-428 678l-119 -678h-352l238 1352h352l-107 -611l529 611h434zM391 -451l64 361h319l-117 -361h-266z" />
    <glyph glyph-name="uni0137" unicode="&#x137;" horiz-adv-x="1210" 
d="M1280 1024l-432 -477l276 -547h-379l-270 541l-94 -541h-352l270 1536h352l-164 -930l383 418h410zM301 -451l64 361h319l-117 -361h-266z" />
    <glyph glyph-name="Lacute" unicode="&#x139;" horiz-adv-x="1095" 
d="M49 0l238 1352h352l-182 -1035h559l-55 -317h-912zM346 1483l176 381h445l-11 -62l-346 -319h-264z" />
    <glyph glyph-name="lacute" unicode="&#x13a;" horiz-adv-x="581" 
d="M29 0l270 1536h352l-270 -1536h-352zM358 1667l177 381h444l-10 -61l-346 -320h-265z" />
    <glyph glyph-name="uni013B" unicode="&#x13b;" horiz-adv-x="1095" 
d="M49 0l238 1352h352l-182 -1035h559l-55 -317h-912zM262 -451l64 361h319l-117 -361h-266z" />
    <glyph glyph-name="uni013C" unicode="&#x13c;" horiz-adv-x="581" 
d="M29 0l270 1536h352l-270 -1536h-352zM-31 -451l64 361h319l-116 -361h-267z" />
    <glyph glyph-name="Lcaron" unicode="&#x13d;" horiz-adv-x="1095" 
d="M49 0l238 1352h352l-182 -1035h559l-55 -317h-912zM731 938l74 414h358l-186 -414h-246z" />
    <glyph glyph-name="lcaron" unicode="&#x13e;" horiz-adv-x="993" 
d="M29 0l270 1536h352l-270 -1536h-352zM745 1122l74 414h359l-187 -414h-246z" />
    <glyph glyph-name="Ldot" unicode="&#x13f;" horiz-adv-x="1097" 
d="M49 0l238 1352h352l-182 -1035h559l-55 -317h-912zM678 786q0 98 65.5 164t167.5 66q98 0 163 -66.5t65 -163.5q0 -98 -65 -163.5t-163 -65.5q-102 0 -167.5 65t-65.5 164z" />
    <glyph glyph-name="ldot" unicode="&#x140;" horiz-adv-x="976" 
d="M29 0l270 1536h352l-270 -1536h-352zM571 664q0 98 66 163.5t168 65.5q98 0 162.5 -66t64.5 -163q0 -99 -64.5 -164.5t-162.5 -65.5q-102 0 -168 65.5t-66 164.5z" />
    <glyph glyph-name="Lslash" unicode="&#x141;" horiz-adv-x="1095" 
d="M457 317h559l-55 -317h-912l62 352l-150 -63l57 325l150 64l119 674h352l-94 -533l409 172l-57 -325l-410 -172z" />
    <glyph glyph-name="lslash" unicode="&#x142;" horiz-adv-x="630" 
d="M737 993l-57 -325l-174 -74l-105 -594h-352l80 455l-166 -70l57 326l166 69l133 756h353l-109 -616z" />
    <glyph glyph-name="Nacute" unicode="&#x143;" horiz-adv-x="1468" 
d="M1133 1352h352l-242 -1377h-113l-604 738l-125 -713h-352l242 1376h112l607 -723zM770 1483l176 381h445l-11 -62l-346 -319h-264z" />
    <glyph glyph-name="nacute" unicode="&#x144;" horiz-adv-x="1222" 
d="M1145 700q0 -48 -12 -116l-103 -584h-352l96 549q8 41 8 67q0 61 -38.5 96.5t-100.5 35.5q-59 0 -101.5 -36.5t-54.5 -103.5l-106 -608h-352l180 1024h321l-14 -84q121 109 279 109q150 0 252 -97q98 -94 98 -252zM580 1176l204 421h445l-10 -61l-365 -360h-274z" />
    <glyph glyph-name="uni0145" unicode="&#x145;" horiz-adv-x="1468" 
d="M1133 1352h352l-242 -1377h-113l-604 738l-125 -713h-352l242 1376h112l607 -723zM414 -451l63 361h320l-117 -361h-266z" />
    <glyph glyph-name="uni0146" unicode="&#x146;" horiz-adv-x="1222" 
d="M1145 700q0 -48 -12 -116l-103 -584h-352l96 549q8 41 8 67q0 61 -38.5 96.5t-100.5 35.5q-59 0 -101.5 -36.5t-54.5 -103.5l-106 -608h-352l180 1024h321l-14 -84q121 109 279 109q150 0 252 -97q98 -94 98 -252zM303 -451l64 361h319l-117 -361h-266z" />
    <glyph glyph-name="Ncaron" unicode="&#x147;" horiz-adv-x="1468" 
d="M1133 1352h352l-242 -1377h-113l-604 738l-125 -713h-352l242 1376h112l607 -723zM1110 1864h289l-373 -381h-235l-238 381h246l127 -133z" />
    <glyph glyph-name="ncaron" unicode="&#x148;" horiz-adv-x="1222" 
d="M1145 700q0 -48 -12 -116l-103 -584h-352l96 549q8 41 8 67q0 61 -38.5 96.5t-100.5 35.5q-59 0 -101.5 -36.5t-54.5 -103.5l-106 -608h-352l180 1024h321l-14 -84q121 109 279 109q150 0 252 -97q98 -94 98 -252zM948 1597h266l-348 -421h-235l-199 421h238l108 -153z
" />
    <glyph glyph-name="Eng" unicode="&#x14a;" horiz-adv-x="1470" 
d="M1130 1352h353l-238 -1368q-32 -182 -147.5 -279.5t-296.5 -97.5q-135 0 -215 41l51 291q71 -11 106 -11q72 0 111 29t49 92l2 12l-393 570l-111 -631h-352l242 1376h112l586 -835z" />
    <glyph glyph-name="eng" unicode="&#x14b;" horiz-adv-x="1222" 
d="M1145 700q0 -48 -12 -116l-103 -584q-32 -196 -145 -294.5t-303 -98.5q-126 0 -213 43l51 291q80 -13 112 -13q73 0 107.5 31t48.5 107l88 501q6 38 6 54q0 57 -38.5 92t-100.5 35q-60 0 -102.5 -38.5t-53.5 -101.5l-106 -608h-352l180 1024h321l-14 -84q115 109 279 109
q155 0 252.5 -97t97.5 -252z" />
    <glyph glyph-name="Omacron" unicode="&#x14c;" horiz-adv-x="1589" 
d="M102 631q-3 150 59.5 289.5t168.5 239.5t250.5 159t298.5 57q188 3 344 -83t244 -237.5t85 -334.5q3 -150 -59.5 -289.5t-168 -240t-250 -159.5t-298.5 -57q-141 -2 -267 48.5t-216 138t-141.5 210t-49.5 259.5zM1192 705q0 157 -94 252.5t-244 95.5q-166 0 -278.5 -116
t-112.5 -290q0 -157 94 -252.5t244 -95.5q166 0 278.5 116t112.5 290zM629 1526l49 274h696l-49 -274h-696z" />
    <glyph glyph-name="omacron" unicode="&#x14d;" horiz-adv-x="1241" 
d="M63 489q-3 150 77 280.5t216.5 206.5t292.5 73q146 2 270.5 -66.5t196 -188.5t68.5 -262q2 -112 -45 -216t-126.5 -179.5t-190 -119.5t-228.5 -42q-147 -3 -270.5 65t-193.5 187.5t-67 261.5zM823 524q0 94 -51.5 151.5t-136.5 57.5q-91 0 -151 -68t-60 -171
q0 -93 50 -148t134 -55q94 0 154.5 65.5t60.5 167.5zM395 1249l49 275h656l-49 -275h-656z" />
    <glyph glyph-name="Obreve" unicode="&#x14e;" horiz-adv-x="1589" 
d="M102 631q-3 150 59.5 289.5t168.5 239.5t250.5 159t298.5 57q188 3 344 -83t244 -237.5t85 -334.5q3 -150 -59.5 -289.5t-168 -240t-250 -159.5t-298.5 -57q-141 -2 -267 48.5t-216 138t-141.5 210t-49.5 259.5zM1192 705q0 157 -94 252.5t-244 95.5q-166 0 -278.5 -116
t-112.5 -290q0 -157 94 -252.5t244 -95.5q166 0 278.5 116t112.5 290zM651 1802q0 16 6 62h273l-4 -41q0 -49 26.5 -76t73.5 -27q106 0 119 125l2 19h272l-2 -19q-20 -174 -131 -277.5t-278 -103.5q-160 0 -258.5 93t-98.5 245z" />
    <glyph glyph-name="obreve" unicode="&#x14f;" horiz-adv-x="1241" 
d="M63 489q-3 150 77 280.5t216.5 206.5t292.5 73q146 2 270.5 -66.5t196 -188.5t68.5 -262q2 -112 -45 -216t-126.5 -179.5t-190 -119.5t-228.5 -42q-147 -3 -270.5 65t-193.5 187.5t-67 261.5zM823 524q0 94 -51.5 151.5t-136.5 57.5q-91 0 -151 -68t-60 -171
q0 -93 50 -148t134 -55q94 0 154.5 65.5t60.5 167.5zM381 1503q0 29 12 94h271q-9 -49 -9 -73q0 -49 26.5 -76t74.5 -27t79.5 32t38.5 93l9 51h272l-8 -51q-26 -173 -138 -277t-272 -104t-258 93t-98 245z" />
    <glyph glyph-name="Ohungarumlaut" unicode="&#x150;" horiz-adv-x="1589" 
d="M102 631q-3 150 59.5 289.5t168.5 239.5t250.5 159t298.5 57q188 3 344 -83t244 -237.5t85 -334.5q3 -150 -59.5 -289.5t-168 -240t-250 -159.5t-298.5 -57q-141 -2 -267 48.5t-216 138t-141.5 210t-49.5 259.5zM1192 705q0 157 -94 252.5t-244 95.5q-166 0 -278.5 -116
t-112.5 -290q0 -157 94 -252.5t244 -95.5q166 0 278.5 116t112.5 290zM569 1483l199 381h385l-10 -62l-324 -319h-250zM1059 1483l198 381h385l-10 -62l-323 -319h-250z" />
    <glyph glyph-name="ohungarumlaut" unicode="&#x151;" horiz-adv-x="1241" 
d="M63 489q-3 150 77 280.5t216.5 206.5t292.5 73q146 2 270.5 -66.5t196 -188.5t68.5 -262q2 -112 -45 -216t-126.5 -179.5t-190 -119.5t-228.5 -42q-147 -3 -270.5 65t-193.5 187.5t-67 261.5zM823 524q0 94 -51.5 151.5t-136.5 57.5q-91 0 -151 -68t-60 -171
q0 -93 50 -148t134 -55q94 0 154.5 65.5t60.5 167.5zM350 1176l205 421h383l-10 -61l-324 -360h-254zM819 1176l205 421h383l-10 -61l-324 -360h-254z" />
    <glyph glyph-name="OE" unicode="&#x152;" horiz-adv-x="2213" 
d="M2198 1034h-586l-33 -186h418l-51 -295h-418l-43 -236h610l-55 -317h-924l27 145q-75 -82 -183 -126t-237 -44q-172 -2 -317 81.5t-228 230.5t-80 323q-4 205 97 383.5t274.5 282.5t372.5 100q147 0 260.5 -48t181.5 -136l29 160h940zM1192 705q0 157 -94 251
q-97 97 -246 97q-168 0 -280.5 -116t-112.5 -290q0 -158 94 -252q96 -96 246 -96q168 0 280.5 116t112.5 290z" />
    <glyph glyph-name="oe" unicode="&#x153;" horiz-adv-x="1861" 
d="M1778 389h-650q46 -123 222 -123q133 0 274 78l113 -233q-195 -136 -418 -136q-230 0 -369 164q-73 -79 -167 -121.5t-199 -42.5q-147 0 -266 66.5t-187 184t-68 261.5q-3 152 73.5 282.5t208.5 206t286 73.5q103 0 195 -45t159 -125q69 80 166.5 125t202.5 45
q204 0 333.5 -129t129.5 -332q0 -98 -39 -199zM1128 614h357q-5 68 -50 113t-110 45q-66 0 -119 -43t-78 -115zM803 524q0 92 -50 150.5t-128 58.5q-88 0 -144.5 -67.5t-56.5 -171.5q0 -90 49 -146.5t125 -56.5q88 0 146.5 65.5t58.5 167.5z" />
    <glyph glyph-name="Racute" unicode="&#x154;" horiz-adv-x="1335" 
d="M963 485l282 -485h-381l-252 420h-137l-74 -420h-352l238 1352h471q230 0 369 -118t139 -312q0 -142 -80.5 -258t-222.5 -179zM586 1044l-58 -317h199q82 0 130 44.5t48 119.5q0 72 -39.5 112.5t-111.5 40.5h-168zM580 1483l176 381h444l-10 -62l-346 -319h-264z" />
    <glyph glyph-name="racute" unicode="&#x155;" horiz-adv-x="829" 
d="M887 1010l-56 -310q-101 11 -120 11q-109 0 -166.5 -53t-77.5 -171l-86 -487h-352l180 1024h321l-16 -98q98 110 244 110q73 0 129 -26zM365 1176l204 421h445l-10 -61l-365 -360h-274z" />
    <glyph glyph-name="uni0156" unicode="&#x156;" horiz-adv-x="1335" 
d="M963 485l282 -485h-381l-252 420h-137l-74 -420h-352l238 1352h471q230 0 369 -118t139 -312q0 -142 -80.5 -258t-222.5 -179zM586 1044l-58 -317h199q82 0 130 44.5t48 119.5q0 72 -39.5 112.5t-111.5 40.5h-168zM367 -451l63 361h320l-117 -361h-266z" />
    <glyph glyph-name="uni0157" unicode="&#x157;" horiz-adv-x="829" 
d="M887 1010l-56 -310q-101 11 -120 11q-109 0 -166.5 -53t-77.5 -171l-86 -487h-352l180 1024h321l-16 -98q98 110 244 110q73 0 129 -26zM-31 -451l64 361h319l-116 -361h-267z" />
    <glyph glyph-name="Rcaron" unicode="&#x158;" horiz-adv-x="1335" 
d="M963 485l282 -485h-381l-252 420h-137l-74 -420h-352l238 1352h471q230 0 369 -118t139 -312q0 -142 -80.5 -258t-222.5 -179zM586 1044l-58 -317h199q82 0 130 44.5t48 119.5q0 72 -39.5 112.5t-111.5 40.5h-168zM920 1864h288l-372 -381h-236l-238 381h246l127 -133z
" />
    <glyph glyph-name="rcaron" unicode="&#x159;" horiz-adv-x="829" 
d="M887 1010l-56 -310q-101 11 -120 11q-109 0 -166.5 -53t-77.5 -171l-86 -487h-352l180 1024h321l-16 -98q98 110 244 110q73 0 129 -26zM733 1597h266l-348 -421h-235l-199 421h238l108 -153z" />
    <glyph glyph-name="Sacute" unicode="&#x15a;" 
d="M12 315l256 166q131 -192 307 -192q68 0 106 25.5t38 72.5q0 37 -29.5 66.5t-103.5 66.5l-135 68q-137 69 -206 157t-69 211q0 181 140 300.5t352 119.5q303 0 467 -280l-258 -174q-54 74 -108.5 107.5t-121.5 33.5q-57 0 -89 -23.5t-32 -64.5q0 -37 27 -65.5t84 -55.5
l149 -72q281 -133 281 -360q0 -189 -144.5 -318t-359.5 -129q-180 0 -321.5 87.5t-229.5 252.5zM578 1483l176 381h444l-10 -62l-346 -319h-264z" />
    <glyph glyph-name="sacute" unicode="&#x15b;" horiz-adv-x="933" 
d="M-10 207l207 190q68 -78 128.5 -113.5t127.5 -35.5q86 0 86 45q0 32 -56 53l-96 37q-274 105 -274 334q0 149 105 240.5t278 91.5q258 0 403 -177l-197 -196q-44 47 -97 73.5t-101 26.5q-27 0 -43.5 -12t-16.5 -35t15 -41.5t41 -25.5l92 -35q276 -105 276 -301
q0 -152 -118.5 -251.5t-298.5 -99.5q-152 0 -273.5 61.5t-187.5 170.5zM383 1176l205 421h444l-10 -61l-365 -360h-274z" />
    <glyph glyph-name="Scircumflex" unicode="&#x15c;" 
d="M12 315l256 166q131 -192 307 -192q68 0 106 25.5t38 72.5q0 37 -29.5 66.5t-103.5 66.5l-135 68q-137 69 -206 157t-69 211q0 181 140 300.5t352 119.5q303 0 467 -280l-258 -174q-54 74 -108.5 107.5t-121.5 33.5q-57 0 -89 -23.5t-32 -64.5q0 -37 27 -65.5t84 -55.5
l149 -72q281 -133 281 -360q0 -189 -144.5 -318t-359.5 -129q-180 0 -321.5 87.5t-229.5 252.5zM1139 1483h-246l-127 133l-184 -133h-289l373 381h235z" />
    <glyph glyph-name="scircumflex" unicode="&#x15d;" horiz-adv-x="933" 
d="M-10 207l207 190q68 -78 128.5 -113.5t127.5 -35.5q86 0 86 45q0 32 -56 53l-96 37q-274 105 -274 334q0 149 105 240.5t278 91.5q258 0 403 -177l-197 -196q-44 47 -97 73.5t-101 26.5q-27 0 -43.5 -12t-16.5 -35t15 -41.5t41 -25.5l92 -35q276 -105 276 -301
q0 -152 -118.5 -251.5t-298.5 -99.5q-152 0 -273.5 61.5t-187.5 170.5zM924 1176h-238l-108 153l-170 -153h-267l348 421h236z" />
    <glyph glyph-name="Scedilla" unicode="&#x15e;" 
d="M12 315l256 166q131 -192 307 -192q68 0 106 25.5t38 72.5q0 37 -29.5 66.5t-103.5 66.5l-135 68q-137 69 -206 157t-69 211q0 181 140 300.5t352 119.5q303 0 467 -280l-258 -174q-54 74 -108.5 107.5t-121.5 33.5q-57 0 -89 -23.5t-32 -64.5q0 -37 27 -65.5t84 -55.5
l149 -72q281 -133 281 -360q0 -189 -144.5 -318t-359.5 -129q-180 0 -321.5 87.5t-229.5 252.5zM113 -358l39 225q82 -12 122 -12q57 0 86 23.5t41 78.5q12 57 17 96l143 45q48 -36 76.5 -89t28.5 -109q0 -123 -104 -208t-253 -85q-103 0 -196 35z" />
    <glyph glyph-name="scedilla" unicode="&#x15f;" horiz-adv-x="933" 
d="M-10 207l207 190q68 -78 128.5 -113.5t127.5 -35.5q86 0 86 45q0 32 -56 53l-96 37q-274 105 -274 334q0 149 105 240.5t278 91.5q258 0 403 -177l-197 -196q-44 47 -97 73.5t-101 26.5q-27 0 -43.5 -12t-16.5 -35t15 -41.5t41 -25.5l92 -35q276 -105 276 -301
q0 -152 -118.5 -251.5t-298.5 -99.5q-152 0 -273.5 61.5t-187.5 170.5zM51 -358l39 225q82 -12 123 -12q57 0 86 23.5t41 78.5q10 46 16 96l144 45q48 -36 76 -89t28 -109q0 -123 -103.5 -208t-252.5 -85q-104 0 -197 35z" />
    <glyph glyph-name="Scaron" unicode="&#x160;" 
d="M12 315l256 166q131 -192 307 -192q68 0 106 25.5t38 72.5q0 37 -29.5 66.5t-103.5 66.5l-135 68q-137 69 -206 157t-69 211q0 181 140 300.5t352 119.5q303 0 467 -280l-258 -174q-54 74 -108.5 107.5t-121.5 33.5q-57 0 -89 -23.5t-32 -64.5q0 -37 27 -65.5t84 -55.5
l149 -72q281 -133 281 -360q0 -189 -144.5 -318t-359.5 -129q-180 0 -321.5 87.5t-229.5 252.5zM918 1864h288l-372 -381h-236l-238 381h246l127 -133z" />
    <glyph glyph-name="scaron" unicode="&#x161;" horiz-adv-x="933" 
d="M-10 207l207 190q68 -78 128.5 -113.5t127.5 -35.5q86 0 86 45q0 32 -56 53l-96 37q-274 105 -274 334q0 149 105 240.5t278 91.5q258 0 403 -177l-197 -196q-44 47 -97 73.5t-101 26.5q-27 0 -43.5 -12t-16.5 -35t15 -41.5t41 -25.5l92 -35q276 -105 276 -301
q0 -152 -118.5 -251.5t-298.5 -99.5q-152 0 -273.5 61.5t-187.5 170.5zM752 1597h266l-348 -421h-236l-198 421h237l109 -153z" />
    <glyph glyph-name="uni0162" unicode="&#x162;" horiz-adv-x="1204" 
d="M340 0l182 1034h-405l55 318h1163l-55 -318h-406l-182 -1034h-352zM152 -358l38 225q82 -12 123 -12q57 0 86 23.5t41 78.5q12 57 17 96l143 45q48 -36 76.5 -89t28.5 -109q0 -123 -104 -208t-253 -85q-103 0 -196 35z" />
    <glyph glyph-name="uni0163" unicode="&#x163;" horiz-adv-x="899" 
d="M569 733l-55 -301q-4 -28 -4 -43q0 -60 47 -86.5t156 -26.5h82l-52 -290q-83 -11 -131 -11q-216 0 -337 91t-121 253q0 41 10 109l53 305h-151l51 291h153l43 246h353l-45 -246h278l-51 -291h-279zM31 -358l39 225q82 -12 123 -12q57 0 85.5 23t40.5 79q12 57 17 96
l143 45q48 -36 76.5 -89t28.5 -109q0 -123 -104 -208t-253 -85q-103 0 -196 35z" />
    <glyph glyph-name="Tcaron" unicode="&#x164;" horiz-adv-x="1204" 
d="M340 0l182 1034h-405l55 318h1163l-55 -318h-406l-182 -1034h-352zM977 1864h289l-373 -381h-236l-237 381h246l127 -133z" />
    <glyph glyph-name="tcaron" unicode="&#x165;" horiz-adv-x="899" 
d="M569 733l-55 -301q-4 -28 -4 -43q0 -60 47 -86.5t156 -26.5h82l-52 -290q-83 -11 -131 -11q-216 0 -337 91t-121 253q0 41 10 109l53 305h-151l51 291h153l43 246h353l-45 -246h278l-51 -291h-279zM801 1122l73 414h359l-186 -414h-246z" />
    <glyph glyph-name="Tbar" unicode="&#x166;" horiz-adv-x="1204" 
d="M1280 1034h-406l-55 -317h334l-51 -295h-336l-74 -422h-352l74 422h-336l51 295h338l55 317h-405l55 318h1163z" />
    <glyph glyph-name="tbar" unicode="&#x167;" horiz-adv-x="929" 
d="M870 752h-278l-19 -103h281l-49 -272h-275q6 -55 60 -78t164 -23h61l-51 -290q-82 -11 -131 -11q-185 0 -324 74q-135 77 -135 270l2 58h-153l49 272h151l19 103h-154l49 272h154l43 246h352l-45 -246h279z" />
    <glyph glyph-name="Utilde" unicode="&#x168;" horiz-adv-x="1449" 
d="M133 477q0 64 14 135l132 740h352l-131 -742q-15 -76 -15 -106q0 -90 65 -147.5t165 -57.5t172.5 63.5t91.5 167.5l143 822h353l-150 -844q-44 -251 -210.5 -392t-414.5 -141q-250 0 -408.5 140.5t-158.5 361.5zM899 1520l-37 18q-52 27 -80 27q-26 0 -44.5 -21.5
t-24.5 -58.5h-262q14 192 84.5 294.5t197.5 102.5q28 0 55.5 -4.5t50 -12.5t38.5 -15t30.5 -14.5t16.5 -8.5l37 -19q2 0 15.5 -7t31 -13t32.5 -6q55 0 70 80h262q-30 -398 -287 -398q-49 0 -88 12.5t-98 43.5z" />
    <glyph glyph-name="utilde" unicode="&#x169;" horiz-adv-x="1214" 
d="M100 397q0 36 11 107l90 520h352l-98 -567q-4 -32 -4 -39q0 -55 39.5 -91t99.5 -36t102.5 35.5t52.5 95.5l105 602h352l-106 -604q-37 -210 -175 -327.5t-348 -117.5q-211 0 -342 117t-131 305zM760 1204l-60 33q-46 27 -77 27q-26 0 -45 -21.5t-25 -58.5h-262
q14 192 84 294.5t196 102.5q77 0 154 -41l59 -33q45 -26 78 -26q26 0 45 21.5t25 58.5h262q-14 -192 -84.5 -295t-196.5 -103q-76 0 -153 41z" />
    <glyph glyph-name="Umacron" unicode="&#x16a;" horiz-adv-x="1449" 
d="M133 477q0 64 14 135l132 740h352l-131 -742q-15 -76 -15 -106q0 -90 65 -147.5t165 -57.5t172.5 63.5t91.5 167.5l143 822h353l-150 -844q-44 -251 -210.5 -392t-414.5 -141q-250 0 -408.5 140.5t-158.5 361.5zM559 1526l49 274h697l-50 -274h-696z" />
    <glyph glyph-name="umacron" unicode="&#x16b;" horiz-adv-x="1214" 
d="M100 397q0 36 11 107l90 520h352l-98 -567q-4 -32 -4 -39q0 -55 39.5 -91t99.5 -36t102.5 35.5t52.5 95.5l105 602h352l-106 -604q-37 -210 -175 -327.5t-348 -117.5q-211 0 -342 117t-131 305zM414 1249l49 275h655l-49 -275h-655z" />
    <glyph glyph-name="Ubreve" unicode="&#x16c;" horiz-adv-x="1449" 
d="M133 477q0 64 14 135l132 740h352l-131 -742q-15 -76 -15 -106q0 -90 65 -147.5t165 -57.5t172.5 63.5t91.5 167.5l143 822h353l-150 -844q-44 -251 -210.5 -392t-414.5 -141q-250 0 -408.5 140.5t-158.5 361.5zM582 1802q0 16 6 62h272l-4 -41q0 -49 26.5 -76t73.5 -27
q106 0 119 125l2 19h273l-2 -19q-20 -174 -131.5 -277.5t-278.5 -103.5q-160 0 -258 93t-98 245z" />
    <glyph glyph-name="ubreve" unicode="&#x16d;" horiz-adv-x="1214" 
d="M100 397q0 36 11 107l90 520h352l-98 -567q-4 -32 -4 -39q0 -55 39.5 -91t99.5 -36t102.5 35.5t52.5 95.5l105 602h352l-106 -604q-37 -210 -175 -327.5t-348 -117.5q-211 0 -342 117t-131 305zM399 1503q0 24 13 94h270q-8 -44 -8 -73q0 -49 26.5 -76t73.5 -27
q48 0 80 32.5t39 92.5l8 51h273l-9 -51q-26 -173 -137.5 -277t-271.5 -104t-258.5 93t-98.5 245z" />
    <glyph glyph-name="Uring" unicode="&#x16e;" horiz-adv-x="1449" 
d="M133 477q0 64 14 135l132 740h352l-131 -742q-15 -76 -15 -106q0 -90 65 -147.5t165 -57.5t172.5 63.5t91.5 167.5l143 822h353l-150 -844q-44 -251 -210.5 -392t-414.5 -141q-250 0 -408.5 140.5t-158.5 361.5zM645 1608q0 118 85 199t210 81q118 0 193 -71.5t75 -182.5
q0 -118 -85 -199t-210 -81q-118 0 -193 71.5t-75 182.5zM999 1626q0 31 -18 49.5t-49 18.5q-32 0 -54 -22t-22 -54q0 -31 18.5 -50.5t47.5 -19.5q32 0 54.5 23t22.5 55z" />
    <glyph glyph-name="uring" unicode="&#x16f;" horiz-adv-x="1214" 
d="M100 397q0 36 11 107l90 520h352l-98 -567q-4 -32 -4 -39q0 -55 39.5 -91t99.5 -36t102.5 35.5t52.5 95.5l105 602h352l-106 -604q-37 -210 -175 -327.5t-348 -117.5q-211 0 -342 117t-131 305zM461 1364q0 119 85.5 200t209.5 81q118 0 193 -71.5t75 -182.5
q0 -119 -85.5 -200t-209.5 -81q-118 0 -193 71.5t-75 182.5zM815 1382q0 31 -18 49.5t-49 18.5q-32 0 -54 -22t-22 -54q0 -31 18 -50t47 -19q32 0 55 22.5t23 54.5z" />
    <glyph glyph-name="Uhungarumlaut" unicode="&#x170;" horiz-adv-x="1449" 
d="M133 477q0 64 14 135l132 740h352l-131 -742q-15 -76 -15 -106q0 -90 65 -147.5t165 -57.5t172.5 63.5t91.5 167.5l143 822h353l-150 -844q-44 -251 -210.5 -392t-414.5 -141q-250 0 -408.5 140.5t-158.5 361.5zM500 1483l198 381h385l-10 -62l-323 -319h-250zM989 1483
l199 381h385l-10 -62l-324 -319h-250z" />
    <glyph glyph-name="uhungarumlaut" unicode="&#x171;" horiz-adv-x="1214" 
d="M100 397q0 36 11 107l90 520h352l-98 -567q-4 -32 -4 -39q0 -55 39.5 -91t99.5 -36t102.5 35.5t52.5 95.5l105 602h352l-106 -604q-37 -210 -175 -327.5t-348 -117.5q-211 0 -342 117t-131 305zM369 1176l204 421h383l-10 -61l-323 -360h-254zM838 1176l204 421h383
l-10 -61l-323 -360h-254z" />
    <glyph glyph-name="Uogonek" unicode="&#x172;" horiz-adv-x="1449" 
d="M133 477q0 64 14 135l132 740h352l-131 -742q-15 -76 -15 -106q0 -90 65 -147.5t165 -57.5t172.5 63.5t91.5 167.5l143 822h353l-150 -844q-44 -251 -210.5 -392t-414.5 -141q-250 0 -408.5 140.5t-158.5 361.5zM563 -193q0 103 98.5 185.5t258.5 113.5h186l-123 -106
q-47 -41 -61.5 -62.5t-14.5 -48.5q0 -23 19.5 -36t52.5 -13l65 4l-38 -219q-74 -18 -168 -18q-133 0 -204 53t-71 147z" />
    <glyph glyph-name="uogonek" unicode="&#x173;" horiz-adv-x="1214" 
d="M850 1024h352l-106 -604q-14 -71 -26.5 -111t-33 -80.5t-59 -77.5t-89.5 -77.5t-140 -102.5q-42 -29 -57 -44.5t-15 -37.5q0 -23 19.5 -36t52.5 -13l65 2l-39 -217q-74 -18 -168 -18q-133 0 -203.5 54t-70.5 149q0 59 30.5 99.5t98.5 76.5q-166 29 -263.5 139.5
t-97.5 271.5q0 36 11 107l90 520h352l-98 -567q-4 -32 -4 -39q0 -55 39.5 -91t99.5 -36q57 0 101 35.5t54 95.5z" />
    <glyph glyph-name="Wcircumflex" unicode="&#x174;" horiz-adv-x="2078" 
d="M1798 1352h400l-799 -1377h-113l-207 715l-483 -715h-113l-315 1377h358l146 -658l458 682h113l189 -661zM1622 1483h-246l-127 133l-184 -133h-289l373 381h235z" />
    <glyph glyph-name="wcircumflex" unicode="&#x175;" horiz-adv-x="1763" 
d="M1454 1024h385l-684 -1049h-113l-170 492l-352 -492h-112l-324 1049h360l131 -496l334 521h113l152 -486zM1366 1176h-238l-108 153l-170 -153h-266l348 421h235z" />
    <glyph glyph-name="Ycircumflex" unicode="&#x176;" horiz-adv-x="1288" 
d="M1427 1352l-610 -842l-90 -510h-352l92 524l-320 828h351l192 -473l332 473h405zM1229 1483h-246l-127 133l-184 -133h-289l373 381h235z" />
    <glyph glyph-name="ycircumflex" unicode="&#x177;" horiz-adv-x="1222" 
d="M850 1024h352l-168 -948q-40 -217 -186 -342q-148 -127 -363 -127q-150 0 -287 60.5t-229 168.5l205 236q95 -84 165 -117t146 -33q169 0 199 164l6 39q-104 -72 -237 -72q-155 0 -255 97t-100 245q0 38 11 109l92 520h352l-90 -508q-4 -32 -4 -39q0 -55 39.5 -91
t99.5 -36q57 0 101.5 35.5t54.5 95.5zM1098 1176h-238l-108 153l-170 -153h-267l349 421h235z" />
    <glyph glyph-name="Ydieresis" unicode="&#x178;" horiz-adv-x="1288" 
d="M1427 1352l-610 -842l-90 -510h-352l92 524l-320 828h351l192 -473l332 473h405zM362 1673q0 78 60 135q61 58 139 58q85 0 143 -55.5t58 -137.5q0 -76 -60 -133t-141 -57q-77 0 -137 57q-62 59 -62 133zM946 1671q0 78 60 135q61 58 139 58q85 0 143 -55.5t58 -137.5
q0 -76 -60 -133t-141 -57q-77 0 -137 57q-62 59 -62 133z" />
    <glyph glyph-name="Zacute" unicode="&#x179;" horiz-adv-x="1202" 
d="M1305 1352l-17 -92l-758 -943h594l-55 -317h-1130l16 92l756 942h-502l55 318h1041zM647 1483l176 381h445l-11 -62l-346 -319h-264z" />
    <glyph glyph-name="zacute" unicode="&#x17a;" horiz-adv-x="978" 
d="M1047 1024l-17 -92l-532 -637h426l-52 -295h-938l17 92l541 637h-388l54 295h889zM438 1176l205 421h444l-10 -61l-364 -360h-275z" />
    <glyph glyph-name="Zdotaccent" unicode="&#x17b;" horiz-adv-x="1202" 
d="M1305 1352l-17 -92l-758 -943h594l-55 -317h-1130l16 92l756 942h-502l55 318h1041zM608 1675q0 88 62 148.5t153 60.5t154 -60.5t63 -148.5q0 -86 -63 -146.5t-154 -60.5t-153 59.5t-62 147.5z" />
    <glyph glyph-name="zdotaccent" unicode="&#x17c;" horiz-adv-x="978" 
d="M1047 1024l-17 -92l-532 -637h426l-52 -295h-938l17 92l541 637h-388l54 295h889zM434 1386q0 88 62 148.5t153 60.5t154 -60.5t63 -148.5q0 -86 -63 -146t-154 -60t-153 59t-62 147z" />
    <glyph glyph-name="Zcaron" unicode="&#x17d;" horiz-adv-x="1202" 
d="M1305 1352l-17 -92l-758 -943h594l-55 -317h-1130l16 92l756 942h-502l55 318h1041zM987 1864h289l-373 -381h-235l-238 381h246l127 -133z" />
    <glyph glyph-name="zcaron" unicode="&#x17e;" horiz-adv-x="978" 
d="M1047 1024l-17 -92l-532 -637h426l-52 -295h-938l17 92l541 637h-388l54 295h889zM807 1597h266l-348 -421h-236l-198 421h237l109 -153z" />
    <glyph glyph-name="uni018F" unicode="&#x18f;" horiz-adv-x="1513" 
d="M1477 725q4 -199 -98.5 -373.5t-278 -276.5t-375.5 -98q-284 0 -458.5 165t-174.5 431q0 129 37 230h977q-25 119 -107 184.5t-206 65.5q-209 0 -363 -179l-219 213q218 289 610 289q107 2 208 -30.5t182 -93t142.5 -141t93.5 -180.5t30 -206zM1077 506h-626
q10 -96 85.5 -150.5t194.5 -54.5q123 0 213 53.5t133 151.5z" />
    <glyph glyph-name="florin" unicode="&#x192;" horiz-adv-x="933" 
d="M1100 1335l-53 -284q-61 6 -105 6q-74 0 -113 -26.5t-59 -92.5l-29 -98h170l-53 -289h-205l-133 -449q-114 -374 -461 -374q-117 0 -204 41l53 284q61 -6 104 -6q74 0 113 26.5t59 92.5l115 385h-143l53 289h176l49 161q114 375 461 375q118 0 205 -41z" />
    <glyph glyph-name="uni01D4" unicode="&#x1d4;" horiz-adv-x="1214" 
d="M100 397q0 36 11 107l90 520h352l-98 -567q-4 -32 -4 -39q0 -55 39.5 -91t99.5 -36t102.5 35.5t52.5 95.5l105 602h352l-106 -604q-37 -210 -175 -327.5t-348 -117.5q-211 0 -342 117t-131 305zM926 1597h266l-348 -421h-236l-198 421h237l109 -153z" />
    <glyph glyph-name="AEacute" unicode="&#x1fc;" horiz-adv-x="1792" 
d="M1776 1034h-596v-186h395l-51 -295h-344v-236h493l-55 -317h-782v113h-428l-76 -113h-418l922 1352h995zM846 801l-252 -406h244zM903 1483l176 381h445l-11 -62l-346 -319h-264z" />
    <glyph glyph-name="aeacute" unicode="&#x1fd;" horiz-adv-x="1753" 
d="M1667 389h-645q46 -123 219 -123q134 0 275 78l112 -233q-195 -136 -411 -136q-121 0 -221.5 42t-168.5 120q-82 -85 -180 -123.5t-231 -38.5q-183 0 -285 77t-102 214q0 161 118 247.5t338 86.5h209v18q0 63 -37 97.5t-106 34.5q-63 0 -126 -28.5t-140 -94.5l-125 256
q213 166 446 166q214 0 309 -121q148 121 338 121q194 0 324.5 -129t130.5 -322q0 -109 -41 -209zM1016 600h360v12q0 75 -43.5 119.5t-115.5 44.5q-73 0 -127 -47t-74 -129zM655 365l4 24h-161q-51 0 -80 -22.5t-29 -63.5q0 -80 100 -80q66 0 110.5 39t55.5 103zM793 1176
l204 421h445l-10 -61l-365 -360h-274z" />
    <glyph glyph-name="Oslashacute" unicode="&#x1fe;" horiz-adv-x="1550" 
d="M1575 1214l-143 -137q100 -150 100 -356q3 -147 -59.5 -286t-168 -240.5t-250.5 -162t-298 -57.5q-204 0 -367 97l-149 -144l-199 209l141 137q-98 154 -98 357q-3 147 59 286t166.5 240.5t249 161.5t297.5 57q209 0 371 -98l149 145zM430 645q0 -60 14 -117l535 512
q-70 27 -145 27q-174 0 -289 -119.5t-115 -302.5zM1186 707q0 52 -17 118l-534 -514q59 -26 143 -26q173 0 290.5 121t117.5 301zM811 1483l176 381h445l-11 -62l-346 -319h-264z" />
    <glyph glyph-name="oslashacute" unicode="&#x1ff;" horiz-adv-x="1202" 
d="M1221 877l-115 -105q59 -109 59 -235q3 -148 -78.5 -279t-219.5 -208.5t-292 -74.5q-138 0 -262 68l-135 -125l-190 209l123 113q-66 123 -66 247q-3 148 77 279t217 208.5t292 74.5q153 0 278 -76l121 112zM377 492q0 -12 4 -48l321 295q-46 17 -84 17q-102 0 -172 -76
q-69 -75 -69 -188zM834 526q0 25 -3 37l-311 -284q42 -11 68 -11q104 0 175 74t71 184zM553 1176l205 421h444l-10 -61l-365 -360h-274z" />
    <glyph glyph-name="uni0218" unicode="&#x218;" 
d="M12 315l256 166q131 -192 307 -192q68 0 106 25.5t38 72.5q0 37 -29.5 66.5t-103.5 66.5l-135 68q-137 69 -206 157t-69 211q0 181 140 300.5t352 119.5q303 0 467 -280l-258 -174q-54 74 -108.5 107.5t-121.5 33.5q-57 0 -89 -23.5t-32 -64.5q0 -37 27 -65.5t84 -55.5
l149 -72q281 -133 281 -360q0 -189 -144.5 -318t-359.5 -129q-180 0 -321.5 87.5t-229.5 252.5zM242 -451l63 361h320l-117 -361h-266z" />
    <glyph glyph-name="uni0219" unicode="&#x219;" horiz-adv-x="933" 
d="M-10 207l207 190q68 -78 128.5 -113.5t127.5 -35.5q86 0 86 45q0 32 -56 53l-96 37q-274 105 -274 334q0 149 105 240.5t278 91.5q258 0 403 -177l-197 -196q-44 47 -97 73.5t-101 26.5q-27 0 -43.5 -12t-16.5 -35t15 -41.5t41 -25.5l92 -35q276 -105 276 -301
q0 -152 -118.5 -251.5t-298.5 -99.5q-152 0 -273.5 61.5t-187.5 170.5zM180 -451l64 361h319l-117 -361h-266z" />
    <glyph glyph-name="uni021A" unicode="&#x21a;" horiz-adv-x="1204" 
d="M340 0l182 1034h-405l55 318h1163l-55 -318h-406l-182 -1034h-352zM281 -451l63 361h320l-117 -361h-266z" />
    <glyph glyph-name="uni021B" unicode="&#x21b;" horiz-adv-x="899" 
d="M569 733l-55 -301q-4 -28 -4 -43q0 -60 47 -86.5t156 -26.5h82l-52 -290q-83 -11 -131 -11q-216 0 -337 91t-121 253q0 41 10 109l53 305h-151l51 291h153l43 246h353l-45 -246h278l-51 -291h-279zM160 -451l63 361h320l-117 -361h-266z" />
    <glyph glyph-name="uni0237" unicode="&#x237;" horiz-adv-x="583" 
d="M-266 -352l51 291q71 -11 98 -11q71 0 107 28.5t47 92.5l172 975h352l-182 -1040q-32 -184 -145.5 -280.5t-292.5 -96.5q-114 0 -207 41z" />
    <glyph glyph-name="uni0259" unicode="&#x259;" 
d="M1090 532q2 -112 -44 -216t-124 -179.5t-185.5 -119.5t-222.5 -42q-202 0 -333.5 124.5t-131.5 316.5q0 111 41 207h651q-43 135 -221 135q-131 0 -266 -78l-113 233q187 136 416 136q230 0 381.5 -147t151.5 -370zM735 397h-354q1 -67 46 -108t114 -41q67 0 118 39.5
t76 109.5z" />
    <glyph glyph-name="circumflex" unicode="&#x2c6;" horiz-adv-x="1024" 
d="M1024 1176h-238l-108 153l-170 -153h-266l348 421h235z" />
    <glyph glyph-name="caron" unicode="&#x2c7;" horiz-adv-x="1024" 
d="M831 1597h267l-348 -421h-236l-199 421h238l109 -153z" />
    <glyph glyph-name="breve" unicode="&#x2d8;" horiz-adv-x="1024" 
d="M313 1503q0 24 13 94h270q-8 -44 -8 -73q0 -49 26.5 -76t73.5 -27q48 0 80 32.5t39 92.5l8 51h272l-8 -51q-26 -173 -137.5 -277t-271.5 -104t-258.5 93t-98.5 245z" />
    <glyph glyph-name="dotaccent" unicode="&#x2d9;" horiz-adv-x="1024" 
d="M455 1386q0 88 62 148.5t153 60.5t154 -60.5t63 -148.5q0 -86 -63 -146t-154 -60t-153 59t-62 147z" />
    <glyph glyph-name="ring" unicode="&#x2da;" horiz-adv-x="1024" 
d="M385 1364q0 119 85.5 200t209.5 81q118 0 193 -71.5t75 -182.5q0 -119 -85.5 -200t-209.5 -81q-118 0 -193 71.5t-75 182.5zM739 1382q0 31 -18 49.5t-49 18.5q-32 0 -54 -22t-22 -54q0 -31 18.5 -50t47.5 -19q32 0 54.5 22.5t22.5 54.5z" />
    <glyph glyph-name="ogonek" unicode="&#x2db;" horiz-adv-x="1024" 
d="M156 -193q0 97 83 155t281 99l146 -61l-107 -47q-33 -14 -46 -27.5t-13 -36.5t19 -36t52 -13l66 4l-39 -219q-74 -18 -168 -18q-131 0 -202.5 52t-71.5 148z" />
    <glyph glyph-name="tilde" unicode="&#x2dc;" horiz-adv-x="1024" 
d="M684 1204l-59 33q-46 27 -78 27q-26 0 -45 -21.5t-25 -58.5h-262q14 192 84.5 294.5t196.5 102.5q76 0 153 -41l60 -33q45 -26 77 -26q26 0 45 21.5t25 58.5h262q-14 -192 -84 -295t-196 -103q-77 0 -154 41z" />
    <glyph glyph-name="hungarumlaut" unicode="&#x2dd;" horiz-adv-x="1024" 
d="M141 1176l205 421h383l-10 -61l-324 -360h-254zM610 1176l205 421h383l-10 -61l-324 -360h-254z" />
    <glyph glyph-name="gravecomb" unicode="&#x300;" horiz-adv-x="0" 
d="M-399 1176l-172 360l20 61h397v-421h-245z" />
    <glyph glyph-name="acutecomb" unicode="&#x301;" horiz-adv-x="0" 
d="M-682 1176l205 421h444l-10 -61l-365 -360h-274z" />
    <glyph glyph-name="uni0302" unicode="&#x302;" horiz-adv-x="0" 
d="M-4 1176h-238l-108 153l-170 -153h-266l348 421h235z" />
    <glyph glyph-name="tildecomb" unicode="&#x303;" horiz-adv-x="0" 
d="M-342 1204l-59 33q-47 27 -78 27q-26 0 -45 -21.5t-25 -58.5h-262q14 192 84.5 294.5t196.5 102.5q76 0 153 -41l60 -33q45 -26 77 -26q26 0 45 21.5t25 58.5h262q-14 -192 -84 -295t-196 -103q-77 0 -154 41z" />
    <glyph glyph-name="uni0304" unicode="&#x304;" horiz-adv-x="0" 
d="M-711 1249l49 275h656l-49 -275h-656z" />
    <glyph glyph-name="uni0306" unicode="&#x306;" horiz-adv-x="0" 
d="M-715 1503q0 24 13 94h270q-8 -44 -8 -73q0 -49 26.5 -76t73.5 -27q48 0 80 32.5t39 92.5l8 51h272l-8 -51q-26 -173 -137.5 -277t-271.5 -104t-258.5 93t-98.5 245z" />
    <glyph glyph-name="uni0307" unicode="&#x307;" horiz-adv-x="0" 
d="M-573 1386q0 88 62 148.5t153 60.5t154 -60.5t63 -148.5q0 -86 -63 -146t-154 -60t-153 59t-62 147z" />
    <glyph glyph-name="uni0308" unicode="&#x308;" horiz-adv-x="0" 
d="M-829 1386q0 81 61 136q57 57 137 57q85 0 143 -55.5t58 -137.5q0 -76 -60 -133t-141 -57q-77 0 -137 57q-61 58 -61 133zM-287 1386q0 80 62 136q57 57 137 57q85 0 143 -55.5t58 -137.5q0 -76 -60 -133t-141 -57q-77 0 -137 57q-62 59 -62 133z" />
    <glyph glyph-name="uni030A" unicode="&#x30a;" horiz-adv-x="0" 
d="M-641 1364q0 119 85.5 200t209.5 81q118 0 193 -71.5t75 -182.5q0 -119 -85.5 -200t-209.5 -81q-118 0 -193 71.5t-75 182.5zM-287 1382q0 31 -18 49.5t-49 18.5q-32 0 -54 -22t-22 -54q0 -31 18 -50t47 -19q32 0 55 22.5t23 54.5z" />
    <glyph glyph-name="uni030B" unicode="&#x30b;" horiz-adv-x="0" 
d="M-887 1176l205 421h383l-10 -61l-324 -360h-254zM-418 1176l205 421h383l-10 -61l-324 -360h-254z" />
    <glyph glyph-name="uni030C" unicode="&#x30c;" horiz-adv-x="0" 
d="M-197 1597h267l-349 -421h-235l-199 421h238l108 -153z" />
    <glyph glyph-name="uni0326" unicode="&#x326;" horiz-adv-x="0" 
d="M-842 -451l64 361h319l-116 -361h-267z" />
    <glyph glyph-name="uni0327" unicode="&#x327;" horiz-adv-x="0" 
d="M-922 -358l39 225q83 -12 123 -12q57 0 86 23.5t41 78.5q12 57 17 96l143 45q48 -36 76 -89t28 -109q0 -123 -103.5 -208t-252.5 -85q-104 0 -197 35z" />
    <glyph glyph-name="uni0328" unicode="&#x328;" horiz-adv-x="0" 
d="M-872 -193q0 97 83 155t281 99l146 -61l-107 -47q-33 -14 -46 -27.5t-13 -36.5t19 -36t52 -13l66 4l-39 -219q-74 -18 -168 -18q-131 0 -202.5 52t-71.5 148z" />
    <glyph glyph-name="tonos" unicode="&#x384;" horiz-adv-x="1024" 
d="M387 1176l148 421h417l-20 -61l-289 -360h-256z" />
    <glyph glyph-name="dieresistonos" unicode="&#x385;" horiz-adv-x="1024" 
d="M416 1176l147 421h404l-21 -61l-289 -360h-241zM27 1386q0 80 59 136q60 57 139 57q85 0 143 -55.5t58 -137.5q0 -76 -60 -133t-141 -57q-77 0 -137 57q-61 58 -61 133zM911 1386q0 79 60 136t139 57q85 0 143 -55.5t58 -137.5q0 -76 -60 -133t-141 -57q-77 0 -137 57
q-62 59 -62 133z" />
    <glyph glyph-name="Alphatonos" unicode="&#x386;" horiz-adv-x="1351" 
d="M893 0l-31 113h-475l-70 -113h-397l858 1376h113l371 -1376h-369zM788 395l-59 301l-168 -301h227zM20 938l74 414h359l-187 -414h-246z" />
    <glyph glyph-name="anoteleia" unicode="&#x387;" horiz-adv-x="573" 
d="M88 664q0 98 66 163.5t168 65.5q98 0 162.5 -66t64.5 -163q0 -99 -64.5 -164.5t-162.5 -65.5q-102 0 -168 65.5t-66 164.5z" />
    <glyph glyph-name="Epsilontonos" unicode="&#x388;" horiz-adv-x="1185" 
d="M49 0l238 1352h938l-56 -318h-585l-33 -186h418l-54 -295h-417l-41 -236h610l-55 -317h-963zM-281 938l74 414h359l-187 -414h-246z" />
    <glyph glyph-name="Etatonos" unicode="&#x389;" horiz-adv-x="1468" 
d="M49 0l238 1352h352l-86 -494h494l86 494h352l-238 -1352h-352l94 541h-493l-95 -541h-352zM-279 938l74 414h359l-187 -414h-246z" />
    <glyph glyph-name="Iotatonos" unicode="&#x38a;" horiz-adv-x="622" 
d="M49 0l238 1352h352l-238 -1352h-352zM-281 938l74 414h359l-187 -414h-246z" />
    <glyph glyph-name="Omicrontonos" unicode="&#x38c;" horiz-adv-x="1589" 
d="M102 631q-3 150 59.5 289.5t168.5 239.5t250.5 159t298.5 57q188 3 344 -83t244 -237.5t85 -334.5q3 -150 -59.5 -289.5t-168 -240t-250 -159.5t-298.5 -57q-141 -2 -267 48.5t-216 138t-141.5 210t-49.5 259.5zM1192 705q0 157 -94 252.5t-244 95.5q-166 0 -278.5 -116
t-112.5 -290q0 -157 94 -252.5t244 -95.5q166 0 278.5 116t112.5 290zM-221 938l74 414h358l-186 -414h-246z" />
    <glyph glyph-name="Upsilontonos" unicode="&#x38e;" horiz-adv-x="1288" 
d="M1427 1352l-610 -842l-90 -510h-352l92 524l-320 828h351l192 -473l332 473h405zM-332 938l74 414h358l-186 -414h-246z" />
    <glyph glyph-name="Omegatonos" unicode="&#x38f;" horiz-adv-x="1609" 
d="M1356 317h164l-56 -317h-633l56 317q158 61 244 169t86 243q0 147 -98 235.5t-255 88.5q-171 0 -281 -107.5t-110 -277.5q0 -227 201 -351l-56 -317h-571l55 317h172q-159 169 -159 373q-1 87 28.5 181.5t92.5 186t148.5 163.5t208 115t259.5 40q148 2 284 -47t234 -133
t155 -198.5t54 -237.5q0 -128 -55.5 -243t-167.5 -200zM-145 938l73 414h359l-187 -414h-245z" />
    <glyph glyph-name="iotadieresistonos" unicode="&#x390;" horiz-adv-x="679" 
d="M82 276q0 52 12 119l113 629h352l-104 -588q-9 -50 -9 -67q0 -41 23 -59.5t74 -18.5q17 0 71 4l-51 -295q-55 -25 -127 -25q-164 0 -259 80.5t-95 220.5zM231 1176l148 421h403l-20 -61l-289 -360h-242zM-158 1386q0 80 62 136q57 57 137 57q85 0 143 -55.5t58 -137.5
q0 -76 -60 -133t-141 -57q-77 0 -137 57q-62 59 -62 133zM727 1386q0 80 59 136q60 57 140 57q85 0 142.5 -55.5t57.5 -137.5q0 -76 -59.5 -133t-140.5 -57q-78 0 -138 57q-61 58 -61 133z" />
    <glyph glyph-name="Alpha" unicode="&#x391;" horiz-adv-x="1351" 
d="M893 0l-31 113h-475l-70 -113h-397l858 1376h113l371 -1376h-369zM788 395l-59 301l-168 -301h227z" />
    <glyph glyph-name="Beta" unicode="&#x392;" horiz-adv-x="1275" 
d="M1200 408q0 -177 -139.5 -292.5t-351.5 -115.5h-660l238 1352h446q187 0 306.5 -108t119.5 -277q0 -170 -123 -269q79 -48 121.5 -122.5t42.5 -167.5zM686 1057h-113l-43 -240h136q66 0 105.5 34t39.5 91q0 51 -34 83t-91 32zM854 418q0 112 -123 112h-250l-43 -233h273
q143 0 143 121z" />
    <glyph glyph-name="Gamma" unicode="&#x393;" horiz-adv-x="1095" 
d="M49 0l238 1352h911l-55 -318h-559l-183 -1034h-352z" />
    <glyph glyph-name="uni0394" unicode="&#x394;" horiz-adv-x="1351" 
d="M889 1376l348 -1284l-16 -92h-1260l16 92l799 1284h113zM811 317l-92 347l-215 -347h307z" />
    <glyph glyph-name="Epsilon" unicode="&#x395;" horiz-adv-x="1185" 
d="M49 0l238 1352h938l-56 -318h-585l-33 -186h418l-54 -295h-417l-41 -236h610l-55 -317h-963z" />
    <glyph glyph-name="Zeta" unicode="&#x396;" horiz-adv-x="1202" 
d="M1305 1352l-17 -92l-758 -943h594l-55 -317h-1130l16 92l756 942h-502l55 318h1041z" />
    <glyph glyph-name="Eta" unicode="&#x397;" horiz-adv-x="1468" 
d="M49 0l238 1352h352l-86 -494h494l86 494h352l-238 -1352h-352l94 541h-493l-95 -541h-352z" />
    <glyph glyph-name="Theta" unicode="&#x398;" horiz-adv-x="1589" 
d="M102 631q-3 148 59 286.5t167 240t250 161.5t301 57q188 3 344 -83t244 -237.5t85 -334.5q3 -148 -59 -286.5t-166.5 -240.5t-249.5 -162t-301 -57q-141 -2 -267 48.5t-216 138t-141.5 210t-49.5 259.5zM1192 705q0 156 -93 252t-245 96q-166 0 -278.5 -117t-112.5 -289
q0 -156 93 -252t245 -96q166 0 278.5 117t112.5 289zM535 532l49 283h532l-49 -283h-532z" />
    <glyph glyph-name="Iota" unicode="&#x399;" horiz-adv-x="622" 
d="M49 0l238 1352h352l-238 -1352h-352z" />
    <glyph glyph-name="Kappa" unicode="&#x39a;" horiz-adv-x="1423" 
d="M1495 1352l-588 -674l426 -678h-385l-428 678l-119 -678h-352l238 1352h352l-107 -611l529 611h434z" />
    <glyph glyph-name="Lambda" unicode="&#x39b;" horiz-adv-x="1351" 
d="M1262 0h-367l-172 678l-404 -678h-399l856 1376h113z" />
    <glyph glyph-name="Mu" unicode="&#x39c;" horiz-adv-x="1646" 
d="M1554 1376h113l-242 -1376h-352l94 535l-305 -295h-112l-244 356l-105 -596h-352l242 1376h112l453 -702z" />
    <glyph glyph-name="Nu" unicode="&#x39d;" horiz-adv-x="1468" 
d="M1133 1352h352l-242 -1377h-113l-604 738l-125 -713h-352l242 1376h112l607 -723z" />
    <glyph glyph-name="Xi" unicode="&#x39e;" horiz-adv-x="1323" 
d="M184 1034l56 318h1146l-55 -318h-1147zM244 502l55 317h848l-57 -317h-846zM2 0l55 317h1147l-55 -317h-1147z" />
    <glyph glyph-name="Omicron" unicode="&#x39f;" horiz-adv-x="1589" 
d="M102 631q-3 150 59.5 289.5t168.5 239.5t250.5 159t298.5 57q188 3 344 -83t244 -237.5t85 -334.5q3 -150 -59.5 -289.5t-168 -240t-250 -159.5t-298.5 -57q-141 -2 -267 48.5t-216 138t-141.5 210t-49.5 259.5zM1192 705q0 157 -94 252.5t-244 95.5q-166 0 -278.5 -116
t-112.5 -290q0 -157 94 -252.5t244 -95.5q166 0 278.5 116t112.5 290z" />
    <glyph glyph-name="Pi" unicode="&#x3a0;" horiz-adv-x="1427" 
d="M49 0l238 1352h1157l-238 -1352h-352l182 1034h-452l-183 -1034h-352z" />
    <glyph glyph-name="Rho" unicode="&#x3a1;" horiz-adv-x="1255" 
d="M49 0l238 1352h471q233 0 370 -119q138 -120 138 -320q0 -221 -165.5 -357t-432.5 -136h-193l-74 -420h-352zM528 727h199q82 0 130 44.5t48 119.5q0 72 -39.5 112.5t-111.5 40.5h-168z" />
    <glyph glyph-name="Sigma" unicode="&#x3a3;" horiz-adv-x="1163" 
d="M1202 1352l-55 -318h-492l168 -319l-10 -49l-266 -349h497l-55 -317h-1044l12 88l477 647l-264 527l12 90h1020z" />
    <glyph glyph-name="Tau" unicode="&#x3a4;" horiz-adv-x="1204" 
d="M340 0l182 1034h-405l55 318h1163l-55 -318h-406l-182 -1034h-352z" />
    <glyph glyph-name="Upsilon" unicode="&#x3a5;" horiz-adv-x="1288" 
d="M1427 1352l-610 -842l-90 -510h-352l92 524l-320 828h351l192 -473l332 473h405z" />
    <glyph glyph-name="Phi" unicode="&#x3a6;" horiz-adv-x="1777" 
d="M610 -88l23 123q-233 28 -384 188t-151 381q0 208 96.5 371.5t270 254.5t395.5 91l21 119h352l-21 -123q234 -28 383.5 -187.5t149.5 -381.5q0 -208 -96.5 -371.5t-270 -254.5t-395.5 -91l-20 -119h-353zM684 332l123 690q-160 0 -263.5 -111.5t-103.5 -285.5
q0 -118 65.5 -197t178.5 -96zM1403 727q0 118 -65.5 197t-178.5 96l-123 -690q160 0 263.5 111.5t103.5 285.5z" />
    <glyph glyph-name="Chi" unicode="&#x3a7;" horiz-adv-x="1275" 
d="M1397 1352l-525 -701l314 -651h-371l-186 391l-285 -391h-426l555 725l-293 627h371l162 -369l258 369h426z" />
    <glyph glyph-name="Psi" unicode="&#x3a8;" horiz-adv-x="1716" 
d="M594 0l51 287q-198 0 -330.5 137.5t-132.5 341.5q0 59 8 100l86 486h355l-86 -486q-6 -35 -6 -65q0 -86 45.5 -143.5t113.5 -57.5l131 752h353l-129 -750q96 0 160 59.5t83 165.5l93 525h354l-105 -588q-38 -231 -204 -354t-437 -123l-51 -287h-352z" />
    <glyph glyph-name="uni03A9" unicode="&#x3a9;" horiz-adv-x="1609" 
d="M1356 317h164l-56 -317h-633l56 317q158 61 244 169t86 243q0 147 -98 235.5t-255 88.5q-171 0 -281 -107.5t-110 -277.5q0 -227 201 -351l-56 -317h-571l55 317h172q-159 169 -159 373q-1 87 28.5 181.5t92.5 186t148.5 163.5t208 115t259.5 40q148 2 284 -47t234 -133
t155 -198.5t54 -237.5q0 -128 -55.5 -243t-167.5 -200z" />
    <glyph glyph-name="Iotadieresis" unicode="&#x3aa;" horiz-adv-x="622" 
d="M49 0l238 1352h352l-238 -1352h-352zM41 1673q0 79 59 135q61 58 140 58q85 0 142.5 -55.5t57.5 -137.5q0 -76 -59.5 -133t-140.5 -57q-78 0 -138 57q-61 58 -61 133zM625 1671q0 79 59 135q61 58 139 58q85 0 143 -55.5t58 -137.5q0 -76 -60 -133t-141 -57
q-77 0 -137 57q-61 58 -61 133z" />
    <glyph glyph-name="Upsilondieresis" unicode="&#x3ab;" horiz-adv-x="1288" 
d="M1427 1352l-610 -842l-90 -510h-352l92 524l-320 828h351l192 -473l332 473h405zM334 1673q0 79 59 135q61 58 139 58q85 0 143 -55.5t58 -137.5q0 -76 -60 -133t-141 -57q-77 0 -137 57q-61 58 -61 133zM918 1671q0 79 59 135q61 58 139 58q85 0 143 -55.5t58 -137.5
q0 -76 -60 -133t-141 -57q-77 0 -137 57q-61 58 -61 133z" />
    <glyph glyph-name="alphatonos" unicode="&#x3ac;" horiz-adv-x="1327" 
d="M1221 276h49l-51 -290q-71 -11 -123 -11q-190 0 -256 136q-66 -72 -141 -104t-175 -32q-203 0 -334 135.5t-131 346.5q-3 162 70.5 299.5t201 216.5t277.5 76q220 0 307 -140l27 115h342q-44 -173 -104 -496l-23 -118q-10 -62 -10 -74q0 -32 17.5 -46t56.5 -14zM825 524
q0 94 -52.5 152.5t-137.5 58.5q-92 0 -152.5 -68.5t-60.5 -172.5q0 -93 51 -149t135 -56q94 0 155.5 66.5t61.5 168.5zM547 1176l147 421h418l-20 -61l-289 -360h-256z" />
    <glyph glyph-name="epsilontonos" unicode="&#x3ad;" horiz-adv-x="1058" 
d="M803 352l155 -223q-79 -72 -204 -113t-265 -41q-214 0 -328 76t-114 219q0 82 48 147.5t134 102.5q-73 88 -73 207q0 146 124.5 234t331.5 88q274 0 439 -177l-191 -202q-35 41 -105 64.5t-153 23.5q-54 0 -83.5 -16.5t-29.5 -47.5q0 -59 89 -59h135l-43 -242h-168
q-107 0 -107 -65q0 -62 142 -62q75 0 131.5 18.5t134.5 67.5zM504 1176l147 421h418l-20 -61l-289 -360h-256z" />
    <glyph glyph-name="etatonos" unicode="&#x3ae;" horiz-adv-x="1271" 
d="M1194 700q0 -48 -12 -116l-170 -953h-353l166 932q6 38 6 53q0 61 -38.5 96.5t-100.5 35.5q-59 0 -101 -36.5t-54 -103.5l-109 -608h-352l108 606q9 50 9 68q0 35 -21 54.5t-59 19.5h-50l52 290q72 11 123 11q187 0 258 -127q160 127 331 127q162 0 264.5 -97t102.5 -252
zM639 1176l147 421h418l-20 -61l-289 -360h-256z" />
    <glyph glyph-name="iotatonos" unicode="&#x3af;" horiz-adv-x="679" 
d="M82 276q0 52 12 119l113 629h352l-104 -588q-9 -50 -9 -67q0 -41 23 -59.5t74 -18.5q17 0 71 4l-51 -295q-55 -25 -127 -25q-164 0 -259 80.5t-95 220.5zM238 1176l147 421h418l-21 -61l-288 -360h-256z" />
    <glyph glyph-name="upsilondieresistonos" unicode="&#x3b0;" horiz-adv-x="1214" 
d="M100 397q0 36 11 107l90 520h352l-98 -567q-4 -32 -4 -39q0 -55 39.5 -91t99.5 -36t102.5 35.5t52.5 95.5l105 602h352l-106 -604q-37 -210 -175 -327.5t-348 -117.5q-211 0 -342 117t-131 305zM545 1176l147 421h404l-21 -61l-289 -360h-241zM156 1386q0 80 59 136
q60 57 139 57q85 0 143 -55.5t58 -137.5q0 -76 -60 -133t-141 -57q-77 0 -137 57q-61 58 -61 133zM1040 1386q0 79 60 136t139 57q85 0 143 -55.5t58 -137.5q0 -76 -60 -133t-141 -57q-77 0 -137 57q-62 59 -62 133z" />
    <glyph glyph-name="alpha" unicode="&#x3b1;" horiz-adv-x="1327" 
d="M1221 276h49l-51 -290q-71 -11 -123 -11q-190 0 -256 136q-66 -72 -141 -104t-175 -32q-203 0 -334 135.5t-131 346.5q-3 162 70.5 299.5t201 216.5t277.5 76q220 0 307 -140l27 115h342q-44 -173 -104 -496l-23 -118q-10 -62 -10 -74q0 -32 17.5 -46t56.5 -14zM825 524
q0 94 -52.5 152.5t-137.5 58.5q-92 0 -152.5 -68.5t-60.5 -172.5q0 -93 51 -149t135 -56q94 0 155.5 66.5t61.5 168.5z" />
    <glyph glyph-name="beta" unicode="&#x3b2;" horiz-adv-x="1286" 
d="M1221 479q0 -138 -71 -253.5t-194.5 -182t-271.5 -66.5q-266 0 -414.5 123.5t-148.5 350.5q0 61 12 131l86 508q38 223 185.5 347t375.5 124q220 0 348.5 -105t128.5 -285q0 -105 -45 -191t-143 -163q152 -140 152 -338zM563 1083l-41 -227q95 37 150 59t102 45t67.5 37
t36.5 34.5t20 37.5t7 47q0 62 -38.5 95.5t-110.5 33.5q-78 0 -129 -42t-64 -120zM872 481q0 102 -69 183q-160 -71 -338 -132q-2 -10 -2 -40q0 -97 53 -155t143 -58q97 0 155 55t58 147z" />
    <glyph glyph-name="gamma" unicode="&#x3b3;" horiz-adv-x="1148" 
d="M1225 1024l-570 -1006l-67 -387h-352l65 381l-217 1012h352l105 -618l290 618h394z" />
    <glyph glyph-name="delta" unicode="&#x3b4;" horiz-adv-x="1239" 
d="M1305 1536l-56 -313h-450l229 -291q81 -102 118.5 -194t37.5 -189q3 -154 -75 -287t-211.5 -210.5t-287.5 -74.5q-241 0 -392.5 147t-151.5 378q0 213 139.5 356.5t365.5 165.5l-315 420l16 92h1033zM823 526q0 94 -51 148.5t-137 54.5q-93 0 -151 -62.5t-58 -162.5
q0 -97 50.5 -154t135.5 -57q91 0 151 66.5t60 166.5z" />
    <glyph glyph-name="epsilon" unicode="&#x3b5;" horiz-adv-x="1058" 
d="M803 352l155 -223q-79 -72 -204 -113t-265 -41q-214 0 -328 76t-114 219q0 82 48 147.5t134 102.5q-73 88 -73 207q0 146 124.5 234t331.5 88q274 0 439 -177l-191 -202q-35 41 -105 64.5t-153 23.5q-54 0 -83.5 -16.5t-29.5 -47.5q0 -59 89 -59h135l-43 -242h-168
q-107 0 -107 -65q0 -62 142 -62q75 0 131.5 18.5t134.5 67.5z" />
    <glyph glyph-name="zeta" unicode="&#x3b6;" horiz-adv-x="999" 
d="M1161 1446l-610 -733q-88 -109 -115 -156q-28 -54 -28 -96q0 -57 42 -94.5t136 -63.5l96 -27q116 -32 182 -117.5t66 -203.5q0 -147 -119 -324h-344q98 162 98 242q0 102 -123 137l-82 23q-139 38 -225 143t-86 236q0 100 55.5 207t188.5 262l291 340h-371l47 315l914 2z
" />
    <glyph glyph-name="eta" unicode="&#x3b7;" horiz-adv-x="1271" 
d="M1194 700q0 -48 -12 -116l-170 -953h-353l166 932q6 38 6 53q0 61 -38.5 96.5t-100.5 35.5q-59 0 -101 -36.5t-54 -103.5l-109 -608h-352l108 606q9 50 9 68q0 35 -21 54.5t-59 19.5h-50l52 290q72 11 123 11q187 0 258 -127q160 127 331 127q162 0 264.5 -97t102.5 -252
z" />
    <glyph glyph-name="theta" unicode="&#x3b8;" horiz-adv-x="1343" 
d="M1317 958q3 -279 -88.5 -505.5t-253.5 -353t-361 -122.5q-231 0 -372.5 145t-141.5 382q0 84 15 149h342q-4 -46 -4 -88q0 -272 172 -272q87 0 158.5 67t115.5 189q-330 83 -472 205t-142 323q0 209 147 346.5t373 137.5q252 0 382 -153.5t130 -449.5zM961 846
q4 94 4 108q0 156 -40 223.5t-134 67.5q-72 0 -120 -47.5t-48 -116.5q0 -79 75 -131.5t263 -103.5z" />
    <glyph glyph-name="iota" unicode="&#x3b9;" horiz-adv-x="679" 
d="M82 276q0 52 12 119l113 629h352l-104 -588q-9 -50 -9 -67q0 -41 23 -59.5t74 -18.5q17 0 71 4l-51 -295q-55 -25 -127 -25q-164 0 -259 80.5t-95 220.5z" />
    <glyph glyph-name="kappa" unicode="&#x3ba;" horiz-adv-x="1210" 
d="M1280 1024l-434 -494l278 -530h-379l-272 524l-92 -524h-352l180 1024h352l-78 -438l387 438h410z" />
    <glyph glyph-name="lambda" unicode="&#x3bb;" horiz-adv-x="1202" 
d="M1159 291l-49 -289q-56 -27 -127 -27q-122 0 -199.5 73t-103.5 214l-62 311l-331 -573h-365l600 1028l-12 72q-14 75 -56 110t-120 35h-82l53 295q53 21 135 21q158 0 264.5 -102.5t143.5 -291.5l158 -802q16 -76 90 -76q45 0 63 2z" />
    <glyph glyph-name="uni03BC" unicode="&#x3bc;" horiz-adv-x="1273" 
d="M1167 276h50l-52 -290q-71 -11 -123 -11q-172 0 -243 109q-106 -109 -244 -109q-99 0 -170 56l-68 -400h-354l246 1393h352l-98 -565q-6 -37 -6 -53q0 -57 38.5 -92t100.5 -35q61 0 102.5 37t53.5 102l108 606h352l-110 -621q-8 -44 -8 -67q0 -32 17 -46t56 -14z" />
    <glyph glyph-name="nu" unicode="&#x3bd;" horiz-adv-x="1169" 
d="M854 1024h391l-708 -1049h-113l-340 1049h360l127 -455z" />
    <glyph glyph-name="xi" unicode="&#x3be;" horiz-adv-x="1003" 
d="M580 1061q0 -62 41 -99.5t110 -37.5h234l-50 -295h-315q-88 0 -139 -47t-51 -131q0 -61 40.5 -95.5t135.5 -58.5l98 -23q116 -26 183 -104t67 -184q0 -131 -125 -355h-352q96 152 96 248q0 45 -22.5 71.5t-73.5 39.5l-88 22q-150 38 -240 148t-90 256q0 133 72 237
t196 154q-80 68 -80 201q0 135 146 213h-174l55 315h897l-55 -315h-340q-74 0 -125 -46.5t-51 -113.5z" />
    <glyph glyph-name="omicron" unicode="&#x3bf;" horiz-adv-x="1241" 
d="M63 489q-3 150 77 280.5t216.5 206.5t292.5 73q146 2 270.5 -66.5t196 -188.5t68.5 -262q2 -112 -45 -216t-126.5 -179.5t-190 -119.5t-228.5 -42q-147 -3 -270.5 65t-193.5 187.5t-67 261.5zM823 524q0 94 -51.5 151.5t-136.5 57.5q-91 0 -151 -68t-60 -171
q0 -93 50 -148t134 -55q94 0 154.5 65.5t60.5 167.5z" />
    <glyph glyph-name="pi" unicode="&#x3c0;" horiz-adv-x="1214" 
d="M39 0l127 709h-131l55 315h1215l-56 -315h-131l-127 -709h-352l127 709h-248l-127 -709h-352z" />
    <glyph glyph-name="rho" unicode="&#x3c1;" horiz-adv-x="1247" 
d="M1196 575q2 -120 -39.5 -232t-112 -193.5t-168 -129.5t-202.5 -45q-191 0 -285 119l-82 -463h-352l158 889q44 259 186.5 394t368.5 135q241 0 384.5 -130t143.5 -344zM836 528q0 94 -47.5 149.5t-129.5 55.5q-91 0 -147.5 -65.5t-56.5 -169.5q0 -94 48 -149.5t130 -55.5
q91 0 147 65.5t56 169.5z" />
    <glyph glyph-name="uni03C2" unicode="&#x3c2;" horiz-adv-x="1099" 
d="M549 -156q0 59 -25 95t-75 61l-48 23q-99 48 -158 87t-102 90.5t-60.5 114.5t-19.5 154q-3 165 78.5 299t217.5 206t294 70q166 0 285 -78t170 -210l-260 -172q-41 72 -90.5 108.5t-120.5 36.5q-93 0 -153 -60t-60 -159q0 -82 40 -124.5t167 -98.5l47 -21
q134 -57 195 -131t61 -178q0 -126 -111 -326h-348q76 125 76 213z" />
    <glyph glyph-name="sigma" unicode="&#x3c3;" horiz-adv-x="1314" 
d="M1362 1024l-55 -315h-201q61 -88 61 -211q3 -103 -44.5 -200.5t-127.5 -169t-189 -113.5t-224 -40q-226 0 -372.5 144t-146.5 368q0 235 171 386t438 151h690zM807 522q0 94 -48 148.5t-132 54.5q-90 0 -146.5 -65t-56.5 -168q0 -94 47 -147.5t129 -53.5q93 0 150 63.5
t57 167.5z" />
    <glyph glyph-name="tau" unicode="&#x3c4;" horiz-adv-x="1038" 
d="M676 709l-43 -246q-6 -35 -6 -60q0 -114 172 -114q65 0 112 6l-49 -295q-106 -25 -186 -25q-186 0 -297 97.5t-111 261.5q0 49 13 125l45 250h-277l55 315h963l-55 -315h-336z" />
    <glyph glyph-name="upsilon" unicode="&#x3c5;" horiz-adv-x="1214" 
d="M100 397q0 36 11 107l90 520h352l-98 -567q-4 -32 -4 -39q0 -55 39.5 -91t99.5 -36t102.5 35.5t52.5 95.5l105 602h352l-106 -604q-37 -210 -175 -327.5t-348 -117.5q-211 0 -342 117t-131 305z" />
    <glyph glyph-name="phi" unicode="&#x3c6;" horiz-adv-x="1697" 
d="M932 -25l-60 -344h-352l60 344q-230 0 -375.5 133t-145.5 343q0 249 156.5 414t409.5 184l43 -310q-119 -23 -181.5 -89t-62.5 -171q0 -85 57 -135.5t154 -52.5l49 280q38 227 173.5 352.5t342.5 125.5t329 -121t122 -328q0 -287 -194 -456t-525 -169zM1292 594
q0 139 -108 139q-122 0 -152 -172l-47 -270q146 0 226.5 80t80.5 223z" />
    <glyph glyph-name="chi" unicode="&#x3c7;" horiz-adv-x="1185" 
d="M997 -74h84l-53 -295q-64 -24 -135 -24q-104 0 -181 55t-120 160l-80 196l-254 -387h-408l523 727l-103 281q-19 52 -48.5 73t-84.5 21h-76l52 291q80 25 145 25q121 0 194.5 -52.5t110.5 -160.5l60 -168l231 356h408l-504 -705l131 -317q17 -42 41.5 -59t66.5 -17z" />
    <glyph glyph-name="psi" unicode="&#x3c8;" horiz-adv-x="1742" 
d="M563 -369l58 344q-221 0 -368 126.5t-147 316.5q0 44 9 94l86 512h352l-82 -483q-4 -32 -4 -49q0 -91 56.5 -145t150.5 -54l178 1059h352l-178 -1059q102 0 175 67.5t93 180.5l84 483h353l-91 -512q-44 -264 -214 -400.5t-453 -136.5l-58 -344h-352z" />
    <glyph glyph-name="omega" unicode="&#x3c9;" horiz-adv-x="1648" 
d="M1597 596q0 -277 -140.5 -449t-366.5 -172q-179 0 -279 121q-121 -121 -299 -121q-198 0 -326.5 131.5t-128.5 333.5q0 237 129.5 405.5t341.5 205.5l62 -291q-180 -85 -180 -297q0 -80 31.5 -125t88.5 -45q99 0 125 160l45 270h332l-45 -270l-4 -43q0 -55 26.5 -86
t73.5 -31q67 0 112.5 72t45.5 178q0 150 -94 217l162 289q142 -31 215 -146t73 -307z" />
    <glyph glyph-name="iotadieresis" unicode="&#x3ca;" horiz-adv-x="679" 
d="M82 276q0 52 12 119l113 629h352l-104 -588q-9 -50 -9 -67q0 -41 23 -59.5t74 -18.5q17 0 71 4l-51 -295q-55 -25 -127 -25q-164 0 -259 80.5t-95 220.5zM-4 1386q0 80 59 136q60 57 140 57q85 0 142.5 -55.5t57.5 -137.5q0 -76 -59.5 -133t-140.5 -57q-78 0 -138 57
q-61 58 -61 133zM518 1386q0 79 60 136t139 57q85 0 143 -55.5t58 -137.5q0 -76 -60 -133t-141 -57q-77 0 -137 57q-62 59 -62 133z" />
    <glyph glyph-name="upsilondieresis" unicode="&#x3cb;" horiz-adv-x="1214" 
d="M100 397q0 36 11 107l90 520h352l-98 -567q-4 -32 -4 -39q0 -55 39.5 -91t99.5 -36t102.5 35.5t52.5 95.5l105 602h352l-106 -604q-37 -210 -175 -327.5t-348 -117.5q-211 0 -342 117t-131 305zM287 1386q0 80 59 136q60 57 139 57q85 0 143 -55.5t58 -137.5
q0 -76 -60 -133t-141 -57q-77 0 -137 57q-61 58 -61 133zM829 1386q0 79 60 136t139 57q85 0 143 -55.5t58 -137.5q0 -76 -60 -133t-141 -57q-77 0 -137 57q-62 59 -62 133z" />
    <glyph glyph-name="omicrontonos" unicode="&#x3cc;" horiz-adv-x="1241" 
d="M63 489q-3 150 77 280.5t216.5 206.5t292.5 73q146 2 270.5 -66.5t196 -188.5t68.5 -262q2 -112 -45 -216t-126.5 -179.5t-190 -119.5t-228.5 -42q-147 -3 -270.5 65t-193.5 187.5t-67 261.5zM823 524q0 94 -51.5 151.5t-136.5 57.5q-91 0 -151 -68t-60 -171
q0 -93 50 -148t134 -55q94 0 154.5 65.5t60.5 167.5zM541 1176l147 421h418l-21 -61l-288 -360h-256z" />
    <glyph glyph-name="upsilontonos" unicode="&#x3cd;" horiz-adv-x="1214" 
d="M100 397q0 36 11 107l90 520h352l-98 -567q-4 -32 -4 -39q0 -55 39.5 -91t99.5 -36t102.5 35.5t52.5 95.5l105 602h352l-106 -604q-37 -210 -175 -327.5t-348 -117.5q-211 0 -342 117t-131 305zM551 1176l147 421h418l-20 -61l-289 -360h-256z" />
    <glyph glyph-name="omegatonos" unicode="&#x3ce;" horiz-adv-x="1648" 
d="M1597 596q0 -277 -140.5 -449t-366.5 -172q-179 0 -279 121q-121 -121 -299 -121q-198 0 -326.5 131.5t-128.5 333.5q0 237 129.5 405.5t341.5 205.5l62 -291q-180 -85 -180 -297q0 -80 31.5 -125t88.5 -45q99 0 125 160l45 270h332l-45 -270l-4 -43q0 -55 26.5 -86
t73.5 -31q67 0 112.5 72t45.5 178q0 150 -94 217l162 289q142 -31 215 -146t73 -307zM772 1176l148 421h417l-20 -61l-289 -360h-256z" />
    <glyph glyph-name="uni0400" unicode="&#x400;" horiz-adv-x="1185" 
d="M49 0l238 1352h938l-56 -318h-585l-33 -186h418l-54 -295h-417l-41 -236h610l-55 -317h-963zM635 1483l-225 319l12 62h397l66 -381h-250z" />
    <glyph glyph-name="uni0401" unicode="&#x401;" horiz-adv-x="1185" 
d="M49 0l238 1352h938l-56 -318h-585l-33 -186h418l-54 -295h-417l-41 -236h610l-55 -317h-963zM322 1673q0 79 59 135q61 58 139 58q85 0 143 -55.5t58 -137.5q0 -76 -60 -133t-141 -57q-77 0 -137 57q-61 58 -61 133zM905 1671q0 78 60 135q61 58 139 58q85 0 143 -55.5
t58 -137.5q0 -76 -60 -133t-141 -57q-77 0 -137 57q-62 59 -62 133z" />
    <glyph glyph-name="uni0402" unicode="&#x402;" horiz-adv-x="1564" 
d="M911 -45l-14 309q124 13 180 51t56 107q0 117 -152 117q-60 0 -122.5 -14.5t-100.5 -35.5l-86 -489h-353l183 1034h-385l55 318h1163l-55 -318h-426l-41 -235q133 47 262 47q186 0 304 -106.5t118 -276.5q0 -210 -160 -349.5t-426 -158.5z" />
    <glyph glyph-name="uni0403" unicode="&#x403;" horiz-adv-x="1095" 
d="M49 0l238 1352h911l-55 -318h-559l-183 -1034h-352zM631 1483l176 381h444l-10 -62l-346 -319h-264z" />
    <glyph glyph-name="uni0404" unicode="&#x404;" horiz-adv-x="1482" 
d="M1171 504l248 -195q-109 -160 -274.5 -247t-362.5 -87q-191 -3 -348 82.5t-246 237t-86 336.5q-3 150 59.5 289t168.5 240t251.5 160t301.5 56q214 0 373.5 -101.5t234.5 -287.5l-287 -170q-108 236 -342 236q-122 0 -218 -60.5t-144 -165.5h534l-53 -295h-504
q32 -110 119.5 -171.5t212.5 -61.5q209 0 362 205z" />
    <glyph glyph-name="uni0405" unicode="&#x405;" 
d="M12 315l256 166q131 -192 307 -192q68 0 106 25.5t38 72.5q0 37 -29.5 66.5t-103.5 66.5l-135 68q-137 69 -206 157t-69 211q0 181 140 300.5t352 119.5q303 0 467 -280l-258 -174q-54 74 -108.5 107.5t-121.5 33.5q-57 0 -89 -23.5t-32 -64.5q0 -37 27 -65.5t84 -55.5
l149 -72q281 -133 281 -360q0 -189 -144.5 -318t-359.5 -129q-180 0 -321.5 87.5t-229.5 252.5z" />
    <glyph glyph-name="uni0406" unicode="&#x406;" horiz-adv-x="622" 
d="M49 0l238 1352h352l-238 -1352h-352z" />
    <glyph glyph-name="uni0407" unicode="&#x407;" horiz-adv-x="622" 
d="M49 0l238 1352h352l-238 -1352h-352zM41 1673q0 79 59 135q61 58 140 58q85 0 142.5 -55.5t57.5 -137.5q0 -76 -59.5 -133t-140.5 -57q-78 0 -138 57q-61 58 -61 133zM625 1671q0 79 59 135q61 58 139 58q85 0 143 -55.5t58 -137.5q0 -76 -60 -133t-141 -57
q-77 0 -137 57q-61 58 -61 133z" />
    <glyph glyph-name="uni0408" unicode="&#x408;" horiz-adv-x="821" 
d="M-57 25l51 290q112 -16 158 -16q80 0 119 31t51 104l161 918h353l-172 -985q-32 -192 -146 -292t-299 -100q-144 0 -276 50z" />
    <glyph glyph-name="uni0409" unicode="&#x409;" horiz-adv-x="1996" 
d="M1933 494q0 -221 -165.5 -357.5t-432.5 -136.5h-575l182 1034h-262q-49 -246 -96.5 -419t-101.5 -298t-118.5 -197.5t-140 -107t-174.5 -37.5q-68 0 -135 25l53 299q32 -4 53 -4q106 0 185.5 183t148.5 589l49 285h947l-74 -420h149q234 0 371 -119t137 -319zM1573 471
q0 72 -40 113t-112 41h-198l-58 -318h230q82 0 130 44.5t48 119.5z" />
    <glyph glyph-name="uni040A" unicode="&#x40a;" horiz-adv-x="2072" 
d="M49 0l238 1352h352l-82 -455h432l82 455h352l-80 -455h150q231 0 373.5 -111t142.5 -292q0 -221 -165.5 -357.5t-432.5 -136.5h-577l100 590h-432l-101 -590h-352zM1239 307h231q80 0 129.5 41t49.5 107q0 62 -43.5 98.5t-116.5 36.5h-199z" />
    <glyph glyph-name="uni040B" unicode="&#x40b;" horiz-adv-x="1640" 
d="M1485 426q0 -49 -10 -111l-56 -315h-352l49 279q8 44 8 73q0 78 -50 123t-138 45q-90 0 -180 -41l-84 -479h-353l183 1034h-385l55 318h1163l-55 -318h-426l-41 -233q107 43 215 43q207 0 332 -115t125 -303z" />
    <glyph glyph-name="uni040C" unicode="&#x40c;" horiz-adv-x="1423" 
d="M1495 1352l-588 -674l426 -678h-385l-428 678l-119 -678h-352l238 1352h352l-107 -611l529 611h434zM748 1483l176 381h444l-10 -62l-346 -319h-264z" />
    <glyph glyph-name="uni040D" unicode="&#x40d;" horiz-adv-x="1468" 
d="M1376 1376h113l-242 -1376h-352l121 694l-858 -719h-113l242 1377h352l-121 -695zM776 1483l-225 319l12 62h398l65 -381h-250z" />
    <glyph glyph-name="uni040E" unicode="&#x40e;" horiz-adv-x="1318" 
d="M1071 1352h395l-630 -1047q-103 -170 -231.5 -249t-301.5 -79q-82 0 -180 23l51 303q64 -6 105 -6q67 0 109 16.5t77 57.5l-299 981h371l176 -613zM477 1802q0 16 6 62h277l-4 -41q0 -113 96 -113q100 0 115 135l2 19h276l-2 -19q-20 -174 -131 -277.5t-278 -103.5
q-160 0 -258.5 93t-98.5 245z" />
    <glyph glyph-name="uni040F" unicode="&#x40f;" horiz-adv-x="1427" 
d="M1444 1352l-238 -1352h-411l-52 -289h-331l51 289h-414l238 1352h352l-182 -1035h452l183 1035h352z" />
    <glyph glyph-name="uni0410" unicode="&#x410;" horiz-adv-x="1351" 
d="M893 0l-31 113h-475l-70 -113h-397l858 1376h113l371 -1376h-369zM788 395l-59 301l-168 -301h227z" />
    <glyph glyph-name="uni0411" unicode="&#x411;" horiz-adv-x="1284" 
d="M49 0l238 1352h958l-55 -318h-606l-35 -198h219q209 0 327.5 -103.5t118.5 -283.5q0 -199 -147.5 -324t-382.5 -125h-635zM453 295h280q63 0 99 35t36 98q0 57 -29.5 91t-80.5 34h-258z" />
    <glyph glyph-name="uni0412" unicode="&#x412;" horiz-adv-x="1275" 
d="M1200 408q0 -177 -139.5 -292.5t-351.5 -115.5h-660l238 1352h446q187 0 306.5 -108t119.5 -277q0 -170 -123 -269q79 -48 121.5 -122.5t42.5 -167.5zM686 1057h-113l-43 -240h136q66 0 105.5 34t39.5 91q0 51 -34 83t-91 32zM854 418q0 112 -123 112h-250l-43 -233h273
q143 0 143 121z" />
    <glyph glyph-name="uni0413" unicode="&#x413;" horiz-adv-x="1095" 
d="M49 0l238 1352h911l-55 -318h-559l-183 -1034h-352z" />
    <glyph glyph-name="uni0414" unicode="&#x414;" horiz-adv-x="1538" 
d="M1272 317h190l-106 -606h-352l51 289h-752l-51 -289h-352l106 606h113q150 114 270 770l47 265h1018zM500 317h420l127 717h-332q-51 -276 -101 -445t-114 -272z" />
    <glyph glyph-name="uni0415" unicode="&#x415;" horiz-adv-x="1185" 
d="M49 0l238 1352h938l-56 -318h-585l-33 -186h418l-54 -295h-417l-41 -236h610l-55 -317h-963z" />
    <glyph glyph-name="uni0416" unicode="&#x416;" horiz-adv-x="2060" 
d="M2173 1352l-551 -676l348 -676h-397l-334 672l-119 -672h-352l117 664l-516 -664h-451l600 739l-328 613h392l317 -609l107 609h352l-107 -607l484 607h438z" />
    <glyph glyph-name="uni0417" unicode="&#x417;" horiz-adv-x="1212" 
d="M1130 451q0 -221 -152.5 -348.5t-416.5 -127.5q-197 0 -338.5 86t-195.5 238l274 172q41 -82 116 -127t169 -45q93 0 144.5 34t51.5 95q0 49 -35.5 78t-97.5 29h-196l49 282h155q70 0 113 35t43 94q0 49 -37 78t-100 29q-85 0 -149 -40.5t-124 -131.5l-227 184
q97 158 233 234.5t322 76.5q203 0 320.5 -99t117.5 -269q0 -205 -161 -320q122 -84 122 -237z" />
    <glyph glyph-name="uni0418" unicode="&#x418;" horiz-adv-x="1468" 
d="M1376 1376h113l-242 -1376h-352l121 694l-858 -719h-113l242 1377h352l-121 -695z" />
    <glyph glyph-name="uni0419" unicode="&#x419;" horiz-adv-x="1468" 
d="M1376 1376h113l-242 -1376h-352l121 694l-858 -719h-113l242 1377h352l-121 -695zM567 1802q0 16 6 62h277l-4 -41q0 -113 96 -113q100 0 115 135l2 19h276l-2 -19q-20 -174 -131 -277.5t-278 -103.5q-160 0 -258.5 93t-98.5 245z" />
    <glyph glyph-name="uni041A" unicode="&#x41a;" horiz-adv-x="1423" 
d="M1495 1352l-588 -674l426 -678h-385l-428 678l-119 -678h-352l238 1352h352l-107 -611l529 611h434z" />
    <glyph glyph-name="uni041B" unicode="&#x41b;" horiz-adv-x="1374" 
d="M403 1352h988l-238 -1352h-352l182 1034h-303q-47 -249 -93 -421t-99 -297.5t-118.5 -197.5t-143 -106t-181.5 -37q-68 0 -131 25l53 299q16 -4 53 -4q106 0 185.5 183t148.5 589z" />
    <glyph glyph-name="uni041C" unicode="&#x41c;" horiz-adv-x="1646" 
d="M1554 1376h113l-242 -1376h-352l94 535l-305 -295h-112l-244 356l-105 -596h-352l242 1376h112l453 -702z" />
    <glyph glyph-name="uni041D" unicode="&#x41d;" horiz-adv-x="1468" 
d="M49 0l238 1352h352l-86 -494h494l86 494h352l-238 -1352h-352l94 541h-493l-95 -541h-352z" />
    <glyph glyph-name="uni041E" unicode="&#x41e;" horiz-adv-x="1589" 
d="M102 631q-3 150 59.5 289.5t168.5 239.5t250.5 159t298.5 57q188 3 344 -83t244 -237.5t85 -334.5q3 -150 -59.5 -289.5t-168 -240t-250 -159.5t-298.5 -57q-141 -2 -267 48.5t-216 138t-141.5 210t-49.5 259.5zM1192 705q0 157 -94 252.5t-244 95.5q-166 0 -278.5 -116
t-112.5 -290q0 -157 94 -252.5t244 -95.5q166 0 278.5 116t112.5 290z" />
    <glyph glyph-name="uni041F" unicode="&#x41f;" horiz-adv-x="1447" 
d="M49 0l238 1352h1177l-237 -1352h-353l183 1034h-473l-183 -1034h-352z" />
    <glyph glyph-name="uni0420" unicode="&#x420;" horiz-adv-x="1255" 
d="M49 0l238 1352h471q233 0 370 -119q138 -120 138 -320q0 -221 -165.5 -357t-432.5 -136h-193l-74 -420h-352zM528 727h199q82 0 130 44.5t48 119.5q0 72 -39.5 112.5t-111.5 40.5h-168z" />
    <glyph glyph-name="uni0421" unicode="&#x421;" horiz-adv-x="1482" 
d="M102 631q-3 150 59.5 289t168.5 240t251.5 160t301.5 56q214 0 373.5 -101.5t234.5 -287.5l-287 -170q-108 236 -342 236q-173 0 -286 -115.5t-113 -290.5q0 -158 94 -253t252 -95q209 0 362 205l248 -195q-109 -160 -274.5 -247t-362.5 -87q-191 -3 -348 82.5t-246 237
t-86 336.5z" />
    <glyph glyph-name="uni0422" unicode="&#x422;" horiz-adv-x="1204" 
d="M340 0l182 1034h-405l55 318h1163l-55 -318h-406l-182 -1034h-352z" />
    <glyph glyph-name="uni0423" unicode="&#x423;" horiz-adv-x="1318" 
d="M1071 1352h395l-630 -1047q-103 -170 -231.5 -249t-301.5 -79q-82 0 -180 23l51 303q64 -6 105 -6q67 0 109 16.5t77 57.5l-299 981h371l176 -613z" />
    <glyph glyph-name="uni0424" unicode="&#x424;" horiz-adv-x="1777" 
d="M621 -41l30 164q-145 -3 -273.5 66t-204.5 187t-73 251q-2 107 31.5 204t98 173t152 132t199 85t234.5 28h35l24 144h353l-25 -146q107 2 209 -39t176 -110t118 -163t42 -192q2 -107 -31.5 -204t-98 -173t-152 -132t-199 -85t-234.5 -28h-31l-28 -162h-352zM702 420
l95 530h-9q-158 0 -254 -83t-96 -218q0 -109 69.5 -169t194.5 -60zM1057 420h6q155 0 250.5 83t95.5 218q0 109 -68.5 169t-191.5 60z" />
    <glyph glyph-name="uni0425" unicode="&#x425;" horiz-adv-x="1275" 
d="M1397 1352l-525 -701l314 -651h-371l-186 391l-285 -391h-426l555 725l-293 627h371l162 -369l258 369h426z" />
    <glyph glyph-name="uni0426" unicode="&#x426;" horiz-adv-x="1527" 
d="M1014 -289l51 289h-1016l238 1352h352l-182 -1035h452l183 1035h352l-182 -1035h190l-106 -606h-332z" />
    <glyph glyph-name="uni0427" unicode="&#x427;" horiz-adv-x="1359" 
d="M1024 1352h352l-237 -1352h-353l82 469q-122 -43 -260 -43q-204 0 -329 120t-125 314q0 50 10 115l65 377h353l-60 -342q-6 -34 -6 -62q0 -94 58.5 -146t162.5 -52q108 0 187 28z" />
    <glyph glyph-name="uni0428" unicode="&#x428;" horiz-adv-x="2064" 
d="M49 0l238 1352h352l-182 -1035h368l183 1035h352l-182 -1035h368l183 1035h352l-238 -1352h-1794z" />
    <glyph glyph-name="uni0429" unicode="&#x429;" horiz-adv-x="2164" 
d="M1651 -289l51 289h-1653l238 1352h352l-182 -1035h368l183 1035h352l-182 -1035h368l183 1035h352l-183 -1035h191l-107 -606h-331z" />
    <glyph glyph-name="uni042A" unicode="&#x42a;" horiz-adv-x="1476" 
d="M238 0l182 1034h-307l55 318h659l-73 -420h151q234 0 371 -119t137 -319q0 -221 -165.5 -357.5t-432.5 -136.5h-577zM645 307h229q82 0 130.5 44.5t48.5 119.5q0 72 -40 113t-112 41h-201z" />
    <glyph glyph-name="uni042B" unicode="&#x42b;" horiz-adv-x="1871" 
d="M49 0l238 1352h352l-74 -420h152q233 0 370 -119q138 -120 138 -319q0 -221 -165.5 -357.5t-432.5 -136.5h-578zM455 307h231q82 0 130 44.5t48 119.5q0 72 -39.5 113t-111.5 41h-201zM1298 0l238 1352h352l-237 -1352h-353z" />
    <glyph glyph-name="uni042C" unicode="&#x42c;" horiz-adv-x="1288" 
d="M49 0l238 1352h352l-74 -420h152q233 0 370 -119q138 -120 138 -319q0 -221 -165.5 -357.5t-432.5 -136.5h-578zM455 307h231q82 0 130 44.5t48 119.5q0 72 -39.5 113t-111.5 41h-201z" />
    <glyph glyph-name="uni042D" unicode="&#x42d;" horiz-adv-x="1480" 
d="M1444 721q3 -150 -59.5 -289.5t-168.5 -240t-251.5 -160t-300.5 -56.5q-214 0 -374 102t-235 288l287 170q108 -236 342 -236q124 0 222 62t145 171h-480l54 295h440q-33 105 -119.5 165.5t-208.5 60.5q-209 0 -362 -205l-248 194q109 160 274.5 247t362.5 87
q143 2 270 -47.5t217.5 -136.5t142.5 -210t50 -261z" />
    <glyph glyph-name="uni042E" unicode="&#x42e;" horiz-adv-x="2113" 
d="M2077 721q3 -147 -59 -286t-166.5 -240.5t-249 -162t-297.5 -57.5q-261 0 -442 158.5t-212 407.5h-155l-95 -541h-352l238 1352h352l-86 -494h129q71 229 271.5 373.5t451.5 144.5q187 3 342.5 -83t244 -238t85.5 -334zM1716 705q0 156 -93 252t-245 96
q-166 0 -278.5 -117t-112.5 -289q0 -156 93 -252t245 -96q166 0 278.5 117t112.5 289z" />
    <glyph glyph-name="uni042F" unicode="&#x42f;" horiz-adv-x="1331" 
d="M850 1352h498l-238 -1352h-352l69 397h-65q-39 0 -49 2l-330 -399h-397l409 494q-184 122 -184 350q0 226 177 367t462 141zM881 705l59 339h-156q-98 0 -155.5 -47t-57.5 -129q0 -75 51.5 -119t141.5 -44h117z" />
    <glyph glyph-name="uni0430" unicode="&#x430;" horiz-adv-x="1288" 
d="M909 1024h353l-175 -1024h-329l14 84q-106 -109 -272 -109q-188 0 -313.5 138t-125.5 348q-3 160 70 297t200 215.5t277 75.5q195 0 287 -109zM827 518q0 97 -53 157t-139 60q-91 0 -151 -67.5t-60 -171.5q0 -94 50.5 -150.5t135.5 -56.5q94 0 155.5 65.5t61.5 163.5z
" />
    <glyph glyph-name="uni0431" unicode="&#x431;" horiz-adv-x="1263" 
d="M483 907q108 105 271 105q207 0 329 -125q125 -122 125 -332q0 -252 -164.5 -415t-420.5 -163q-231 0 -376 136.5t-145 357.5q0 100 41 334q34 183 92.5 307.5t156 209.5t232.5 129.5t330 61.5q211 17 344 46l-55 -318q-65 -12 -117 -18q-97 -11 -188 -17
q-197 -14 -300.5 -82t-154.5 -217zM449 485q0 -85 50 -136.5t132 -51.5q93 0 152 58t59 149q0 85 -52.5 138.5t-134.5 53.5q-91 0 -148.5 -59.5t-57.5 -151.5z" />
    <glyph glyph-name="uni0432" unicode="&#x432;" horiz-adv-x="1062" 
d="M981 336q0 -162 -133.5 -261.5t-351.5 -99.5q-219 0 -335 103.5t-116 296.5q0 67 39 276q37 201 157.5 299.5t331.5 98.5q192 0 300 -78t108 -217q0 -69 -34.5 -128t-96.5 -94q131 -55 131 -196zM416 653l-4 -22h123q118 0 118 86q0 76 -100 76q-61 0 -92 -32t-45 -108z
M662 330q0 44 -31.5 63t-104.5 19h-151q-4 -28 -4 -45q0 -136 147 -136q69 0 106.5 26t37.5 73z" />
    <glyph glyph-name="uni0433" unicode="&#x433;" horiz-adv-x="933" 
d="M0 281q0 124 90 208t266 142l121 39q66 21 66 57q0 45 -92 45q-101 0 -207 -67l-131 227q155 117 356 117q190 0 297.5 -81.5t107.5 -224.5q0 -118 -85.5 -202t-268.5 -146l-121 -41q-67 -21 -67 -55q0 -23 26.5 -36t71.5 -13q136 0 285 104l133 -223
q-164 -156 -424 -156q-201 0 -312.5 80t-111.5 226z" />
    <glyph glyph-name="uni0434" unicode="&#x434;" horiz-adv-x="1241" 
d="M1186 721q0 -345 -158.5 -545.5t-429.5 -200.5q-235 0 -385 142.5t-150 363.5q-3 144 64.5 266.5t186.5 193t259 67.5q149 0 252 -86q-26 166 -124 241.5t-287 75.5q-71 0 -166 -14l55 309q64 22 168 22q355 0 535 -210.5t180 -624.5zM799 504q0 84 -51.5 139t-129.5 55
q-84 0 -139 -62.5t-55 -156.5q0 -85 47 -136.5t125 -51.5q86 0 144.5 61t58.5 152z" />
    <glyph glyph-name="uni0435" unicode="&#x435;" 
d="M1061 391h-647q46 -125 221 -125q133 0 274 78l113 -238q-170 -131 -418 -131q-240 0 -391.5 140.5t-151.5 365.5q-4 151 75 284t214 210t289 74q201 0 332 -127t131 -322q0 -109 -41 -209zM412 616h358q0 72 -44 116t-116 44q-69 0 -122 -43t-76 -117z" />
    <glyph glyph-name="uni0436" unicode="&#x436;" horiz-adv-x="1822" 
d="M1892 1024l-428 -530l273 -494h-383l-269 479l-84 -479h-352l82 471l-385 -471h-432l455 541l-250 483h393l233 -469l82 469h353l-82 -467l358 467h436z" />
    <glyph glyph-name="uni0437" unicode="&#x437;" horiz-adv-x="1013" 
d="M895 315q0 -161 -121 -250.5t-338 -89.5q-158 0 -268 46t-188 145l225 211q49 -55 103.5 -80t123.5 -25q133 0 133 72q0 49 -84 49h-147l43 246h127q38 0 61 15.5t23 41.5q0 56 -82 56q-146 0 -250 -90l-152 210q177 177 453 177q170 0 273.5 -79t103.5 -208
q0 -163 -135 -250q96 -72 96 -197z" />
    <glyph glyph-name="uni0438" unicode="&#x438;" horiz-adv-x="1222" 
d="M850 1024h352l-180 -1024h-322l15 84q-121 -109 -279 -109q-150 0 -252 97q-98 94 -98 252q0 46 12 116l103 584h352l-96 -549q-8 -41 -8 -67q0 -61 38.5 -96.5t100.5 -35.5q59 0 101 36.5t54 103.5z" />
    <glyph glyph-name="uni0439" unicode="&#x439;" horiz-adv-x="1222" 
d="M850 1024h352l-180 -1024h-322l15 84q-121 -109 -279 -109q-150 0 -252 97q-98 94 -98 252q0 46 12 116l103 584h352l-96 -549q-8 -41 -8 -67q0 -61 38.5 -96.5t100.5 -35.5q59 0 101 36.5t54 103.5zM406 1503q0 29 12 94h274q-8 -44 -8 -73q0 -115 96 -115
q50 0 77.5 32.5t37.5 104.5l8 51h277l-9 -51q-26 -176 -137 -278.5t-272 -102.5q-160 0 -258 93t-98 245z" />
    <glyph glyph-name="uni043A" unicode="&#x43a;" horiz-adv-x="1210" 
d="M1280 1024l-434 -494l278 -530h-379l-272 524l-92 -524h-352l180 1024h352l-78 -438l387 438h410z" />
    <glyph glyph-name="uni043B" unicode="&#x43b;" horiz-adv-x="1230" 
d="M-47 0l51 289q16 -4 39 -4q63 0 106 68.5t80 228.5q47 197 115 288q68 93 148.5 123.5t212.5 30.5h497l-180 -1024h-352l127 733h-70q-31 -1 -45 -2.5t-34 -10t-29.5 -23t-24.5 -43t-27 -69.5t-28 -104q-64 -279 -166 -392.5t-287 -113.5q-74 0 -133 25z" />
    <glyph glyph-name="uni043C" unicode="&#x43c;" horiz-adv-x="1427" 
d="M1294 1049h109l-184 -1049h-353l62 348l-197 -176h-113l-161 211l-68 -383h-352l184 1049h113l387 -514z" />
    <glyph glyph-name="uni043D" unicode="&#x43d;" horiz-adv-x="1249" 
d="M37 0l180 1024h352l-63 -354h299l63 354h353l-181 -1024h-352l66 375h-299l-66 -375h-352z" />
    <glyph glyph-name="uni043E" unicode="&#x43e;" horiz-adv-x="1241" 
d="M63 489q-3 150 77 280.5t216.5 206.5t292.5 73q146 2 270.5 -66.5t196 -188.5t68.5 -262q2 -112 -45 -216t-126.5 -179.5t-190 -119.5t-228.5 -42q-147 -3 -270.5 65t-193.5 187.5t-67 261.5zM823 524q0 94 -51.5 151.5t-136.5 57.5q-91 0 -151 -68t-60 -171
q0 -93 50 -148t134 -55q94 0 154.5 65.5t60.5 167.5z" />
    <glyph glyph-name="uni043F" unicode="&#x43f;" horiz-adv-x="1222" 
d="M1145 700q0 -48 -12 -116l-103 -584h-352l96 549q8 41 8 67q0 61 -38.5 96.5t-100.5 35.5q-59 0 -101.5 -36.5t-54.5 -103.5l-106 -608h-352l180 1024h321l-14 -84q121 109 279 109q150 0 252 -97q98 -94 98 -252z" />
    <glyph glyph-name="uni0440" unicode="&#x440;" horiz-adv-x="1284" 
d="M1231 567q3 -162 -70.5 -299.5t-201 -216.5t-277.5 -76q-196 0 -287 111l-80 -455h-352l246 1393h321l-16 -90q103 115 279 115q188 0 313 -137.5t125 -344.5zM870 532q0 91 -51.5 146t-136.5 55q-94 0 -155.5 -65.5t-61.5 -165.5q0 -94 53 -153.5t137 -59.5
q92 0 153.5 69.5t61.5 173.5z" />
    <glyph glyph-name="uni0441" unicode="&#x441;" horiz-adv-x="1144" 
d="M63 481q-3 156 75 288t214.5 207.5t298.5 72.5q161 0 281 -76.5t174 -212.5l-260 -172q-86 145 -209 145q-94 0 -155.5 -67t-61.5 -170q0 -91 53.5 -148t138.5 -57q121 0 215 125l226 -193q-75 -119 -196 -183.5t-267 -64.5q-231 0 -379 142t-148 364z" />
    <glyph glyph-name="uni0442" unicode="&#x442;" horiz-adv-x="1851" 
d="M1774 702q0 -38 -13 -118l-102 -584h-352l98 561q6 37 6 57q0 60 -35 95t-96 35q-57 0 -99.5 -37t-54.5 -103l-106 -608h-352l98 563q6 38 6 55q0 60 -35 95t-96 35q-57 0 -99.5 -37t-54.5 -103l-106 -608h-352l180 1024h321l-14 -82q119 107 281 107q91 0 164.5 -33
t117.5 -94q147 127 340 127q165 0 260 -94t95 -253z" />
    <glyph glyph-name="uni0443" unicode="&#x443;" horiz-adv-x="1222" 
d="M850 1024h352l-168 -948q-40 -217 -186 -342q-148 -127 -363 -127q-150 0 -287 60.5t-229 168.5l205 236q95 -84 165 -117t146 -33q169 0 199 164l6 39q-104 -72 -237 -72q-155 0 -255 97t-100 245q0 38 11 109l92 520h352l-90 -508q-4 -32 -4 -39q0 -55 39.5 -91
t99.5 -36q57 0 101.5 35.5t54.5 95.5z" />
    <glyph glyph-name="uni0444" unicode="&#x444;" horiz-adv-x="1644" 
d="M911 -20l-61 -349h-352l61 351q-223 12 -359.5 150.5t-136.5 350.5q0 260 184 413t496 153h2l84 487h353l-84 -489q220 -12 355.5 -151t135.5 -351q0 -259 -184 -412t-494 -153zM618 270l84 488h-6q-139 0 -213.5 -66.5t-74.5 -189.5q0 -107 54 -167.5t156 -64.5z
M1245 526q0 106 -55.5 166.5t-155.5 65.5l-84 -488h6q139 0 214 66.5t75 189.5z" />
    <glyph glyph-name="uni0445" unicode="&#x445;" horiz-adv-x="1132" 
d="M1202 1024l-438 -520l283 -504h-371l-141 264l-209 -264h-412l455 530l-258 494h370l119 -254l191 254h411z" />
    <glyph glyph-name="uni0446" unicode="&#x446;" horiz-adv-x="1363" 
d="M1186 295h78l-103 -584h-332l56 312q-62 24 -101 75q-123 -123 -323 -123q-170 0 -272.5 95.5t-102.5 253.5q0 46 12 116l103 584h352l-96 -549q-8 -41 -8 -67q0 -60 38 -96t101 -36t103 36t52 104l107 608h352l-104 -594q-6 -30 -6 -49q0 -41 25 -63.5t69 -22.5z" />
    <glyph glyph-name="uni0447" unicode="&#x447;" horiz-adv-x="1165" 
d="M784 1024h353l-181 -1024h-352l60 336q-89 -29 -185 -29q-177 0 -278 97.5t-101 267.5q0 27 11 102l45 250h352l-35 -199q-8 -41 -8 -75q0 -57 38 -91t101 -34q61 0 113 14z" />
    <glyph glyph-name="uni0448" unicode="&#x448;" horiz-adv-x="1859" 
d="M1479 1024h352l-180 -1024h-322l14 82q-119 -107 -280 -107q-91 0 -165 33t-118 94q-147 -127 -342 -127q-160 0 -256 95.5t-96 251.5q0 44 12 118l103 584h352l-98 -567q-6 -37 -6 -51q0 -60 35 -95t96 -35q59 0 100 36.5t53 103.5l107 608h352l-98 -567q-7 -44 -7 -51
q0 -60 35.5 -95t96.5 -35q59 0 100 36.5t53 103.5z" />
    <glyph glyph-name="uni0449" unicode="&#x449;" horiz-adv-x="1992" 
d="M1815 295h77l-102 -584h-332l55 312q-58 24 -98 73q-121 -121 -317 -121q-212 0 -316 129q-67 -61 -156.5 -95t-185.5 -34q-161 0 -257.5 95.5t-96.5 253.5q0 48 12 116l103 584h352l-96 -549q-8 -41 -8 -67q0 -60 35.5 -96t95.5 -36q58 0 99.5 37t53.5 103l107 608h352
l-98 -563q-7 -40 -7 -60q0 -59 36.5 -92t97.5 -33q58 0 98.5 36t52.5 104l107 608h352l-105 -594q-6 -30 -6 -49q0 -41 25 -63.5t70 -22.5z" />
    <glyph glyph-name="uni044A" unicode="&#x44a;" horiz-adv-x="1294" 
d="M1217 397q0 -186 -135.5 -304t-346.5 -118q-212 0 -343.5 106.5t-131.5 276.5q0 44 6 78l53 297h-260l54 291h610l-47 -262h100q207 0 324 -97t117 -268zM856 375q0 44 -38 70t-101 26h-94l-13 -68q-2 -6 -2 -28q0 -51 33 -78t96 -27q51 0 85 30.5t34 74.5z" />
    <glyph glyph-name="uni044B" unicode="&#x44b;" horiz-adv-x="1638" 
d="M1055 397q0 -186 -135.5 -304t-346.5 -118q-212 0 -343.5 106.5t-131.5 276.5q0 44 6 78l105 588h352l-47 -262h100q207 0 324 -97t117 -268zM1257 1024h353l-180 -1024h-353zM694 375q0 44 -38 70t-101 26h-94l-8 -45q-7 -40 -7 -51q0 -51 33 -78t96 -27q51 0 85 30.5
t34 74.5z" />
    <glyph glyph-name="uni044C" unicode="&#x44c;" horiz-adv-x="1132" 
d="M1055 397q0 -186 -135.5 -304t-346.5 -118q-212 0 -343.5 106.5t-131.5 276.5q0 44 6 78l105 588h352l-47 -262h100q207 0 324 -97t117 -268zM694 375q0 44 -38 70t-101 26h-94l-12 -68q-3 -9 -3 -28q0 -50 33.5 -77.5t95.5 -27.5q51 0 85 30.5t34 74.5z" />
    <glyph glyph-name="uni044D" unicode="&#x44d;" horiz-adv-x="1144" 
d="M1090 537q3 -150 -77 -281t-217.5 -207.5t-295.5 -73.5q-161 0 -281 76.5t-174 212.5l246 164q47 -79 101 -116.5t122 -37.5q65 0 117 31.5t82 87.5h-277l41 230h252q-23 57 -73 89.5t-117 32.5q-66 0 -120 -31t-108 -100l-213 183q75 118 196 182.5t267 64.5
q228 0 378.5 -144t150.5 -363z" />
    <glyph glyph-name="uni044E" unicode="&#x44e;" horiz-adv-x="1679" 
d="M1622 532q3 -150 -73 -279.5t-207 -205t-283 -72.5q-185 0 -316 107t-168 280h-120l-66 -362h-352l180 1024h352l-63 -367h80q53 176 192 283q145 109 334 109q219 0 364.5 -147.5t145.5 -369.5zM1268 524q0 94 -48 151.5t-126 57.5q-82 0 -137.5 -68.5t-55.5 -170.5
q0 -91 46.5 -147t121.5 -56q88 0 143.5 65t55.5 168z" />
    <glyph glyph-name="uni044F" unicode="&#x44f;" horiz-adv-x="1173" 
d="M604 1024h541l-180 -1024h-353l50 279h-56l-284 -279h-392l353 344q-75 48 -116.5 118.5t-41.5 153.5q0 179 133.5 293.5t345.5 114.5zM711 553l30 176h-157q-44 0 -72.5 -25.5t-28.5 -66.5q0 -38 30 -61t81 -23h117z" />
    <glyph glyph-name="uni0450" unicode="&#x450;" 
d="M1061 391h-647q46 -125 221 -125q133 0 274 78l113 -238q-170 -131 -418 -131q-240 0 -391.5 140.5t-151.5 365.5q-4 151 75 284t214 210t289 74q201 0 332 -127t131 -322q0 -109 -41 -209zM412 616h358q0 72 -44 116t-116 44q-69 0 -122 -43t-76 -117zM508 1176
l-172 360l20 61h398v-421h-246z" />
    <glyph glyph-name="uni0451" unicode="&#x451;" 
d="M1061 391h-647q46 -125 221 -125q133 0 274 78l113 -238q-170 -131 -418 -131q-240 0 -391.5 140.5t-151.5 365.5q-4 151 75 284t214 210t289 74q201 0 332 -127t131 -322q0 -109 -41 -209zM412 616h358q0 72 -44 116t-116 44q-69 0 -122 -43t-76 -117zM250 1386
q0 80 59 136q60 57 140 57q85 0 142.5 -55.5t57.5 -137.5q0 -76 -59.5 -133t-140.5 -57q-78 0 -138 57q-61 58 -61 133zM793 1386q0 80 59 136q60 57 139 57q85 0 143 -55.5t58 -137.5q0 -76 -60 -133t-141 -57q-77 0 -137 57q-61 58 -61 133z" />
    <glyph glyph-name="uni0452" unicode="&#x452;" horiz-adv-x="1243" 
d="M1151 618q0 -44 -12 -118l-88 -500q-70 -393 -449 -393q-126 0 -213 43l51 291q80 -13 113 -13q75 0 108.5 31.5t47.5 106.5l73 415q6 38 6 54q0 59 -38.5 94t-100.5 35q-59 0 -101 -36.5t-54 -103.5l-93 -524h-352l193 1092h-156l49 284h156l28 160h353l-29 -160h377
l-49 -284h-377l-37 -205q104 78 240 78q154 0 256 -97q98 -94 98 -250z" />
    <glyph glyph-name="uni0453" unicode="&#x453;" horiz-adv-x="933" 
d="M0 281q0 124 90 208t266 142l121 39q66 21 66 57q0 45 -92 45q-101 0 -207 -67l-131 227q155 117 356 117q190 0 297.5 -81.5t107.5 -224.5q0 -118 -85.5 -202t-268.5 -146l-121 -41q-67 -21 -67 -55q0 -23 26.5 -36t71.5 -13q136 0 285 104l133 -223
q-164 -156 -424 -156q-201 0 -312.5 80t-111.5 226zM356 1176l205 421h445l-11 -61l-364 -360h-275z" />
    <glyph glyph-name="uni0454" unicode="&#x454;" horiz-adv-x="1132" 
d="M842 406l213 -183q-75 -119 -196 -183.5t-267 -64.5q-228 0 -378.5 144.5t-150.5 363.5q-3 151 77 282.5t217.5 208.5t295.5 75q161 0 281 -76.5t174 -212.5l-246 -164q-47 79 -101 116.5t-122 37.5q-65 0 -118 -33.5t-83 -91.5h277l-41 -230l-248 -2q24 -56 72.5 -87.5
t115.5 -31.5q66 0 119.5 31.5t108.5 100.5z" />
    <glyph glyph-name="uni0455" unicode="&#x455;" horiz-adv-x="933" 
d="M-10 207l207 190q68 -78 128.5 -113.5t127.5 -35.5q86 0 86 45q0 32 -56 53l-96 37q-274 105 -274 334q0 149 105 240.5t278 91.5q258 0 403 -177l-197 -196q-44 47 -97 73.5t-101 26.5q-27 0 -43.5 -12t-16.5 -35t15 -41.5t41 -25.5l92 -35q276 -105 276 -301
q0 -152 -118.5 -251.5t-298.5 -99.5q-152 0 -273.5 61.5t-187.5 170.5z" />
    <glyph glyph-name="uni0456" unicode="&#x456;" horiz-adv-x="581" 
d="M29 0l180 1024h352l-180 -1024h-352zM236 1386q0 88 62 148.5t153 60.5t154 -60.5t63 -148.5q0 -86 -63 -146t-154 -60t-153 59t-62 147z" />
    <glyph glyph-name="uni0457" unicode="&#x457;" horiz-adv-x="565" 
d="M133 1319q0 121 54.5 198.5t136.5 77.5q57 0 86.5 -35.5t29.5 -103.5q0 -122 -53 -199t-137 -77q-57 0 -87 35.5t-30 103.5zM446 1319q0 121 54.5 198.5t136.5 77.5q57 0 87 -35.5t30 -103.5q0 -122 -53 -199t-138 -77q-57 0 -87 35.5t-30 103.5zM16 0l181 1024h352
l-180 -1024h-353z" />
    <glyph glyph-name="uni0458" unicode="&#x458;" horiz-adv-x="583" 
d="M-266 -352l51 291q71 -11 98 -11q71 0 107 28.5t47 92.5l172 975h352l-182 -1040q-32 -184 -145.5 -280.5t-292.5 -96.5q-114 0 -207 41zM233 1386q0 88 62.5 148.5t153.5 60.5t154 -60.5t63 -148.5q0 -86 -63 -146t-154 -60t-153.5 59.5t-62.5 146.5z" />
    <glyph glyph-name="uni0459" unicode="&#x459;" horiz-adv-x="1759" 
d="M1681 397q0 -186 -135 -304t-346 -118q-212 0 -343.5 106.5t-131.5 276.5q0 44 6 78l55 297h-59q-79 0 -115.5 -47.5t-72.5 -202.5q-64 -281 -165.5 -394.5t-287.5 -113.5q-74 0 -133 25l51 289q16 -4 39 -4q63 0 106 68.5t80 228.5q58 251 161.5 346.5t314.5 95.5h483
l-47 -262h100q207 0 323.5 -97t116.5 -268zM1321 375q0 44 -38 70t-101 26h-95l-8 -43q-6 -30 -6 -53q0 -51 33 -78t96 -27q51 0 85 30.5t34 74.5z" />
    <glyph glyph-name="uni045A" unicode="&#x45a;" horiz-adv-x="1763" 
d="M1681 381q0 -175 -137 -290.5t-344 -115.5q-212 0 -343.5 106.5t-131.5 276.5q0 18 4 72h-264l-76 -430h-352l180 1024h352l-53 -303h266l54 303h352l-55 -303h129q198 0 308.5 -89.5t110.5 -250.5zM1321 352q0 78 -119 78h-123l-4 -27q-2 -6 -2 -28q0 -50 33.5 -77.5
t95.5 -27.5q57 0 88 21.5t31 60.5z" />
    <glyph glyph-name="uni045B" unicode="&#x45b;" horiz-adv-x="1243" 
d="M1151 621q0 -51 -12 -119l-88 -502h-353l80 469q6 37 6 51q0 59 -38.5 94t-100.5 35q-59 0 -101.5 -36t-54.5 -103l-88 -510h-352l193 1092h-156l49 284h156l28 160h353l-29 -160h377l-49 -284h-377l-37 -203q104 78 240 78q154 0 256 -97q98 -94 98 -249z" />
    <glyph glyph-name="uni045C" unicode="&#x45c;" horiz-adv-x="1210" 
d="M1280 1024l-434 -494l278 -530h-379l-272 524l-92 -524h-352l180 1024h352l-78 -438l387 438h410zM555 1176l205 421h444l-10 -61l-365 -360h-274z" />
    <glyph glyph-name="uni045D" unicode="&#x45d;" horiz-adv-x="1222" 
d="M850 1024h352l-180 -1024h-322l15 84q-121 -109 -279 -109q-150 0 -252 97q-98 94 -98 252q0 46 12 116l103 584h352l-96 -549q-8 -41 -8 -67q0 -61 38.5 -96.5t100.5 -35.5q59 0 101 36.5t54 103.5zM563 1176l-172 360l21 61h397v-421h-246z" />
    <glyph glyph-name="uni045E" unicode="&#x45e;" horiz-adv-x="1222" 
d="M850 1024h352l-168 -948q-40 -217 -186 -342q-148 -127 -363 -127q-150 0 -287 60.5t-229 168.5l205 236q95 -84 165 -117t146 -33q169 0 199 164l6 39q-104 -72 -237 -72q-155 0 -255 97t-100 245q0 38 11 109l92 520h352l-90 -508q-4 -32 -4 -39q0 -55 39.5 -91
t99.5 -36q57 0 101.5 35.5t54.5 95.5zM395 1503q0 24 13 94h274q-8 -44 -8 -73q0 -115 96 -115q50 0 77.5 32.5t37.5 104.5l8 51h276l-8 -51q-26 -176 -137 -278.5t-272 -102.5q-160 0 -258.5 93t-98.5 245z" />
    <glyph glyph-name="uni045F" unicode="&#x45f;" horiz-adv-x="1222" 
d="M850 1024h352l-180 -1024h-322l15 84q-121 -109 -279 -109q-150 0 -252 97q-98 94 -98 252q0 46 12 116l103 584h352l-98 -561q-6 -35 -6 -55q0 -61 38.5 -96.5t100.5 -35.5q59 0 101 36.5t54 103.5zM313 -451l23 361h350l-63 -361h-310z" />
    <glyph glyph-name="uni0462" unicode="&#x462;" horiz-adv-x="1482" 
d="M250 0l170 969h-320l52 284h319l25 140h352l-25 -140h398l-52 -284h-397l-20 -123h221q198 0 321 -101t123 -262q0 -226 -160.5 -354.5t-441.5 -128.5h-565zM655 307h224q85 0 129.5 33t44.5 96q0 45 -38 76t-93 31h-224z" />
    <glyph glyph-name="uni0463" unicode="&#x463;" horiz-adv-x="1761" 
d="M1683 397q0 -186 -135 -304t-346 -118q-212 0 -343.5 106.5t-131.5 276.5q0 44 6 78l21 113q8 41 8 67q0 61 -32.5 96.5t-86.5 35.5q-59 0 -101.5 -36.5t-54.5 -103.5l-106 -608h-352l180 1024h321l-14 -84q121 109 279 109q129 0 217.5 -78.5t107.5 -208.5h123
q207 0 323.5 -97t116.5 -268zM1323 375q0 44 -38 70t-101 26h-94l-13 -68q-2 -6 -2 -28q0 -50 33.5 -77.5t95.5 -27.5q51 0 85 30.5t34 74.5z" />
    <glyph glyph-name="uni0472" unicode="&#x472;" horiz-adv-x="1589" 
d="M1552 721q3 -148 -59 -286.5t-166.5 -240.5t-249.5 -162t-301 -57q-141 -2 -267 48.5t-216 138t-141.5 210t-49.5 259.5q-3 148 59 286.5t167 240t250 161.5t301 57q188 3 344 -83t244 -237.5t85 -334.5zM489 801q103 47 199 47q60 0 170 -29q98 -31 172 -31q78 0 148 27
q-29 109 -116 173.5t-208 64.5q-127 0 -224.5 -68t-140.5 -184zM1153 522q-87 -37 -176 -37q-74 0 -172 31q-110 29 -170 29q-79 0 -152 -27q35 -103 118.5 -161t199.5 -58q118 0 211 59.5t141 163.5z" />
    <glyph glyph-name="uni0473" unicode="&#x473;" horiz-adv-x="1241" 
d="M1184 532q2 -112 -45 -216t-126.5 -179.5t-190 -119.5t-228.5 -42q-147 -3 -270.5 65t-193.5 187.5t-67 261.5q-3 150 77 280.5t216.5 206.5t292.5 73q146 2 270.5 -66.5t196 -188.5t68.5 -262zM430 618q59 17 96 17q44 0 117 -21q70 -20 119 -20q41 0 72 8
q-20 70 -73 110t-126 40q-67 0 -121 -36t-84 -98zM815 401q-53 -16 -96 -16q-47 0 -117 21q-67 20 -115 20q-28 0 -73 -10q20 -66 71.5 -104t122.5 -38q68 0 123 33.5t84 93.5z" />
    <glyph glyph-name="uni0474" unicode="&#x474;" horiz-adv-x="1384" 
d="M1534 1348l-53 -301q-50 6 -78 6q-51 0 -88 -26.5t-78 -92.5l-596 -959h-113l-372 1377h389l157 -652l244 404q91 148 183.5 210t222.5 62q93 0 182 -28z" />
    <glyph glyph-name="uni0475" unicode="&#x475;" horiz-adv-x="1142" 
d="M1241 1024l-51 -289h-64q-79 0 -129 -73l-460 -687h-113l-340 1049h360l125 -455l150 242q145 238 373 238q79 0 149 -25z" />
    <glyph glyph-name="uni0490" unicode="&#x490;" horiz-adv-x="1034" 
d="M49 0l238 1352h518l51 288h332l-107 -606h-497l-183 -1034h-352z" />
    <glyph glyph-name="uni0491" unicode="&#x491;" horiz-adv-x="952" 
d="M37 0l180 1024h461l51 289h332l-103 -584h-442l-127 -729h-352z" />
    <glyph glyph-name="uni0492" unicode="&#x492;" horiz-adv-x="1044" 
d="M1083 1034h-503l-45 -258h299l-54 -295h-299l-84 -481h-352l84 481h-156l54 295h155l101 576h856z" />
    <glyph glyph-name="uni0493" unicode="&#x493;" horiz-adv-x="923" 
d="M954 729h-440l-27 -145h228l-47 -275h-228l-55 -309h-352l55 309h-143l47 275h143l78 440h793z" />
    <glyph glyph-name="uni0496" unicode="&#x496;" horiz-adv-x="2074" 
d="M1604 694l172 -377h247l-106 -606h-328l51 289h-90l-313 670l-117 -670h-352l117 664l-516 -664h-451l614 713l-342 639h392l317 -609l107 609h352l-107 -607l484 607h438z" />
    <glyph glyph-name="uni0497" unicode="&#x497;" horiz-adv-x="1892" 
d="M1462 520l115 -229h215l-102 -580h-332l51 289h-63l-256 504l-89 -504h-352l88 506l-391 -506h-432l461 569l-236 455h393l220 -440l77 440h353l-76 -428l330 428h436z" />
    <glyph glyph-name="uni0498" unicode="&#x498;" horiz-adv-x="1212" 
d="M1130 451q0 -221 -152.5 -348.5t-416.5 -127.5q-197 0 -338.5 86t-195.5 238l274 172q41 -82 116 -127t169 -45q93 0 144.5 34t51.5 95q0 49 -35.5 78t-97.5 29h-196l49 282h155q70 0 113 35t43 94q0 49 -37 78t-100 29q-85 0 -149 -40.5t-124 -131.5l-227 184
q97 158 233 234.5t322 76.5q203 0 320.5 -99t117.5 -269q0 -205 -161 -320q122 -84 122 -237zM182 -358l39 225q83 -12 123 -12q57 0 86 23.5t41 78.5q10 46 16 96l144 45q48 -36 76 -89t28 -109q0 -123 -103.5 -208t-252.5 -85q-104 0 -197 35z" />
    <glyph glyph-name="uni0499" unicode="&#x499;" horiz-adv-x="1013" 
d="M895 315q0 -161 -121 -250.5t-338 -89.5q-158 0 -268 46t-188 145l225 211q49 -55 103.5 -80t123.5 -25q133 0 133 72q0 49 -84 49h-147l43 246h127q38 0 61 15.5t23 41.5q0 56 -82 56q-146 0 -250 -90l-152 210q177 177 453 177q170 0 273.5 -79t103.5 -208
q0 -163 -135 -250q96 -72 96 -197zM23 -358l38 225q83 -12 123 -12q57 0 86 23.5t41 78.5q12 57 17 96l143 45q48 -36 76 -89t28 -109q0 -123 -103.5 -208t-252.5 -85q-103 0 -196 35z" />
    <glyph glyph-name="uni049A" unicode="&#x49a;" horiz-adv-x="1439" 
d="M905 692l221 -375h263l-107 -606h-332l51 289h-73l-408 676l-119 -676h-352l238 1352h352l-107 -611l529 611h434z" />
    <glyph glyph-name="uni049B" unicode="&#x49b;" horiz-adv-x="1292" 
d="M860 518l117 -227h215l-102 -580h-332l51 289h-59l-271 512l-90 -512h-352l180 1024h352l-77 -440l368 440h436z" />
    <glyph glyph-name="uni04A0" unicode="&#x4a0;" horiz-adv-x="1767" 
d="M1839 1352l-588 -674l426 -678h-405l-408 676l-119 -676h-352l182 1034h-462l55 318h815l-106 -611l528 611h434z" />
    <glyph glyph-name="uni04A1" unicode="&#x4a1;" horiz-adv-x="1431" 
d="M1501 1024l-432 -477l277 -547h-379l-271 541l-94 -541h-352l127 729h-379l53 295h731l-73 -418l383 418h409z" />
    <glyph glyph-name="uni04A2" unicode="&#x4a2;" horiz-adv-x="1568" 
d="M1055 -289l51 289h-211l94 541h-493l-95 -541h-352l238 1352h352l-86 -494h494l86 494h352l-182 -1035h190l-107 -606h-331z" />
    <glyph glyph-name="uni04A3" unicode="&#x4a3;" horiz-adv-x="1341" 
d="M807 -289l51 289h-170l66 377h-299l-66 -377h-352l180 1024h352l-63 -356h299l63 356h353l-129 -729h149l-102 -584h-332z" />
    <glyph glyph-name="uni04AA" unicode="&#x4aa;" horiz-adv-x="1482" 
d="M102 631q-3 150 59.5 289t168.5 240t251.5 160t301.5 56q214 0 373.5 -101.5t234.5 -287.5l-287 -170q-108 236 -342 236q-173 0 -286 -115.5t-113 -290.5q0 -158 94 -253t252 -95q209 0 362 205l248 -195q-109 -160 -274.5 -247t-362.5 -87q-191 -3 -348 82.5t-246 237
t-86 336.5zM348 -358l39 225q83 -12 123 -12q57 0 86 23.5t41 78.5q10 46 16 96l144 45q48 -36 76 -89t28 -109q0 -123 -103.5 -208t-252.5 -85q-104 0 -197 35z" />
    <glyph glyph-name="uni04AB" unicode="&#x4ab;" horiz-adv-x="1144" 
d="M63 481q-3 156 75 288t214.5 207.5t298.5 72.5q161 0 281 -76.5t174 -212.5l-260 -172q-86 145 -209 145q-94 0 -155.5 -67t-61.5 -170q0 -91 53.5 -148t138.5 -57q121 0 215 125l226 -193q-75 -119 -196 -183.5t-267 -64.5q-231 0 -379 142t-148 364zM203 -358l39 225
q82 -12 123 -12q57 0 86 23.5t41 78.5q10 46 16 96l143 45q48 -36 76.5 -89t28.5 -109q0 -123 -104 -208t-253 -85q-103 0 -196 35z" />
    <glyph glyph-name="uni04AE" unicode="&#x4ae;" horiz-adv-x="1288" 
d="M1427 1352l-610 -842l-90 -510h-352l92 524l-320 828h351l192 -473l332 473h405z" />
    <glyph glyph-name="uni04AF" unicode="&#x4af;" horiz-adv-x="1185" 
d="M1268 1024l-582 -1024l-65 -369h-353l66 371l-228 1022h353l100 -666l315 666h394z" />
    <glyph glyph-name="uni04B0" unicode="&#x4b0;" horiz-adv-x="1333" 
d="M1458 1352l-596 -824h275l-52 -295h-286l-41 -233h-352l40 233h-286l51 295h285l-318 824h371l174 -469l330 469h405z" />
    <glyph glyph-name="uni04B1" unicode="&#x4b1;" horiz-adv-x="1185" 
d="M1268 1024l-582 -1024h244l-49 -274h-244l-16 -95h-353l17 95h-246l49 274h246v2l-228 1022h353l100 -666l315 666h394z" />
    <glyph glyph-name="uni04B2" unicode="&#x4b2;" horiz-adv-x="1308" 
d="M872 651l160 -334h225l-106 -606h-332l51 289h-55l-186 391l-285 -391h-426l555 725l-293 627h371l162 -369l258 369h426z" />
    <glyph glyph-name="uni04B3" unicode="&#x4b3;" horiz-adv-x="1191" 
d="M764 504l117 -209h211l-103 -584h-332l52 289h-33l-141 264l-209 -264h-412l455 530l-258 494h370l119 -254l191 254h411z" />
    <glyph glyph-name="uni04B6" unicode="&#x4b6;" horiz-adv-x="1460" 
d="M1194 317h190l-106 -606h-332l51 289h-211l82 469q-122 -43 -260 -43q-204 0 -329 120t-125 314q0 50 10 115l65 377h353l-60 -342q-6 -34 -6 -62q0 -94 58.5 -146t162.5 -52q108 0 187 28l100 574h352z" />
    <glyph glyph-name="uni04B7" unicode="&#x4b7;" horiz-adv-x="1277" 
d="M1008 295h170l-103 -584h-332l52 289h-191l60 336q-82 -29 -172 -29q-179 0 -285.5 98t-106.5 265q0 36 11 104l45 250h352l-39 -221q-6 -34 -6 -53q0 -60 37.5 -92.5t103.5 -32.5q63 0 115 14l67 385h353z" />
    <glyph glyph-name="uni04BA" unicode="&#x4ba;" horiz-adv-x="1359" 
d="M1272 492q0 -50 -10 -115l-66 -377h-352l59 342q6 35 6 61q0 94 -58.5 146.5t-162.5 52.5t-186 -29l-101 -573h-352l238 1352h352l-82 -469q122 43 260 43q204 0 329.5 -120t125.5 -314z" />
    <glyph glyph-name="uni04BB" unicode="&#x4bb;" horiz-adv-x="1222" 
d="M1145 702q0 -44 -12 -118l-103 -584h-352l98 567q6 38 6 51q0 59 -38.5 94.5t-100.5 35.5q-59 0 -101.5 -37t-54.5 -103l-106 -608h-352l270 1536h352l-100 -565q104 78 240 78q154 0 256 -97q98 -94 98 -250z" />
    <glyph glyph-name="uni04C0" unicode="&#x4c0;" horiz-adv-x="622" 
d="M49 0l238 1352h352l-238 -1352h-352z" />
    <glyph glyph-name="uni04C1" unicode="&#x4c1;" horiz-adv-x="2060" 
d="M2173 1352l-551 -676l348 -676h-397l-334 672l-119 -672h-352l117 664l-516 -664h-451l600 739l-328 613h392l317 -609l107 609h352l-107 -607l484 607h438zM864 1802q0 16 6 62h277l-4 -41q0 -113 96 -113q100 0 115 135l2 19h276l-2 -19q-20 -174 -131 -277.5
t-278 -103.5q-160 0 -258.5 93t-98.5 245z" />
    <glyph glyph-name="uni04C2" unicode="&#x4c2;" horiz-adv-x="1822" 
d="M1892 1024l-428 -530l273 -494h-383l-269 479l-84 -479h-352l82 471l-385 -471h-432l455 541l-250 483h393l233 -469l82 469h353l-82 -467l358 467h436zM707 1503q0 29 12 94h274q-8 -44 -8 -73q0 -115 96 -115q50 0 77.5 32.5t37.5 104.5l8 51h277l-8 -51
q-26 -176 -137.5 -278.5t-272.5 -102.5q-160 0 -258 93t-98 245z" />
    <glyph glyph-name="uni04CF" unicode="&#x4cf;" horiz-adv-x="598" 
d="M37 0l270 1536h352l-270 -1536h-352z" />
    <glyph glyph-name="uni04D0" unicode="&#x4d0;" horiz-adv-x="1351" 
d="M893 0l-31 113h-475l-70 -113h-397l858 1376h113l371 -1376h-369zM788 395l-59 301l-168 -301h227zM512 1802q0 16 6 62h277l-4 -41q0 -113 96 -113q99 0 114 135l3 19h276l-2 -19q-20 -174 -131.5 -277.5t-278.5 -103.5q-160 0 -258 93t-98 245z" />
    <glyph glyph-name="uni04D1" unicode="&#x4d1;" horiz-adv-x="1288" 
d="M909 1024h353l-175 -1024h-329l14 84q-106 -109 -272 -109q-188 0 -313.5 138t-125.5 348q-3 160 70 297t200 215.5t277 75.5q195 0 287 -109zM827 518q0 97 -53 157t-139 60q-91 0 -151 -67.5t-60 -171.5q0 -94 50.5 -150.5t135.5 -56.5q94 0 155.5 65.5t61.5 163.5z
M367 1503q0 29 12 94h274q-8 -44 -8 -73q0 -115 96 -115q50 0 77.5 32.5t37.5 104.5l8 51h277l-8 -51q-26 -176 -137.5 -278.5t-272.5 -102.5q-160 0 -258 93t-98 245z" />
    <glyph glyph-name="uni04D4" unicode="&#x4d4;" horiz-adv-x="1792" 
d="M1776 1034h-596v-186h395l-51 -295h-344v-236h493l-55 -317h-782v113h-428l-76 -113h-418l922 1352h995zM846 801l-252 -406h244z" />
    <glyph glyph-name="uni04D5" unicode="&#x4d5;" horiz-adv-x="1753" 
d="M1667 389h-645q46 -123 219 -123q134 0 275 78l112 -233q-195 -136 -411 -136q-121 0 -221.5 42t-168.5 120q-82 -85 -180 -123.5t-231 -38.5q-183 0 -285 77t-102 214q0 161 118 247.5t338 86.5h209v18q0 63 -37 97.5t-106 34.5q-63 0 -126 -28.5t-140 -94.5l-125 256
q213 166 446 166q214 0 309 -121q148 121 338 121q194 0 324.5 -129t130.5 -322q0 -109 -41 -209zM1016 600h360v12q0 75 -43.5 119.5t-115.5 44.5q-73 0 -127 -47t-74 -129zM655 365l4 24h-161q-51 0 -80 -22.5t-29 -63.5q0 -80 100 -80q66 0 110.5 39t55.5 103z" />
    <glyph glyph-name="uni04D6" unicode="&#x4d6;" horiz-adv-x="1185" 
d="M49 0l238 1352h938l-56 -318h-585l-33 -186h418l-54 -295h-417l-41 -236h610l-55 -317h-963zM438 1802q0 16 6 62h277l-4 -41q0 -113 96 -113q100 0 115 135l2 19h276l-2 -19q-20 -174 -131 -277.5t-278 -103.5q-160 0 -258.5 93t-98.5 245z" />
    <glyph glyph-name="uni04D7" unicode="&#x4d7;" 
d="M1061 391h-647q46 -125 221 -125q133 0 274 78l113 -238q-170 -131 -418 -131q-240 0 -391.5 140.5t-151.5 365.5q-4 151 75 284t214 210t289 74q201 0 332 -127t131 -322q0 -109 -41 -209zM412 616h358q0 72 -44 116t-116 44q-69 0 -122 -43t-76 -117zM352 1503
q0 24 13 94h274q-8 -44 -8 -73q0 -115 96 -115q50 0 77.5 32.5t37.5 104.5l8 51h276l-8 -51q-26 -176 -137 -278.5t-272 -102.5q-160 0 -258.5 93t-98.5 245z" />
    <glyph glyph-name="uni04D8" unicode="&#x4d8;" horiz-adv-x="1513" 
d="M1477 725q4 -199 -98.5 -373.5t-278 -276.5t-375.5 -98q-284 0 -458.5 165t-174.5 431q0 129 37 230h977q-25 119 -107 184.5t-206 65.5q-209 0 -363 -179l-219 213q218 289 610 289q107 2 208 -30.5t182 -93t142.5 -141t93.5 -180.5t30 -206zM1077 506h-626
q10 -96 85.5 -150.5t194.5 -54.5q123 0 213 53.5t133 151.5z" />
    <glyph glyph-name="uni04D9" unicode="&#x4d9;" 
d="M1090 532q2 -112 -44 -216t-124 -179.5t-185.5 -119.5t-222.5 -42q-202 0 -333.5 124.5t-131.5 316.5q0 111 41 207h651q-43 135 -221 135q-131 0 -266 -78l-113 233q187 136 416 136q230 0 381.5 -147t151.5 -370zM735 397h-354q1 -67 46 -108t114 -41q67 0 118 39.5
t76 109.5z" />
    <glyph glyph-name="uni04E2" unicode="&#x4e2;" horiz-adv-x="1468" 
d="M1376 1376h113l-242 -1376h-352l121 694l-858 -719h-113l242 1377h352l-121 -695zM567 1526l49 274h697l-49 -274h-697z" />
    <glyph glyph-name="uni04E3" unicode="&#x4e3;" horiz-adv-x="1222" 
d="M850 1024h352l-180 -1024h-322l15 84q-121 -109 -279 -109q-150 0 -252 97q-98 94 -98 252q0 46 12 116l103 584h352l-96 -549q-8 -41 -8 -67q0 -61 38.5 -96.5t100.5 -35.5q59 0 101 36.5t54 103.5zM424 1249l49 275h655l-49 -275h-655z" />
    <glyph glyph-name="uni04E6" unicode="&#x4e6;" horiz-adv-x="1589" 
d="M102 631q-3 150 59.5 289.5t168.5 239.5t250.5 159t298.5 57q188 3 344 -83t244 -237.5t85 -334.5q3 -150 -59.5 -289.5t-168 -240t-250 -159.5t-298.5 -57q-141 -2 -267 48.5t-216 138t-141.5 210t-49.5 259.5zM1192 705q0 157 -94 252.5t-244 95.5q-166 0 -278.5 -116
t-112.5 -290q0 -157 94 -252.5t244 -95.5q166 0 278.5 116t112.5 290zM524 1673q0 78 60 135q61 58 139 58q85 0 143 -55.5t58 -137.5q0 -76 -60 -133t-141 -57q-77 0 -137 57q-62 59 -62 133zM1108 1671q0 79 59 135q61 58 140 58q85 0 142.5 -55.5t57.5 -137.5
q0 -76 -59.5 -133t-140.5 -57q-78 0 -138 57q-61 58 -61 133z" />
    <glyph glyph-name="uni04E7" unicode="&#x4e7;" horiz-adv-x="1241" 
d="M63 489q-3 150 77 280.5t216.5 206.5t292.5 73q146 2 270.5 -66.5t196 -188.5t68.5 -262q2 -112 -45 -216t-126.5 -179.5t-190 -119.5t-228.5 -42q-147 -3 -270.5 65t-193.5 187.5t-67 261.5zM823 524q0 94 -51.5 151.5t-136.5 57.5q-91 0 -151 -68t-60 -171
q0 -93 50 -148t134 -55q94 0 154.5 65.5t60.5 167.5zM276 1386q0 79 60 136t139 57q85 0 143 -55.5t58 -137.5q0 -76 -60 -133t-141 -57q-77 0 -137 57q-62 59 -62 133zM819 1386q0 79 60 136t139 57q85 0 143 -55.5t58 -137.5q0 -76 -60 -133t-141 -57q-77 0 -137 57
q-62 59 -62 133z" />
    <glyph glyph-name="uni04E8" unicode="&#x4e8;" horiz-adv-x="1589" 
d="M1552 721q3 -148 -59 -286.5t-166.5 -240.5t-249.5 -162t-301 -57q-141 -2 -267 48.5t-216 138t-141.5 210t-49.5 259.5q-3 148 59 286.5t167 240t250 161.5t301 57q188 3 344 -83t244 -237.5t85 -334.5zM506 844h663q-35 103 -117.5 161t-197.5 58q-116 0 -207 -58
t-141 -161zM1165 549h-692q30 -120 117.5 -190t210.5 -70q126 0 223.5 70t140.5 190z" />
    <glyph glyph-name="uni04E9" unicode="&#x4e9;" horiz-adv-x="1241" 
d="M1184 532q2 -112 -45 -216t-126.5 -179.5t-190 -119.5t-228.5 -42q-147 -3 -270.5 65t-193.5 187.5t-67 261.5q-3 150 77 280.5t216.5 206.5t292.5 73q146 2 270.5 -66.5t196 -188.5t68.5 -262zM430 616h397q-24 64 -74 101t-118 37q-67 0 -121 -37t-84 -101zM809 387
h-383q23 -55 71 -86t111 -31q66 0 118 30.5t83 86.5z" />
    <glyph glyph-name="uni04EE" unicode="&#x4ee;" horiz-adv-x="1318" 
d="M1071 1352h395l-630 -1047q-103 -170 -231.5 -249t-301.5 -79q-82 0 -180 23l51 303q64 -6 105 -6q67 0 109 16.5t77 57.5l-299 981h371l176 -613zM477 1526l49 274h697l-49 -274h-697z" />
    <glyph glyph-name="uni04EF" unicode="&#x4ef;" horiz-adv-x="1222" 
d="M850 1024h352l-168 -948q-40 -217 -186 -342q-148 -127 -363 -127q-150 0 -287 60.5t-229 168.5l205 236q95 -84 165 -117t146 -33q169 0 199 164l6 39q-104 -72 -237 -72q-155 0 -255 97t-100 245q0 38 11 109l92 520h352l-90 -508q-4 -32 -4 -39q0 -55 39.5 -91
t99.5 -36q57 0 101.5 35.5t54.5 95.5zM424 1249l49 275h655l-49 -275h-655z" />
    <glyph glyph-name="uni04F2" unicode="&#x4f2;" horiz-adv-x="1318" 
d="M1071 1352h395l-630 -1047q-103 -170 -231.5 -249t-301.5 -79q-82 0 -180 23l51 303q64 -6 105 -6q67 0 109 16.5t77 57.5l-299 981h371l176 -613zM418 1483l198 381h385l-10 -62l-323 -319h-250zM907 1483l199 381h385l-10 -62l-324 -319h-250z" />
    <glyph glyph-name="uni04F3" unicode="&#x4f3;" horiz-adv-x="1222" 
d="M850 1024h352l-168 -948q-40 -217 -186 -342q-148 -127 -363 -127q-150 0 -287 60.5t-229 168.5l205 236q95 -84 165 -117t146 -33q169 0 199 164l6 39q-104 -72 -237 -72q-155 0 -255 97t-100 245q0 38 11 109l92 520h352l-90 -508q-4 -32 -4 -39q0 -55 39.5 -91
t99.5 -36q57 0 101.5 35.5t54.5 95.5zM379 1176l205 421h383l-11 -61l-323 -360h-254zM848 1176l205 421h383l-11 -61l-323 -360h-254z" />
    <glyph glyph-name="Wgrave" unicode="&#x1e80;" horiz-adv-x="2078" 
d="M1798 1352h400l-799 -1377h-113l-207 715l-483 -715h-113l-315 1377h358l146 -658l458 682h113l189 -661zM1069 1483l-225 319l12 62h397l66 -381h-250z" />
    <glyph glyph-name="wgrave" unicode="&#x1e81;" horiz-adv-x="1763" 
d="M1454 1024h385l-684 -1049h-113l-170 492l-352 -492h-112l-324 1049h360l131 -496l334 521h113l152 -486zM821 1176l-172 360l21 61h397v-421h-246z" />
    <glyph glyph-name="Wacute" unicode="&#x1e82;" horiz-adv-x="2078" 
d="M1798 1352h400l-799 -1377h-113l-207 715l-483 -715h-113l-315 1377h358l146 -658l458 682h113l189 -661zM1061 1483l176 381h444l-10 -62l-346 -319h-264z" />
    <glyph glyph-name="wacute" unicode="&#x1e83;" horiz-adv-x="1763" 
d="M1454 1024h385l-684 -1049h-113l-170 492l-352 -492h-112l-324 1049h360l131 -496l334 521h113l152 -486zM825 1176l205 421h445l-11 -61l-364 -360h-275z" />
    <glyph glyph-name="Wdieresis" unicode="&#x1e84;" horiz-adv-x="2078" 
d="M1798 1352h400l-799 -1377h-113l-207 715l-483 -715h-113l-315 1377h358l146 -658l458 682h113l189 -661zM756 1673q0 79 59 135q61 58 139 58q85 0 143 -55.5t58 -137.5q0 -76 -60 -133t-141 -57q-77 0 -137 57q-61 58 -61 133zM1339 1671q0 78 60 135q61 58 139 58
q85 0 143 -55.5t58 -137.5q0 -76 -60 -133t-141 -57q-77 0 -137 57q-62 59 -62 133z" />
    <glyph glyph-name="wdieresis" unicode="&#x1e85;" horiz-adv-x="1763" 
d="M1454 1024h385l-684 -1049h-113l-170 492l-352 -492h-112l-324 1049h360l131 -496l334 521h113l152 -486zM563 1386q0 79 60 136t139 57q85 0 143 -55.5t58 -137.5q0 -76 -60 -133t-141 -57q-77 0 -137 57q-62 59 -62 133zM1106 1386q0 80 59 136q60 57 140 57
q85 0 142.5 -55.5t57.5 -137.5q0 -76 -59.5 -133t-140.5 -57q-78 0 -138 57q-61 58 -61 133z" />
    <glyph glyph-name="uni1E9E" unicode="&#x1e9e;" horiz-adv-x="1525" 
d="M1509 1352l-16 -92l-274 -412q109 -54 170 -157t61 -232q0 -135 -66 -246t-183 -174.5t-259 -63.5q-122 0 -230 48t-190 139l203 233q118 -98 209 -98q72 0 117 42.5t45 111.5q0 153 -226 153h-147l14 86l230 344h-383l-183 -1034h-352l238 1352h1222z" />
    <glyph glyph-name="Ygrave" unicode="&#x1ef2;" horiz-adv-x="1288" 
d="M1427 1352l-610 -842l-90 -510h-352l92 524l-320 828h351l192 -473l332 473h405zM676 1483l-225 319l12 62h397l66 -381h-250z" />
    <glyph glyph-name="ygrave" unicode="&#x1ef3;" horiz-adv-x="1222" 
d="M850 1024h352l-168 -948q-40 -217 -186 -342q-148 -127 -363 -127q-150 0 -287 60.5t-229 168.5l205 236q95 -84 165 -117t146 -33q169 0 199 164l6 39q-104 -72 -237 -72q-155 0 -255 97t-100 245q0 38 11 109l92 520h352l-90 -508q-4 -32 -4 -39q0 -55 39.5 -91
t99.5 -36q57 0 101.5 35.5t54.5 95.5zM553 1176l-172 360l20 61h398v-421h-246z" />
    <glyph glyph-name="uni2009" unicode="&#x2009;" horiz-adv-x="286" 
 />
    <glyph glyph-name="endash" unicode="&#x2013;" horiz-adv-x="1024" 
d="M66 518l53 295h901l-53 -295h-901z" />
    <glyph glyph-name="emdash" unicode="&#x2014;" horiz-adv-x="2050" 
d="M106 518l56 295h1843l-55 -295h-1844z" />
    <glyph glyph-name="uni2015" unicode="&#x2015;" horiz-adv-x="2050" 
d="M106 518l56 295h1843l-55 -295h-1844z" />
    <glyph glyph-name="quoteleft" unicode="&#x2018;" horiz-adv-x="645" 
d="M135 754l232 598h274l-104 -598h-402z" />
    <glyph glyph-name="quoteright" unicode="&#x2019;" horiz-adv-x="645" 
d="M203 754l104 598h402l-232 -598h-274z" />
    <glyph glyph-name="quotesinglbase" unicode="&#x201a;" horiz-adv-x="645" 
d="M16 -301l105 598h401l-231 -598h-275z" />
    <glyph glyph-name="quotedblleft" unicode="&#x201c;" horiz-adv-x="1202" 
d="M135 754l232 598h274l-104 -598h-402zM692 754l232 598h274l-104 -598h-402z" />
    <glyph glyph-name="quotedblright" unicode="&#x201d;" horiz-adv-x="1202" 
d="M203 754l104 598h402l-232 -598h-274zM760 754l104 598h402l-232 -598h-274z" />
    <glyph glyph-name="quotedblbase" unicode="&#x201e;" horiz-adv-x="1202" 
d="M16 -301l105 598h401l-231 -598h-275zM573 -301l105 598h401l-231 -598h-275z" />
    <glyph glyph-name="dagger" unicode="&#x2020;" horiz-adv-x="1034" 
d="M326 406l94 526h-264l49 291h264l55 313h353l-56 -313h264l-49 -291h-264l-94 -526h-352z" />
    <glyph glyph-name="daggerdbl" unicode="&#x2021;" horiz-adv-x="1034" 
d="M287 195l47 256h-264l51 290h264l45 252h-264l49 291h264l45 252h353l-46 -252h265l-49 -291h-265l-45 -252h264l-51 -290h-264l-47 -256h-352z" />
    <glyph glyph-name="bullet" unicode="&#x2022;" horiz-adv-x="940" 
d="M109 561q0 152 109 257.5t265 105.5q157 0 265 -105.5t108 -257.5t-108 -257t-265 -105q-156 0 -265 105t-109 257z" />
    <glyph glyph-name="ellipsis" unicode="&#x2026;" horiz-adv-x="1658" 
d="M549 205q0 98 65.5 163.5t167.5 65.5q98 0 163 -66t65 -163q0 -98 -65 -164t-163 -66q-102 0 -167.5 65.5t-65.5 164.5zM6 205q0 98 66 163.5t168 65.5q98 0 162.5 -66t64.5 -163q0 -99 -64.5 -164.5t-162.5 -65.5q-102 0 -168 65.5t-66 164.5zM1092 205q0 98 65.5 163.5
t167.5 65.5q98 0 162.5 -66t64.5 -163q0 -99 -64.5 -164.5t-162.5 -65.5q-102 0 -167.5 65.5t-65.5 164.5z" />
    <glyph glyph-name="perthousand" unicode="&#x2030;" horiz-adv-x="2508" 
d="M174 1026q0 142 107.5 245t255.5 103q140 0 238.5 -95t98.5 -232q0 -142 -107.5 -246.5t-254.5 -104.5q-140 0 -239 97t-99 233zM209 0l1100 1352h276l-1102 -1352h-274zM623 1038q0 44 -26.5 71.5t-68.5 27.5q-44 0 -72 -29t-28 -76q0 -44 26.5 -71t69.5 -27t71 30
t28 74zM922 307q0 142 107 245t255 103q140 0 239 -95t99 -232q0 -142 -107.5 -246.5t-254.5 -104.5q-140 0 -239 97t-99 233zM1700 307q0 142 107 245t255 103q140 0 239 -95t99 -232q0 -142 -107.5 -246.5t-254.5 -104.5q-140 0 -239 97t-99 233zM1370 319
q0 44 -26.5 71.5t-67.5 27.5q-44 0 -72 -29t-28 -76q0 -44 26.5 -71t69.5 -27t70.5 29.5t27.5 74.5zM2148 319q0 44 -26.5 71.5t-67.5 27.5q-44 0 -72 -29t-28 -76q0 -44 26.5 -71t69.5 -27t70.5 29.5t27.5 74.5z" />
    <glyph glyph-name="minute" unicode="&#x2032;" horiz-adv-x="649" 
d="M180 754l164 598h406l-304 -598h-266z" />
    <glyph glyph-name="second" unicode="&#x2033;" horiz-adv-x="1206" 
d="M180 754l164 598h406l-304 -598h-266zM737 754l164 598h406l-303 -598h-267z" />
    <glyph glyph-name="guilsinglleft" unicode="&#x2039;" horiz-adv-x="743" 
d="M403 59l-352 455l17 92l489 457l199 -205l-324 -311l215 -303z" />
    <glyph glyph-name="guilsinglright" unicode="&#x203a;" horiz-adv-x="743" 
d="M211 59l-199 205l324 311l-215 304l244 184l352 -455l-17 -92z" />
    <glyph glyph-name="fraction" unicode="&#x2044;" horiz-adv-x="561" 
d="M-334 0l1008 1352h287l-1010 -1352h-285z" />
    <glyph glyph-name="uni2070" unicode="&#x2070;" horiz-adv-x="884" 
d="M188 1065q-1 72 15 147.5t51.5 149t86.5 130t126.5 90.5t165.5 32q151 0 227 -86t76 -242q1 -72 -15 -148t-51.5 -151t-85.5 -133t-125.5 -92.5t-164.5 -32.5q-149 0 -227.5 89.5t-78.5 246.5zM682 1270q0 114 -84 114q-79 0 -119 -100q-37 -98 -37 -205q0 -59 21.5 -90
t60.5 -31q40 0 72 32t50 81t27 100.5t9 98.5z" />
    <glyph glyph-name="uni2074" unicode="&#x2074;" horiz-adv-x="796" 
d="M885 1079l-39 -215h-92l-21 -119h-229l20 119h-440l12 68l338 667h277l-267 -520h119l37 185h223l-32 -185h94z" />
    <glyph glyph-name="uni2075" unicode="&#x2075;" horiz-adv-x="765" 
d="M821 1372h-315l-10 -61q10 2 45 2q106 0 182 -76q76 -73 76 -180q0 -138 -103.5 -233t-255.5 -95q-131 0 -223.5 65t-118.5 177l197 100q43 -113 149 -113q45 0 73 20.5t28 55.5t-27.5 50.5t-87.5 15.5h-209l88 497h551z" />
    <glyph glyph-name="uni2076" unicode="&#x2076;" horiz-adv-x="768" 
d="M819 1065q0 -137 -103 -235.5t-249 -98.5q-135 0 -229.5 90.5t-94.5 220.5q0 75 33.5 139.5t110.5 147.5l241 268h320l-227 -256q87 -25 142.5 -101.5t55.5 -174.5zM569 1057q0 38 -22.5 62t-59.5 24q-39 0 -66.5 -26.5t-27.5 -67.5q0 -38 24 -63t60 -25q39 0 65.5 27.5
t26.5 68.5z" />
    <glyph glyph-name="uni2077" unicode="&#x2077;" horiz-adv-x="722" 
d="M258 1597h625l-13 -67l-462 -785h-293l383 627h-281z" />
    <glyph glyph-name="uni2078" unicode="&#x2078;" horiz-adv-x="796" 
d="M829 1001q0 -111 -95 -189.5t-232 -78.5q-153 0 -252.5 69t-99.5 175q0 82 48 142t136 89q-66 60 -66 148q0 113 86 185.5t221 72.5q137 0 219.5 -63t82.5 -167q0 -141 -146 -225q98 -58 98 -158zM498 1358q0 -19 10.5 -34t44.5 -40q53 20 73.5 37t20.5 41q0 23 -22.5 40
t-53.5 17q-32 0 -52.5 -17.5t-20.5 -43.5zM582 997q0 43 -68 86q-66 -19 -91.5 -38t-25.5 -48q0 -31 24 -48t68 -17t68.5 17t24.5 48z" />
    <glyph glyph-name="uni2079" unicode="&#x2079;" horiz-adv-x="768" 
d="M864 1300q0 -75 -33 -139t-110 -147l-242 -269h-319l227 256q-87 25 -143 102t-56 175q0 137 103.5 235.5t249.5 98.5q135 0 229 -91t94 -221zM614 1294q0 38 -24 63t-60 25q-39 0 -65.5 -27.5t-26.5 -68.5q0 -38 22.5 -62t59.5 -24q39 0 66.5 26.5t27.5 67.5z" />
    <glyph glyph-name="uni207A" unicode="&#x207a;" horiz-adv-x="874" 
d="M369 799l47 264h-256l39 217h256l47 264h243l-47 -264h256l-39 -217h-256l-47 -264h-243z" />
    <glyph glyph-name="uni207B" unicode="&#x207b;" horiz-adv-x="874" 
d="M160 1063l39 217h755l-39 -217h-755z" />
    <glyph glyph-name="uni207C" unicode="&#x207c;" horiz-adv-x="874" 
d="M207 1235l39 217h723l-39 -217h-723zM147 893l37 219h723l-37 -219h-723z" />
    <glyph glyph-name="uni207D" unicode="&#x207d;" horiz-adv-x="591" 
d="M203 1034q0 188 62 357t175.5 290.5t257.5 169.5l74 -159q-170 -97 -261 -263t-91 -380q0 -281 164 -422l-123 -133q-123 69 -190.5 211t-67.5 329z" />
    <glyph glyph-name="uni207E" unicode="&#x207e;" horiz-adv-x="591" 
d="M133 494l-74 159q170 97 261.5 263t91.5 380q0 281 -164 422l123 133q123 -69 190.5 -211t67.5 -329q0 -188 -62.5 -357t-176 -290.5t-257.5 -169.5z" />
    <glyph glyph-name="uni2080" unicode="&#x2080;" horiz-adv-x="884" 
d="M14 74q-1 72 15 147.5t51.5 149t86.5 130t126.5 90.5t165.5 32q151 0 227 -86t76 -242q1 -72 -15 -148t-51.5 -151t-86 -133t-126 -92.5t-164.5 -32.5q-149 0 -227 89.5t-78 246.5zM508 279q0 114 -84 114q-79 0 -119 -100q-37 -98 -37 -205q0 -59 21.5 -90t60.5 -31
q40 0 72 32t50 81t27 100.5t9 98.5z" />
    <glyph glyph-name="uni2081" unicode="&#x2081;" horiz-adv-x="782" 
d="M-47 -246l39 226h205l69 401h-182l39 225h432l-109 -626h170l-38 -226h-625z" />
    <glyph glyph-name="uni2082" unicode="&#x2082;" horiz-adv-x="808" 
d="M436 -20h205l-41 -226l-661 -2l8 51l362 334q68 62 97.5 106t29.5 83q0 67 -67 67q-80 0 -80 -123v-18h-252q-2 10 -2 31q0 146 98.5 243t245.5 97q139 0 226 -78t87 -203q0 -85 -53 -162q-48 -70 -203 -200z" />
    <glyph glyph-name="uni2083" unicode="&#x2083;" horiz-adv-x="745" 
d="M694 606l-12 -67l-205 -256q59 -35 93 -95.5t34 -130.5q0 -134 -101.5 -226.5t-248.5 -92.5q-128 0 -215.5 63.5t-116.5 178.5l195 100q26 -61 58.5 -87t80.5 -26q44 0 69 20.5t25 55.5t-26 50.5t-86 15.5h-136l11 59l172 213h-217l41 225h585z" />
    <glyph glyph-name="uni2084" unicode="&#x2084;" horiz-adv-x="796" 
d="M711 88l-39 -215h-92l-21 -119h-229l20 119h-440l12 68l338 667h277l-267 -520h119l37 184h223l-33 -184h95z" />
    <glyph glyph-name="uni2085" unicode="&#x2085;" horiz-adv-x="765" 
d="M647 381h-315l-10 -62q15 3 45 3q106 0 182 -76q76 -73 76 -180q0 -138 -103.5 -233t-255.5 -95q-131 0 -223.5 65t-118.5 177l197 100q43 -113 149 -113q45 0 73 20.5t28 55.5t-27.5 50.5t-87.5 15.5h-209l88 497h551z" />
    <glyph glyph-name="uni2086" unicode="&#x2086;" horiz-adv-x="768" 
d="M645 74q0 -137 -103 -235.5t-249 -98.5q-135 0 -229.5 90.5t-94.5 220.5q0 75 33.5 139.5t110.5 147.5l241 268h320l-228 -256q87 -25 143 -102t56 -174zM395 66q0 38 -22.5 62t-59.5 24q-39 0 -66.5 -27t-27.5 -68q0 -38 24 -63t60 -25q38 0 65 28t27 69z" />
    <glyph glyph-name="uni2087" unicode="&#x2087;" horiz-adv-x="722" 
d="M84 606h625l-13 -67l-463 -785h-292l383 627h-281z" />
    <glyph glyph-name="uni2088" unicode="&#x2088;" horiz-adv-x="796" 
d="M655 10q0 -111 -95 -189.5t-232 -78.5q-154 0 -253.5 69t-99.5 175q0 81 48.5 141.5t136.5 89.5q-66 60 -66 148q0 113 86 185.5t221 72.5q136 0 218.5 -63t82.5 -167q0 -142 -145 -225q98 -58 98 -158zM324 367q0 -19 10.5 -34t44.5 -40q53 20 73.5 37t20.5 41
q0 23 -22.5 40t-53.5 17q-32 0 -52.5 -17.5t-20.5 -43.5zM408 6q0 43 -68 86q-66 -19 -91.5 -38t-25.5 -48q0 -31 24 -48t68 -17t68.5 17t24.5 48z" />
    <glyph glyph-name="uni2089" unicode="&#x2089;" horiz-adv-x="768" 
d="M690 309q0 -75 -33 -139t-110 -147l-242 -269h-319l227 256q-87 25 -143 102t-56 175q0 137 103.5 235.5t249.5 98.5q135 0 229 -91t94 -221zM440 303q0 38 -24 63t-60 25q-39 0 -65.5 -27.5t-26.5 -68.5q0 -38 22.5 -62t59.5 -24q39 0 66.5 26.5t27.5 67.5z" />
    <glyph glyph-name="uni208A" unicode="&#x208a;" horiz-adv-x="876" 
d="M195 -195l47 265h-256l39 217h256l47 264h243l-47 -264h256l-39 -217h-256l-47 -265h-243z" />
    <glyph glyph-name="uni208B" unicode="&#x208b;" horiz-adv-x="876" 
d="M-14 70l39 217h755l-39 -217h-755z" />
    <glyph glyph-name="uni208C" unicode="&#x208c;" horiz-adv-x="876" 
d="M33 242l39 217h723l-39 -217h-723zM-27 -100l37 219h723l-37 -219h-723z" />
    <glyph glyph-name="uni208D" unicode="&#x208d;" horiz-adv-x="589" 
d="M27 41q0 188 62 357t175.5 290.5t257.5 169.5l74 -160q-170 -97 -261 -263t-91 -380q0 -281 164 -422l-123 -133q-123 69 -190.5 211.5t-67.5 329.5z" />
    <glyph glyph-name="uni208E" unicode="&#x208e;" horiz-adv-x="589" 
d="M-43 -500l-74 160q170 97 261.5 263t91.5 380q0 281 -164 422l123 133q123 -69 190.5 -211.5t67.5 -329.5q0 -188 -62.5 -357t-176 -290.5t-257.5 -169.5z" />
    <glyph glyph-name="lira" unicode="&#x20a4;" horiz-adv-x="1218" 
d="M590 274h497l-49 -274h-1058l14 72q210 143 285 268h-211l36 213h226q-3 47 -17 90h-192l37 213h92q-6 35 -6 70q0 195 141 321.5t358 126.5q214 0 340.5 -113.5t145.5 -320.5l-303 -70q-24 179 -170 179q-75 0 -120.5 -49.5t-45.5 -131.5v-12h334l-37 -213h-223
q15 -41 18 -90h188l-36 -213h-199q-9 -15 -45 -66z" />
    <glyph glyph-name="peseta" unicode="&#x20a7;" horiz-adv-x="1329" 
d="M1411 952l-49 -274h-143q-58 -186 -236 -297q-180 -109 -434 -109h-60l-47 -272h-352l119 678h-156l49 274h156l70 400h325q237 0 391 -106.5t189 -293.5h178zM664 1065h-35l-23 -135h279q-25 66 -82 100.5t-139 34.5zM881 700h-316l-24 -141h80q93 0 160.5 36.5
t99.5 104.5z" />
    <glyph glyph-name="Euro" unicode="&#x20ac;" horiz-adv-x="1378" 
d="M1061 420l221 -199q-78 -117 -212.5 -182.5t-295.5 -65.5q-213 0 -365 112t-206 308h-217l41 234h147l6 90h-137l41 233h160q85 196 253 309t380 113q180 0 317 -71.5t209 -202.5l-252 -180q-38 60 -113.5 95.5t-160.5 35.5q-130 0 -224 -99h410l-107 -233h-413
q-8 -52 -8 -90h380l-106 -234h-209q75 -96 203 -96q73 0 142 33t116 90z" />
    <glyph glyph-name="uni20AE" unicode="&#x20ae;" horiz-adv-x="1204" 
d="M1280 1034h-406l-26 -149l315 73l-51 -284l-313 -74l-17 -90l316 74l-51 -285l-316 -76l-39 -223h-352l29 158l-316 -74l49 285l316 75l16 91l-315 -76l51 284l313 74l39 217h-405l55 318h1163z" />
    <glyph glyph-name="uni20B4" unicode="&#x20b4;" horiz-adv-x="1103" 
d="M1083 950h103l-41 -233h-1104l41 233h641v8q0 97 -109 97q-89 0 -227 -78l-115 268q174 131 396 131q190 0 304.5 -101t114.5 -267q0 -8 -4 -58zM-16 393l41 234h1103l-41 -234h-677q2 -50 35.5 -73t111.5 -23q134 0 311 68l101 -271q-210 -119 -447 -119
q-218 0 -345.5 103t-127.5 282q0 27 2 33h-67z" />
    <glyph glyph-name="uni20B8" unicode="&#x20b8;" horiz-adv-x="1204" 
d="M117 1034l55 318h1163l-55 -318h-1163zM340 0l111 627h-406l55 317h1164l-56 -317h-405l-111 -627h-352z" />
    <glyph glyph-name="uni20B9" unicode="&#x20b9;" horiz-adv-x="1130" 
d="M1092 1118h-238q32 -56 45 -110h174l-43 -234h-147q-38 -112 -131.5 -195t-227.5 -124l371 -455h-418l-352 420l45 254h137q154 0 213 100h-334l43 234h297q-51 98 -182 98h-98l43 246h844z" />
    <glyph glyph-name="uni20BA" unicode="&#x20ba;" horiz-adv-x="1128" 
d="M1077 496q0 -251 -199 -386t-569 -135q-62 0 -231 11l74 417l-172 -73l49 284l172 72l16 90l-172 -71l49 284l172 74l51 289h355l-27 -150l344 146l-49 -285l-344 -145l-16 -91l344 146l-50 -285l-346 -145l-45 -258q156 8 226.5 78.5t76.5 228.5h283q8 -47 8 -96z" />
    <glyph glyph-name="uni20BD" unicode="&#x20bd;" horiz-adv-x="1255" 
d="M90 0l29 168h-156l49 274h156l16 90h-155l51 295h156l92 525h493q204 0 325.5 -104t121.5 -281q0 -194 -146 -314.5t-381 -120.5h-204l-17 -90h500l-49 -274h-500l-29 -168h-352zM588 827h192q60 0 93.5 31.5t33.5 87.5q0 111 -110 111h-168z" />
    <glyph glyph-name="uni20BF" unicode="&#x20bf;" horiz-adv-x="1185" 
d="M1094 434q0 -130 -86.5 -224.5t-229.5 -125.5l-51 -287h-244l49 273h-100l-49 -273h-244l49 273h-127l213 1212h119l43 250h244l-43 -250h78h22l43 250h244l-57 -326q131 -98 131 -270q0 -167 -127 -256q123 -85 123 -246zM672 1018h-142l-36 -215h161q57 0 93 30.5
t36 81.5q0 47 -30.5 75t-81.5 28zM449 545l-37 -209h241q129 0 129 108q0 101 -110 101h-223z" />
    <glyph glyph-name="uni2113" unicode="&#x2113;" horiz-adv-x="1114" 
d="M590 487l-8 -51q-4 -28 -4 -45q0 -51 39.5 -75.5t125.5 -24.5q91 0 211 18l-49 -299q-119 -35 -250 -35q-207 0 -320.5 89.5t-113.5 250.5v19l-123 -58l-102 287l283 135l69 408q38 223 160.5 339t320.5 116q170 0 258.5 -87.5t88.5 -254.5q0 -203 -140 -378.5
t-446 -353.5zM696 1090l-39 -216q115 77 168.5 151t53.5 153q0 47 -16.5 68.5t-51.5 21.5q-89 0 -115 -178z" />
    <glyph glyph-name="uni2116" unicode="&#x2116;" horiz-adv-x="2287" 
d="M1133 1352h352l-242 -1377h-113l-604 738l-125 -713h-352l242 1376h112l607 -723zM2290 842q0 -148 -112 -253.5t-267 -105.5q-147 0 -242.5 92.5t-95.5 231.5q0 148 110 253t265 105q147 0 244.5 -92.5t97.5 -230.5zM2023 834q0 44 -24 71t-62 27q-44 0 -73 -34t-29 -85
q0 -43 25 -69.5t63 -26.5q44 0 72 33t28 84zM1477 143l36 213h672l-37 -213h-671z" />
    <glyph glyph-name="uni2117" unicode="&#x2117;" horiz-adv-x="1611" 
d="M104 645q-3 143 59.5 279t167 236t248 159.5t293.5 56.5q188 3 349 -86t255 -244t91 -337q3 -143 -59.5 -280t-167.5 -237t-247.5 -160t-291.5 -57q-142 -2 -272 51t-223.5 143t-148.5 215t-53 261zM1352 711q0 199 -141.5 334t-348.5 135q-146 3 -272 -69.5t-199.5 -197
t-71.5 -266.5q0 -207 139.5 -341t356.5 -134q144 -3 269 70.5t198 199t70 269.5zM516 319l127 715h272q130 0 206.5 -66.5t76.5 -179.5q0 -123 -91.5 -198.5t-240.5 -75.5h-96l-35 -195h-219zM803 705h94q35 0 56.5 19.5t21.5 51.5t-18 50t-50 18h-80z" />
    <glyph glyph-name="trademark" unicode="&#x2122;" horiz-adv-x="1998" 
d="M1968 1368h90l-164 -936h-288l51 289l-182 -172h-91l-118 178l-52 -295h-290l163 936h93l303 -461zM971 1352l-47 -262h-258l-115 -658h-289l115 658h-258l47 262h805z" />
    <glyph glyph-name="uni2126" unicode="&#x2126;" horiz-adv-x="1609" 
d="M1356 317h164l-56 -317h-633l56 317q158 61 244 169t86 243q0 147 -98 235.5t-255 88.5q-171 0 -281 -107.5t-110 -277.5q0 -227 201 -351l-56 -317h-571l55 317h172q-159 169 -159 373q-1 87 28.5 181.5t92.5 186t148.5 163.5t208 115t259.5 40q148 2 284 -47t234 -133
t155 -198.5t54 -237.5q0 -128 -55.5 -243t-167.5 -200z" />
    <glyph glyph-name="estimated" unicode="&#x212e;" horiz-adv-x="1628" 
d="M1518 670h-1115v-400q74 -101 189 -157t260 -56q155 0 289.5 64t230.5 174l55 -51q-101 -124 -251 -194t-322 -70q-147 -2 -280 52.5t-228.5 147.5t-150.5 221t-52 267q-3 142 54.5 274t154 226.5t226.5 150.5t266 53q123 2 247 -43t221 -122.5t157 -190.5t57 -236
q0 -66 -8 -110zM403 1079v-331h863v362q-74 88 -179.5 135t-232.5 47q-141 0 -258 -56t-193 -157z" />
    <glyph glyph-name="uni2150" unicode="&#x2150;" horiz-adv-x="2066" 
d="M84 500l39 225h205l69 401h-182l39 226h432l-108 -627h170l-39 -225h-625zM449 0l1007 1352h287l-1010 -1352h-284zM1470 852h625l-12 -68l-463 -784h-293l383 627h-280z" />
    <glyph glyph-name="uni2151" unicode="&#x2151;" horiz-adv-x="2050" 
d="M84 500l39 225h205l69 401h-182l39 226h432l-108 -627h170l-39 -225h-625zM449 0l1007 1352h287l-1010 -1352h-284zM2015 555q0 -75 -33.5 -139.5t-109.5 -147.5l-242 -268h-319l227 256q-87 25 -143 102t-56 174q0 137 103.5 235.5t249.5 98.5q135 0 229 -90.5
t94 -220.5zM1765 549q0 38 -24 63t-60 25q-39 0 -65.5 -27.5t-26.5 -68.5q0 -38 22.5 -62t59.5 -24q39 0 66.5 26.5t27.5 67.5z" />
    <glyph glyph-name="uni2152" unicode="&#x2152;" horiz-adv-x="3010" 
d="M84 500l39 225h205l69 401h-182l39 226h432l-108 -627h170l-39 -225h-625zM449 0l1007 1352h287l-1010 -1352h-284zM1339 0l39 225h205l70 402h-183l39 225h433l-109 -627h170l-39 -225h-625zM2183 319q-1 72 15 147.5t51.5 149t86.5 130t126.5 90.5t165.5 32
q151 0 227 -85.5t76 -241.5q1 -72 -15 -148t-51.5 -151t-86 -133t-126 -92.5t-164.5 -32.5q-149 0 -227 89t-78 246zM2677 524q0 115 -84 115q-79 0 -119 -100q-37 -98 -37 -205q0 -59 21.5 -90t60.5 -31q53 0 90.5 55t52.5 123t15 133z" />
    <glyph glyph-name="uni2153" unicode="&#x2153;" horiz-adv-x="2088" 
d="M84 500l39 225h205l69 401h-182l39 226h432l-108 -627h170l-39 -225h-625zM449 0l1007 1352h287l-1010 -1352h-284zM2081 852l-13 -68l-204 -256q60 -35 93.5 -95.5t33.5 -129.5q0 -134 -101.5 -226.5t-249.5 -92.5q-128 0 -215 63t-116 178l194 101q26 -61 58.5 -87
t80.5 -26q44 0 69.5 20.5t25.5 55.5t-26.5 50t-86.5 15h-135l10 60l172 213h-217l41 225h586z" />
    <glyph glyph-name="uni2154" unicode="&#x2154;" horiz-adv-x="2115" 
d="M567 725h205l-41 -225l-661 -2l8 51l362 334q69 63 98 106.5t29 81.5q0 32 -17.5 50t-49.5 18q-80 0 -80 -123v-19h-252q-2 10 -2 31q0 146 98.5 243t245.5 97q139 0 226 -78t87 -203q0 -84 -53 -161q-49 -72 -203 -201zM475 0l1008 1352h286l-1009 -1352h-285zM2107 852
l-12 -68l-205 -256q60 -35 93.5 -95.5t33.5 -129.5q0 -134 -101.5 -226.5t-248.5 -92.5q-128 0 -215.5 63t-116.5 178l195 101q26 -61 58.5 -87t80.5 -26q44 0 69 20.5t25 55.5t-26 50t-86 15h-135l10 60l172 213h-217l41 225h585z" />
    <glyph glyph-name="uni2155" unicode="&#x2155;" horiz-adv-x="2093" 
d="M84 500l39 225h205l69 401h-182l39 226h432l-108 -627h170l-39 -225h-625zM449 0l1007 1352h287l-1010 -1352h-284zM2017 627h-315l-10 -62q10 2 45 2q107 0 182 -75q76 -73 76 -181q0 -138 -103.5 -232.5t-255.5 -94.5q-131 0 -223.5 64.5t-118.5 176.5l197 101
q43 -113 149 -113q45 0 73 20.5t28 55.5t-27 50t-88 15h-209l88 498h551z" />
    <glyph glyph-name="uni2156" unicode="&#x2156;" horiz-adv-x="2119" 
d="M567 725h205l-41 -225l-661 -2l8 51l362 334q69 63 98 106.5t29 81.5q0 32 -17.5 50t-49.5 18q-80 0 -80 -123v-19h-252q-2 10 -2 31q0 146 98.5 243t245.5 97q139 0 226 -78t87 -203q0 -84 -53 -161q-49 -72 -203 -201zM475 0l1008 1352h286l-1009 -1352h-285zM2044 627
h-315l-11 -62q10 2 45 2q108 0 183 -75q75 -72 75 -181q0 -138 -103 -232.5t-255 -94.5q-131 0 -223.5 64.5t-118.5 176.5l197 101q43 -113 149 -113q45 0 72.5 20.5t27.5 55.5t-27 50t-87 15h-209l88 498h551z" />
    <glyph glyph-name="uni2157" unicode="&#x2157;" horiz-adv-x="1984" 
d="M825 1352l-12 -68l-205 -256q60 -35 93.5 -95.5t33.5 -129.5q0 -134 -101.5 -227t-248.5 -93q-128 0 -215.5 63.5t-116.5 178.5l195 100q26 -61 58.5 -86.5t80.5 -25.5q44 0 69 20t25 55t-26 50.5t-86 15.5h-136l11 59l172 213h-217l41 226h585zM340 0l1008 1352h286
l-1009 -1352h-285zM1909 627h-316l-10 -62q10 2 45 2q107 0 182 -75q76 -73 76 -181q0 -138 -103 -232.5t-255 -94.5q-131 0 -223.5 64.5t-118.5 176.5l196 101q43 -113 150 -113q45 0 72.5 20.5t27.5 55.5t-27 50t-87 15h-209l88 498h551z" />
    <glyph glyph-name="uni2158" unicode="&#x2158;" horiz-adv-x="2127" 
d="M842 834l-39 -216h-92l-21 -118h-229l20 118h-440l12 68l338 668h277l-267 -520h119l37 184h223l-32 -184h94zM483 0l1008 1352h287l-1010 -1352h-285zM2052 627h-315l-11 -62q10 2 46 2q107 0 182 -75q76 -73 76 -181q0 -138 -103.5 -232.5t-255.5 -94.5
q-131 0 -223.5 64.5t-118.5 176.5l197 101q43 -113 149 -113q45 0 73 20.5t28 55.5t-27 50t-88 15h-209l88 498h551z" />
    <glyph glyph-name="uni2159" unicode="&#x2159;" horiz-adv-x="1947" 
d="M84 500l39 225h205l69 401h-182l39 226h432l-108 -627h170l-39 -225h-625zM449 0l1007 1352h287l-1010 -1352h-284zM1868 319q0 -137 -103 -235t-249 -98q-135 0 -229.5 90.5t-94.5 220.5q0 75 33.5 139.5t109.5 147.5l242 268h319l-227 -256q87 -25 143 -102t56 -175z
M1618 311q0 38 -22.5 62t-59.5 24q-39 0 -66.5 -26.5t-27.5 -67.5q0 -38 24 -63t60 -25q39 0 65.5 27.5t26.5 68.5z" />
    <glyph glyph-name="uni215A" unicode="&#x215a;" horiz-adv-x="1859" 
d="M778 1126h-315l-10 -61q10 2 45 2q106 0 182 -76q76 -73 76 -180q0 -138 -103.5 -233t-255.5 -95q-131 0 -223.5 65t-118.5 177l197 100q43 -112 149 -112q45 0 73 20t28 55t-27.5 50.5t-87.5 15.5h-209l88 498h551zM360 0l1008 1352h287l-1010 -1352h-285zM1780 319
q0 -137 -103.5 -235t-249.5 -98q-135 0 -229 90.5t-94 220.5q0 75 33.5 139.5t109.5 147.5l242 268h319l-227 -256q87 -25 143 -102t56 -175zM1530 311q0 38 -22.5 62t-59.5 24q-39 0 -66.5 -26.5t-27.5 -67.5q0 -38 24 -63t60 -25q39 0 65.5 27.5t26.5 68.5z" />
    <glyph glyph-name="oneeighth" unicode="&#x215b;" horiz-adv-x="2048" 
d="M84 500l39 225h205l69 401h-182l39 226h432l-108 -627h170l-39 -225h-625zM449 0l1007 1352h287l-1010 -1352h-284zM1950 256q0 -111 -95.5 -189.5t-232.5 -78.5q-154 0 -253 68.5t-99 174.5q0 82 48 142.5t136 89.5q-65 59 -65 147q0 113 86 185.5t221 72.5
q137 0 219 -62.5t82 -166.5q0 -141 -146 -225q99 -58 99 -158zM1618 612q0 -19 10.5 -33t44.5 -40q54 20 74 37t20 40t-22 40.5t-53 17.5q-32 0 -53 -18t-21 -44zM1702 252q0 43 -68 86q-65 -19 -90.5 -37.5t-25.5 -48.5q0 -31 24 -48.5t68 -17.5t68 17.5t24 48.5z" />
    <glyph glyph-name="threeeighths" unicode="&#x215c;" horiz-adv-x="1939" 
d="M825 1352l-12 -68l-205 -256q60 -35 93.5 -95.5t33.5 -129.5q0 -134 -101.5 -227t-248.5 -93q-128 0 -215.5 63.5t-116.5 178.5l195 100q26 -61 58.5 -86.5t80.5 -25.5q44 0 69 20t25 55t-26 50.5t-86 15.5h-136l11 59l172 213h-217l41 226h585zM340 0l1008 1352h286
l-1009 -1352h-285zM1841 256q0 -111 -95.5 -189.5t-232.5 -78.5q-154 0 -253 68.5t-99 174.5q0 82 48.5 142.5t136.5 89.5q-66 60 -66 147q0 113 86 185.5t221 72.5q137 0 219 -62.5t82 -166.5q0 -142 -145 -225q98 -58 98 -158zM1509 612q0 -19 10.5 -33t45.5 -40
q54 20 74 37t20 40t-22.5 40.5t-53.5 17.5q-32 0 -53 -18t-21 -44zM1593 252q0 44 -67 86q-66 -19 -91.5 -38t-25.5 -48q0 -31 24 -48.5t68 -17.5t68 17.5t24 48.5z" />
    <glyph glyph-name="fiveeighths" unicode="&#x215d;" horiz-adv-x="1959" 
d="M778 1126h-315l-10 -61q10 2 45 2q106 0 182 -76q76 -73 76 -180q0 -138 -103.5 -233t-255.5 -95q-131 0 -223.5 65t-118.5 177l197 100q43 -112 149 -112q45 0 73 20t28 55t-27.5 50.5t-87.5 15.5h-209l88 498h551zM360 0l1008 1352h287l-1010 -1352h-285zM1862 256
q0 -111 -95.5 -189.5t-232.5 -78.5q-154 0 -253 68.5t-99 174.5q0 82 48 142.5t136 89.5q-66 60 -66 147q0 113 86.5 185.5t221.5 72.5q137 0 219 -62.5t82 -166.5q0 -141 -146 -225q99 -58 99 -158zM1530 612q0 -19 10.5 -33t44.5 -40q54 20 74 37t20 40t-22 40.5t-53 17.5
q-32 0 -53 -18t-21 -44zM1614 252q0 43 -68 86q-65 -19 -90.5 -37.5t-25.5 -48.5q0 -31 24 -48.5t68 -17.5t68 17.5t24 48.5z" />
    <glyph glyph-name="seveneighths" unicode="&#x215e;" horiz-adv-x="1787" 
d="M215 1352h625l-13 -68l-462 -784h-293l383 626h-281zM188 0l1008 1352h287l-1010 -1352h-285zM1690 256q0 -111 -95.5 -189.5t-232.5 -78.5q-154 0 -253 68.5t-99 174.5q0 82 48 142.5t136 89.5q-66 60 -66 147q0 113 86.5 185.5t221.5 72.5q137 0 219 -62.5t82 -166.5
q0 -141 -146 -225q99 -58 99 -158zM1358 612q0 -19 10.5 -33t44.5 -40q54 20 74 37t20 40t-22 40.5t-53 17.5q-32 0 -53 -18t-21 -44zM1442 252q0 43 -68 86q-66 -19 -91.5 -38t-25.5 -48q0 -31 24.5 -48.5t68.5 -17.5t68 17.5t24 48.5z" />
    <glyph glyph-name="arrowleft" unicode="&#x2190;" horiz-adv-x="1331" 
d="M1280 518h-545l-135 8l274 -276l-206 -207l-588 588v63l588 588l206 -207l-270 -270l131 8h545v-295z" />
    <glyph glyph-name="arrowup" unicode="&#x2191;" horiz-adv-x="1331" 
d="M1315 672l-209 -207l-260 262l8 -121v-530h-317v530l8 119l-258 -260l-209 207l586 590h63z" />
    </font>
</defs>
</svg>
