<?xml version="1.0" standalone="no"?>
<!DOCTYPE svg PUBLIC "-//W3C//DTD SVG 1.1//EN" "http://www.w3.org/Graphics/SVG/1.1/DTD/svg11.dtd" >
<svg xmlns="http://www.w3.org/2000/svg" xmlns:xlink="http://www.w3.org/1999/xlink" version="1.1">
<metadata>
Created by FontForge 20170731 at Mon Dec 21 18:11:24 2020
 By Aleksey,,,
Copyright (c) 2015, 2018 by Jakob Runge, under exclusive license to TypeMates. All rights reserved.
</metadata>
<defs>
<font id="CeraPro-Black" horiz-adv-x="1146" >
  <font-face 
    font-family="Cera Pro"
    font-weight="900"
    font-stretch="normal"
    units-per-em="2048"
    panose-1="0 0 10 0 0 0 0 0 0 0"
    ascent="1655"
    descent="-393"
    x-height="1024"
    cap-height="1352"
    bbox="-1014 -524 2900 2048"
    underline-thickness="204"
    underline-position="-409"
    unicode-range="U+0020-FB02"
  />
<missing-glyph horiz-adv-x="1468" 
d="M135 1352h1198v-1352h-1198v1352zM1098 193v946h-731z" />
    <glyph glyph-name="fi" unicode="fi" horiz-adv-x="1366" 
d="M528 1110v-86h207v-295h-207v-729h-352v729h-143v295h143v121q0 202 112.5 309t317.5 107q97 0 170 -25v-295q-16 1 -35 2t-29.5 1.5t-15.5 0.5q-90 0 -129 -31.5t-39 -103.5zM899 0v1024h352v-1024h-352zM858 1386q0 88 62 148.5t153 60.5t154 -60.5t63 -148.5
q0 -86 -63 -146t-154 -60t-153 59t-62 147z" />
    <glyph glyph-name="fl" unicode="fl" horiz-adv-x="1366" 
d="M528 1110v-86h207v-295h-207v-729h-352v729h-143v295h143v121q0 202 112.5 309t317.5 107q97 0 170 -25v-295q-16 1 -35 2t-29.5 1.5t-15.5 0.5q-90 0 -129 -31.5t-39 -103.5zM899 0v1536h352v-1536h-352z" />
    <glyph glyph-name=".notdef" horiz-adv-x="1468" 
d="M135 1352h1198v-1352h-1198v1352zM1098 193v946h-731z" />
    <glyph glyph-name=".null" horiz-adv-x="0" 
 />
    <glyph glyph-name="nonmarkingreturn" horiz-adv-x="682" 
 />
    <glyph glyph-name="space" unicode=" " horiz-adv-x="573" 
 />
    <glyph glyph-name="exclam" unicode="!" horiz-adv-x="768" 
d="M240 541l-68 811h420l-66 -811h-286zM154 205q0 98 65.5 163.5t167.5 65.5q98 0 162.5 -66t64.5 -163q0 -99 -64.5 -164.5t-162.5 -65.5q-102 0 -167.5 65.5t-65.5 164.5z" />
    <glyph glyph-name="quotedbl" unicode="&#x22;" horiz-adv-x="1202" 
d="M156 754v598h399l-133 -598h-266zM713 754v598h399l-133 -598h-266z" />
    <glyph glyph-name="numbersign" unicode="#" horiz-adv-x="1339" 
d="M1286 774h-196l-25 -196h180v-295h-221l-37 -283h-285l37 283h-245l-37 -283h-285l37 283h-156v295h197l24 196h-180v295h221l37 283h285l-37 -283h246l37 283h284l-37 -283h156v-295zM530 557h246l33 238h-246z" />
    <glyph glyph-name="dollar" unicode="$" horiz-adv-x="1103" 
d="M696 53v-256h-295v262q-233 58 -346 273l234 178q107 -162 276 -162q59 0 93 19t34 55q0 31 -26.5 50t-96.5 44l-137 45q-154 54 -235.5 150t-81.5 223q0 126 77 218.5t209 129.5v250h295v-246q197 -49 299 -242l-233 -178q-86 127 -207 127q-44 0 -70 -15.5t-26 -45.5
q0 -26 24 -45.5t78 -38.5l154 -47q321 -110 321 -373q0 -145 -91.5 -243.5t-248.5 -131.5z" />
    <glyph glyph-name="percent" unicode="%" horiz-adv-x="1787" 
d="M102 1036q0 145 105 242.5t254 97.5t253.5 -97.5t104.5 -242.5q0 -144 -104.5 -243t-253.5 -99t-254 99t-105 243zM367 0l780 1352h276l-782 -1352h-274zM553 1036q0 44 -26 73.5t-64 29.5q-43 0 -68.5 -28t-25.5 -75t25 -74.5t69 -27.5q39 0 64.5 28t25.5 74zM969 319
q0 145 104.5 242.5t253.5 97.5t254 -97.5t105 -242.5q0 -144 -105 -243t-254 -99t-253.5 99t-104.5 243zM1419 319q0 44 -26 73.5t-64 29.5q-43 0 -68.5 -28t-25.5 -75t25 -74.5t69 -27.5q39 0 64.5 28t25.5 74z" />
    <glyph glyph-name="ampersand" unicode="&#x26;" horiz-adv-x="1445" 
d="M1133 283l231 -283h-408l-59 72q-160 -97 -344 -97q-207 0 -335 107.5t-128 284.5q0 108 53 194q55 87 195 203q-100 135 -100 272q0 154 105 247t278 93q161 0 264 -86q102 -86 102 -223q0 -97 -47.5 -177.5t-159.5 -174.5l-2 -2l142 -170q31 39 124 174l60 84l268 -197
q-162 -226 -239 -321zM547 1028q0 -33 49 -92l10 -12l19 14q53 47 53 90q0 26 -17.5 41.5t-46.5 15.5t-48 -16t-19 -41zM700 315l-178 222q-49 -41 -68.5 -72.5t-19.5 -65.5q0 -54 39 -87t102 -33q66 0 125 36z" />
    <glyph glyph-name="quotesingle" unicode="'" horiz-adv-x="645" 
d="M156 754v598h399l-133 -598h-266z" />
    <glyph glyph-name="parenleft" unicode="(" horiz-adv-x="790" 
d="M127 625q0 348 133 575q132 228 344 320l137 -201q-156 -104 -237.5 -270t-81.5 -424t81.5 -425t237.5 -270l-137 -200q-212 92 -344 317q-133 230 -133 578z" />
    <glyph glyph-name="parenright" unicode=")" horiz-adv-x="790" 
d="M186 -270l-137 200q156 104 238 271t82 424t-82 423.5t-238 270.5l137 201q212 -92 344 -320q134 -228 134 -575t-134 -578q-132 -225 -344 -317z" />
    <glyph glyph-name="asterisk" unicode="*" horiz-adv-x="1032" 
d="M961 1221l-185 -144l185 -143l-99 -170l-217 88l-31 -231h-196l-31 231l-217 -88l-98 170l184 143l-184 144l98 170l217 -88l31 231h196l31 -231l217 88z" />
    <glyph glyph-name="plus" unicode="+" 
d="M410 172v344h-334v295h334v344h331v-344h332v-295h-332v-344h-331z" />
    <glyph glyph-name="comma" unicode="," horiz-adv-x="573" 
d="M98 -362v659h400l-123 -659h-277z" />
    <glyph glyph-name="hyphen" unicode="-" horiz-adv-x="696" 
d="M82 518v295h532v-295h-532z" />
    <glyph glyph-name="period" unicode="." horiz-adv-x="573" 
d="M57 205q0 98 66 163.5t168 65.5q98 0 162.5 -66t64.5 -163q0 -99 -64.5 -164.5t-162.5 -65.5q-102 0 -168 65.5t-66 164.5z" />
    <glyph glyph-name="slash" unicode="/" horiz-adv-x="1433" 
d="M0 -248l1071 1845h363l-1072 -1845h-362z" />
    <glyph glyph-name="zero" unicode="0" horiz-adv-x="1327" 
d="M102 686q0 202 62.5 356t191 244t308.5 90q136 0 243 -51.5t176.5 -144t105.5 -218t36 -276.5q0 -204 -62.5 -363t-191.5 -253.5t-307 -94.5q-179 0 -307.5 94.5t-191.5 253.5t-63 363zM864 684q0 190 -48.5 279.5t-151.5 89.5t-152 -89.5t-49 -279.5q0 -385 201 -385
q200 0 200 385z" />
    <glyph glyph-name="one" unicode="1" horiz-adv-x="849" 
d="M573 1352h113v-1352h-352v934l-230 -76l-84 311z" />
    <glyph glyph-name="two" unicode="2" horiz-adv-x="1226" 
d="M705 295h417v-295l-1034 -2v72l485 530q86 94 124 163.5t38 135.5q0 71 -38.5 112.5t-102.5 41.5q-63 0 -101 -42.5t-38 -119.5q0 -43 8 -90h-354q-15 59 -15 114q-1 86 36 169.5t102.5 149t162.5 105t205 37.5q212 0 354 -126.5t142 -317.5q0 -133 -69.5 -253
t-225.5 -284z" />
    <glyph glyph-name="three" unicode="3" horiz-adv-x="1140" 
d="M1059 451q0 -134 -70 -243t-191 -171t-268 -62q-175 0 -309.5 86.5t-204.5 237.5l244 172q61 -92 120 -132t136 -40q81 0 131.5 40t50.5 110q0 72 -57 105.5t-176 33.5h-193v90l240 356h-385v318h911v-92l-268 -400q129 -49 209 -156.5t80 -252.5z" />
    <glyph glyph-name="four" unicode="4" horiz-adv-x="1220" 
d="M1202 496v-295h-158v-201h-352v201h-667v92l403 1059h363l-330 -856h231v331h352v-331h158z" />
    <glyph glyph-name="five" unicode="5" horiz-adv-x="1167" 
d="M1085 455q0 -136 -71 -246t-194.5 -172t-274.5 -62q-178 0 -316.5 86.5t-208.5 237.5l244 172q61 -92 121.5 -132t144.5 -40q88 0 141.5 40.5t53.5 111.5t-56.5 104t-176.5 33h-322v764h838v-318h-504v-157q71 14 129 14q83 2 164.5 -29.5t146.5 -87t104 -139.5t37 -180z
" />
    <glyph glyph-name="six" unicode="6" horiz-adv-x="1167" 
d="M1104 475q2 -104 -41.5 -198.5t-116 -160.5t-168 -104t-194.5 -37q-138 0 -257 64t-191.5 180.5t-72.5 259.5q0 114 43 201q47 89 142 219l338 453h415l-301 -408q106 -15 197 -76t149 -165t58 -228zM756 477q0 75 -50 124.5t-122 49.5t-122 -49.5t-50 -124.5t50 -126.5
t122 -51.5t122 51.5t50 126.5z" />
    <glyph glyph-name="seven" unicode="7" horiz-adv-x="1105" 
d="M82 1352h979v-92l-576 -1260h-383l492 1034h-512v318z" />
    <glyph glyph-name="eight" unicode="8" horiz-adv-x="1218" 
d="M1137 371q0 -182 -148 -289t-379 -107q-232 0 -380 107t-148 289q0 222 233 327q-174 119 -174 308q0 174 131 272t338 98q205 0 336 -98t131 -272q0 -189 -174 -308q234 -105 234 -327zM463 989q0 -43 34.5 -76t112.5 -71q77 38 111.5 72t34.5 77q0 49 -41.5 79
t-104.5 30q-64 0 -105.5 -31t-41.5 -80zM788 385q0 56 -43.5 95.5t-136.5 72.5q-91 -33 -134.5 -73t-43.5 -95q0 -59 46 -94t134 -35q86 0 132 35t46 94z" />
    <glyph glyph-name="nine" unicode="9" horiz-adv-x="1167" 
d="M1104 872q0 -114 -45 -200q-44 -89 -139 -219l-338 -453h-416l301 408q-106 15 -197 76t-149 165t-58 228q-3 138 72 255t195.5 181.5t253.5 62.5q138 0 256.5 -64t191 -180.5t72.5 -259.5zM756 874q0 75 -50 127t-122 52t-122 -52t-50 -127q0 -74 50 -124t122 -50
q73 0 122.5 50t49.5 124z" />
    <glyph glyph-name="colon" unicode=":" horiz-adv-x="573" 
d="M57 819q0 98 66 164t168 66q98 0 162.5 -66.5t64.5 -163.5q0 -98 -64.5 -163.5t-162.5 -65.5q-102 0 -168 65t-66 164zM57 205q0 98 66 163.5t168 65.5q98 0 162.5 -66t64.5 -163q0 -99 -64.5 -164.5t-162.5 -65.5q-102 0 -168 65.5t-66 164.5z" />
    <glyph glyph-name="semicolon" unicode=";" horiz-adv-x="573" 
d="M57 819q0 98 66 164t168 66q98 0 162.5 -66.5t64.5 -163.5q0 -98 -64.5 -163.5t-162.5 -65.5q-102 0 -168 65t-66 164zM98 -362v659h400l-123 -659h-277z" />
    <glyph glyph-name="less" unicode="&#x3c;" 
d="M1042 1155v-301l-442 -188l442 -191v-301l-985 444v93z" />
    <glyph glyph-name="equal" unicode="=" 
d="M96 741v295h957v-295h-957zM96 291v295h957v-295h-957z" />
    <glyph glyph-name="greater" unicode="&#x3e;" 
d="M104 1155l986 -444v-93l-986 -444v301l443 191l-443 188v301z" />
    <glyph glyph-name="question" unicode="?" horiz-adv-x="933" 
d="M264 643q0 101 160 217q57 43 75.5 66.5t18.5 54.5t-23.5 51.5t-58.5 20.5q-40 0 -69.5 -30.5t-59.5 -98.5l-287 127q43 161 155 243t274 82q184 0 307 -102t123 -266q0 -81 -34.5 -143t-119.5 -134l-39 -33q-56 -45 -79 -73t-23 -58v-26h-295q-25 61 -25 102zM211 205
q0 98 65.5 163.5t167.5 65.5q98 0 163 -66t65 -163q0 -98 -65 -164t-163 -66q-102 0 -167.5 65.5t-65.5 164.5z" />
    <glyph glyph-name="at" unicode="@" horiz-adv-x="1992" 
d="M1927 573q0 -267 -170 -393q-171 -127 -457 -127h-135v82q-85 -104 -243 -104q-180 0 -297 127.5t-117 324.5t117 325t297 128q158 0 243 -105v84h285v-598q105 6 155 66t50 188q0 246 -168 394.5t-453 148.5q-310 0 -503 -175t-193 -458q0 -281 181.5 -453.5
t477.5 -172.5q78 0 230 28l53 -239q-139 -50 -319 -50q-180 -3 -346 64.5t-287.5 184t-193 282.5t-68.5 350q-4 190 72.5 360t207 288.5t308.5 187t372 65.5q188 3 358 -61.5t289 -174t188 -258t66 -309.5zM1145 483q0 79 -44 124.5t-112 45.5q-70 0 -117 -45.5t-47 -124.5
q0 -77 46.5 -122.5t115.5 -45.5t113.5 44.5t44.5 123.5z" />
    <glyph glyph-name="A" unicode="A" horiz-adv-x="1349" 
d="M967 0l-49 113h-486l-49 -113h-379l614 1376h113l615 -1376h-379zM793 395l-117 314l-119 -314h236z" />
    <glyph glyph-name="B" unicode="B" horiz-adv-x="1277" 
d="M1223 401q0 -174 -130.5 -287.5t-326.5 -113.5h-631v1352h488q197 0 326.5 -112t129.5 -288q0 -136 -82 -227q108 -44 167 -126.5t59 -197.5zM600 1055h-127v-238h127q63 0 99 32.5t36 86.5t-36 86.5t-99 32.5zM879 416q0 59 -36 89t-100 30h-270v-238h270q64 0 100 30
t36 89z" />
    <glyph glyph-name="C" unicode="C" horiz-adv-x="1480" 
d="M66 676q-2 142 56 273t156.5 225.5t234.5 149.5t284 52q202 0 364 -95t254 -267l-268 -183q-133 222 -352 222q-162 0 -265.5 -105t-103.5 -274q0 -168 102 -273q105 -102 267 -102q220 0 352 221l268 -182q-93 -172 -255 -267.5t-365 -95.5q-146 -2 -282 52.5
t-235 148.5t-157 225t-55 275z" />
    <glyph glyph-name="D" unicode="D" horiz-adv-x="1409" 
d="M135 0v1352h471q206 2 375 -80.5t267 -238t95 -353.5q3 -196 -95 -353.5t-267.5 -243.5t-374.5 -83h-471zM487 317h117q168 0 273.5 99t105.5 264q0 168 -103.5 260t-275.5 92h-117v-715z" />
    <glyph glyph-name="E" unicode="E" horiz-adv-x="1181" 
d="M135 0v1352h938v-318h-586v-186h418v-295h-418v-236h611v-317h-963z" />
    <glyph glyph-name="F" unicode="F" horiz-adv-x="1110" 
d="M135 0v1352h918v-318h-566v-258h459v-317h-459v-459h-352z" />
    <glyph glyph-name="G" unicode="G" horiz-adv-x="1529" 
d="M66 676q-2 143 56 274t156.5 225t235.5 148.5t287 52.5q186 0 334 -77t247 -224l-245 -209q-134 187 -342 187q-169 0 -269 -103t-100 -274q0 -175 105 -281t284 -106q192 0 297 121v63h-315v303h667v-426q-92 -166 -270 -272q-177 -103 -393 -103q-150 -2 -286.5 52.5
t-235.5 148.5t-157 225t-56 275z" />
    <glyph glyph-name="H" unicode="H" horiz-adv-x="1468" 
d="M135 0v1352h352v-494h494v494h352v-1352h-352v541h-494v-541h-352z" />
    <glyph glyph-name="I" unicode="I" horiz-adv-x="622" 
d="M135 0v1352h352v-1352h-352z" />
    <glyph glyph-name="J" unicode="J" horiz-adv-x="817" 
d="M25 0v299l129 -4q97 0 136.5 30.5t39.5 104.5v922h352v-961q0 -206 -115 -311t-336 -105q-100 0 -206 25z" />
    <glyph glyph-name="K" unicode="K" horiz-adv-x="1423" 
d="M1419 0h-418l-514 674v-674h-352v1352h352v-613l447 613h409l-464 -643z" />
    <glyph glyph-name="L" unicode="L" horiz-adv-x="1095" 
d="M135 0v1352h352v-1035h560v-317h-912z" />
    <glyph glyph-name="M" unicode="M" horiz-adv-x="1646" 
d="M1399 1376h112v-1376h-352v567l-280 -327h-113l-279 325v-565h-352v1376h113l575 -702z" />
    <glyph glyph-name="N" unicode="N" horiz-adv-x="1468" 
d="M981 1352h352v-1377h-112l-734 711v-686h-352v1376h113l733 -700v676z" />
    <glyph glyph-name="O" unicode="O" horiz-adv-x="1589" 
d="M66 676q-3 142 55 273t157 225.5t234.5 149.5t280.5 52q116 2 227.5 -32.5t202.5 -99.5t160 -151.5t106 -194.5t35 -222q3 -143 -56 -274.5t-159 -225.5t-235.5 -148.5t-280.5 -52.5q-146 -2 -281 52.5t-234 148.5t-157 225.5t-55 274.5zM1163 676q0 166 -105 271.5
t-263 105.5q-163 0 -266 -105t-103 -272q0 -170 102 -275q102 -102 267 -102q159 0 263.5 105t104.5 272z" />
    <glyph glyph-name="P" unicode="P" horiz-adv-x="1243" 
d="M135 0v1352h531q228 0 375 -128.5t147 -336.5q0 -135 -69 -242.5t-187.5 -166t-265.5 -58.5h-179v-420h-352zM487 727h181q73 0 117 44t44 116t-43.5 114.5t-117.5 42.5h-181v-317z" />
    <glyph glyph-name="Q" unicode="Q" horiz-adv-x="1589" 
d="M2185 -170v-276q-116 -29 -254 -29q-289 0 -532 121t-406 356q-92 -27 -200 -27q-146 -2 -281 52.5t-234 148.5t-157 225.5t-55 274.5q-3 142 55 273t157 225.5t234.5 149.5t280.5 52q116 2 227.5 -32.5t202.5 -99.5t160 -151.5t106 -194.5t35 -222q0 -154 -62 -288.5
t-176 -233.5q135 -172 305 -251t412 -79q68 0 182 6zM795 299q159 0 263.5 105t104.5 272q0 166 -105 271.5t-263 105.5q-163 0 -266 -105t-103 -272q0 -170 102 -275q102 -102 267 -102z" />
    <glyph glyph-name="R" unicode="R" horiz-adv-x="1335" 
d="M1331 0h-393l-305 420h-146v-420h-352v1352h531q228 0 375 -128.5t147 -336.5q0 -123 -56 -223t-157 -162zM487 1044v-317h181q73 0 117 44t44 116t-43.5 114.5t-117.5 42.5h-181z" />
    <glyph glyph-name="S" unicode="S" 
d="M47 279l238 180q65 -87 134.5 -130.5t166.5 -43.5q139 0 139 98q0 42 -26.5 65t-110.5 60l-139 61q-171 75 -257 174.5t-86 233.5q0 179 132.5 289t341.5 110q163 0 281 -72t181 -200l-235 -180q-51 76 -102 109.5t-121 33.5q-57 0 -89 -22t-32 -64q0 -37 25.5 -61
t91.5 -50l155 -65q179 -75 262.5 -171t83.5 -237q0 -128 -65.5 -225t-177 -147t-252.5 -50q-181 0 -323 81.5t-216 222.5z" />
    <glyph glyph-name="T" unicode="T" horiz-adv-x="1204" 
d="M426 0v1034h-406v318h1164v-318h-406v-1034h-352z" />
    <glyph glyph-name="U" unicode="U" horiz-adv-x="1449" 
d="M127 573v779h352v-805q0 -114 68 -181t178 -67t178 67t68 181v805h352v-779q0 -175 -78 -312t-214 -211.5t-306 -74.5q-129 0 -239.5 43t-189.5 120.5t-124 189.5t-45 245z" />
    <glyph glyph-name="V" unicode="V" horiz-adv-x="1349" 
d="M946 1352h400l-615 -1377h-113l-614 1377h399l273 -664z" />
    <glyph glyph-name="W" unicode="W" horiz-adv-x="2078" 
d="M1661 1352h393l-557 -1377h-113l-344 707l-346 -707h-112l-557 1377h393l254 -650l311 674h113l311 -674z" />
    <glyph glyph-name="X" unicode="X" horiz-adv-x="1275" 
d="M1272 0h-398l-237 379l-236 -379h-397l440 686l-415 666h397l211 -361l211 361h397l-409 -666z" />
    <glyph glyph-name="Y" unicode="Y" horiz-adv-x="1288" 
d="M1284 1352l-463 -834v-518h-352v514l-465 838h389l252 -471l252 471h387z" />
    <glyph glyph-name="Z" unicode="Z" horiz-adv-x="1202" 
d="M559 317h596v-317h-1130v92l591 942h-503v318h1040v-92z" />
    <glyph glyph-name="bracketleft" unicode="[" horiz-adv-x="751" 
d="M168 -266v1761h522v-274h-231v-1213h231v-274h-522z" />
    <glyph glyph-name="backslash" unicode="\" horiz-adv-x="1433" 
d="M1071 -248l-1071 1845h362l1072 -1845h-363z" />
    <glyph glyph-name="bracketright" unicode="]" horiz-adv-x="751" 
d="M61 -266v274h232v1213h-232v274h523v-1761h-523z" />
    <glyph glyph-name="asciicircum" unicode="^" horiz-adv-x="1128" 
d="M1042 553h-329l-148 299l-149 -299h-330l422 819h113z" />
    <glyph glyph-name="underscore" unicode="_" horiz-adv-x="1024" 
d="M61 -393v274h902v-274h-902z" />
    <glyph glyph-name="grave" unicode="`" horiz-adv-x="1228" 
d="M637 1176l-301 360v61h424l131 -421h-254z" />
    <glyph glyph-name="a" unicode="a" horiz-adv-x="1136" 
d="M1030 594v-594h-321v84q-115 -109 -295 -109q-162 0 -257.5 92t-95.5 226q0 142 108 223.5t294 81.5h215v16q0 62 -39 96.5t-117 34.5q-67 0 -124 -28t-132 -96l-164 223q104 106 214.5 155.5t248.5 49.5q218 0 341.5 -118t123.5 -337zM678 375v8h-166q-44 0 -69 -20.5
t-25 -57.5t27.5 -58.5t76.5 -21.5q69 0 112.5 41t43.5 109z" />
    <glyph glyph-name="b" unicode="b" horiz-adv-x="1284" 
d="M1221 510q0 -233 -138.5 -384t-353.5 -151q-199 0 -293 131v-106h-321v1536h352v-582q103 95 262 95q212 0 352 -153t140 -386zM860 512q0 99 -58 158t-143 59t-141.5 -59t-56.5 -160t56.5 -158t141.5 -57q87 0 144 58.5t57 158.5z" />
    <glyph glyph-name="c" unicode="c" horiz-adv-x="1132" 
d="M63 512q-3 146 73 271t206.5 197t280.5 69q156 0 275 -73t183 -202l-243 -186q-43 68 -93.5 102.5t-117.5 34.5q-92 0 -147.5 -59.5t-55.5 -153.5t55.5 -153.5t147.5 -59.5q123 0 211 135l243 -184q-64 -129 -183 -202t-275 -73q-150 -3 -280.5 69t-206.5 197t-73 271z
" />
    <glyph glyph-name="d" unicode="d" horiz-adv-x="1284" 
d="M817 1536h352v-1536h-321v106q-94 -131 -293 -131q-215 0 -353.5 151t-138.5 384t140 386t352 153q159 0 262 -95v582zM823 510q0 101 -56.5 160t-141.5 59t-143 -59t-58 -158q0 -100 57 -158.5t144 -58.5q85 0 141.5 57t56.5 158z" />
    <glyph glyph-name="e" unicode="e" horiz-adv-x="1163" 
d="M1077 389h-655q58 -117 229 -117q136 0 269 80l127 -239q-181 -138 -408 -138q-123 0 -230.5 41.5t-183 113t-119 171t-43.5 211.5q0 148 72.5 271.5t198.5 194.5t276 71q144 0 257 -66.5t173 -177t60 -242.5q0 -84 -23 -174zM410 618h356q-1 68 -50.5 111t-119.5 43
q-67 0 -116.5 -40.5t-69.5 -113.5z" />
    <glyph glyph-name="f" unicode="f" horiz-adv-x="753" 
d="M528 1110v-86h207v-295h-207v-729h-352v729h-143v295h143v121q0 202 112.5 309t317.5 107q97 0 170 -25v-295q-16 1 -35 2t-29.5 1.5t-15.5 0.5q-90 0 -129 -31.5t-39 -103.5z" />
    <glyph glyph-name="g" unicode="g" horiz-adv-x="1284" 
d="M848 1024h321v-899q0 -256 -145.5 -387t-402.5 -131q-300 0 -517 184l179 248q152 -117 301 -117q104 0 168.5 46t64.5 134v37q-94 -94 -268 -94q-213 0 -349.5 138t-136.5 366q0 227 137.5 363.5t348.5 136.5q205 0 299 -129v104zM823 555q0 98 -56 150.5t-142 52.5
q-88 0 -144.5 -54.5t-56.5 -150.5q0 -97 58.5 -157t142.5 -60t141 59.5t57 159.5z" />
    <glyph glyph-name="h" unicode="h" horiz-adv-x="1222" 
d="M1116 631v-631h-352v580q0 67 -42 109t-108 42t-106.5 -41.5t-40.5 -109.5v-580h-352v1536h352v-584q111 97 266 97q171 0 277 -115.5t106 -302.5z" />
    <glyph glyph-name="i" unicode="i" horiz-adv-x="581" 
d="M115 0v1024h352v-1024h-352zM74 1386q0 88 62 148.5t153 60.5t154 -60.5t63 -148.5q0 -86 -63 -146t-154 -60t-153 59t-62 147z" />
    <glyph glyph-name="j" unicode="j" horiz-adv-x="581" 
d="M-133 -369v295q16 -1 35 -2t29.5 -1.5t15.5 -0.5q90 0 129 31.5t39 103.5v967h352v-1001q0 -202 -112.5 -309t-317.5 -107q-99 0 -170 24zM74 1386q0 88 62 148.5t153 60.5t154 -60.5t63 -148.5q0 -86 -63 -146t-154 -60t-153 59t-62 147z" />
    <glyph glyph-name="k" unicode="k" horiz-adv-x="1218" 
d="M1219 0h-388l-364 541v-541h-352v1536h352v-926l319 414h408l-352 -457z" />
    <glyph glyph-name="l" unicode="l" horiz-adv-x="581" 
d="M115 0v1536h352v-1536h-352z" />
    <glyph glyph-name="m" unicode="m" horiz-adv-x="1851" 
d="M1745 631v-631h-352v580q0 71 -39.5 111t-106.5 40q-64 0 -102.5 -40t-38.5 -111v-580h-352v580q0 71 -39.5 111t-106.5 40q-64 0 -102.5 -40t-38.5 -111v-580h-352v1024h321v-80q111 105 281 105q190 0 297 -131q62 62 149.5 96.5t186.5 34.5q182 0 288.5 -113.5
t106.5 -304.5z" />
    <glyph glyph-name="n" unicode="n" horiz-adv-x="1222" 
d="M1116 631v-631h-352v580q0 67 -42 109t-108 42t-106.5 -41.5t-40.5 -109.5v-580h-352v1024h321v-84q115 109 289 109q178 0 284.5 -113.5t106.5 -304.5z" />
    <glyph glyph-name="o" unicode="o" horiz-adv-x="1243" 
d="M63 512q-3 144 72.5 269t205.5 198t280 70q112 2 216.5 -40.5t180 -115.5t120 -173t42.5 -208q2 -108 -42.5 -208t-120 -173t-180 -115.5t-216.5 -40.5q-150 -3 -280 70t-205.5 198t-72.5 269zM819 512q0 92 -55.5 152.5t-140.5 60.5q-88 0 -143.5 -59.5t-55.5 -153.5
q0 -96 55.5 -154.5t143.5 -58.5q86 0 141 60t55 153z" />
    <glyph glyph-name="p" unicode="p" horiz-adv-x="1284" 
d="M1221 514q0 -233 -140 -386t-352 -153q-159 0 -262 95v-439h-352v1393h321v-106q94 131 293 131q215 0 353.5 -151t138.5 -384zM860 512q0 100 -57 158.5t-144 58.5q-85 0 -141.5 -57t-56.5 -158t56.5 -160t141.5 -59t143 59t58 158z" />
    <glyph glyph-name="q" unicode="q" horiz-adv-x="1284" 
d="M848 1024h321v-1393h-352v439q-103 -95 -262 -95q-212 0 -352 153t-140 386t138.5 384t353.5 151q199 0 293 -131v106zM823 514q0 101 -56.5 158t-141.5 57q-87 0 -144 -58.5t-57 -158.5q0 -99 58 -158t143 -59t141.5 59t56.5 160z" />
    <glyph glyph-name="r" unicode="r" horiz-adv-x="829" 
d="M795 1024v-311h-84q-123 0 -183.5 -59.5t-60.5 -186.5v-467h-352v1024h321v-109q98 125 258 125q51 0 101 -16z" />
    <glyph glyph-name="s" unicode="s" horiz-adv-x="933" 
d="M23 172l163 209q133 -127 283 -127q90 0 90 45q0 16 -12.5 26.5t-46.5 24.5l-115 47q-158 64 -227.5 138t-69.5 192q0 151 107.5 236.5t289.5 85.5q241 0 385 -150l-165 -215q-104 88 -218 88q-71 0 -71 -39q0 -17 15.5 -29t53.5 -26l103 -41q161 -64 230 -134.5
t69 -187.5q0 -158 -119 -249q-123 -91 -305 -91q-137 0 -252.5 51.5t-187.5 145.5z" />
    <glyph glyph-name="t" unicode="t" horiz-adv-x="899" 
d="M705 291l129 4v-295q-106 -25 -207 -25q-219 0 -335 105.5t-116 310.5v338h-156v295h156v246h352v-246h275v-295h-275v-303q0 -74 40 -104.5t137 -30.5z" />
    <glyph glyph-name="u" unicode="u" horiz-adv-x="1214" 
d="M106 477v547h353v-575q0 -66 41.5 -108t107.5 -42q64 0 106 42.5t42 107.5v575h352v-547q0 -224 -140.5 -363t-359.5 -139t-360.5 139t-141.5 363z" />
    <glyph glyph-name="v" unicode="v" horiz-adv-x="1169" 
d="M793 1024h372l-524 -1049h-113l-524 1049h373l209 -461z" />
    <glyph glyph-name="w" unicode="w" horiz-adv-x="1763" 
d="M1386 1024h373l-504 -1049h-112l-260 490l-262 -490h-113l-504 1049h373l211 -477l237 502h113l244 -488z" />
    <glyph glyph-name="x" unicode="x" horiz-adv-x="1132" 
d="M1133 0h-392l-176 268l-174 -268h-391l371 526l-351 498h392l153 -242l156 242h391l-350 -498z" />
    <glyph glyph-name="y" unicode="y" horiz-adv-x="1171" 
d="M795 1024h372l-481 -1079q-79 -176 -184.5 -257t-261.5 -81q-95 0 -197 24v295q27 -1 55.5 -2t43 -1.5t20.5 -0.5q77 0 123 25.5t77 95.5l17 35l-375 946h375l196 -575z" />
    <glyph glyph-name="z" unicode="z" horiz-adv-x="978" 
d="M532 295h426v-295h-938v92l431 637h-383v295h888v-92z" />
    <glyph glyph-name="braceleft" unicode="{" horiz-adv-x="866" 
d="M569 1112q0 -31 19 -139l12 -76q10 -68 10 -104q0 -78 -37.5 -121t-119.5 -60q82 -13 119.5 -55.5t37.5 -120.5q0 -36 -10 -104l-12 -76q-19 -108 -19 -139q0 -53 28.5 -81t80.5 -28h127v-274h-189q-337 0 -337 299q0 53 22 198q18 91 18 136q0 54 -24 77t-80 23h-133
v295h133q56 0 80 23t24 77q0 44 -18 135q-22 145 -22 199q0 299 337 299h189v-274h-127q-52 0 -80.5 -28t-28.5 -81z" />
    <glyph glyph-name="bar" unicode="|" horiz-adv-x="679" 
d="M195 -248v1845h290v-1845h-290z" />
    <glyph glyph-name="braceright" unicode="}" horiz-adv-x="866" 
d="M651 762h133v-295h-133q-56 0 -80 -23t-24 -77q0 -45 18 -136q23 -151 23 -198q0 -299 -338 -299h-189v274h127q52 0 80.5 28t28.5 81q0 37 -18 139l-13 76q-10 68 -10 104q0 78 38 120t120 56q-82 17 -120 60t-38 121q0 36 10 104l13 76q18 102 18 139q0 53 -28.5 81
t-80.5 28h-127v274h189q338 0 338 -299q0 -48 -23 -199q-18 -91 -18 -135q0 -54 24 -77t80 -23z" />
    <glyph glyph-name="asciitilde" unicode="~" 
d="M651 459l-172 104q-45 27 -63.5 35t-40.5 8q-30 0 -47 -19.5t-17 -51.5v-29h-262q-6 40 -6 78q0 148 83.5 244t197.5 96q91 0 174 -54l172 -104q45 -27 63.5 -35t40.5 -8q30 0 47 20t17 52v28h262q6 -41 6 -78q0 -148 -83.5 -243.5t-197.5 -95.5q-92 0 -174 53z" />
    <glyph glyph-name="uni00A0" unicode="&#xa0;" horiz-adv-x="573" 
 />
    <glyph glyph-name="exclamdown" unicode="&#xa1;" horiz-adv-x="768" 
d="M154 819q0 99 65.5 164.5t167.5 65.5q98 0 162.5 -65.5t64.5 -164.5q0 -97 -64.5 -163t-162.5 -66q-102 0 -167.5 65.5t-65.5 163.5zM174 -369l68 852h286l66 -852h-420z" />
    <glyph glyph-name="cent" unicode="&#xa2;" horiz-adv-x="1144" 
d="M838 588l243 -185q-55 -108 -147 -177t-213 -89v-340h-295v365q-159 54 -262 190q-101 137 -101 314t101 311q102 138 262 192v363h295v-338q121 -20 213 -89t147 -177l-243 -187q-86 138 -211 138q-92 0 -147.5 -59.5t-55.5 -153.5t55.5 -153.5t147.5 -59.5
q123 0 211 135z" />
    <glyph glyph-name="sterling" unicode="&#xa3;" horiz-adv-x="1218" 
d="M647 295h483v-295h-1064v72q143 111 206 194t64 176h-250v295h139q-57 121 -57 224q0 187 137 301t344 114q188 0 320 -100t182 -293l-289 -104q-55 174 -188 174q-69 0 -109.5 -42.5t-40.5 -111.5q0 -68 56 -162h333v-295h-227q-3 -76 -39 -147z" />
    <glyph glyph-name="currency" unicode="&#xa4;" horiz-adv-x="1366" 
d="M1124 430l219 -227l-208 -209l-232 242q-106 -50 -229 -50q-120 0 -225 45l-218 -237l-208 209l202 221q-69 112 -69 252q0 130 69 242l-202 210l208 209l213 -223q105 51 228 51q128 0 237 -53l226 225l208 -209l-215 -213q64 -107 64 -239q0 -131 -68 -246zM831 676
q0 73 -44 119.5t-113 46.5q-73 0 -115.5 -46t-42.5 -120q0 -75 43.5 -120.5t116.5 -45.5q68 0 111.5 46.5t43.5 119.5z" />
    <glyph glyph-name="yen" unicode="&#xa5;" horiz-adv-x="1288" 
d="M1284 1352l-387 -566h274v-274h-350v-90h350v-275h-350v-147h-352v147h-350v275h350v90h-350v274h272l-387 566h389l252 -373l252 373h387z" />
    <glyph glyph-name="brokenbar" unicode="&#xa6;" horiz-adv-x="679" 
d="M195 983v614h290v-614h-290zM195 -248v615h290v-615h-290z" />
    <glyph glyph-name="section" unicode="&#xa7;" horiz-adv-x="1261" 
d="M985 133q6 -34 6 -72q0 -161 -114 -256q-113 -98 -302 -98q-152 0 -270 67t-170 179l211 172q80 -129 225 -129q51 0 75 16.5t24 53.5q0 30 -23.5 51t-103.5 65l-164 90q-176 95 -252 182t-76 205q0 108 60 190t165 124q-6 35 -6 71q0 161 115 256q114 99 301 99
q152 0 270 -67t170 -179l-211 -172q-77 129 -225 129q-51 0 -74.5 -16t-23.5 -54q0 -30 23.5 -51t103.5 -65l164 -90q175 -96 251 -182.5t76 -205.5q0 -108 -60 -189.5t-165 -123.5zM532 516l164 -90q99 -56 144 -90q49 43 49 94q0 38 -35 74t-125 86l-190 104
q-87 52 -119 74q-47 -41 -47 -92q0 -38 35 -74.5t124 -85.5z" />
    <glyph glyph-name="dieresis" unicode="&#xa8;" horiz-adv-x="1228" 
d="M154 1389q0 78 59 134t143 56q80 0 138.5 -56t58.5 -134q0 -79 -58.5 -136t-138.5 -57q-84 0 -143 56.5t-59 136.5zM676 1389q0 78 59.5 134t143.5 56q80 0 138 -56t58 -134q0 -79 -58 -136t-138 -57q-84 0 -143.5 56.5t-59.5 136.5z" />
    <glyph glyph-name="copyright" unicode="&#xa9;" horiz-adv-x="1589" 
d="M66 674q-3 143 57.5 275t161 225.5t235 148.5t275.5 53q141 3 275.5 -52t235 -149t161 -226t57.5 -273q3 -142 -57 -273.5t-160.5 -225.5t-236 -149.5t-277.5 -52.5q-141 -2 -276 53t-235.5 148.5t-160 225t-55.5 272.5zM1309 674q3 149 -72.5 267.5t-194.5 179.5
t-251 59q-132 2 -249 -59t-190.5 -179.5t-70.5 -267.5q0 -114 42 -210t113 -159t163 -98t192 -35t193 35t165.5 98t116 159t43.5 210zM422 676q0 157 110 265t271 108q191 0 311 -164l-172 -148q-63 82 -135 82q-60 0 -96.5 -40t-36.5 -103t37 -102t98 -39q41 0 71.5 19
t61.5 60l172 -147q-119 -162 -313 -162q-159 0 -269 107t-110 264z" />
    <glyph glyph-name="ordfeminine" unicode="&#xaa;" horiz-adv-x="763" 
d="M684 870v-370h-235v43q-72 -60 -179 -60q-105 0 -164 59.5t-59 149.5q0 92 69 142.5t193 50.5h115v10q0 57 -82 57q-68 0 -166 -61l-96 170q122 104 293 104q148 0 229.5 -75.5t81.5 -219.5zM424 731v17h-68q-47 0 -47 -43q0 -46 47 -46q30 0 49 19t19 53z" />
    <glyph glyph-name="guillemotleft" unicode="&#xab;" horiz-adv-x="1347" 
d="M469 59l-422 455v92l422 457l223 -195l-266 -307l266 -307zM1073 59l-422 455v92l422 457l223 -195l-266 -307l266 -307z" />
    <glyph glyph-name="logicalnot" unicode="&#xac;" 
d="M684 221v295h-612v295h936v-590h-324z" />
    <glyph glyph-name="uni00AD" unicode="&#xad;" horiz-adv-x="696" 
d="M82 518v295h532v-295h-532z" />
    <glyph glyph-name="registered" unicode="&#xae;" horiz-adv-x="1181" 
d="M1126 893q3 -142 -70 -267.5t-197.5 -199t-266.5 -70.5q-106 -2 -206 41t-173.5 116.5t-116.5 173.5t-41 206q-3 142 70.5 266.5t199 197.5t267.5 70q142 3 266.5 -70t197.5 -197.5t70 -266.5zM973 893q0 165 -110.5 278t-270.5 113t-271.5 -113t-111.5 -278
q0 -166 111 -279.5t272 -113.5q160 0 270.5 113t110.5 280zM737 817l133 -182h-174l-110 141h-47v-141h-158v514h217q95 0 156 -50t61 -134q0 -95 -78 -148zM539 1012v-99h59q25 0 40 13.5t15 36.5t-15 36t-40 13h-59z" />
    <glyph glyph-name="overscore" unicode="&#xaf;" horiz-adv-x="1228" 
d="M287 1249v275h655v-275h-655z" />
    <glyph glyph-name="degree" unicode="&#xb0;" horiz-adv-x="741" 
d="M39 1053q0 131 97.5 227t234.5 96q138 0 234.5 -94.5t96.5 -228.5t-97 -230t-234 -96t-234.5 96.5t-97.5 229.5zM485 1051q0 52 -30.5 83t-83.5 31q-51 0 -83 -31.5t-32 -82.5q0 -48 33 -80.5t82 -32.5q53 0 83.5 31.5t30.5 81.5z" />
    <glyph glyph-name="plusminus" unicode="&#xb1;" 
d="M410 387v266h-314v275h314v243h331v-243h312v-275h-312v-266h-331zM96 0v274h957v-274h-957z" />
    <glyph glyph-name="uni00B2" unicode="&#xb2;" horiz-adv-x="808" 
d="M518 971h213v-226l-665 -2v52l305 335q92 103 92 175q0 38 -19.5 58.5t-52.5 20.5q-32 0 -50.5 -21.5t-18.5 -62.5q0 -2 0.5 -8t1.5 -19.5t2 -27.5h-250q-8 31 -8 72q0 120 92 208.5t235 88.5q139 0 230 -82q94 -79 94 -205q0 -84 -45.5 -163.5t-141.5 -178.5z" />
    <glyph glyph-name="uni00B3" unicode="&#xb3;" horiz-adv-x="745" 
d="M684 1032q0 -127 -98.5 -215t-241.5 -88q-115 0 -202 56t-130 155l172 121q36 -56 70.5 -79.5t79.5 -23.5q44 0 69 19t25 55q0 37 -31 52.5t-100 15.5h-109v61l136 211h-240v225h590v-65l-158 -244q75 -34 121.5 -101t46.5 -155z" />
    <glyph glyph-name="acute" unicode="&#xb4;" horiz-adv-x="1228" 
d="M336 1176l131 421h424v-61l-301 -360h-254z" />
    <glyph glyph-name="uni00B5" unicode="&#xb5;" horiz-adv-x="1282" 
d="M1196 291l55 2v-293q-84 -25 -176 -25q-160 0 -231 103q-76 -103 -201 -103q-106 0 -176 76v-420h-352v1393h352v-575q0 -69 40.5 -112.5t106.5 -43.5q67 0 108.5 43.5t41.5 112.5v575h352v-623q0 -57 19.5 -83.5t60.5 -26.5z" />
    <glyph glyph-name="paragraph" unicode="&#xb6;" horiz-adv-x="1320" 
d="M55 889q0 207 147.5 335t375.5 128h116v-932h-116q-147 0 -266 58t-188 165.5t-69 245.5zM528 -369v299l129 -4q97 0 137 30.5t40 104.5v1291h352v-1329q0 -206 -115 -311t-336 -105q-105 0 -207 24z" />
    <glyph glyph-name="middot" unicode="&#xb7;" horiz-adv-x="573" 
d="M57 664q0 98 66 163.5t168 65.5q98 0 162.5 -66t64.5 -163q0 -99 -64.5 -164.5t-162.5 -65.5q-102 0 -168 65.5t-66 164.5z" />
    <glyph glyph-name="cedilla" unicode="&#xb8;" horiz-adv-x="1228" 
d="M360 -375v230q37 -2 129 -2q50 0 77.5 27.5t27.5 76.5v98l135 58q66 -37 102.5 -97t36.5 -133q0 -121 -95.5 -198.5t-254.5 -77.5q-82 0 -158 18z" />
    <glyph glyph-name="uni00B9" unicode="&#xb9;" horiz-adv-x="782" 
d="M80 745v226h209v401h-187v225h437v-626h170v-226h-629z" />
    <glyph glyph-name="ordmasculine" unicode="&#xba;" horiz-adv-x="811" 
d="M47 825q0 145 105 242.5t254 97.5t253.5 -97.5t104.5 -242.5q0 -144 -104.5 -243t-253.5 -99t-254 99t-105 243zM502 825q0 47 -26 75t-70 28t-70.5 -28t-26.5 -75t26.5 -74.5t70.5 -27.5t70 27.5t26 74.5z" />
    <glyph glyph-name="guillemotright" unicode="&#xbb;" horiz-adv-x="1347" 
d="M274 59l-223 195l266 307l-266 307l223 195l422 -457v-92zM879 59l-224 195l267 307l-267 307l224 195l421 -457v-92z" />
    <glyph glyph-name="onequarter" unicode="&#xbc;" horiz-adv-x="1986" 
d="M80 500v225h209v401h-187v226h437v-627h170v-225h-629zM520 0l780 1352h277l-782 -1352h-275zM1972 324v-205h-92v-119h-229v119h-441v65l248 668h258l-198 -528h135l4 194h223v-194h92z" />
    <glyph glyph-name="onehalf" unicode="&#xbd;" horiz-adv-x="2052" 
d="M80 500v225h209v401h-187v226h437v-627h170v-225h-629zM520 0l780 1352h277l-782 -1352h-275zM1761 225h213v-225l-665 -2v51l305 336q92 103 92 174q0 38 -19.5 59t-52.5 21q-32 0 -50.5 -21.5t-18.5 -62.5q0 -2 0.5 -8t1.5 -19.5t2 -27.5h-250q-8 31 -8 71
q0 120 92 208.5t235 88.5q139 0 230 -82q94 -79 94 -204q0 -84 -45 -163.5t-141 -178.5z" />
    <glyph glyph-name="threequarters" unicode="&#xbe;" horiz-adv-x="1878" 
d="M684 786q0 -127 -98.5 -215t-241.5 -88q-115 0 -202 56t-130 155l172 121q36 -56 70.5 -79t79.5 -23q44 0 69 18.5t25 54.5q0 37 -31 52.5t-100 15.5h-109v61l136 211h-240v226h590v-66l-158 -244q75 -34 121.5 -101t46.5 -155zM412 0l780 1352h276l-782 -1352h-274z
M1864 324v-205h-92v-119h-230v119h-440v65l248 668h258l-199 -528h135l4 194h224v-194h92z" />
    <glyph glyph-name="questiondown" unicode="&#xbf;" horiz-adv-x="933" 
d="M262 819q0 99 64.5 164.5t162.5 65.5q102 0 168 -65.5t66 -164.5q0 -98 -66 -163.5t-168 -65.5q-98 0 -162.5 66t-64.5 163zM55 -8q0 94 36.5 157t117.5 132q84 71 112.5 105.5t28.5 70.5v26h295q25 -61 25 -102q0 -28 -11.5 -57t-28 -52t-37 -45.5t-37 -36.5t-31 -25.5
t-15.5 -12.5q-53 -44 -73.5 -73.5t-20.5 -62.5q0 -37 25 -60.5t61 -23.5q38 0 67 29.5t58 97.5l286 -127q-43 -160 -154.5 -242.5t-269.5 -82.5q-186 0 -310 107.5t-124 277.5z" />
    <glyph glyph-name="Agrave" unicode="&#xc0;" horiz-adv-x="1349" 
d="M967 0l-49 113h-486l-49 -113h-379l614 1376h113l615 -1376h-379zM793 395l-117 314l-119 -314h236zM547 1483l-301 319v62h424l131 -381h-254z" />
    <glyph glyph-name="Aacute" unicode="&#xc1;" horiz-adv-x="1349" 
d="M967 0l-49 113h-486l-49 -113h-379l614 1376h113l615 -1376h-379zM793 395l-117 314l-119 -314h236zM537 1483l131 381h424v-62l-301 -319h-254z" />
    <glyph glyph-name="Acircumflex" unicode="&#xc2;" horiz-adv-x="1349" 
d="M967 0l-49 113h-486l-49 -113h-379l614 1376h113l615 -1376h-379zM793 395l-117 314l-119 -314h236zM1098 1483h-267l-157 131l-158 -131h-264l305 381h236z" />
    <glyph glyph-name="Atilde" unicode="&#xc3;" horiz-adv-x="1349" 
d="M967 0l-49 113h-486l-49 -113h-379l614 1376h113l615 -1376h-379zM793 395l-117 314l-119 -314h236zM694 1505l-57 29q-64 31 -92 31q-26 0 -41 -17.5t-15 -46.5v-16h-262q-6 41 -6 78q0 143 82 231t195 88q73 0 157 -41l58 -29q62 -30 92 -30q26 0 40.5 17t14.5 46v17
h262q6 -41 6 -78q0 -144 -82 -232t-194 -88q-74 0 -158 41z" />
    <glyph glyph-name="Adieresis" unicode="&#xc4;" horiz-adv-x="1349" 
d="M967 0l-49 113h-486l-49 -113h-379l614 1376h113l615 -1376h-379zM793 395l-117 314l-119 -314h236zM195 1673q0 79 59 135q61 58 139 58q85 0 143 -55.5t58 -137.5q0 -76 -60 -133t-141 -57q-77 0 -137 57q-61 58 -61 133zM758 1671q0 79 59 135q61 58 139 58
q85 0 143 -55.5t58 -137.5q0 -76 -60 -133t-141 -57q-77 0 -137 57q-61 58 -61 133z" />
    <glyph glyph-name="Aring" unicode="&#xc5;" horiz-adv-x="1349" 
d="M967 0l-49 113h-486l-49 -113h-379l614 1376h113l615 -1376h-379zM793 395l-117 314l-119 -314h236zM395 1622q0 112 78 190q81 78 201 78q122 0 201 -76t79 -192q0 -115 -80 -192q-78 -78 -200 -78q-120 0 -201 78q-78 78 -78 192zM748 1622q0 31 -20.5 51.5t-51.5 20.5
q-32 0 -52 -20.5t-20 -51.5q0 -32 20.5 -53t51.5 -21q29 0 50.5 21.5t21.5 52.5z" />
    <glyph glyph-name="AE" unicode="&#xc6;" horiz-adv-x="1787" 
d="M1208 317h496v-317h-780l-21 113h-467l-57 -113h-379l684 1352h995v-318h-587l30 -186h389v-295h-342zM784 850l-211 -455h281z" />
    <glyph glyph-name="Ccedilla" unicode="&#xc7;" horiz-adv-x="1480" 
d="M66 676q-2 142 56 273t156.5 225.5t234.5 149.5t284 52q202 0 364 -95t254 -267l-268 -183q-133 222 -352 222q-162 0 -265.5 -105t-103.5 -274q0 -168 102 -273q105 -102 267 -102q220 0 352 221l268 -182q-93 -172 -255 -267.5t-365 -95.5q-146 -2 -282 52.5
t-235 148.5t-157 225t-55 275zM498 -375v230q37 -2 129 -2q49 0 76.5 27.5t27.5 76.5v98l135 58q66 -37 103 -97t37 -133q0 -120 -96 -198t-255 -78q-81 0 -157 18z" />
    <glyph glyph-name="Egrave" unicode="&#xc8;" horiz-adv-x="1181" 
d="M135 0v1352h938v-318h-586v-186h418v-295h-418v-236h611v-317h-963zM463 1483l-301 319v62h424l131 -381h-254z" />
    <glyph glyph-name="Eacute" unicode="&#xc9;" horiz-adv-x="1181" 
d="M135 0v1352h938v-318h-586v-186h418v-295h-418v-236h611v-317h-963zM453 1483l131 381h424v-62l-301 -319h-254z" />
    <glyph glyph-name="Ecircumflex" unicode="&#xca;" horiz-adv-x="1181" 
d="M135 0v1352h938v-318h-586v-186h418v-295h-418v-236h611v-317h-963zM1014 1483h-266l-158 131l-158 -131h-264l305 381h236z" />
    <glyph glyph-name="Edieresis" unicode="&#xcb;" horiz-adv-x="1181" 
d="M135 0v1352h938v-318h-586v-186h418v-295h-418v-236h611v-317h-963zM111 1673q0 79 59 135q61 58 139 58q85 0 143 -55.5t58 -137.5q0 -76 -60 -133t-141 -57q-77 0 -137 57q-61 58 -61 133zM674 1671q0 79 59 135q61 58 139 58q85 0 143 -55.5t58 -137.5q0 -76 -60 -133
t-141 -57q-77 0 -137 57q-61 58 -61 133z" />
    <glyph glyph-name="Igrave" unicode="&#xcc;" horiz-adv-x="622" 
d="M135 0v1352h352v-1352h-352zM182 1483l-301 319v62h424l131 -381h-254z" />
    <glyph glyph-name="Iacute" unicode="&#xcd;" horiz-adv-x="622" 
d="M135 0v1352h352v-1352h-352zM172 1483l131 381h424v-62l-301 -319h-254z" />
    <glyph glyph-name="Icircumflex" unicode="&#xce;" horiz-adv-x="622" 
d="M135 0v1352h352v-1352h-352zM733 1483h-266l-158 131l-157 -131h-265l306 381h235z" />
    <glyph glyph-name="Idieresis" unicode="&#xcf;" horiz-adv-x="622" 
d="M135 0v1352h352v-1352h-352zM-170 1673q0 80 61 135q58 58 138 58q85 0 142.5 -55.5t57.5 -137.5q0 -76 -59.5 -133t-140.5 -57q-78 0 -138 57q-61 58 -61 133zM393 1671q0 78 60 135q61 58 139 58q85 0 143 -55.5t58 -137.5q0 -76 -60 -133t-141 -57q-77 0 -137 57
q-62 59 -62 133z" />
    <glyph glyph-name="Eth" unicode="&#xd0;" horiz-adv-x="1409" 
d="M1343 680q3 -196 -95 -353.5t-267.5 -243.5t-374.5 -83h-471v504h-155v295h155v553h471q206 2 375 -80.5t267 -238t95 -353.5zM983 680q0 168 -103.5 260t-275.5 92h-117v-233h191v-295h-191v-187h117q168 0 273.5 99t105.5 264z" />
    <glyph glyph-name="Ntilde" unicode="&#xd1;" horiz-adv-x="1468" 
d="M981 1352h352v-1377h-112l-734 711v-686h-352v1376h113l733 -700v676zM754 1505l-58 29q-64 31 -92 31q-26 0 -40.5 -17t-14.5 -47v-16h-262q-6 41 -6 78q0 144 81.5 231.5t194.5 87.5q74 0 158 -41l57 -29q61 -30 92 -30q26 0 41 17t15 46v17h262q6 -41 6 -78
q0 -144 -82 -232t-195 -88q-73 0 -157 41z" />
    <glyph glyph-name="Ograve" unicode="&#xd2;" horiz-adv-x="1589" 
d="M66 676q-3 142 55 273t157 225.5t234.5 149.5t280.5 52q116 2 227.5 -32.5t202.5 -99.5t160 -151.5t106 -194.5t35 -222q3 -143 -56 -274.5t-159 -225.5t-235.5 -148.5t-280.5 -52.5q-146 -2 -281 52.5t-234 148.5t-157 225.5t-55 274.5zM1163 676q0 166 -105 271.5
t-263 105.5q-163 0 -266 -105t-103 -272q0 -170 102 -275q102 -102 267 -102q159 0 263.5 105t104.5 272zM666 1483l-301 319v62h423l132 -381h-254z" />
    <glyph glyph-name="Oacute" unicode="&#xd3;" horiz-adv-x="1589" 
d="M66 676q-3 142 55 273t157 225.5t234.5 149.5t280.5 52q116 2 227.5 -32.5t202.5 -99.5t160 -151.5t106 -194.5t35 -222q3 -143 -56 -274.5t-159 -225.5t-235.5 -148.5t-280.5 -52.5q-146 -2 -281 52.5t-234 148.5t-157 225.5t-55 274.5zM1163 676q0 166 -105 271.5
t-263 105.5q-163 0 -266 -105t-103 -272q0 -170 102 -275q102 -102 267 -102q159 0 263.5 105t104.5 272zM655 1483l131 381h424v-62l-301 -319h-254z" />
    <glyph glyph-name="Ocircumflex" unicode="&#xd4;" horiz-adv-x="1589" 
d="M66 676q-3 142 55 273t157 225.5t234.5 149.5t280.5 52q116 2 227.5 -32.5t202.5 -99.5t160 -151.5t106 -194.5t35 -222q3 -143 -56 -274.5t-159 -225.5t-235.5 -148.5t-280.5 -52.5q-146 -2 -281 52.5t-234 148.5t-157 225.5t-55 274.5zM1163 676q0 166 -105 271.5
t-263 105.5q-163 0 -266 -105t-103 -272q0 -170 102 -275q102 -102 267 -102q159 0 263.5 105t104.5 272zM1217 1483h-267l-157 131l-158 -131h-264l305 381h235z" />
    <glyph glyph-name="Otilde" unicode="&#xd5;" horiz-adv-x="1589" 
d="M66 676q-3 142 55 273t157 225.5t234.5 149.5t280.5 52q116 2 227.5 -32.5t202.5 -99.5t160 -151.5t106 -194.5t35 -222q3 -143 -56 -274.5t-159 -225.5t-235.5 -148.5t-280.5 -52.5q-146 -2 -281 52.5t-234 148.5t-157 225.5t-55 274.5zM1163 676q0 166 -105 271.5
t-263 105.5q-163 0 -266 -105t-103 -272q0 -170 102 -275q102 -102 267 -102q159 0 263.5 105t104.5 272zM813 1505l-57 29q-64 31 -92 31q-26 0 -41 -17.5t-15 -46.5v-16h-262q-6 41 -6 78q0 144 81.5 231.5t194.5 87.5q74 0 158 -41l57 -29q62 -30 93 -30q26 0 40.5 17
t14.5 46v17h262q6 -41 6 -78q0 -144 -82 -232t-194 -88q-74 0 -158 41z" />
    <glyph glyph-name="Odieresis" unicode="&#xd6;" horiz-adv-x="1589" 
d="M66 676q-3 142 55 273t157 225.5t234.5 149.5t280.5 52q116 2 227.5 -32.5t202.5 -99.5t160 -151.5t106 -194.5t35 -222q3 -143 -56 -274.5t-159 -225.5t-235.5 -148.5t-280.5 -52.5q-146 -2 -281 52.5t-234 148.5t-157 225.5t-55 274.5zM1163 676q0 166 -105 271.5
t-263 105.5q-163 0 -266 -105t-103 -272q0 -170 102 -275q102 -102 267 -102q159 0 263.5 105t104.5 272zM313 1673q0 78 60 135q61 58 139 58q85 0 143 -55.5t58 -137.5q0 -76 -60 -133t-141 -57q-77 0 -137 57q-62 59 -62 133zM877 1671q0 79 59 135q61 58 139 58
q85 0 143 -55.5t58 -137.5q0 -76 -60 -133t-141 -57q-77 0 -137 57q-61 58 -61 133z" />
    <glyph glyph-name="multiply" unicode="&#xd7;" 
d="M283 174l-209 209l288 289l-288 289l209 208l290 -288l289 288l209 -208l-291 -289l291 -289l-209 -209l-291 289z" />
    <glyph glyph-name="Oslash" unicode="&#xd8;" horiz-adv-x="1589" 
d="M1540 1214l-141 -141q125 -180 125 -397q3 -143 -56 -274.5t-159 -225.5t-235.5 -148.5t-280.5 -52.5q-211 0 -385 103l-150 -150l-209 209l139 142q-122 174 -122 397q-3 142 55 273t157 225.5t234.5 149.5t280.5 52q213 0 387 -104l151 151zM410 676q0 -84 24 -152
l514 514q-70 31 -153 31q-168 0 -276.5 -109.5t-108.5 -283.5zM1180 676q0 84 -27 149l-514 -514q76 -28 156 -28q166 0 275.5 110t109.5 283z" />
    <glyph glyph-name="Ugrave" unicode="&#xd9;" horiz-adv-x="1449" 
d="M127 573v779h352v-805q0 -114 68 -181t178 -67t178 67t68 181v805h352v-779q0 -175 -78 -312t-214 -211.5t-306 -74.5q-129 0 -239.5 43t-189.5 120.5t-124 189.5t-45 245zM596 1483l-301 319v62h424l131 -381h-254z" />
    <glyph glyph-name="Uacute" unicode="&#xda;" horiz-adv-x="1449" 
d="M127 573v779h352v-805q0 -114 68 -181t178 -67t178 67t68 181v805h352v-779q0 -175 -78 -312t-214 -211.5t-306 -74.5q-129 0 -239.5 43t-189.5 120.5t-124 189.5t-45 245zM586 1483l131 381h424v-62l-301 -319h-254z" />
    <glyph glyph-name="Ucircumflex" unicode="&#xdb;" horiz-adv-x="1449" 
d="M127 573v779h352v-805q0 -114 68 -181t178 -67t178 67t68 181v805h352v-779q0 -175 -78 -312t-214 -211.5t-306 -74.5q-129 0 -239.5 43t-189.5 120.5t-124 189.5t-45 245zM1147 1483h-266l-158 131l-158 -131h-264l305 381h236z" />
    <glyph glyph-name="Udieresis" unicode="&#xdc;" horiz-adv-x="1449" 
d="M127 573v779h352v-805q0 -114 68 -181t178 -67t178 67t68 181v805h352v-779q0 -175 -78 -312t-214 -211.5t-306 -74.5q-129 0 -239.5 43t-189.5 120.5t-124 189.5t-45 245zM244 1673q0 79 59 135q61 58 139 58q85 0 143 -55.5t58 -137.5q0 -76 -60 -133t-141 -57
q-77 0 -137 57q-61 58 -61 133zM807 1671q0 79 59 135q61 58 140 58q85 0 142.5 -55.5t57.5 -137.5q0 -76 -59.5 -133t-140.5 -57q-78 0 -138 57q-61 58 -61 133z" />
    <glyph glyph-name="Yacute" unicode="&#xdd;" horiz-adv-x="1288" 
d="M1284 1352l-463 -834v-518h-352v514l-465 838h389l252 -471l252 471h387zM506 1483l131 381h424v-62l-301 -319h-254z" />
    <glyph glyph-name="Thorn" unicode="&#xde;" horiz-adv-x="1243" 
d="M135 0v1352h352v-187h179q228 0 375 -128.5t147 -336.5q0 -135 -69 -242.5t-187.5 -166t-265.5 -58.5h-179v-233h-352zM487 541h181q73 0 117 43.5t44 115.5t-44 115t-117 43h-181v-317z" />
    <glyph glyph-name="germandbls" unicode="&#xdf;" horiz-adv-x="1382" 
d="M553 90l115 248q152 -74 250 -74q79 0 79 62q0 24 -24 45q-20 17 -121 80q-109 66 -156 120t-47 123q0 57 37 144l59 137q27 61 27 129q0 67 -35 103t-102 36q-80 0 -126 -52.5t-46 -162.5v-1028h-348v1044q0 246 140 381.5t394 135.5q217 0 346 -98t129 -255
q0 -88 -39 -176l-65 -153q-29 -69 -29 -97q-3 -28 17.5 -55.5t47 -45t57.5 -35.5t38 -25q98 -64 142 -129t44 -166q0 -161 -110 -256t-299 -95q-108 0 -206 31.5t-169 83.5z" />
    <glyph glyph-name="agrave" unicode="&#xe0;" horiz-adv-x="1136" 
d="M1030 594v-594h-321v84q-115 -109 -295 -109q-162 0 -257.5 92t-95.5 226q0 142 108 223.5t294 81.5h215v16q0 62 -39 96.5t-117 34.5q-67 0 -124 -28t-132 -96l-164 223q104 106 214.5 155.5t248.5 49.5q218 0 341.5 -118t123.5 -337zM678 375v8h-166q-44 0 -69 -20.5
t-25 -57.5t27.5 -58.5t76.5 -21.5q69 0 112.5 41t43.5 109zM444 1176l-301 360v61h424l131 -421h-254z" />
    <glyph glyph-name="aacute" unicode="&#xe1;" horiz-adv-x="1136" 
d="M1030 594v-594h-321v84q-115 -109 -295 -109q-162 0 -257.5 92t-95.5 226q0 142 108 223.5t294 81.5h215v16q0 62 -39 96.5t-117 34.5q-67 0 -124 -28t-132 -96l-164 223q104 106 214.5 155.5t248.5 49.5q218 0 341.5 -118t123.5 -337zM678 375v8h-166q-44 0 -69 -20.5
t-25 -57.5t27.5 -58.5t76.5 -21.5q69 0 112.5 41t43.5 109zM440 1176l131 421h424v-61l-301 -360h-254z" />
    <glyph glyph-name="acircumflex" unicode="&#xe2;" horiz-adv-x="1136" 
d="M1030 594v-594h-321v84q-115 -109 -295 -109q-162 0 -257.5 92t-95.5 226q0 142 108 223.5t294 81.5h215v16q0 62 -39 96.5t-117 34.5q-67 0 -124 -28t-132 -96l-164 223q104 106 214.5 155.5t248.5 49.5q218 0 341.5 -118t123.5 -337zM678 375v8h-166q-44 0 -69 -20.5
t-25 -57.5t27.5 -58.5t76.5 -21.5q69 0 112.5 41t43.5 109zM961 1176h-254l-138 147l-137 -147h-254l275 421h235z" />
    <glyph glyph-name="atilde" unicode="&#xe3;" horiz-adv-x="1136" 
d="M1030 594v-594h-321v84q-115 -109 -295 -109q-162 0 -257.5 92t-95.5 226q0 142 108 223.5t294 81.5h215v16q0 62 -39 96.5t-117 34.5q-67 0 -124 -28t-132 -96l-164 223q104 106 214.5 155.5t248.5 49.5q218 0 341.5 -118t123.5 -337zM678 375v8h-166q-44 0 -69 -20.5
t-25 -57.5t27.5 -58.5t76.5 -21.5q69 0 112.5 41t43.5 109zM590 1202l-60 31q-1 1 -10 6t-15 8.5t-15.5 8t-19.5 6.5t-19 2q-58 0 -58 -64v-16h-262q-6 40 -6 78q0 146 78.5 232.5t191.5 86.5q78 0 152 -39l59 -31q52 -30 80 -30q57 0 57 63v17h263q6 -41 6 -78
q0 -146 -79 -233t-192 -87q-77 0 -151 39z" />
    <glyph glyph-name="adieresis" unicode="&#xe4;" horiz-adv-x="1136" 
d="M1030 594v-594h-321v84q-115 -109 -295 -109q-162 0 -257.5 92t-95.5 226q0 142 108 223.5t294 81.5h215v16q0 62 -39 96.5t-117 34.5q-67 0 -124 -28t-132 -96l-164 223q104 106 214.5 155.5t248.5 49.5q218 0 341.5 -118t123.5 -337zM678 375v8h-166q-44 0 -69 -20.5
t-25 -57.5t27.5 -58.5t76.5 -21.5q69 0 112.5 41t43.5 109zM109 1389q0 78 59 134t143 56q80 0 138.5 -56t58.5 -134q0 -79 -58.5 -136t-138.5 -57q-84 0 -143 56.5t-59 136.5zM631 1389q0 78 59.5 134t143.5 56q80 0 138 -56t58 -134q0 -79 -58 -136t-138 -57
q-84 0 -143.5 56.5t-59.5 136.5z" />
    <glyph glyph-name="aring" unicode="&#xe5;" horiz-adv-x="1136" 
d="M1030 594v-594h-321v84q-115 -109 -295 -109q-162 0 -257.5 92t-95.5 226q0 142 108 223.5t294 81.5h215v16q0 62 -39 96.5t-117 34.5q-67 0 -124 -28t-132 -96l-164 223q104 106 214.5 155.5t248.5 49.5q218 0 341.5 -118t123.5 -337zM678 375v8h-166q-44 0 -69 -20.5
t-25 -57.5t27.5 -58.5t76.5 -21.5q69 0 112.5 41t43.5 109zM289 1378q0 114 80 191q81 78 198 78q120 0 201 -78q80 -77 80 -191q0 -117 -80 -194q-79 -76 -201 -76q-121 0 -199.5 76.5t-78.5 193.5zM641 1378q0 31 -20.5 51.5t-51.5 20.5t-51 -20t-20 -52t20 -52.5
t51 -20.5t51.5 21t20.5 52z" />
    <glyph glyph-name="ae" unicode="&#xe6;" horiz-adv-x="1777" 
d="M1692 387h-654q59 -115 226 -115q135 0 268 80l127 -239q-181 -138 -406 -138q-264 0 -415 181q-126 -181 -392 -181q-186 0 -285.5 87t-99.5 229q0 146 107.5 228.5t294.5 82.5h215v12q0 62 -39 96.5t-115 34.5q-66 0 -123 -28.5t-135 -95.5l-164 223
q104 106 214.5 155.5t248.5 49.5q211 0 336 -113q131 113 324 113q144 0 256.5 -66.5t172.5 -177t60 -242.5q0 -90 -22 -176zM1020 602h360q-1 77 -48 123.5t-120 46.5q-69 0 -120.5 -45.5t-71.5 -124.5zM678 375v12h-166q-44 0 -69 -21.5t-25 -58.5q0 -39 26.5 -60.5
t75.5 -21.5q70 0 114 41t44 109z" />
    <glyph glyph-name="ccedilla" unicode="&#xe7;" horiz-adv-x="1132" 
d="M63 512q-3 146 73 271t206.5 197t280.5 69q156 0 275 -73t183 -202l-243 -186q-43 68 -93.5 102.5t-117.5 34.5q-92 0 -147.5 -59.5t-55.5 -153.5t55.5 -153.5t147.5 -59.5q123 0 211 135l243 -184q-64 -129 -183 -202t-275 -73q-150 -3 -280.5 69t-206.5 197t-73 271z
M317 -375v230q37 -2 129 -2q50 0 77.5 27.5t27.5 76.5v98l135 58q66 -37 102.5 -97t36.5 -133q0 -121 -95.5 -198.5t-254.5 -77.5q-81 0 -158 18z" />
    <glyph glyph-name="egrave" unicode="&#xe8;" horiz-adv-x="1163" 
d="M1077 389h-655q58 -117 229 -117q136 0 269 80l127 -239q-181 -138 -408 -138q-123 0 -230.5 41.5t-183 113t-119 171t-43.5 211.5q0 148 72.5 271.5t198.5 194.5t276 71q144 0 257 -66.5t173 -177t60 -242.5q0 -84 -23 -174zM410 618h356q-1 68 -50.5 111t-119.5 43
q-67 0 -116.5 -40.5t-69.5 -113.5zM485 1176l-301 360v61h424l131 -421h-254z" />
    <glyph glyph-name="eacute" unicode="&#xe9;" horiz-adv-x="1163" 
d="M1077 389h-655q58 -117 229 -117q136 0 269 80l127 -239q-181 -138 -408 -138q-123 0 -230.5 41.5t-183 113t-119 171t-43.5 211.5q0 148 72.5 271.5t198.5 194.5t276 71q144 0 257 -66.5t173 -177t60 -242.5q0 -84 -23 -174zM410 618h356q-1 68 -50.5 111t-119.5 43
q-67 0 -116.5 -40.5t-69.5 -113.5zM481 1176l131 421h424v-61l-301 -360h-254z" />
    <glyph glyph-name="ecircumflex" unicode="&#xea;" horiz-adv-x="1163" 
d="M1077 389h-655q58 -117 229 -117q136 0 269 80l127 -239q-181 -138 -408 -138q-123 0 -230.5 41.5t-183 113t-119 171t-43.5 211.5q0 148 72.5 271.5t198.5 194.5t276 71q144 0 257 -66.5t173 -177t60 -242.5q0 -84 -23 -174zM410 618h356q-1 68 -50.5 111t-119.5 43
q-67 0 -116.5 -40.5t-69.5 -113.5zM1001 1176h-253l-138 147l-137 -147h-254l275 421h235z" />
    <glyph glyph-name="edieresis" unicode="&#xeb;" horiz-adv-x="1163" 
d="M1077 389h-655q58 -117 229 -117q136 0 269 80l127 -239q-181 -138 -408 -138q-123 0 -230.5 41.5t-183 113t-119 171t-43.5 211.5q0 148 72.5 271.5t198.5 194.5t276 71q144 0 257 -66.5t173 -177t60 -242.5q0 -84 -23 -174zM410 618h356q-1 68 -50.5 111t-119.5 43
q-67 0 -116.5 -40.5t-69.5 -113.5zM150 1389q0 78 59 134t143 56q80 0 138.5 -56t58.5 -134q0 -79 -58.5 -136t-138.5 -57q-84 0 -143 56.5t-59 136.5zM672 1389q0 78 59 134t143 56q80 0 138.5 -56t58.5 -134q0 -79 -58.5 -136t-138.5 -57q-84 0 -143 56.5t-59 136.5z" />
    <glyph glyph-name="igrave" unicode="&#xec;" horiz-adv-x="581" 
d="M115 0v1024h352v-1024h-352zM170 1176l-240 360v61h424l70 -421h-254z" />
    <glyph glyph-name="iacute" unicode="&#xed;" horiz-adv-x="581" 
d="M115 0v1024h352v-1024h-352zM162 1176l69 421h424v-61l-239 -360h-254z" />
    <glyph glyph-name="icircumflex" unicode="&#xee;" horiz-adv-x="581" 
d="M115 0v1024h352v-1024h-352zM682 1176h-254l-137 147l-137 -147h-254l274 421h236z" />
    <glyph glyph-name="idieresis" unicode="&#xef;" horiz-adv-x="581" 
d="M115 0v1024h352v-1024h-352zM-160 1386q0 80 62 136q57 57 137 57q85 0 143 -55.5t58 -137.5q0 -76 -60 -133t-141 -57q-77 0 -137 57q-62 59 -62 133zM342 1386q0 80 59 136q60 57 140 57q85 0 142.5 -55.5t57.5 -137.5q0 -76 -59.5 -133t-140.5 -57q-78 0 -138 57
q-61 58 -61 133z" />
    <glyph glyph-name="eth" unicode="&#xf0;" horiz-adv-x="1177" 
d="M1114 471q0 -142 -68.5 -256t-187.5 -177t-264 -63q-230 0 -380.5 137.5t-150.5 342.5q0 189 129 317.5t318 140.5l-78 109l-262 -133l-123 248l219 110l-90 121l264 193l125 -162l322 162l123 -248l-273 -137l123 -160q133 -172 193.5 -293t60.5 -252zM760 457
q0 78 -47 125t-125 47q-76 0 -123 -47.5t-47 -124.5t47 -124.5t123 -47.5q77 0 124.5 48t47.5 124z" />
    <glyph glyph-name="ntilde" unicode="&#xf1;" horiz-adv-x="1222" 
d="M1116 631v-631h-352v580q0 67 -42 109t-108 42t-106.5 -41.5t-40.5 -109.5v-580h-352v1024h321v-84q115 109 289 109q178 0 284.5 -113.5t106.5 -304.5zM592 1202l-60 31q-1 1 -10 6t-15 8.5t-15.5 8t-19.5 6.5t-19 2q-58 0 -58 -64v-16h-262q-6 40 -6 78
q0 146 78.5 232.5t191.5 86.5q78 0 152 -39l59 -31q52 -30 80 -30q57 0 57 63v17h263q6 -41 6 -78q0 -146 -79 -233t-192 -87q-77 0 -151 39z" />
    <glyph glyph-name="ograve" unicode="&#xf2;" horiz-adv-x="1243" 
d="M63 512q-3 144 72.5 269t205.5 198t280 70q112 2 216.5 -40.5t180 -115.5t120 -173t42.5 -208q2 -108 -42.5 -208t-120 -173t-180 -115.5t-216.5 -40.5q-150 -3 -280 70t-205.5 198t-72.5 269zM819 512q0 92 -55.5 152.5t-140.5 60.5q-88 0 -143.5 -59.5t-55.5 -153.5
q0 -96 55.5 -154.5t143.5 -58.5q86 0 141 60t55 153zM498 1176l-301 360v61h424l131 -421h-254z" />
    <glyph glyph-name="oacute" unicode="&#xf3;" horiz-adv-x="1243" 
d="M63 512q-3 144 72.5 269t205.5 198t280 70q112 2 216.5 -40.5t180 -115.5t120 -173t42.5 -208q2 -108 -42.5 -208t-120 -173t-180 -115.5t-216.5 -40.5q-150 -3 -280 70t-205.5 198t-72.5 269zM819 512q0 92 -55.5 152.5t-140.5 60.5q-88 0 -143.5 -59.5t-55.5 -153.5
q0 -96 55.5 -154.5t143.5 -58.5q86 0 141 60t55 153zM494 1176l131 421h424v-61l-301 -360h-254z" />
    <glyph glyph-name="ocircumflex" unicode="&#xf4;" horiz-adv-x="1243" 
d="M63 512q-3 144 72.5 269t205.5 198t280 70q112 2 216.5 -40.5t180 -115.5t120 -173t42.5 -208q2 -108 -42.5 -208t-120 -173t-180 -115.5t-216.5 -40.5q-150 -3 -280 70t-205.5 198t-72.5 269zM819 512q0 92 -55.5 152.5t-140.5 60.5q-88 0 -143.5 -59.5t-55.5 -153.5
q0 -96 55.5 -154.5t143.5 -58.5q86 0 141 60t55 153zM1014 1176h-254l-137 147l-138 -147h-254l275 421h235z" />
    <glyph glyph-name="otilde" unicode="&#xf5;" horiz-adv-x="1243" 
d="M63 512q-3 144 72.5 269t205.5 198t280 70q112 2 216.5 -40.5t180 -115.5t120 -173t42.5 -208q2 -108 -42.5 -208t-120 -173t-180 -115.5t-216.5 -40.5q-150 -3 -280 70t-205.5 198t-72.5 269zM819 512q0 92 -55.5 152.5t-140.5 60.5q-88 0 -143.5 -59.5t-55.5 -153.5
q0 -96 55.5 -154.5t143.5 -58.5q86 0 141 60t55 153zM643 1202l-59 31q-54 31 -80 31q-58 0 -58 -64v-16h-262q-6 40 -6 78q0 146 79 232.5t192 86.5q77 0 151 -39l59 -31q52 -30 80 -30q58 0 58 63v17h262q6 -41 6 -78q0 -146 -78.5 -233t-191.5 -87q-78 0 -152 39z" />
    <glyph glyph-name="odieresis" unicode="&#xf6;" horiz-adv-x="1243" 
d="M63 512q-3 144 72.5 269t205.5 198t280 70q112 2 216.5 -40.5t180 -115.5t120 -173t42.5 -208q2 -108 -42.5 -208t-120 -173t-180 -115.5t-216.5 -40.5q-150 -3 -280 70t-205.5 198t-72.5 269zM819 512q0 92 -55.5 152.5t-140.5 60.5q-88 0 -143.5 -59.5t-55.5 -153.5
q0 -96 55.5 -154.5t143.5 -58.5q86 0 141 60t55 153zM162 1389q0 78 59.5 134t143.5 56q80 0 138 -56t58 -134q0 -79 -58 -136t-138 -57q-84 0 -143.5 56.5t-59.5 136.5zM684 1389q0 78 59.5 134t143.5 56q80 0 138 -56t58 -134q0 -79 -58 -136t-138 -57q-84 0 -143.5 56.5
t-59.5 136.5z" />
    <glyph glyph-name="divide" unicode="&#xf7;" 
d="M371 1061q0 80 57.5 134t142.5 54t144 -54.5t59 -133.5q0 -80 -59 -135.5t-144 -55.5q-84 0 -142 55.5t-58 135.5zM74 516v295h997v-295h-997zM371 266q0 80 58 135.5t142 55.5q85 0 144 -55.5t59 -135.5q0 -79 -59 -133.5t-144 -54.5t-142.5 54t-57.5 134z" />
    <glyph glyph-name="oslash" unicode="&#xf8;" horiz-adv-x="1241" 
d="M1204 887l-100 -101q76 -128 76 -274q3 -145 -74 -270.5t-207.5 -197.5t-277.5 -69q-146 0 -265 64l-110 -111l-209 209l102 103q-76 119 -76 272q0 148 75 271.5t203.5 194.5t279.5 71q145 0 264 -64l110 111zM393 512q0 -34 6 -61l291 290q-42 11 -69 11
q-103 0 -165.5 -65.5t-62.5 -174.5zM850 512q0 33 -6 63l-295 -294q47 -9 72 -9q103 0 166 65t63 175z" />
    <glyph glyph-name="ugrave" unicode="&#xf9;" horiz-adv-x="1214" 
d="M106 477v547h353v-575q0 -66 41.5 -108t107.5 -42q64 0 106 42.5t42 107.5v575h352v-547q0 -224 -140.5 -363t-359.5 -139t-360.5 139t-141.5 363zM483 1176l-301 360v61h424l131 -421h-254z" />
    <glyph glyph-name="uacute" unicode="&#xfa;" horiz-adv-x="1214" 
d="M106 477v547h353v-575q0 -66 41.5 -108t107.5 -42q64 0 106 42.5t42 107.5v575h352v-547q0 -224 -140.5 -363t-359.5 -139t-360.5 139t-141.5 363zM479 1176l131 421h424v-61l-301 -360h-254z" />
    <glyph glyph-name="ucircumflex" unicode="&#xfb;" horiz-adv-x="1214" 
d="M106 477v547h353v-575q0 -66 41.5 -108t107.5 -42q64 0 106 42.5t42 107.5v575h352v-547q0 -224 -140.5 -363t-359.5 -139t-360.5 139t-141.5 363zM999 1176h-254l-137 147l-137 -147h-254l275 421h235z" />
    <glyph glyph-name="udieresis" unicode="&#xfc;" horiz-adv-x="1214" 
d="M106 477v547h353v-575q0 -66 41.5 -108t107.5 -42q64 0 106 42.5t42 107.5v575h352v-547q0 -224 -140.5 -363t-359.5 -139t-360.5 139t-141.5 363zM147 1389q0 78 59.5 134t143.5 56q80 0 138.5 -56t58.5 -134q0 -79 -58.5 -136t-138.5 -57q-84 0 -143.5 56.5
t-59.5 136.5zM670 1389q0 78 59 134t143 56q80 0 138.5 -56t58.5 -134q0 -79 -58.5 -136t-138.5 -57q-84 0 -143 56.5t-59 136.5z" />
    <glyph glyph-name="yacute" unicode="&#xfd;" horiz-adv-x="1171" 
d="M795 1024h372l-481 -1079q-79 -176 -184.5 -257t-261.5 -81q-95 0 -197 24v295q27 -1 55.5 -2t43 -1.5t20.5 -0.5q77 0 123 25.5t77 95.5l17 35l-375 946h375l196 -575zM459 1176l131 421h424v-61l-301 -360h-254z" />
    <glyph glyph-name="thorn" unicode="&#xfe;" horiz-adv-x="1284" 
d="M1221 514q0 -233 -140 -386t-352 -153q-159 0 -262 95v-439h-352v1905h352v-582q100 95 262 95q215 0 353.5 -151t138.5 -384zM860 512q0 100 -57 158.5t-144 58.5q-85 0 -141.5 -57t-56.5 -158t56.5 -160t141.5 -59t143 59t58 158z" />
    <glyph glyph-name="ydieresis" unicode="&#xff;" horiz-adv-x="1171" 
d="M795 1024h372l-481 -1079q-79 -176 -184.5 -257t-261.5 -81q-95 0 -197 24v295q27 -1 55.5 -2t43 -1.5t20.5 -0.5q77 0 123 25.5t77 95.5l17 35l-375 946h375l196 -575zM127 1389q0 78 59.5 134t143.5 56q80 0 138 -56t58 -134q0 -79 -58 -136t-138 -57
q-84 0 -143.5 56.5t-59.5 136.5zM649 1389q0 78 59.5 134t143.5 56q80 0 138.5 -56t58.5 -134q0 -79 -58.5 -136t-138.5 -57q-84 0 -143.5 56.5t-59.5 136.5z" />
    <glyph glyph-name="Amacron" unicode="&#x100;" horiz-adv-x="1349" 
d="M967 0l-49 113h-486l-49 -113h-379l614 1376h113l615 -1376h-379zM793 395l-117 314l-119 -314h236zM328 1526v274h696v-274h-696z" />
    <glyph glyph-name="amacron" unicode="&#x101;" horiz-adv-x="1136" 
d="M1030 594v-594h-321v84q-115 -109 -295 -109q-162 0 -257.5 92t-95.5 226q0 142 108 223.5t294 81.5h215v16q0 62 -39 96.5t-117 34.5q-67 0 -124 -28t-132 -96l-164 223q104 106 214.5 155.5t248.5 49.5q218 0 341.5 -118t123.5 -337zM678 375v8h-166q-44 0 -69 -20.5
t-25 -57.5t27.5 -58.5t76.5 -21.5q69 0 112.5 41t43.5 109zM242 1249v275h655v-275h-655z" />
    <glyph glyph-name="Abreve" unicode="&#x102;" horiz-adv-x="1349" 
d="M967 0l-49 113h-486l-49 -113h-379l614 1376h113l615 -1376h-379zM793 395l-117 314l-119 -314h236zM295 1845v19h272v-19q0 -57 29 -90t80 -33t79.5 33t28.5 90v19h273v-19q0 -167 -107 -274t-274 -107t-274 107t-107 274z" />
    <glyph glyph-name="abreve" unicode="&#x103;" horiz-adv-x="1136" 
d="M1030 594v-594h-321v84q-115 -109 -295 -109q-162 0 -257.5 92t-95.5 226q0 142 108 223.5t294 81.5h215v16q0 62 -39 96.5t-117 34.5q-67 0 -124 -28t-132 -96l-164 223q104 106 214.5 155.5t248.5 49.5q218 0 341.5 -118t123.5 -337zM678 375v8h-166q-44 0 -69 -20.5
t-25 -57.5t27.5 -58.5t76.5 -21.5q69 0 112.5 41t43.5 109zM188 1546v51h273v-51q0 -57 28.5 -90t79.5 -33t80 33t29 90v51h272v-51q0 -167 -107 -274t-274 -107t-274 107t-107 274z" />
    <glyph glyph-name="Aogonek" unicode="&#x104;" horiz-adv-x="1349" 
d="M967 0l-49 113h-486l-49 -113h-379l614 1376h113l615 -1376h-379zM793 395l-117 314l-119 -314h236zM885 -172q0 97 76.5 171t236.5 136l148 -135l-70 -39q-25 -15 -35.5 -22.5t-18.5 -18t-8 -22.5q0 -21 15.5 -33t44.5 -12q14 0 72 10v-221q-103 -35 -197 -35
q-122 0 -193 61t-71 160z" />
    <glyph glyph-name="aogonek" unicode="&#x105;" horiz-adv-x="1136" 
d="M1030 594v-594h-321v84q-115 -109 -295 -109q-162 0 -257.5 92t-95.5 226q0 142 108 223.5t294 81.5h215v16q0 62 -39 96.5t-117 34.5q-67 0 -124 -28t-132 -96l-164 223q104 106 214.5 155.5t248.5 49.5q218 0 341.5 -118t123.5 -337zM678 375v8h-166q-44 0 -69 -20.5
t-25 -57.5t27.5 -58.5t76.5 -21.5q69 0 112.5 41t43.5 109zM569 -172q0 97 77 171t237 136l147 -135l-69 -39q-25 -15 -35.5 -22.5t-18.5 -18t-8 -22.5q0 -45 59 -45q14 0 72 10v-221q-103 -35 -196 -35q-123 0 -194 61.5t-71 159.5z" />
    <glyph glyph-name="Cacute" unicode="&#x106;" horiz-adv-x="1480" 
d="M66 676q-2 142 56 273t156.5 225.5t234.5 149.5t284 52q202 0 364 -95t254 -267l-268 -183q-133 222 -352 222q-162 0 -265.5 -105t-103.5 -274q0 -168 102 -273q105 -102 267 -102q220 0 352 221l268 -182q-93 -172 -255 -267.5t-365 -95.5q-146 -2 -282 52.5
t-235 148.5t-157 225t-55 275zM659 1483l132 381h423v-62l-301 -319h-254z" />
    <glyph glyph-name="cacute" unicode="&#x107;" horiz-adv-x="1132" 
d="M63 512q-3 146 73 271t206.5 197t280.5 69q156 0 275 -73t183 -202l-243 -186q-43 68 -93.5 102.5t-117.5 34.5q-92 0 -147.5 -59.5t-55.5 -153.5t55.5 -153.5t147.5 -59.5q123 0 211 135l243 -184q-64 -129 -183 -202t-275 -73q-150 -3 -280.5 69t-206.5 197t-73 271z
M489 1176l132 421h423v-61l-301 -360h-254z" />
    <glyph glyph-name="Ccircumflex" unicode="&#x108;" horiz-adv-x="1480" 
d="M66 676q-2 142 56 273t156.5 225.5t234.5 149.5t284 52q202 0 364 -95t254 -267l-268 -183q-133 222 -352 222q-162 0 -265.5 -105t-103.5 -274q0 -168 102 -273q105 -102 267 -102q220 0 352 221l268 -182q-93 -172 -255 -267.5t-365 -95.5q-146 -2 -282 52.5
t-235 148.5t-157 225t-55 275zM1221 1483h-267l-157 131l-158 -131h-264l305 381h235z" />
    <glyph glyph-name="ccircumflex" unicode="&#x109;" horiz-adv-x="1132" 
d="M63 512q-3 146 73 271t206.5 197t280.5 69q156 0 275 -73t183 -202l-243 -186q-43 68 -93.5 102.5t-117.5 34.5q-92 0 -147.5 -59.5t-55.5 -153.5t55.5 -153.5t147.5 -59.5q123 0 211 135l243 -184q-64 -129 -183 -202t-275 -73q-150 -3 -280.5 69t-206.5 197t-73 271z
M1010 1176h-254l-138 147l-137 -147h-254l275 421h235z" />
    <glyph glyph-name="Cdotaccent" unicode="&#x10a;" horiz-adv-x="1480" 
d="M66 676q-2 142 56 273t156.5 225.5t234.5 149.5t284 52q202 0 364 -95t254 -267l-268 -183q-133 222 -352 222q-162 0 -265.5 -105t-103.5 -274q0 -168 102 -273q105 -102 267 -102q220 0 352 221l268 -182q-93 -172 -255 -267.5t-365 -95.5q-146 -2 -282 52.5
t-235 148.5t-157 225t-55 275zM582 1675q0 88 62 148.5t153 60.5t154 -60.5t63 -148.5q0 -86 -63 -146.5t-154 -60.5t-153 59.5t-62 147.5z" />
    <glyph glyph-name="cdotaccent" unicode="&#x10b;" horiz-adv-x="1132" 
d="M63 512q-3 146 73 271t206.5 197t280.5 69q156 0 275 -73t183 -202l-243 -186q-43 68 -93.5 102.5t-117.5 34.5q-92 0 -147.5 -59.5t-55.5 -153.5t55.5 -153.5t147.5 -59.5q123 0 211 135l243 -184q-64 -129 -183 -202t-275 -73q-150 -3 -280.5 69t-206.5 197t-73 271z
M401 1386q0 88 62 148.5t153 60.5t154.5 -60.5t63.5 -148.5q0 -86 -63.5 -146t-154.5 -60t-153 59t-62 147z" />
    <glyph glyph-name="Ccaron" unicode="&#x10c;" horiz-adv-x="1480" 
d="M66 676q-2 142 56 273t156.5 225.5t234.5 149.5t284 52q202 0 364 -95t254 -267l-268 -183q-133 222 -352 222q-162 0 -265.5 -105t-103.5 -274q0 -168 102 -273q105 -102 267 -102q220 0 352 221l268 -182q-93 -172 -255 -267.5t-365 -95.5q-146 -2 -282 52.5
t-235 148.5t-157 225t-55 275zM954 1864h267l-306 -381h-235l-305 381h264l158 -131z" />
    <glyph glyph-name="ccaron" unicode="&#x10d;" horiz-adv-x="1132" 
d="M63 512q-3 146 73 271t206.5 197t280.5 69q156 0 275 -73t183 -202l-243 -186q-43 68 -93.5 102.5t-117.5 34.5q-92 0 -147.5 -59.5t-55.5 -153.5t55.5 -153.5t147.5 -59.5q123 0 211 135l243 -184q-64 -129 -183 -202t-275 -73q-150 -3 -280.5 69t-206.5 197t-73 271z
M756 1597h254l-273 -421h-235l-275 421h254l137 -147z" />
    <glyph glyph-name="Dcaron" unicode="&#x10e;" horiz-adv-x="1409" 
d="M135 0v1352h471q206 2 375 -80.5t267 -238t95 -353.5q3 -196 -95 -353.5t-267.5 -243.5t-374.5 -83h-471zM487 317h117q168 0 273.5 99t105.5 264q0 168 -103.5 260t-275.5 92h-117v-715zM721 1864h266l-305 -381h-236l-305 381h265l157 -131z" />
    <glyph glyph-name="dcaron" unicode="&#x10f;" horiz-adv-x="1691" 
d="M817 1536h352v-1536h-321v106q-94 -131 -293 -131q-215 0 -353.5 151t-138.5 384t140 386t352 153q159 0 262 -95v582zM823 510q0 101 -56.5 160t-141.5 59t-143 -59t-58 -158q0 -100 57 -158.5t144 -58.5q85 0 141.5 57t56.5 158zM1333 1122v414h359l-113 -414h-246z
" />
    <glyph glyph-name="Dcroat" unicode="&#x110;" horiz-adv-x="1409" 
d="M1343 680q3 -196 -95 -353.5t-267.5 -243.5t-374.5 -83h-471v504h-155v295h155v553h471q206 2 375 -80.5t267 -238t95 -353.5zM983 680q0 168 -103.5 260t-275.5 92h-117v-233h191v-295h-191v-187h117q168 0 273.5 99t105.5 264z" />
    <glyph glyph-name="dslash" unicode="&#x111;" horiz-adv-x="1304" 
d="M1325 1376v-282h-156v-1094h-321v106q-101 -131 -301 -131q-207 0 -345.5 138t-138.5 356t138.5 358t343.5 140q169 0 272 -103v230h-397v282h397v160h352v-160h156zM823 467q0 95 -56.5 151t-141.5 56t-143 -55.5t-58 -149.5q0 -92 57 -146.5t144 -54.5q86 0 142 52
t56 147z" />
    <glyph glyph-name="Emacron" unicode="&#x112;" horiz-adv-x="1181" 
d="M135 0v1352h938v-318h-586v-186h418v-295h-418v-236h611v-317h-963zM244 1526v274h696v-274h-696z" />
    <glyph glyph-name="emacron" unicode="&#x113;" horiz-adv-x="1163" 
d="M1077 389h-655q58 -117 229 -117q136 0 269 80l127 -239q-181 -138 -408 -138q-123 0 -230.5 41.5t-183 113t-119 171t-43.5 211.5q0 148 72.5 271.5t198.5 194.5t276 71q144 0 257 -66.5t173 -177t60 -242.5q0 -84 -23 -174zM410 618h356q-1 68 -50.5 111t-119.5 43
q-67 0 -116.5 -40.5t-69.5 -113.5zM283 1249v275h655v-275h-655z" />
    <glyph glyph-name="Ebreve" unicode="&#x114;" horiz-adv-x="1181" 
d="M135 0v1352h938v-318h-586v-186h418v-295h-418v-236h611v-317h-963zM211 1845v19h272v-19q0 -57 29 -90t80 -33t79.5 33t28.5 90v19h273v-19q0 -167 -107 -274t-274 -107t-274 107t-107 274z" />
    <glyph glyph-name="ebreve" unicode="&#x115;" horiz-adv-x="1163" 
d="M1077 389h-655q58 -117 229 -117q136 0 269 80l127 -239q-181 -138 -408 -138q-123 0 -230.5 41.5t-183 113t-119 171t-43.5 211.5q0 148 72.5 271.5t198.5 194.5t276 71q144 0 257 -66.5t173 -177t60 -242.5q0 -84 -23 -174zM410 618h356q-1 68 -50.5 111t-119.5 43
q-67 0 -116.5 -40.5t-69.5 -113.5zM229 1546v51h273v-51q0 -57 28.5 -90t79.5 -33t80 33t29 90v51h272v-51q0 -167 -107 -274t-274 -107t-274 107t-107 274z" />
    <glyph glyph-name="Edotaccent" unicode="&#x116;" horiz-adv-x="1181" 
d="M135 0v1352h938v-318h-586v-186h418v-295h-418v-236h611v-317h-963zM375 1675q0 88 62 148.5t153 60.5t154 -60.5t63 -148.5q0 -86 -63 -146.5t-154 -60.5t-153 59.5t-62 147.5z" />
    <glyph glyph-name="edotaccent" unicode="&#x117;" horiz-adv-x="1163" 
d="M1077 389h-655q58 -117 229 -117q136 0 269 80l127 -239q-181 -138 -408 -138q-123 0 -230.5 41.5t-183 113t-119 171t-43.5 211.5q0 148 72.5 271.5t198.5 194.5t276 71q144 0 257 -66.5t173 -177t60 -242.5q0 -84 -23 -174zM410 618h356q-1 68 -50.5 111t-119.5 43
q-67 0 -116.5 -40.5t-69.5 -113.5zM393 1386q0 88 62 148.5t153 60.5t154 -60.5t63 -148.5q0 -86 -63 -146t-154 -60t-153 59t-62 147z" />
    <glyph glyph-name="Eogonek" unicode="&#x118;" horiz-adv-x="1181" 
d="M135 0v1352h938v-318h-586v-186h418v-295h-418v-236h611v-317h-963zM637 -172q0 97 76.5 171t236.5 136l148 -135l-70 -39q-35 -21 -48 -33.5t-13 -29.5q0 -45 59 -45q14 0 72 10v-221q-103 -35 -197 -35q-122 0 -193 61t-71 160z" />
    <glyph glyph-name="eogonek" unicode="&#x119;" horiz-adv-x="1163" 
d="M1077 389h-655q58 -117 229 -117q136 0 269 80l127 -239q-181 -138 -408 -138q-123 0 -230.5 41.5t-183 113t-119 171t-43.5 211.5q0 148 72.5 271.5t198.5 194.5t276 71q144 0 257 -66.5t173 -177t60 -242.5q0 -84 -23 -174zM410 618h356q-1 68 -50.5 111t-119.5 43
q-67 0 -116.5 -40.5t-69.5 -113.5zM522 -172q0 72 40.5 126t176.5 159h308l-156 -152q-39 -39 -39 -63q0 -45 59 -45q7 0 72 10v-221q-93 -35 -197 -35q-121 0 -192.5 60.5t-71.5 160.5z" />
    <glyph glyph-name="Ecaron" unicode="&#x11a;" horiz-adv-x="1181" 
d="M135 0v1352h938v-318h-586v-186h418v-295h-418v-236h611v-317h-963zM748 1864h266l-305 -381h-236l-305 381h264l158 -131z" />
    <glyph glyph-name="ecaron" unicode="&#x11b;" horiz-adv-x="1163" 
d="M1077 389h-655q58 -117 229 -117q136 0 269 80l127 -239q-181 -138 -408 -138q-123 0 -230.5 41.5t-183 113t-119 171t-43.5 211.5q0 148 72.5 271.5t198.5 194.5t276 71q144 0 257 -66.5t173 -177t60 -242.5q0 -84 -23 -174zM410 618h356q-1 68 -50.5 111t-119.5 43
q-67 0 -116.5 -40.5t-69.5 -113.5zM748 1597h253l-272 -421h-235l-275 421h254l137 -147z" />
    <glyph glyph-name="Gcircumflex" unicode="&#x11c;" horiz-adv-x="1529" 
d="M66 676q-2 143 56 274t156.5 225t235.5 148.5t287 52.5q186 0 334 -77t247 -224l-245 -209q-134 187 -342 187q-169 0 -269 -103t-100 -274q0 -175 105 -281t284 -106q192 0 297 121v63h-315v303h667v-426q-92 -166 -270 -272q-177 -103 -393 -103q-150 -2 -286.5 52.5
t-235.5 148.5t-157 225t-56 275zM1223 1483h-267l-157 131l-158 -131h-264l305 381h236z" />
    <glyph glyph-name="gcircumflex" unicode="&#x11d;" horiz-adv-x="1284" 
d="M848 1024h321v-899q0 -256 -145.5 -387t-402.5 -131q-300 0 -517 184l179 248q152 -117 301 -117q104 0 168.5 46t64.5 134v37q-94 -94 -268 -94q-213 0 -349.5 138t-136.5 366q0 227 137.5 363.5t348.5 136.5q205 0 299 -129v104zM823 555q0 98 -56 150.5t-142 52.5
q-88 0 -144.5 -54.5t-56.5 -150.5q0 -97 58.5 -157t142.5 -60t141 59.5t57 159.5zM1034 1176h-254l-137 147l-137 -147h-254l274 421h236z" />
    <glyph glyph-name="Gbreve" unicode="&#x11e;" horiz-adv-x="1529" 
d="M66 676q-2 143 56 274t156.5 225t235.5 148.5t287 52.5q186 0 334 -77t247 -224l-245 -209q-134 187 -342 187q-169 0 -269 -103t-100 -274q0 -175 105 -281t284 -106q192 0 297 121v63h-315v303h667v-426q-92 -166 -270 -272q-177 -103 -393 -103q-150 -2 -286.5 52.5
t-235.5 148.5t-157 225t-56 275zM420 1845v19h272v-19q0 -57 29 -90t80 -33t79.5 33t28.5 90v19h273v-19q0 -167 -107 -274t-274 -107t-274 107t-107 274z" />
    <glyph glyph-name="gbreve" unicode="&#x11f;" horiz-adv-x="1284" 
d="M848 1024h321v-899q0 -256 -145.5 -387t-402.5 -131q-300 0 -517 184l179 248q152 -117 301 -117q104 0 168.5 46t64.5 134v37q-94 -94 -268 -94q-213 0 -349.5 138t-136.5 366q0 227 137.5 363.5t348.5 136.5q205 0 299 -129v104zM823 555q0 98 -56 150.5t-142 52.5
q-88 0 -144.5 -54.5t-56.5 -150.5q0 -97 58.5 -157t142.5 -60t141 59.5t57 159.5zM262 1546v51h273v-51q0 -57 28.5 -90t79.5 -33t80 33t29 90v51h272v-51q0 -167 -107 -274t-274 -107t-274 107t-107 274z" />
    <glyph glyph-name="Gdotaccent" unicode="&#x120;" horiz-adv-x="1529" 
d="M66 676q-2 143 56 274t156.5 225t235.5 148.5t287 52.5q186 0 334 -77t247 -224l-245 -209q-134 187 -342 187q-169 0 -269 -103t-100 -274q0 -175 105 -281t284 -106q192 0 297 121v63h-315v303h667v-426q-92 -166 -270 -272q-177 -103 -393 -103q-150 -2 -286.5 52.5
t-235.5 148.5t-157 225t-56 275zM584 1675q0 88 62 148.5t153 60.5t154 -60.5t63 -148.5q0 -86 -63 -146.5t-154 -60.5t-153 59.5t-62 147.5z" />
    <glyph glyph-name="gdotaccent" unicode="&#x121;" horiz-adv-x="1284" 
d="M848 1024h321v-899q0 -256 -145.5 -387t-402.5 -131q-300 0 -517 184l179 248q152 -117 301 -117q104 0 168.5 46t64.5 134v37q-94 -94 -268 -94q-213 0 -349.5 138t-136.5 366q0 227 137.5 363.5t348.5 136.5q205 0 299 -129v104zM823 555q0 98 -56 150.5t-142 52.5
q-88 0 -144.5 -54.5t-56.5 -150.5q0 -97 58.5 -157t142.5 -60t141 59.5t57 159.5zM426 1386q0 88 62 148.5t153 60.5t154 -60.5t63 -148.5q0 -86 -63 -146t-154 -60t-153 59t-62 147z" />
    <glyph glyph-name="uni0122" unicode="&#x122;" horiz-adv-x="1529" 
d="M66 676q-2 143 56 274t156.5 225t235.5 148.5t287 52.5q186 0 334 -77t247 -224l-245 -209q-134 187 -342 187q-169 0 -269 -103t-100 -274q0 -175 105 -281t284 -106q192 0 297 121v63h-315v303h667v-426q-92 -166 -270 -272q-177 -103 -393 -103q-150 -2 -286.5 52.5
t-235.5 148.5t-157 225t-56 275zM645 -451v361h320l-54 -361h-266z" />
    <glyph glyph-name="uni0123" unicode="&#x123;" horiz-adv-x="1284" 
d="M848 1024h321v-899q0 -256 -145.5 -387t-402.5 -131q-300 0 -517 184l179 248q152 -117 301 -117q104 0 168.5 46t64.5 134v37q-94 -94 -268 -94q-213 0 -349.5 138t-136.5 366q0 227 137.5 363.5t348.5 136.5q205 0 299 -129v104zM823 555q0 98 -56 150.5t-142 52.5
q-88 0 -144.5 -54.5t-56.5 -150.5q0 -97 58.5 -157t142.5 -60t141 59.5t57 159.5zM467 1176l74 421h254v-421h-328z" />
    <glyph glyph-name="Hcircumflex" unicode="&#x124;" horiz-adv-x="1468" 
d="M135 0v1352h352v-494h494v494h352v-1352h-352v541h-494v-541h-352zM1157 1483h-266l-158 131l-158 -131h-264l305 381h236z" />
    <glyph glyph-name="hcircumflex" unicode="&#x125;" horiz-adv-x="1222" 
d="M1116 631v-631h-352v580q0 67 -42 109t-108 42t-106.5 -41.5t-40.5 -109.5v-580h-352v1536h352v-584q111 97 266 97q171 0 277 -115.5t106 -302.5zM889 1667h-266l-158 131l-158 -131h-264l305 381h236z" />
    <glyph glyph-name="Hbar" unicode="&#x126;" horiz-adv-x="1517" 
d="M160 0v860h-180v295h180v197h352v-197h494v197h352v-197h180v-295h-180v-860h-352v387h-494v-387h-352zM512 684h494v176h-494v-176z" />
    <glyph glyph-name="hbar" unicode="&#x127;" horiz-adv-x="1243" 
d="M1137 549v-549h-353v498q0 67 -41.5 109t-107.5 42t-107 -42t-41 -109v-498h-352v1092h-155v284h155v160h352v-160h377v-284h-377v-222q111 97 267 97q171 0 277 -115.5t106 -302.5z" />
    <glyph glyph-name="Itilde" unicode="&#x128;" horiz-adv-x="622" 
d="M135 0v1352h352v-1352h-352zM330 1505l-58 29q-64 31 -92 31q-26 0 -40.5 -17t-14.5 -47v-16h-262q-6 41 -6 78q0 144 81.5 231.5t194.5 87.5q74 0 158 -41l57 -29q62 -30 92 -30q26 0 41 17t15 46v17h262q6 -41 6 -78q0 -144 -82 -232t-195 -88q-73 0 -157 41z" />
    <glyph glyph-name="itilde" unicode="&#x129;" horiz-adv-x="581" 
d="M115 0v1024h352v-1024h-352zM299 1212l-41 27q-42 25 -59 25q-26 0 -40 -17t-14 -47v-16h-262q-6 40 -6 80q0 145 74.5 231t189.5 86q71 0 144 -49l41 -27q41 -24 59 -24q51 0 51 63v17h262q7 -47 7 -80q0 -145 -74 -231.5t-189 -86.5q-70 0 -143 49z" />
    <glyph glyph-name="Imacron" unicode="&#x12a;" horiz-adv-x="622" 
d="M135 0v1352h352v-1352h-352zM-37 1526v274h696v-274h-696z" />
    <glyph glyph-name="imacron" unicode="&#x12b;" horiz-adv-x="581" 
d="M115 0v1024h352v-1024h-352zM4 1249v275h574v-275h-574z" />
    <glyph glyph-name="Ibreve" unicode="&#x12c;" horiz-adv-x="622" 
d="M135 0v1352h352v-1352h-352zM-70 1845v19h273v-19q0 -57 28.5 -90t79.5 -33t80 33t29 90v19h272v-19q0 -167 -107 -274t-274 -107t-274 107t-107 274z" />
    <glyph glyph-name="ibreve" unicode="&#x12d;" horiz-adv-x="581" 
d="M115 0v1024h352v-1024h-352zM-90 1546v51h272v-51q0 -57 29 -90t80 -33t79.5 33t28.5 90v51h273v-51q0 -167 -107 -274t-274 -107t-274 107t-107 274z" />
    <glyph glyph-name="Iogonek" unicode="&#x12e;" horiz-adv-x="622" 
d="M135 0v1352h352v-1352h-352zM27 -172q0 97 76.5 171t236.5 136l147 -135l-69 -39q-25 -15 -35.5 -22.5t-18.5 -18t-8 -22.5q0 -21 15.5 -33t44.5 -12q13 0 71 10v-221q-103 -35 -196 -35q-122 0 -193 61t-71 160z" />
    <glyph glyph-name="iogonek" unicode="&#x12f;" horiz-adv-x="581" 
d="M115 0v1024h352v-1024h-352zM74 1386q0 88 62 148.5t153 60.5t154 -60.5t63 -148.5q0 -86 -63 -146t-154 -60t-153 59t-62 147zM6 -172q0 97 76.5 171t236.5 136l148 -135l-70 -39q-35 -21 -48 -33.5t-13 -29.5q0 -45 59 -45q14 0 72 10v-221q-103 -35 -197 -35
q-122 0 -193 61t-71 160z" />
    <glyph glyph-name="Idot" unicode="&#x130;" horiz-adv-x="622" 
d="M135 0v1352h352v-1352h-352zM94 1675q0 88 62 148.5t153 60.5t154 -60.5t63 -148.5q0 -86 -63 -146.5t-154 -60.5t-153 59.5t-62 147.5z" />
    <glyph glyph-name="dotlessi" unicode="&#x131;" horiz-adv-x="581" 
d="M115 0v1024h352v-1024h-352z" />
    <glyph glyph-name="IJ" unicode="&#x132;" horiz-adv-x="1439" 
d="M135 0v1352h352v-1352h-352zM647 0v299l129 -4q97 0 136.5 30.5t39.5 104.5v922h353v-961q0 -206 -115 -311t-336 -105q-101 0 -207 25z" />
    <glyph glyph-name="ij" unicode="&#x133;" horiz-adv-x="1163" 
d="M115 0v1024h352v-1024h-352zM74 1386q0 88 62 148.5t153 60.5t154 -60.5t63 -148.5q0 -86 -63 -146t-154 -60t-153 59t-62 147zM449 -369v295q16 -1 34.5 -2t29 -1.5t15.5 -0.5q90 0 129 31.5t39 103.5v967h353v-1001q0 -202 -113 -309t-318 -107q-98 0 -169 24z
M655 1386q0 88 62 148.5t153 60.5t154 -60.5t63 -148.5q0 -86 -63 -146t-154 -60t-153 59t-62 147z" />
    <glyph glyph-name="Jcircumflex" unicode="&#x134;" horiz-adv-x="817" 
d="M25 0v299l129 -4q97 0 136.5 30.5t39.5 104.5v922h352v-961q0 -206 -115 -311t-336 -105q-100 0 -206 25zM879 1483h-267l-157 131l-158 -131h-264l305 381h235z" />
    <glyph glyph-name="jcircumflex" unicode="&#x135;" horiz-adv-x="581" 
d="M-133 -369v295q16 -1 35 -2t29.5 -1.5t15.5 -0.5q90 0 129 31.5t39 103.5v967h352v-1001q0 -202 -112.5 -309t-317.5 -107q-99 0 -170 24zM682 1176h-254l-137 147l-137 -147h-254l274 421h236z" />
    <glyph glyph-name="uni0136" unicode="&#x136;" horiz-adv-x="1423" 
d="M1419 0h-418l-514 674v-674h-352v1352h352v-613l447 613h409l-464 -643zM520 -451v361h320l-54 -361h-266z" />
    <glyph glyph-name="uni0137" unicode="&#x137;" horiz-adv-x="1218" 
d="M1219 0h-388l-364 541v-541h-352v1536h352v-926l319 414h408l-352 -457zM467 -451v361h319l-53 -361h-266z" />
    <glyph glyph-name="Lacute" unicode="&#x139;" horiz-adv-x="1095" 
d="M135 0v1352h352v-1035h560v-317h-912zM172 1483l131 381h424v-62l-301 -319h-254z" />
    <glyph glyph-name="lacute" unicode="&#x13a;" horiz-adv-x="581" 
d="M115 0v1536h352v-1536h-352zM152 1667l131 381h424v-61l-301 -320h-254z" />
    <glyph glyph-name="uni013B" unicode="&#x13b;" horiz-adv-x="1095" 
d="M135 0v1352h352v-1035h560v-317h-912zM428 -451v361h320l-54 -361h-266z" />
    <glyph glyph-name="uni013C" unicode="&#x13c;" horiz-adv-x="581" 
d="M115 0v1536h352v-1536h-352zM135 -451v361h320l-54 -361h-266z" />
    <glyph glyph-name="Lcaron" unicode="&#x13d;" horiz-adv-x="1095" 
d="M135 0v1352h352v-1035h560v-317h-912zM733 1061v414h359l-113 -414h-246z" />
    <glyph glyph-name="lcaron" unicode="&#x13e;" horiz-adv-x="989" 
d="M115 0v1536h352v-1536h-352zM631 1122v414h358l-112 -414h-246z" />
    <glyph glyph-name="Ldot" unicode="&#x13f;" horiz-adv-x="1095" 
d="M135 0v1352h352v-1035h560v-317h-912zM637 786q0 98 65.5 164t167.5 66q98 0 163 -66.5t65 -163.5q0 -98 -65 -163.5t-163 -65.5q-102 0 -167.5 65t-65.5 164z" />
    <glyph glyph-name="ldot" unicode="&#x140;" horiz-adv-x="974" 
d="M115 0v1536h352v-1536h-352zM541 664q0 98 65.5 163.5t167.5 65.5q98 0 162.5 -66t64.5 -163q0 -99 -64.5 -164.5t-162.5 -65.5q-102 0 -167.5 65.5t-65.5 164.5z" />
    <glyph glyph-name="Lslash" unicode="&#x141;" horiz-adv-x="1095" 
d="M487 317h560v-317h-912v352l-139 -63v325l139 64v674h352v-533l379 172v-325l-379 -172v-177z" />
    <glyph glyph-name="lslash" unicode="&#x142;" horiz-adv-x="630" 
d="M647 979v-326l-155 -71v-582h-353v442l-155 -71v325l155 72v768h353v-629z" />
    <glyph glyph-name="Nacute" unicode="&#x143;" horiz-adv-x="1468" 
d="M981 1352h352v-1377h-112l-734 711v-686h-352v1376h113l733 -700v676zM596 1483l131 381h424v-62l-301 -319h-254z" />
    <glyph glyph-name="nacute" unicode="&#x144;" horiz-adv-x="1222" 
d="M1116 631v-631h-352v580q0 67 -42 109t-108 42t-106.5 -41.5t-40.5 -109.5v-580h-352v1024h321v-84q115 109 289 109q178 0 284.5 -113.5t106.5 -304.5zM442 1176l131 421h424v-61l-301 -360h-254z" />
    <glyph glyph-name="uni0145" unicode="&#x145;" horiz-adv-x="1468" 
d="M981 1352h352v-1377h-112l-734 711v-686h-352v1376h113l733 -700v676zM580 -451v361h319l-53 -361h-266z" />
    <glyph glyph-name="uni0146" unicode="&#x146;" horiz-adv-x="1222" 
d="M1116 631v-631h-352v580q0 67 -42 109t-108 42t-106.5 -41.5t-40.5 -109.5v-580h-352v1024h321v-84q115 109 289 109q178 0 284.5 -113.5t106.5 -304.5zM469 -451v361h319l-53 -361h-266z" />
    <glyph glyph-name="Ncaron" unicode="&#x147;" horiz-adv-x="1468" 
d="M981 1352h352v-1377h-112l-734 711v-686h-352v1376h113l733 -700v676zM891 1864h266l-305 -381h-236l-305 381h264l158 -131z" />
    <glyph glyph-name="ncaron" unicode="&#x148;" horiz-adv-x="1222" 
d="M1116 631v-631h-352v580q0 67 -42 109t-108 42t-106.5 -41.5t-40.5 -109.5v-580h-352v1024h321v-84q115 109 289 109q178 0 284.5 -113.5t106.5 -304.5zM709 1597h254l-273 -421h-235l-275 421h254l137 -147z" />
    <glyph glyph-name="Eng" unicode="&#x14a;" horiz-adv-x="1468" 
d="M981 1352h352v-1329q0 -202 -112.5 -309t-317.5 -107q-99 0 -170 24v295q16 -1 35 -2t29.5 -1.5t15.5 -0.5q90 0 129 31.5t39 103.5v2l-494 557v-616h-352v1376h113l733 -813v789z" />
    <glyph glyph-name="eng" unicode="&#x14b;" horiz-adv-x="1222" 
d="M1116 631v-608q0 -202 -112.5 -309t-317.5 -107q-100 0 -170 24v295q16 -1 35 -2t29.5 -1.5t15.5 -0.5q90 0 129 31.5t39 103.5v523q0 67 -42 109t-108 42t-106.5 -41.5t-40.5 -109.5v-580h-352v1024h321v-84q115 109 289 109q178 0 284.5 -113.5t106.5 -304.5z" />
    <glyph glyph-name="Omacron" unicode="&#x14c;" horiz-adv-x="1589" 
d="M66 676q-3 142 55 273t157 225.5t234.5 149.5t280.5 52q116 2 227.5 -32.5t202.5 -99.5t160 -151.5t106 -194.5t35 -222q3 -143 -56 -274.5t-159 -225.5t-235.5 -148.5t-280.5 -52.5q-146 -2 -281 52.5t-234 148.5t-157 225.5t-55 274.5zM1163 676q0 166 -105 271.5
t-263 105.5q-163 0 -266 -105t-103 -272q0 -170 102 -275q102 -102 267 -102q159 0 263.5 105t104.5 272zM446 1526v274h697v-274h-697z" />
    <glyph glyph-name="omacron" unicode="&#x14d;" horiz-adv-x="1243" 
d="M63 512q-3 144 72.5 269t205.5 198t280 70q112 2 216.5 -40.5t180 -115.5t120 -173t42.5 -208q2 -108 -42.5 -208t-120 -173t-180 -115.5t-216.5 -40.5q-150 -3 -280 70t-205.5 198t-72.5 269zM819 512q0 92 -55.5 152.5t-140.5 60.5q-88 0 -143.5 -59.5t-55.5 -153.5
q0 -96 55.5 -154.5t143.5 -58.5q86 0 141 60t55 153zM295 1249v275h655v-275h-655z" />
    <glyph glyph-name="Obreve" unicode="&#x14e;" horiz-adv-x="1589" 
d="M66 676q-3 142 55 273t157 225.5t234.5 149.5t280.5 52q116 2 227.5 -32.5t202.5 -99.5t160 -151.5t106 -194.5t35 -222q3 -143 -56 -274.5t-159 -225.5t-235.5 -148.5t-280.5 -52.5q-146 -2 -281 52.5t-234 148.5t-157 225.5t-55 274.5zM1163 676q0 166 -105 271.5
t-263 105.5q-163 0 -266 -105t-103 -272q0 -170 102 -275q102 -102 267 -102q159 0 263.5 105t104.5 272zM414 1845v19h272v-19q0 -57 29 -90t80 -33t79.5 33t28.5 90v19h273v-19q0 -167 -107 -274t-274 -107t-274 107t-107 274z" />
    <glyph glyph-name="obreve" unicode="&#x14f;" horiz-adv-x="1243" 
d="M63 512q-3 144 72.5 269t205.5 198t280 70q112 2 216.5 -40.5t180 -115.5t120 -173t42.5 -208q2 -108 -42.5 -208t-120 -173t-180 -115.5t-216.5 -40.5q-150 -3 -280 70t-205.5 198t-72.5 269zM819 512q0 92 -55.5 152.5t-140.5 60.5q-88 0 -143.5 -59.5t-55.5 -153.5
q0 -96 55.5 -154.5t143.5 -58.5q86 0 141 60t55 153zM242 1546v51h272v-51q0 -57 29 -90t80 -33t79.5 33t28.5 90v51h273v-51q0 -167 -107 -274t-274 -107t-274 107t-107 274z" />
    <glyph glyph-name="Ohungarumlaut" unicode="&#x150;" horiz-adv-x="1589" 
d="M66 676q-3 142 55 273t157 225.5t234.5 149.5t280.5 52q116 2 227.5 -32.5t202.5 -99.5t160 -151.5t106 -194.5t35 -222q3 -143 -56 -274.5t-159 -225.5t-235.5 -148.5t-280.5 -52.5q-146 -2 -281 52.5t-234 148.5t-157 225.5t-55 274.5zM1163 676q0 166 -105 271.5
t-263 105.5q-163 0 -266 -105t-103 -272q0 -170 102 -275q102 -102 267 -102q159 0 263.5 105t104.5 272zM397 1483l131 381h363v-62l-260 -319h-234zM907 1483l131 381h363v-62l-260 -319h-234z" />
    <glyph glyph-name="ohungarumlaut" unicode="&#x151;" horiz-adv-x="1243" 
d="M63 512q-3 144 72.5 269t205.5 198t280 70q112 2 216.5 -40.5t180 -115.5t120 -173t42.5 -208q2 -108 -42.5 -208t-120 -173t-180 -115.5t-216.5 -40.5q-150 -3 -280 70t-205.5 198t-72.5 269zM819 512q0 92 -55.5 152.5t-140.5 60.5q-88 0 -143.5 -59.5t-55.5 -153.5
q0 -96 55.5 -154.5t143.5 -58.5q86 0 141 60t55 153zM264 1176l131 421h363v-61l-260 -360h-234zM733 1176l131 421h363v-61l-260 -360h-234z" />
    <glyph glyph-name="OE" unicode="&#x152;" horiz-adv-x="2209" 
d="M1516 317h610v-317h-963v84q-151 -109 -372 -109q-148 -2 -283.5 52.5t-233.5 148.5t-154.5 225t-53.5 275q-2 143 54.5 273.5t153.5 225t233 149t286 52.5q223 0 370 -108v84h938v-318h-585v-186h417v-295h-417v-236zM1163 674q0 169 -104.5 274t-265.5 105t-264 -105
t-103 -274t103 -272t264 -103q160 0 265 104t105 271z" />
    <glyph glyph-name="oe" unicode="&#x153;" horiz-adv-x="1878" 
d="M1792 389h-647q53 -117 221 -117q135 0 268 80l127 -239q-181 -138 -405 -138q-242 0 -387 154q-63 -74 -155 -114t-200 -40q-108 -2 -210 40t-177.5 114.5t-120.5 173t-43 209.5q-2 109 43 209.5t120.5 173t177.5 114.5t210 40q108 0 198.5 -39.5t154.5 -112.5
q139 152 360 152q142 0 255 -67t173 -177.5t60 -241.5q0 -84 -23 -174zM1135 618h346q-1 68 -50.5 111t-119.5 43q-66 0 -111.5 -40t-64.5 -114zM809 512q0 95 -51.5 154t-136.5 59q-86 0 -141.5 -59.5t-55.5 -153.5t55.5 -153.5t141.5 -59.5q85 0 136.5 59t51.5 154z" />
    <glyph glyph-name="Racute" unicode="&#x154;" horiz-adv-x="1335" 
d="M1331 0h-393l-305 420h-146v-420h-352v1352h531q228 0 375 -128.5t147 -336.5q0 -123 -56 -223t-157 -162zM487 1044v-317h181q73 0 117 44t44 116t-43.5 114.5t-117.5 42.5h-181zM406 1483l131 381h424v-62l-302 -319h-253z" />
    <glyph glyph-name="racute" unicode="&#x155;" horiz-adv-x="829" 
d="M795 1024v-311h-84q-123 0 -183.5 -59.5t-60.5 -186.5v-467h-352v1024h321v-109q98 125 258 125q51 0 101 -16zM287 1176l131 421h424v-61l-301 -360h-254z" />
    <glyph glyph-name="uni0156" unicode="&#x156;" horiz-adv-x="1335" 
d="M1331 0h-393l-305 420h-146v-420h-352v1352h531q228 0 375 -128.5t147 -336.5q0 -123 -56 -223t-157 -162zM487 1044v-317h181q73 0 117 44t44 116t-43.5 114.5t-117.5 42.5h-181zM532 -451v361h320l-53 -361h-267z" />
    <glyph glyph-name="uni0157" unicode="&#x157;" horiz-adv-x="829" 
d="M795 1024v-311h-84q-123 0 -183.5 -59.5t-60.5 -186.5v-467h-352v1024h321v-109q98 125 258 125q51 0 101 -16zM135 -451v361h320l-54 -361h-266z" />
    <glyph glyph-name="Rcaron" unicode="&#x158;" horiz-adv-x="1335" 
d="M1331 0h-393l-305 420h-146v-420h-352v1352h531q228 0 375 -128.5t147 -336.5q0 -123 -56 -223t-157 -162zM487 1044v-317h181q73 0 117 44t44 116t-43.5 114.5t-117.5 42.5h-181zM700 1864h267l-305 -381h-236l-305 381h264l158 -131z" />
    <glyph glyph-name="rcaron" unicode="&#x159;" horiz-adv-x="829" 
d="M795 1024v-311h-84q-123 0 -183.5 -59.5t-60.5 -186.5v-467h-352v1024h321v-109q98 125 258 125q51 0 101 -16zM553 1597h254l-272 -421h-236l-274 421h254l137 -147z" />
    <glyph glyph-name="Sacute" unicode="&#x15a;" 
d="M47 279l238 180q65 -87 134.5 -130.5t166.5 -43.5q139 0 139 98q0 42 -26.5 65t-110.5 60l-139 61q-171 75 -257 174.5t-86 233.5q0 179 132.5 289t341.5 110q163 0 281 -72t181 -200l-235 -180q-51 76 -102 109.5t-121 33.5q-57 0 -89 -22t-32 -64q0 -37 25.5 -61
t91.5 -50l155 -65q179 -75 262.5 -171t83.5 -237q0 -128 -65.5 -225t-177 -147t-252.5 -50q-181 0 -323 81.5t-216 222.5zM434 1483l131 381h424v-62l-301 -319h-254z" />
    <glyph glyph-name="sacute" unicode="&#x15b;" horiz-adv-x="933" 
d="M23 172l163 209q133 -127 283 -127q90 0 90 45q0 16 -12.5 26.5t-46.5 24.5l-115 47q-158 64 -227.5 138t-69.5 192q0 151 107.5 236.5t289.5 85.5q241 0 385 -150l-165 -215q-104 88 -218 88q-71 0 -71 -39q0 -17 15.5 -29t53.5 -26l103 -41q161 -64 230 -134.5
t69 -187.5q0 -158 -119 -249q-123 -91 -305 -91q-137 0 -252.5 51.5t-187.5 145.5zM350 1176l131 421h424v-61l-301 -360h-254z" />
    <glyph glyph-name="Scircumflex" unicode="&#x15c;" 
d="M47 279l238 180q65 -87 134.5 -130.5t166.5 -43.5q139 0 139 98q0 42 -26.5 65t-110.5 60l-139 61q-171 75 -257 174.5t-86 233.5q0 179 132.5 289t341.5 110q163 0 281 -72t181 -200l-235 -180q-51 76 -102 109.5t-121 33.5q-57 0 -89 -22t-32 -64q0 -37 25.5 -61
t91.5 -50l155 -65q179 -75 262.5 -171t83.5 -237q0 -128 -65.5 -225t-177 -147t-252.5 -50q-181 0 -323 81.5t-216 222.5zM995 1483h-266l-158 131l-157 -131h-264l305 381h235z" />
    <glyph glyph-name="scircumflex" unicode="&#x15d;" horiz-adv-x="933" 
d="M23 172l163 209q133 -127 283 -127q90 0 90 45q0 16 -12.5 26.5t-46.5 24.5l-115 47q-158 64 -227.5 138t-69.5 192q0 151 107.5 236.5t289.5 85.5q241 0 385 -150l-165 -215q-104 88 -218 88q-71 0 -71 -39q0 -17 15.5 -29t53.5 -26l103 -41q161 -64 230 -134.5
t69 -187.5q0 -158 -119 -249q-123 -91 -305 -91q-137 0 -252.5 51.5t-187.5 145.5zM870 1176h-254l-137 147l-137 -147h-254l274 421h236z" />
    <glyph glyph-name="Scedilla" unicode="&#x15e;" 
d="M47 279l238 180q65 -87 134.5 -130.5t166.5 -43.5q139 0 139 98q0 42 -26.5 65t-110.5 60l-139 61q-171 75 -257 174.5t-86 233.5q0 179 132.5 289t341.5 110q163 0 281 -72t181 -200l-235 -180q-51 76 -102 109.5t-121 33.5q-57 0 -89 -22t-32 -64q0 -37 25.5 -61
t91.5 -50l155 -65q179 -75 262.5 -171t83.5 -237q0 -128 -65.5 -225t-177 -147t-252.5 -50q-181 0 -323 81.5t-216 222.5zM272 -375v230q37 -2 129 -2q50 0 77.5 27.5t27.5 76.5v98l135 58q66 -37 102.5 -97t36.5 -133q0 -121 -95.5 -198.5t-254.5 -77.5q-82 0 -158 18z" />
    <glyph glyph-name="scedilla" unicode="&#x15f;" horiz-adv-x="933" 
d="M23 172l163 209q133 -127 283 -127q90 0 90 45q0 16 -12.5 26.5t-46.5 24.5l-115 47q-158 64 -227.5 138t-69.5 192q0 151 107.5 236.5t289.5 85.5q241 0 385 -150l-165 -215q-104 88 -218 88q-71 0 -71 -39q0 -17 15.5 -29t53.5 -26l103 -41q161 -64 230 -134.5
t69 -187.5q0 -158 -119 -249q-123 -91 -305 -91q-137 0 -252.5 51.5t-187.5 145.5zM186 -375v230q37 -2 129 -2q50 0 77.5 27.5t27.5 76.5v98l135 58q66 -37 102.5 -97t36.5 -133q0 -121 -95.5 -198.5t-254.5 -77.5q-82 0 -158 18z" />
    <glyph glyph-name="Scaron" unicode="&#x160;" 
d="M47 279l238 180q65 -87 134.5 -130.5t166.5 -43.5q139 0 139 98q0 42 -26.5 65t-110.5 60l-139 61q-171 75 -257 174.5t-86 233.5q0 179 132.5 289t341.5 110q163 0 281 -72t181 -200l-235 -180q-51 76 -102 109.5t-121 33.5q-57 0 -89 -22t-32 -64q0 -37 25.5 -61
t91.5 -50l155 -65q179 -75 262.5 -171t83.5 -237q0 -128 -65.5 -225t-177 -147t-252.5 -50q-181 0 -323 81.5t-216 222.5zM729 1864h266l-305 -381h-235l-305 381h264l157 -131z" />
    <glyph glyph-name="scaron" unicode="&#x161;" horiz-adv-x="933" 
d="M23 172l163 209q133 -127 283 -127q90 0 90 45q0 16 -12.5 26.5t-46.5 24.5l-115 47q-158 64 -227.5 138t-69.5 192q0 151 107.5 236.5t289.5 85.5q241 0 385 -150l-165 -215q-104 88 -218 88q-71 0 -71 -39q0 -17 15.5 -29t53.5 -26l103 -41q161 -64 230 -134.5
t69 -187.5q0 -158 -119 -249q-123 -91 -305 -91q-137 0 -252.5 51.5t-187.5 145.5zM616 1597h254l-272 -421h-236l-274 421h254l137 -147z" />
    <glyph glyph-name="uni0162" unicode="&#x162;" horiz-adv-x="1204" 
d="M426 0v1034h-406v318h1164v-318h-406v-1034h-352zM301 -375v230q37 -2 129 -2q50 0 77.5 27.5t27.5 76.5v98l135 58q66 -37 102.5 -97t36.5 -133q0 -121 -95.5 -198.5t-254.5 -77.5q-81 0 -158 18z" />
    <glyph glyph-name="uni0163" unicode="&#x163;" horiz-adv-x="899" 
d="M705 291l129 4v-295q-106 -25 -207 -25q-219 0 -335 105.5t-116 310.5v338h-156v295h156v246h352v-246h275v-295h-275v-303q0 -74 40 -104.5t137 -30.5zM178 -375v230q37 -2 129 -2q50 0 77.5 27.5t27.5 76.5v98l135 58q66 -37 102.5 -97t36.5 -133q0 -121 -95.5 -198.5
t-254.5 -77.5q-82 0 -158 18z" />
    <glyph glyph-name="Tcaron" unicode="&#x164;" horiz-adv-x="1204" 
d="M426 0v1034h-406v318h1164v-318h-406v-1034h-352zM758 1864h266l-305 -381h-236l-305 381h264l158 -131z" />
    <glyph glyph-name="tcaron" unicode="&#x165;" horiz-adv-x="899" 
d="M705 291l129 4v-295q-106 -25 -207 -25q-219 0 -335 105.5t-116 310.5v338h-156v295h156v246h352v-246h275v-295h-275v-303q0 -74 40 -104.5t137 -30.5zM692 1122v414h359l-113 -414h-246z" />
    <glyph glyph-name="Tbar" unicode="&#x166;" horiz-adv-x="1204" 
d="M426 0v422h-336v295h336v317h-406v318h1164v-318h-406v-317h336v-295h-336v-422h-352z" />
    <glyph glyph-name="tbar" unicode="&#x167;" horiz-adv-x="931" 
d="M725 291l129 4v-295q-106 -25 -207 -25q-215 0 -330.5 101.5t-119.5 298.5h-156v274h156v101h-156v274h156v246h352v-246h274v-274h-274v-101h274v-274h-268q12 -44 52 -64t118 -20z" />
    <glyph glyph-name="Utilde" unicode="&#x168;" horiz-adv-x="1449" 
d="M127 573v779h352v-805q0 -114 68 -181t178 -67t178 67t68 181v805h352v-779q0 -175 -78 -312t-214 -211.5t-306 -74.5q-129 0 -239.5 43t-189.5 120.5t-124 189.5t-45 245zM743 1505l-57 29q-64 31 -92 31q-26 0 -40.5 -17t-14.5 -47v-16h-263q-6 41 -6 78q0 143 82 231
t195 88q74 0 158 -41l57 -29q61 -30 92 -30q26 0 40.5 17t14.5 46v17h262q7 -47 7 -78q0 -144 -82 -232t-195 -88q-74 0 -158 41z" />
    <glyph glyph-name="utilde" unicode="&#x169;" horiz-adv-x="1214" 
d="M106 477v547h353v-575q0 -66 41.5 -108t107.5 -42q64 0 106 42.5t42 107.5v575h352v-547q0 -224 -140.5 -363t-359.5 -139t-360.5 139t-141.5 363zM629 1202l-60 31q-54 31 -80 31q-57 0 -57 -64v-16h-262q-6 40 -6 78q0 146 78.5 232.5t191.5 86.5q78 0 152 -39l59 -31
q52 -30 80 -30q57 0 57 63v17h262q7 -47 7 -78q0 -146 -79 -233t-192 -87q-77 0 -151 39z" />
    <glyph glyph-name="Umacron" unicode="&#x16a;" horiz-adv-x="1449" 
d="M127 573v779h352v-805q0 -114 68 -181t178 -67t178 67t68 181v805h352v-779q0 -175 -78 -312t-214 -211.5t-306 -74.5q-129 0 -239.5 43t-189.5 120.5t-124 189.5t-45 245zM377 1526v274h696v-274h-696z" />
    <glyph glyph-name="umacron" unicode="&#x16b;" horiz-adv-x="1214" 
d="M106 477v547h353v-575q0 -66 41.5 -108t107.5 -42q64 0 106 42.5t42 107.5v575h352v-547q0 -224 -140.5 -363t-359.5 -139t-360.5 139t-141.5 363zM281 1249v275h655v-275h-655z" />
    <glyph glyph-name="Ubreve" unicode="&#x16c;" horiz-adv-x="1449" 
d="M127 573v779h352v-805q0 -114 68 -181t178 -67t178 67t68 181v805h352v-779q0 -175 -78 -312t-214 -211.5t-306 -74.5q-129 0 -239.5 43t-189.5 120.5t-124 189.5t-45 245zM344 1845v19h272v-19q0 -57 29 -90t80 -33t80 33t29 90v19h272v-19q0 -167 -107 -274t-274 -107
t-274 107t-107 274z" />
    <glyph glyph-name="ubreve" unicode="&#x16d;" horiz-adv-x="1214" 
d="M106 477v547h353v-575q0 -66 41.5 -108t107.5 -42q64 0 106 42.5t42 107.5v575h352v-547q0 -224 -140.5 -363t-359.5 -139t-360.5 139t-141.5 363zM227 1546v51h273v-51q0 -57 28.5 -90t79.5 -33t80 33t29 90v51h272v-51q0 -167 -107 -274t-274 -107t-274 107t-107 274z
" />
    <glyph glyph-name="Uring" unicode="&#x16e;" horiz-adv-x="1449" 
d="M127 573v779h352v-805q0 -114 68 -181t178 -67t178 67t68 181v805h352v-779q0 -175 -78 -312t-214 -211.5t-306 -74.5q-129 0 -239.5 43t-189.5 120.5t-124 189.5t-45 245zM444 1622q0 112 78 190q81 78 201 78q123 0 202 -76t79 -192q0 -115 -80 -192q-78 -78 -201 -78
q-120 0 -201 78q-78 78 -78 192zM797 1622q0 31 -20.5 51.5t-51.5 20.5q-32 0 -52 -20.5t-20 -51.5q0 -32 20.5 -53t51.5 -21q29 0 50.5 21.5t21.5 52.5z" />
    <glyph glyph-name="uring" unicode="&#x16f;" horiz-adv-x="1214" 
d="M106 477v547h353v-575q0 -66 41.5 -108t107.5 -42q64 0 106 42.5t42 107.5v575h352v-547q0 -224 -140.5 -363t-359.5 -139t-360.5 139t-141.5 363zM328 1378q0 114 80 191q81 78 198 78q120 0 201 -78q80 -77 80 -191q0 -117 -80 -194q-79 -76 -201 -76
q-121 0 -199.5 76.5t-78.5 193.5zM680 1378q0 31 -20.5 51.5t-51.5 20.5t-51 -20t-20 -52t20 -52.5t51 -20.5t51.5 21t20.5 52z" />
    <glyph glyph-name="Uhungarumlaut" unicode="&#x170;" horiz-adv-x="1449" 
d="M127 573v779h352v-805q0 -114 68 -181t178 -67t178 67t68 181v805h352v-779q0 -175 -78 -312t-214 -211.5t-306 -74.5q-129 0 -239.5 43t-189.5 120.5t-124 189.5t-45 245zM328 1483l131 381h362v-62l-260 -319h-233zM838 1483l131 381h362v-62l-260 -319h-233z" />
    <glyph glyph-name="uhungarumlaut" unicode="&#x171;" horiz-adv-x="1214" 
d="M106 477v547h353v-575q0 -66 41.5 -108t107.5 -42q64 0 106 42.5t42 107.5v575h352v-547q0 -224 -140.5 -363t-359.5 -139t-360.5 139t-141.5 363zM250 1176l131 421h362v-61l-260 -360h-233zM719 1176l131 421h362v-61l-260 -360h-233z" />
    <glyph glyph-name="Uogonek" unicode="&#x172;" horiz-adv-x="1449" 
d="M127 573v779h352v-805q0 -114 68 -181t178 -67t178 67t68 181v805h352v-779q0 -175 -78 -312t-214 -211.5t-306 -74.5q-129 0 -239.5 43t-189.5 120.5t-124 189.5t-45 245zM598 -172q0 72 40.5 126t176.5 159h307l-155 -152q-39 -39 -39 -63q0 -45 59 -45q7 0 72 10v-221
q-93 -35 -197 -35q-121 0 -192.5 60.5t-71.5 160.5z" />
    <glyph glyph-name="uogonek" unicode="&#x173;" horiz-adv-x="1214" 
d="M797 -90q0 -26 15.5 -41.5t43.5 -15.5q14 0 72 10v-221q-103 -35 -203 -35q-124 0 -190 53t-66 150q0 98 72 170q-194 21 -316 155q-119 134 -119 342v547h353v-575q0 -66 41.5 -108t107.5 -42q64 0 106 42.5t42 107.5v575h352v-547q-3 -87 -13.5 -140.5t-43.5 -110.5
t-76.5 -104t-132.5 -132q-45 -39 -45 -80z" />
    <glyph glyph-name="Wcircumflex" unicode="&#x174;" horiz-adv-x="2078" 
d="M1661 1352h393l-557 -1377h-113l-344 707l-346 -707h-112l-557 1377h393l254 -650l311 674h113l311 -674zM1462 1483h-266l-158 131l-157 -131h-265l306 381h235z" />
    <glyph glyph-name="wcircumflex" unicode="&#x175;" horiz-adv-x="1763" 
d="M1386 1024h373l-504 -1049h-112l-260 490l-262 -490h-113l-504 1049h373l211 -477l237 502h113l244 -488zM1274 1176h-254l-137 147l-138 -147h-253l274 421h235z" />
    <glyph glyph-name="Ycircumflex" unicode="&#x176;" horiz-adv-x="1288" 
d="M1284 1352l-463 -834v-518h-352v514l-465 838h389l252 -471l252 471h387zM1067 1483h-266l-158 131l-158 -131h-264l305 381h236z" />
    <glyph glyph-name="ycircumflex" unicode="&#x177;" horiz-adv-x="1171" 
d="M795 1024h372l-481 -1079q-79 -176 -184.5 -257t-261.5 -81q-95 0 -197 24v295q27 -1 55.5 -2t43 -1.5t20.5 -0.5q77 0 123 25.5t77 95.5l17 35l-375 946h375l196 -575zM979 1176h-254l-137 147l-137 -147h-254l274 421h236z" />
    <glyph glyph-name="Ydieresis" unicode="&#x178;" horiz-adv-x="1288" 
d="M1284 1352l-463 -834v-518h-352v514l-465 838h389l252 -471l252 471h387zM164 1673q0 79 59 135q61 58 139 58q85 0 143 -55.5t58 -137.5q0 -76 -60 -133t-141 -57q-77 0 -137 57q-61 58 -61 133zM727 1671q0 79 59 135q61 58 140 58q85 0 142.5 -55.5t57.5 -137.5
q0 -76 -59.5 -133t-140.5 -57q-78 0 -138 57q-61 58 -61 133z" />
    <glyph glyph-name="Zacute" unicode="&#x179;" horiz-adv-x="1202" 
d="M559 317h596v-317h-1130v92l591 942h-503v318h1040v-92zM473 1483l131 381h424v-62l-301 -319h-254z" />
    <glyph glyph-name="zacute" unicode="&#x17a;" horiz-adv-x="978" 
d="M532 295h426v-295h-938v92l431 637h-383v295h888v-92zM360 1176l132 421h423v-61l-301 -360h-254z" />
    <glyph glyph-name="Zdotaccent" unicode="&#x17b;" horiz-adv-x="1202" 
d="M559 317h596v-317h-1130v92l591 942h-503v318h1040v-92zM395 1675q0 88 62 148.5t153 60.5t154 -60.5t63 -148.5q0 -86 -63 -146.5t-154 -60.5t-153 59.5t-62 147.5z" />
    <glyph glyph-name="zdotaccent" unicode="&#x17c;" horiz-adv-x="978" 
d="M532 295h426v-295h-938v92l431 637h-383v295h888v-92zM272 1386q0 88 62 148.5t153 60.5t154.5 -60.5t63.5 -148.5q0 -86 -63.5 -146t-154.5 -60t-153 59t-62 147z" />
    <glyph glyph-name="Zcaron" unicode="&#x17d;" horiz-adv-x="1202" 
d="M559 317h596v-317h-1130v92l591 942h-503v318h1040v-92zM768 1864h266l-305 -381h-235l-306 381h265l157 -131z" />
    <glyph glyph-name="zcaron" unicode="&#x17e;" horiz-adv-x="978" 
d="M532 295h426v-295h-938v92l431 637h-383v295h888v-92zM627 1597h254l-273 -421h-235l-275 421h254l137 -147z" />
    <glyph glyph-name="uni018F" unicode="&#x18f;" horiz-adv-x="1503" 
d="M1438 678q4 -191 -95 -355t-266 -257.5t-358 -90.5q-283 0 -468 179.5t-185 451.5q0 123 22 197h977q-31 119 -121.5 185.5t-220.5 66.5q-200 0 -344 -197l-238 205q102 149 250 231t330 82q148 2 282 -52t230 -147.5t151.5 -224t53.5 -274.5zM1057 526h-651
q9 -111 102 -170q92 -57 215 -57q118 0 207 60.5t127 166.5z" />
    <glyph glyph-name="florin" unicode="&#x192;" horiz-adv-x="933" 
d="M950 1352v-295l-94 4q-79 0 -119.5 -33t-48.5 -102l-10 -86h172v-295h-207l-49 -402q-25 -204 -137.5 -309.5t-304.5 -105.5q-98 0 -166 24l-2 295l94 -4q79 0 119.5 33t48.5 102l45 367h-164v295h199l14 121q25 204 137.5 309.5t304.5 105.5q100 0 168 -24z" />
    <glyph glyph-name="uni01D4" unicode="&#x1d4;" horiz-adv-x="1214" 
d="M106 477v547h353v-575q0 -66 41.5 -108t107.5 -42q64 0 106 42.5t42 107.5v575h352v-547q0 -224 -140.5 -363t-359.5 -139t-360.5 139t-141.5 363zM745 1597h254l-272 -421h-235l-275 421h254l137 -147z" />
    <glyph glyph-name="AEacute" unicode="&#x1fc;" horiz-adv-x="1787" 
d="M1208 317h496v-317h-780l-21 113h-467l-57 -113h-379l684 1352h995v-318h-587l30 -186h389v-295h-342zM784 850l-211 -455h281zM727 1483l131 381h424v-62l-301 -319h-254z" />
    <glyph glyph-name="aeacute" unicode="&#x1fd;" horiz-adv-x="1777" 
d="M1692 387h-654q59 -115 226 -115q135 0 268 80l127 -239q-181 -138 -406 -138q-264 0 -415 181q-126 -181 -392 -181q-186 0 -285.5 87t-99.5 229q0 146 107.5 228.5t294.5 82.5h215v12q0 62 -39 96.5t-115 34.5q-66 0 -123 -28.5t-135 -95.5l-164 223
q104 106 214.5 155.5t248.5 49.5q211 0 336 -113q131 113 324 113q144 0 256.5 -66.5t172.5 -177t60 -242.5q0 -90 -22 -176zM1020 602h360q-1 77 -48 123.5t-120 46.5q-69 0 -120.5 -45.5t-71.5 -124.5zM678 375v12h-166q-44 0 -69 -21.5t-25 -58.5q0 -39 26.5 -60.5
t75.5 -21.5q70 0 114 41t44 109zM764 1176l131 421h424v-61l-301 -360h-254z" />
    <glyph glyph-name="Oslashacute" unicode="&#x1fe;" horiz-adv-x="1589" 
d="M1540 1214l-141 -141q125 -180 125 -397q3 -143 -56 -274.5t-159 -225.5t-235.5 -148.5t-280.5 -52.5q-211 0 -385 103l-150 -150l-209 209l139 142q-122 174 -122 397q-3 142 55 273t157 225.5t234.5 149.5t280.5 52q213 0 387 -104l151 151zM410 676q0 -84 24 -152
l514 514q-70 31 -153 31q-168 0 -276.5 -109.5t-108.5 -283.5zM1180 676q0 84 -27 149l-514 -514q76 -28 156 -28q166 0 275.5 110t109.5 283zM655 1483l131 381h424v-62l-301 -319h-254z" />
    <glyph glyph-name="oslashacute" unicode="&#x1ff;" horiz-adv-x="1241" 
d="M1204 887l-100 -101q76 -128 76 -274q3 -145 -74 -270.5t-207.5 -197.5t-277.5 -69q-146 0 -265 64l-110 -111l-209 209l102 103q-76 119 -76 272q0 148 75 271.5t203.5 194.5t279.5 71q145 0 264 -64l110 111zM393 512q0 -34 6 -61l291 290q-42 11 -69 11
q-103 0 -165.5 -65.5t-62.5 -174.5zM850 512q0 33 -6 63l-295 -294q47 -9 72 -9q103 0 166 65t63 175zM494 1176l131 421h424v-61l-301 -360h-254z" />
    <glyph glyph-name="uni0218" unicode="&#x218;" 
d="M47 279l238 180q65 -87 134.5 -130.5t166.5 -43.5q139 0 139 98q0 42 -26.5 65t-110.5 60l-139 61q-171 75 -257 174.5t-86 233.5q0 179 132.5 289t341.5 110q163 0 281 -72t181 -200l-235 -180q-51 76 -102 109.5t-121 33.5q-57 0 -89 -22t-32 -64q0 -37 25.5 -61
t91.5 -50l155 -65q179 -75 262.5 -171t83.5 -237q0 -128 -65.5 -225t-177 -147t-252.5 -50q-181 0 -323 81.5t-216 222.5zM418 -451v361h319l-53 -361h-266z" />
    <glyph glyph-name="uni0219" unicode="&#x219;" horiz-adv-x="933" 
d="M23 172l163 209q133 -127 283 -127q90 0 90 45q0 16 -12.5 26.5t-46.5 24.5l-115 47q-158 64 -227.5 138t-69.5 192q0 151 107.5 236.5t289.5 85.5q241 0 385 -150l-165 -215q-104 88 -218 88q-71 0 -71 -39q0 -17 15.5 -29t53.5 -26l103 -41q161 -64 230 -134.5
t69 -187.5q0 -158 -119 -249q-123 -91 -305 -91q-137 0 -252.5 51.5t-187.5 145.5zM332 -451v361h319l-53 -361h-266z" />
    <glyph glyph-name="uni021A" unicode="&#x21a;" horiz-adv-x="1204" 
d="M426 0v1034h-406v318h1164v-318h-406v-1034h-352zM446 -451v361h320l-53 -361h-267z" />
    <glyph glyph-name="uni021B" unicode="&#x21b;" horiz-adv-x="899" 
d="M705 291l129 4v-295q-106 -25 -207 -25q-219 0 -335 105.5t-116 310.5v338h-156v295h156v246h352v-246h275v-295h-275v-303q0 -74 40 -104.5t137 -30.5zM324 -451v361h319l-53 -361h-266z" />
    <glyph glyph-name="uni0237" unicode="&#x237;" horiz-adv-x="581" 
d="M-133 -369v295q16 -1 35 -2t29.5 -1.5t15.5 -0.5q90 0 129 31.5t39 103.5v967h352v-1001q0 -202 -112.5 -309t-317.5 -107q-99 0 -170 24z" />
    <glyph glyph-name="uni0259" unicode="&#x259;" horiz-adv-x="1163" 
d="M1100 512q0 -148 -72.5 -271.5t-198.5 -194.5t-276 -71q-144 0 -257 66.5t-173 177t-60 242.5q0 84 23 174h655q-59 117 -229 117q-135 0 -268 -80l-127 239q181 138 407 138q123 0 230.5 -41.5t183 -113t119 -171t43.5 -211.5zM754 406h-357q1 -68 50.5 -111t119.5 -43
q67 0 117 40.5t70 113.5z" />
    <glyph glyph-name="circumflex" unicode="&#x2c6;" horiz-adv-x="1228" 
d="M1006 1176h-254l-138 147l-137 -147h-254l275 421h235z" />
    <glyph glyph-name="caron" unicode="&#x2c7;" horiz-adv-x="1228" 
d="M752 1597h254l-273 -421h-235l-275 421h254l137 -147z" />
    <glyph glyph-name="breve" unicode="&#x2d8;" horiz-adv-x="1228" 
d="M233 1546v51h273v-51q0 -57 28.5 -90t79.5 -33t80 33t29 90v51h272v-51q0 -167 -107 -274t-274 -107t-274 107t-107 274z" />
    <glyph glyph-name="dotaccent" unicode="&#x2d9;" horiz-adv-x="1228" 
d="M397 1386q0 88 62 148.5t153 60.5t154 -60.5t63 -148.5q0 -86 -63 -146t-154 -60t-153 59t-62 147z" />
    <glyph glyph-name="ring" unicode="&#x2da;" horiz-adv-x="1228" 
d="M334 1378q0 114 80 191q81 78 198 78q120 0 201 -78q80 -77 80 -191q0 -117 -80 -194q-79 -76 -201 -76q-121 0 -199.5 76.5t-78.5 193.5zM686 1378q0 31 -20.5 51.5t-51.5 20.5t-51 -20t-20 -52t20 -52.5t51 -20.5t51.5 21t20.5 52z" />
    <glyph glyph-name="ogonek" unicode="&#x2db;" horiz-adv-x="1228" 
d="M383 -172q0 97 76.5 171t236.5 136l148 -135l-70 -39q-35 -21 -48 -33.5t-13 -29.5q0 -45 59 -45q14 0 72 10v-221q-103 -35 -197 -35q-122 0 -193 61t-71 160z" />
    <glyph glyph-name="tilde" unicode="&#x2dc;" horiz-adv-x="1228" 
d="M635 1202l-60 31q-1 1 -10 6t-15 8.5t-15.5 8t-19.5 6.5t-19 2q-58 0 -58 -64v-16h-262q-6 40 -6 78q0 146 78.5 232.5t191.5 86.5q78 0 152 -39l59 -31q53 -30 80 -30q57 0 57 63v17h263q6 -41 6 -78q0 -146 -79 -233t-192 -87q-77 0 -151 39z" />
    <glyph glyph-name="hungarumlaut" unicode="&#x2dd;" horiz-adv-x="1228" 
d="M133 1176l131 421h363v-61l-260 -360h-234zM602 1176l131 421h363v-61l-260 -360h-234z" />
    <glyph glyph-name="gravecomb" unicode="&#x300;" horiz-adv-x="0" 
d="M-489 1176l-302 360v61h424l131 -421h-253z" />
    <glyph glyph-name="acutecomb" unicode="&#x301;" horiz-adv-x="0" 
d="M-791 1176l132 421h423v-61l-301 -360h-254z" />
    <glyph glyph-name="uni0302" unicode="&#x302;" horiz-adv-x="0" 
d="M-121 1176h-254l-137 147l-137 -147h-254l274 421h236z" />
    <glyph glyph-name="tildecomb" unicode="&#x303;" horiz-adv-x="0" 
d="M-492 1202l-59 31q-54 31 -80 31q-57 0 -57 -64v-16h-262q-6 40 -6 78q0 146 78.5 232.5t191.5 86.5q77 0 151 -39l60 -31q53 -30 80 -30q57 0 57 63v17h262q6 -41 6 -78q0 -146 -78.5 -233t-191.5 -87q-78 0 -152 39z" />
    <glyph glyph-name="uni0304" unicode="&#x304;" horiz-adv-x="0" 
d="M-840 1249v275h656v-275h-656z" />
    <glyph glyph-name="uni0306" unicode="&#x306;" horiz-adv-x="0" 
d="M-893 1546v51h272v-51q0 -57 29 -90t80 -33t80 33t29 90v51h272v-51q0 -167 -107 -274t-274 -107t-274 107t-107 274z" />
    <glyph glyph-name="uni0307" unicode="&#x307;" horiz-adv-x="0" 
d="M-729 1386q0 88 62 148.5t153 60.5t154 -60.5t63 -148.5q0 -86 -63 -146t-154 -60t-153 59t-62 147z" />
    <glyph glyph-name="uni0308" unicode="&#x308;" horiz-adv-x="0" 
d="M-973 1389q0 78 59.5 134t143.5 56q80 0 138.5 -56t58.5 -134q0 -79 -58.5 -136t-138.5 -57q-84 0 -143.5 56.5t-59.5 136.5zM-451 1389q0 78 59.5 134t143.5 56q80 0 138.5 -56t58.5 -134q0 -79 -58.5 -136t-138.5 -57q-84 0 -143.5 56.5t-59.5 136.5z" />
    <glyph glyph-name="uni030A" unicode="&#x30a;" horiz-adv-x="0" 
d="M-793 1378q0 114 80 191q81 78 199 78q120 0 201 -78q80 -77 80 -191q0 -117 -80 -194q-79 -76 -201 -76q-121 0 -200 76.5t-79 193.5zM-440 1378q0 31 -20.5 51.5t-51.5 20.5t-51.5 -20t-20.5 -52t20.5 -52.5t51.5 -20.5t51.5 21t20.5 52z" />
    <glyph glyph-name="uni030B" unicode="&#x30b;" horiz-adv-x="0" 
d="M-993 1176l131 421h362v-61l-260 -360h-233zM-524 1176l131 421h362v-61l-260 -360h-233z" />
    <glyph glyph-name="uni030C" unicode="&#x30c;" horiz-adv-x="0" 
d="M-375 1597h254l-272 -421h-236l-274 421h254l137 -147z" />
    <glyph glyph-name="uni0326" unicode="&#x326;" horiz-adv-x="0" 
d="M-672 -451v361h320l-54 -361h-266z" />
    <glyph glyph-name="uni0327" unicode="&#x327;" horiz-adv-x="0" 
d="M-766 -375v230q37 -2 129 -2q50 0 77.5 27.5t27.5 76.5v98l135 58q66 -37 102.5 -97t36.5 -133q0 -121 -95.5 -198.5t-254.5 -77.5q-82 0 -158 18z" />
    <glyph glyph-name="uni0328" unicode="&#x328;" horiz-adv-x="0" 
d="M-743 -172q0 97 76.5 171t236.5 136l147 -135l-69 -39q-25 -15 -35.5 -22.5t-18.5 -18t-8 -22.5q0 -21 15.5 -33t44.5 -12q13 0 71 10v-221q-103 -35 -196 -35q-122 0 -193 61t-71 160z" />
    <glyph glyph-name="tonos" unicode="&#x384;" horiz-adv-x="1024" 
d="M262 1176l82 421h418v-61l-244 -360h-256z" />
    <glyph glyph-name="dieresistonos" unicode="&#x385;" horiz-adv-x="1024" 
d="M293 1176l82 421h397v-61l-244 -360h-235zM-125 1386q0 78 59.5 135.5t135.5 57.5q82 0 139 -56t57 -137q0 -75 -58.5 -132.5t-137.5 -57.5q-76 0 -133 57q-62 59 -62 133zM758 1386q0 78 59 135.5t135 57.5q82 0 139.5 -56t57.5 -137q0 -75 -59 -132.5t-138 -57.5
q-75 0 -135 57q-59 59 -59 133z" />
    <glyph glyph-name="Alphatonos" unicode="&#x386;" horiz-adv-x="1349" 
d="M967 0l-49 113h-486l-49 -113h-379l614 1376h113l615 -1376h-379zM793 395l-117 314l-119 -314h236zM-76 938v414h359l-113 -414h-246z" />
    <glyph glyph-name="anoteleia" unicode="&#x387;" horiz-adv-x="573" 
d="M57 664q0 98 66 163.5t168 65.5q98 0 162.5 -66t64.5 -163q0 -99 -64.5 -164.5t-162.5 -65.5q-102 0 -168 65.5t-66 164.5z" />
    <glyph glyph-name="Epsilontonos" unicode="&#x388;" horiz-adv-x="1181" 
d="M135 0v1352h938v-318h-586v-186h418v-295h-418v-236h611v-317h-963zM-358 938v414h358l-113 -414h-245z" />
    <glyph glyph-name="Etatonos" unicode="&#x389;" horiz-adv-x="1468" 
d="M135 0v1352h352v-494h494v494h352v-1352h-352v541h-494v-541h-352zM-358 938v414h358l-113 -414h-245z" />
    <glyph glyph-name="Iotatonos" unicode="&#x38a;" horiz-adv-x="622" 
d="M135 0v1352h352v-1352h-352zM-358 938v414h358l-113 -414h-245z" />
    <glyph glyph-name="Omicrontonos" unicode="&#x38c;" horiz-adv-x="1589" 
d="M66 676q-3 142 55 273t157 225.5t234.5 149.5t280.5 52q116 2 227.5 -32.5t202.5 -99.5t160 -151.5t106 -194.5t35 -222q3 -143 -56 -274.5t-159 -225.5t-235.5 -148.5t-280.5 -52.5q-146 -2 -281 52.5t-234 148.5t-157 225.5t-55 274.5zM1163 676q0 166 -105 271.5
t-263 105.5q-163 0 -266 -105t-103 -272q0 -170 102 -275q102 -102 267 -102q159 0 263.5 105t104.5 272zM-297 938v414h358l-112 -414h-246z" />
    <glyph glyph-name="Upsilontonos" unicode="&#x38e;" horiz-adv-x="1288" 
d="M1284 1352l-463 -834v-518h-352v514l-465 838h389l252 -471l252 471h387zM-401 938v414h358l-113 -414h-245z" />
    <glyph glyph-name="Omegatonos" unicode="&#x38f;" horiz-adv-x="1609" 
d="M1350 317h163v-317h-602v317q128 62 195.5 159t67.5 220q0 157 -104.5 257t-268.5 100t-264.5 -97.5t-100.5 -255.5q0 -258 262 -383v-317h-602v317h150q-170 164 -170 398q-3 133 55 256.5t157 212.5t234.5 141.5t280.5 50.5q193 3 363.5 -87.5t271 -245t96.5 -328.5
q0 -235 -184 -398zM-213 938v414h358l-112 -414h-246z" />
    <glyph glyph-name="iotadieresistonos" unicode="&#x390;" horiz-adv-x="679" 
d="M111 371v653h352v-598q0 -72 24.5 -103.5t81.5 -31.5q5 0 15.5 0.5t29.5 1.5t35 2v-295q-73 -25 -170 -25q-368 0 -368 396zM106 1176l82 421h398v-61l-244 -360h-236zM-311 1386q0 78 59 135.5t135 57.5q82 0 139.5 -56t57.5 -137q0 -75 -59 -132.5t-138 -57.5
q-76 0 -133 57q-61 58 -61 133zM571 1386q0 78 59.5 135.5t135.5 57.5q82 0 139.5 -56t57.5 -137q0 -75 -59 -132.5t-138 -57.5q-75 0 -135 57q-60 60 -60 133z" />
    <glyph glyph-name="Alpha" unicode="&#x391;" horiz-adv-x="1349" 
d="M967 0l-49 113h-486l-49 -113h-379l614 1376h113l615 -1376h-379zM793 395l-117 314l-119 -314h236z" />
    <glyph glyph-name="Beta" unicode="&#x392;" horiz-adv-x="1277" 
d="M1223 401q0 -174 -130.5 -287.5t-326.5 -113.5h-631v1352h488q197 0 326.5 -112t129.5 -288q0 -136 -82 -227q108 -44 167 -126.5t59 -197.5zM600 1055h-127v-238h127q63 0 99 32.5t36 86.5t-36 86.5t-99 32.5zM879 416q0 59 -36 89t-100 30h-270v-238h270q64 0 100 30
t36 89z" />
    <glyph glyph-name="Gamma" unicode="&#x393;" horiz-adv-x="1095" 
d="M135 0v1352h912v-318h-560v-1034h-352z" />
    <glyph glyph-name="uni0394" unicode="&#x394;" horiz-adv-x="1349" 
d="M731 1376l574 -1284v-92h-1260v92l573 1284h113zM829 317l-151 349l-156 -349h307z" />
    <glyph glyph-name="Epsilon" unicode="&#x395;" horiz-adv-x="1181" 
d="M135 0v1352h938v-318h-586v-186h418v-295h-418v-236h611v-317h-963z" />
    <glyph glyph-name="Zeta" unicode="&#x396;" horiz-adv-x="1202" 
d="M559 317h596v-317h-1130v92l591 942h-503v318h1040v-92z" />
    <glyph glyph-name="Eta" unicode="&#x397;" horiz-adv-x="1468" 
d="M135 0v1352h352v-494h494v494h352v-1352h-352v541h-494v-541h-352z" />
    <glyph glyph-name="Theta" unicode="&#x398;" horiz-adv-x="1589" 
d="M66 676q-3 142 55 273t157 225.5t234.5 149.5t280.5 52q116 2 227.5 -32.5t202.5 -99.5t160 -151.5t106 -194.5t35 -222q3 -143 -56 -274.5t-159 -225.5t-235.5 -148.5t-280.5 -52.5q-146 -2 -281 52.5t-234 148.5t-157 225.5t-55 274.5zM1186 674q0 176 -111.5 287.5
t-281.5 111.5q-171 0 -280.5 -111t-109.5 -288q0 -176 110 -285.5t280 -109.5q169 0 281 110t112 285zM528 532v283h533v-283h-533z" />
    <glyph glyph-name="Iota" unicode="&#x399;" horiz-adv-x="622" 
d="M135 0v1352h352v-1352h-352z" />
    <glyph glyph-name="Kappa" unicode="&#x39a;" horiz-adv-x="1423" 
d="M1419 0h-418l-514 674v-674h-352v1352h352v-613l447 613h409l-464 -643z" />
    <glyph glyph-name="Lambda" unicode="&#x39b;" horiz-adv-x="1349" 
d="M1346 0h-379l-291 668l-293 -668h-379l614 1376h113z" />
    <glyph glyph-name="Mu" unicode="&#x39c;" horiz-adv-x="1646" 
d="M1399 1376h112v-1376h-352v567l-280 -327h-113l-279 325v-565h-352v1376h113l575 -702z" />
    <glyph glyph-name="Nu" unicode="&#x39d;" horiz-adv-x="1468" 
d="M981 1352h352v-1377h-112l-734 711v-686h-352v1376h113l733 -700v676z" />
    <glyph glyph-name="Xi" unicode="&#x39e;" horiz-adv-x="1310" 
d="M84 1034v318h1143v-318h-1143zM231 502v317h848v-317h-848zM84 0v317h1143v-317h-1143z" />
    <glyph glyph-name="Omicron" unicode="&#x39f;" horiz-adv-x="1589" 
d="M66 676q-3 142 55 273t157 225.5t234.5 149.5t280.5 52q116 2 227.5 -32.5t202.5 -99.5t160 -151.5t106 -194.5t35 -222q3 -143 -56 -274.5t-159 -225.5t-235.5 -148.5t-280.5 -52.5q-146 -2 -281 52.5t-234 148.5t-157 225.5t-55 274.5zM1163 676q0 166 -105 271.5
t-263 105.5q-163 0 -266 -105t-103 -272q0 -170 102 -275q102 -102 267 -102q159 0 263.5 105t104.5 272z" />
    <glyph glyph-name="Pi" unicode="&#x3a0;" horiz-adv-x="1427" 
d="M135 0v1352h1157v-1352h-352v1034h-453v-1034h-352z" />
    <glyph glyph-name="Rho" unicode="&#x3a1;" horiz-adv-x="1243" 
d="M135 0v1352h531q228 0 375 -128.5t147 -336.5q0 -135 -69 -242.5t-187.5 -166t-265.5 -58.5h-179v-420h-352zM487 727h181q73 0 117 44t44 116t-43.5 114.5t-117.5 42.5h-181v-317z" />
    <glyph glyph-name="Sigma" unicode="&#x3a3;" horiz-adv-x="1159" 
d="M555 317h520v-317h-1044v92l399 600l-399 568v92h1020v-318h-486l226 -319v-43z" />
    <glyph glyph-name="Tau" unicode="&#x3a4;" horiz-adv-x="1204" 
d="M426 0v1034h-406v318h1164v-318h-406v-1034h-352z" />
    <glyph glyph-name="Upsilon" unicode="&#x3a5;" horiz-adv-x="1288" 
d="M1284 1352l-463 -834v-518h-352v514l-465 838h389l252 -471l252 471h387z" />
    <glyph glyph-name="Phi" unicode="&#x3a6;" horiz-adv-x="1769" 
d="M1061 33v-121h-352v121q-281 22 -462 201t-181 446q0 175 83 317t229.5 226t330.5 96v121h352v-121q185 -12 330.5 -94.5t229 -224.5t83.5 -320t-83 -321.5t-229.5 -228.5t-330.5 -97zM709 332v688q-133 -19 -218 -115t-85 -235t83.5 -229.5t219.5 -108.5zM1364 670
q0 139 -85 235t-218 115v-688q136 18 219.5 108.5t83.5 229.5z" />
    <glyph glyph-name="Chi" unicode="&#x3a7;" horiz-adv-x="1275" 
d="M1272 0h-398l-237 379l-236 -379h-397l440 686l-415 666h397l211 -361l211 361h397l-409 -666z" />
    <glyph glyph-name="Psi" unicode="&#x3a8;" horiz-adv-x="1716" 
d="M682 0v287q-258 0 -406.5 147.5t-148.5 405.5v512h352v-480q0 -124 55 -196t148 -72v748h352v-748q93 0 148 72t55 196v480h352v-512q0 -258 -148.5 -405.5t-406.5 -147.5v-287h-352z" />
    <glyph glyph-name="uni03A9" unicode="&#x3a9;" horiz-adv-x="1609" 
d="M1350 317h163v-317h-602v317q128 62 195.5 159t67.5 220q0 157 -104.5 257t-268.5 100t-264.5 -97.5t-100.5 -255.5q0 -258 262 -383v-317h-602v317h150q-170 164 -170 398q-3 133 55 256.5t157 212.5t234.5 141.5t280.5 50.5q193 3 363.5 -87.5t271 -245t96.5 -328.5
q0 -235 -184 -398z" />
    <glyph glyph-name="Iotadieresis" unicode="&#x3aa;" horiz-adv-x="622" 
d="M135 0v1352h352v-1352h-352zM-170 1673q0 80 61 135q58 58 138 58q85 0 142.5 -55.5t57.5 -137.5q0 -76 -59.5 -133t-140.5 -57q-78 0 -138 57q-61 58 -61 133zM393 1671q0 78 60 135q61 58 139 58q85 0 143 -55.5t58 -137.5q0 -76 -60 -133t-141 -57q-77 0 -137 57
q-62 59 -62 133z" />
    <glyph glyph-name="Upsilondieresis" unicode="&#x3ab;" horiz-adv-x="1288" 
d="M1284 1352l-463 -834v-518h-352v514l-465 838h389l252 -471l252 471h387zM164 1673q0 79 59 135q61 58 139 58q85 0 143 -55.5t58 -137.5q0 -76 -60 -133t-141 -57q-77 0 -137 57q-61 58 -61 133zM727 1671q0 79 59 135q61 58 140 58q85 0 142.5 -55.5t57.5 -137.5
q0 -76 -59.5 -133t-140.5 -57q-78 0 -138 57q-61 58 -61 133z" />
    <glyph glyph-name="alphatonos" unicode="&#x3ac;" horiz-adv-x="1318" 
d="M1233 291l55 2v-293q-84 -25 -176 -25q-193 0 -264 154q-95 -154 -303 -154q-210 0 -346 151.5t-136 383.5q0 233 136 386t346 153q102 0 179 -39t122 -111l6 125h322q-21 -360 -21 -473v-145q0 -115 80 -115zM807 510q0 101 -56 160t-139 59q-82 0 -135 -58.5
t-53 -158.5q0 -101 52 -159t136 -58q83 0 139 57.5t56 157.5zM434 1176l82 421h418v-61l-244 -360h-256z" />
    <glyph glyph-name="epsilontonos" unicode="&#x3ad;" horiz-adv-x="1058" 
d="M819 373l189 -211q-156 -187 -465 -187q-216 0 -343.5 83.5t-127.5 224.5q0 147 172 231q-135 88 -135 221q0 142 123 228t327 86q298 0 449 -177l-189 -210q-41 41 -110.5 65.5t-147.5 24.5q-110 0 -110 -58q0 -26 20 -41.5t53 -15.5h170v-246h-190q-94 0 -94 -55
q0 -64 131 -64q177 0 278 101zM377 1176l82 421h418v-61l-244 -360h-256z" />
    <glyph glyph-name="etatonos" unicode="&#x3ae;" horiz-adv-x="1273" 
d="M1167 631v-1000h-352v949q0 67 -41.5 109t-107.5 42t-107 -42t-41 -109v-580h-352v618q0 60 -19 87.5t-61 27.5l-55 -2v293q80 25 176 25q177 0 244 -109q131 109 313 109q181 0 293 -115q110 -113 110 -303zM487 1176l82 421h418v-61l-244 -360h-256z" />
    <glyph glyph-name="iotatonos" unicode="&#x3af;" horiz-adv-x="679" 
d="M111 371v653h352v-598q0 -72 24.5 -103.5t81.5 -31.5q5 0 15.5 0.5t29.5 1.5t35 2v-295q-73 -25 -170 -25q-368 0 -368 396zM109 1176l81 421h418v-61l-243 -360h-256z" />
    <glyph glyph-name="upsilondieresistonos" unicode="&#x3b0;" horiz-adv-x="1232" 
d="M106 477v547h353v-582q0 -66 44 -107.5t113 -41.5t113.5 41.5t44.5 107.5v582h352v-547q0 -221 -142 -361.5t-368 -140.5t-368 140.5t-142 361.5zM436 1176l82 421h397v-61l-243 -360h-236zM18 1386q0 78 59.5 135.5t135.5 57.5q82 0 139.5 -56t57.5 -137
q0 -75 -59 -132.5t-138 -57.5q-75 0 -135 57q-60 60 -60 133zM901 1386q0 78 59.5 135.5t135.5 57.5q82 0 139 -56t57 -137q0 -75 -58.5 -132.5t-137.5 -57.5q-75 0 -135 57q-60 60 -60 133z" />
    <glyph glyph-name="alpha" unicode="&#x3b1;" horiz-adv-x="1318" 
d="M1233 291l55 2v-293q-84 -25 -176 -25q-193 0 -264 154q-95 -154 -303 -154q-210 0 -346 151.5t-136 383.5q0 233 136 386t346 153q102 0 179 -39t122 -111l6 125h322q-21 -360 -21 -473v-145q0 -115 80 -115zM807 510q0 101 -56 160t-139 59q-82 0 -135 -58.5
t-53 -158.5q0 -101 52 -159t136 -58q83 0 139 57.5t56 157.5z" />
    <glyph glyph-name="beta" unicode="&#x3b2;" horiz-adv-x="1284" 
d="M1221 471q0 -212 -143.5 -354t-358.5 -142q-136 0 -252 72v-416h-352v1424q0 222 145 364t375 142q209 0 348 -115.5t139 -290.5q0 -186 -135 -287q111 -56 172.5 -159t61.5 -238zM866 483q0 88 -51.5 140.5t-138.5 52.5h-123v295h65q61 0 97.5 35t36.5 96
q0 62 -35.5 98.5t-98.5 36.5q-72 0 -111.5 -47t-39.5 -135v-686q101 -70 205 -70q90 0 142 49.5t52 134.5z" />
    <glyph glyph-name="gamma" unicode="&#x3b3;" horiz-adv-x="1148" 
d="M1145 1024l-393 -1020v-373h-353v367l-395 1026h373l198 -631l197 631h373z" />
    <glyph glyph-name="delta" unicode="&#x3b4;" horiz-adv-x="1249" 
d="M1186 518q2 -149 -72.5 -275t-204.5 -198.5t-284 -69.5q-243 0 -402.5 149t-159.5 376q0 198 117 336q120 138 314 176l-404 432v92h1069v-315h-430l238 -248q219 -228 219 -455zM825 512q0 92 -57 153.5t-143 61.5t-143.5 -61.5t-57.5 -153.5t56.5 -151.5t144.5 -61.5
q88 2 144 61.5t56 151.5z" />
    <glyph glyph-name="epsilon" unicode="&#x3b5;" horiz-adv-x="1058" 
d="M819 373l189 -211q-156 -187 -465 -187q-216 0 -343.5 83.5t-127.5 224.5q0 147 172 231q-135 88 -135 221q0 142 123 228t327 86q298 0 449 -177l-189 -210q-41 41 -110.5 65.5t-147.5 24.5q-110 0 -110 -58q0 -26 20 -41.5t53 -15.5h170v-246h-190q-94 0 -94 -55
q0 -64 131 -64q177 0 278 101z" />
    <glyph glyph-name="zeta" unicode="&#x3b6;" horiz-adv-x="995" 
d="M1026 1446l-487 -727l-23 -35q-58 -83 -78 -124.5t-20 -82.5q0 -66 41.5 -103.5t152.5 -72.5l115 -37q132 -42 200 -131.5t68 -218.5q0 -146 -67 -283h-344q55 93 55 191q0 72 -31.5 111t-109.5 65l-115 41q-320 114 -320 387q0 88 46 186q55 117 163 275l226 334h-389
v315h917v-90z" />
    <glyph glyph-name="eta" unicode="&#x3b7;" horiz-adv-x="1273" 
d="M1167 631v-1000h-352v949q0 67 -41.5 109t-107.5 42t-107 -42t-41 -109v-580h-352v618q0 60 -19 87.5t-61 27.5l-55 -2v293q80 25 176 25q177 0 244 -109q131 109 313 109q181 0 293 -115q110 -113 110 -303z" />
    <glyph glyph-name="theta" unicode="&#x3b8;" horiz-adv-x="1343" 
d="M1251 776q0 -381 -152 -591t-427 -210t-427.5 210t-152.5 591q0 375 151.5 580t428.5 205t428 -205t151 -580zM457 907h430q-10 177 -60.5 253.5t-154.5 76.5t-154.5 -76.5t-60.5 -253.5zM885 612h-426q13 -165 63.5 -239t149.5 -74t149.5 74t63.5 239z" />
    <glyph glyph-name="iota" unicode="&#x3b9;" horiz-adv-x="679" 
d="M111 371v653h352v-598q0 -72 24.5 -103.5t81.5 -31.5q5 0 15.5 0.5t29.5 1.5t35 2v-295q-73 -25 -170 -25q-368 0 -368 396z" />
    <glyph glyph-name="kappa" unicode="&#x3ba;" horiz-adv-x="1218" 
d="M1219 0h-388l-364 502v-502h-352v1024h352v-455l340 455h407l-370 -492z" />
    <glyph glyph-name="lambda" unicode="&#x3bb;" horiz-adv-x="1202" 
d="M1147 295h55v-295q-83 -25 -153 -25q-115 0 -184.5 57.5t-112.5 186.5l-138 410l-274 -629h-373l471 1034l-22 72q-24 76 -63 107.5t-115 31.5l-113 -4v295q73 25 174 25q166 0 266.5 -84.5t163.5 -253.5l318 -852q27 -76 100 -76z" />
    <glyph glyph-name="uni03BC" unicode="&#x3bc;" horiz-adv-x="1282" 
d="M1196 291l55 2v-293q-84 -25 -176 -25q-160 0 -231 103q-76 -103 -201 -103q-106 0 -176 76v-420h-352v1393h352v-575q0 -69 40.5 -112.5t106.5 -43.5q67 0 108.5 43.5t41.5 112.5v575h352v-623q0 -57 19.5 -83.5t60.5 -26.5z" />
    <glyph glyph-name="nu" unicode="&#x3bd;" horiz-adv-x="1169" 
d="M793 1024h372l-524 -1049h-113l-524 1049h373l209 -461z" />
    <glyph glyph-name="xi" unicode="&#x3be;" horiz-adv-x="1019" 
d="M969 -86q0 -139 -66 -283h-344q53 101 53 191q0 75 -29.5 112t-103.5 56l-57 14q-165 41 -256.5 149.5t-91.5 262.5q0 115 49 209t137 155q-147 82 -147 248q0 110 102 193h-131v315h877v-315h-334q-75 0 -119.5 -42.5t-44.5 -105.5q0 -64 44 -106.5t120 -42.5h241v-295
h-260q-82 0 -129 -42t-47 -114q0 -75 47 -117t166 -73l55 -15q133 -34 201 -127t68 -227z" />
    <glyph glyph-name="omicron" unicode="&#x3bf;" horiz-adv-x="1243" 
d="M63 512q-3 144 72.5 269t205.5 198t280 70q112 2 216.5 -40.5t180 -115.5t120 -173t42.5 -208q2 -108 -42.5 -208t-120 -173t-180 -115.5t-216.5 -40.5q-150 -3 -280 70t-205.5 198t-72.5 269zM819 512q0 92 -55.5 152.5t-140.5 60.5q-88 0 -143.5 -59.5t-55.5 -153.5
q0 -96 55.5 -154.5t143.5 -58.5q86 0 141 60t55 153z" />
    <glyph glyph-name="pi" unicode="&#x3c0;" horiz-adv-x="1214" 
d="M131 0v709h-131v315h1214v-315h-131v-709h-352v709h-248v-709h-352z" />
    <glyph glyph-name="rho" unicode="&#x3c1;" horiz-adv-x="1259" 
d="M1196 510q0 -234 -135.5 -384.5t-347.5 -150.5q-161 0 -254 93v-437h-353v869q0 249 148 399t397 150q245 0 395 -147.5t150 -391.5zM836 512q0 98 -52.5 157.5t-140.5 59.5q-86 0 -138 -58.5t-52 -156.5q0 -99 52 -159t138 -60t139.5 60t53.5 157z" />
    <glyph glyph-name="uni03C2" unicode="&#x3c2;" horiz-adv-x="1095" 
d="M657 -178q0 72 -28.5 111t-100.5 65l-77 29q-204 75 -296 189t-92 294q0 239 151.5 389t389.5 150q156 0 275.5 -71t185.5 -204l-244 -186q-88 137 -209 137q-85 0 -136.5 -54.5t-51.5 -142.5q0 -48 11.5 -81t42 -58.5t67.5 -43t104 -42.5l111 -39q125 -44 189.5 -133.5
t64.5 -216.5q0 -134 -64 -283h-344q51 99 51 191z" />
    <glyph glyph-name="sigma" unicode="&#x3c3;" horiz-adv-x="1339" 
d="M1294 1024v-315h-215q84 -104 84 -232q0 -215 -158.5 -358.5t-394.5 -143.5q-152 0 -277.5 69.5t-197.5 191.5t-72 270q0 234 155.5 376t412.5 142h663zM803 512q0 94 -53 153.5t-138 59.5t-136.5 -58t-51.5 -155t51.5 -155t136.5 -58t138 59.5t53 153.5z" />
    <glyph glyph-name="tau" unicode="&#x3c4;" horiz-adv-x="1044" 
d="M979 709h-326v-283q0 -74 39.5 -104.5t136.5 -30.5l129 4v-295q-106 -25 -206 -25q-220 0 -335.5 106.5t-115.5 309.5v318h-281v315h959v-315z" />
    <glyph glyph-name="upsilon" unicode="&#x3c5;" horiz-adv-x="1232" 
d="M106 477v547h353v-582q0 -66 44 -107.5t113 -41.5t113.5 41.5t44.5 107.5v582h352v-547q0 -221 -142 -361.5t-368 -140.5t-368 140.5t-142 361.5z" />
    <glyph glyph-name="phi" unicode="&#x3c6;" horiz-adv-x="1617" 
d="M987 -25v-344h-352v344q-255 12 -413.5 161t-158.5 380t156.5 376t415.5 157v303h352v-303q256 -12 411.5 -157t155.5 -376q0 -232 -156.5 -380.5t-410.5 -160.5zM645 270v484q-113 -6 -176 -69t-63 -173t62 -173t177 -69zM1214 512q0 109 -62.5 172.5t-174.5 69.5v-484
q115 6 176 68.5t61 173.5z" />
    <glyph glyph-name="chi" unicode="&#x3c7;" horiz-adv-x="1165" 
d="M1102 -74h84v-295q-71 -24 -178 -24q-99 0 -167.5 49t-131.5 166l-117 221l-207 -412h-391l403 723l-164 299q-23 41 -52.5 58.5t-76.5 17.5h-79v295q73 25 178 25q102 0 170 -50t129 -165l96 -181l186 371h392l-383 -686l184 -336q23 -41 52 -58.5t73 -17.5z" />
    <glyph glyph-name="psi" unicode="&#x3c8;" horiz-adv-x="1699" 
d="M674 -369v344q-255 0 -411.5 147t-156.5 390v512h353v-483q0 -109 61 -178.5t154 -69.5v1059h352v-1059q93 0 154 69.5t61 178.5v483h352v-512q0 -243 -156 -390t-411 -147v-344h-352z" />
    <glyph glyph-name="omega" unicode="&#x3c9;" horiz-adv-x="1658" 
d="M1595 506q0 -239 -129 -385t-340 -146q-185 0 -297 121q-112 -121 -297 -121q-211 0 -340 146t-129 385q0 207 100 349t273 183l115 -299q-135 -77 -135 -243q0 -93 38 -148t101 -55q51 0 80 36.5t29 102.5v291h331v-291q0 -66 29 -102.5t80 -36.5q63 0 101 55t38 148
q0 166 -135 243l115 299q173 -41 272.5 -183t99.5 -349z" />
    <glyph glyph-name="iotadieresis" unicode="&#x3ca;" horiz-adv-x="679" 
d="M111 371v653h352v-598q0 -72 24.5 -103.5t81.5 -31.5q5 0 15.5 0.5t29.5 1.5t35 2v-295q-73 -25 -170 -25q-368 0 -368 396zM-164 1386q0 80 62 136q57 57 137 57q85 0 143 -55.5t58 -137.5q0 -76 -60 -133t-141 -57q-77 0 -137 57q-62 59 -62 133zM338 1386q0 80 59 136
q60 57 140 57q85 0 142.5 -55.5t57.5 -137.5q0 -76 -59.5 -133t-140.5 -57q-78 0 -138 57q-61 58 -61 133z" />
    <glyph glyph-name="upsilondieresis" unicode="&#x3cb;" horiz-adv-x="1232" 
d="M106 477v547h353v-582q0 -66 44 -107.5t113 -41.5t113.5 41.5t44.5 107.5v582h352v-547q0 -221 -142 -361.5t-368 -140.5t-368 140.5t-142 361.5zM156 1389q0 78 59 134t143 56q80 0 138.5 -56t58.5 -134q0 -79 -58.5 -136t-138.5 -57q-84 0 -143 56.5t-59 136.5z
M678 1389q0 78 59.5 134t143.5 56q80 0 138 -56t58 -134q0 -79 -58 -136t-138 -57q-84 0 -143.5 56.5t-59.5 136.5z" />
    <glyph glyph-name="omicrontonos" unicode="&#x3cc;" horiz-adv-x="1243" 
d="M63 512q-3 144 72.5 269t205.5 198t280 70q112 2 216.5 -40.5t180 -115.5t120 -173t42.5 -208q2 -108 -42.5 -208t-120 -173t-180 -115.5t-216.5 -40.5q-150 -3 -280 70t-205.5 198t-72.5 269zM819 512q0 92 -55.5 152.5t-140.5 60.5q-88 0 -143.5 -59.5t-55.5 -153.5
q0 -96 55.5 -154.5t143.5 -58.5q86 0 141 60t55 153zM444 1176l82 421h418v-61l-244 -360h-256z" />
    <glyph glyph-name="upsilontonos" unicode="&#x3cd;" horiz-adv-x="1232" 
d="M106 477v547h353v-582q0 -66 44 -107.5t113 -41.5t113.5 41.5t44.5 107.5v582h352v-547q0 -221 -142 -361.5t-368 -140.5t-368 140.5t-142 361.5zM438 1176l82 421h418v-61l-244 -360h-256z" />
    <glyph glyph-name="omegatonos" unicode="&#x3ce;" horiz-adv-x="1658" 
d="M1595 506q0 -239 -129 -385t-340 -146q-185 0 -297 121q-112 -121 -297 -121q-211 0 -340 146t-129 385q0 207 100 349t273 183l115 -299q-135 -77 -135 -243q0 -93 38 -148t101 -55q51 0 80 36.5t29 102.5v291h331v-291q0 -66 29 -102.5t80 -36.5q63 0 101 55t38 148
q0 166 -135 243l115 299q173 -41 272.5 -183t99.5 -349zM651 1176l82 421h418v-61l-244 -360h-256z" />
    <glyph glyph-name="uni0400" unicode="&#x400;" horiz-adv-x="1181" 
d="M135 0v1352h938v-318h-586v-186h418v-295h-418v-236h611v-317h-963zM463 1483l-301 319v62h424l131 -381h-254z" />
    <glyph glyph-name="uni0401" unicode="&#x401;" horiz-adv-x="1181" 
d="M135 0v1352h938v-318h-586v-186h418v-295h-418v-236h611v-317h-963zM111 1673q0 79 59 135q61 58 139 58q85 0 143 -55.5t58 -137.5q0 -76 -60 -133t-141 -57q-77 0 -137 57q-61 58 -61 133zM674 1671q0 79 59 135q61 58 139 58q85 0 143 -55.5t58 -137.5q0 -76 -60 -133
t-141 -57q-77 0 -137 57q-61 58 -61 133z" />
    <glyph glyph-name="uni0402" unicode="&#x402;" horiz-adv-x="1566" 
d="M1006 -45l-70 309q115 21 162 49.5t47 96.5q0 62 -41.5 95.5t-120.5 33.5q-65 0 -127.5 -15t-97.5 -35v-489h-352v1034h-386v318h1164v-318h-426v-235q39 20 106.5 33.5t136.5 13.5q217 0 359.5 -115.5t142.5 -312.5q0 -218 -141 -332q-139 -110 -356 -131z" />
    <glyph glyph-name="uni0403" unicode="&#x403;" horiz-adv-x="1095" 
d="M135 0v1352h912v-318h-560v-1034h-352zM457 1483l131 381h424v-62l-301 -319h-254z" />
    <glyph glyph-name="uni0404" unicode="&#x404;" horiz-adv-x="1480" 
d="M1147 520l268 -182q-93 -172 -255 -267.5t-365 -95.5q-146 -2 -282 52.5t-235 148.5t-157 225t-55 275q-2 142 56 273t156.5 225.5t234.5 149.5t284 52q202 0 364 -95t254 -267l-268 -183q-133 222 -352 222q-120 0 -210 -60.5t-132 -165.5h518v-295h-522
q37 -109 129 -171t217 -62q220 0 352 221z" />
    <glyph glyph-name="uni0405" unicode="&#x405;" 
d="M47 279l238 180q65 -87 134.5 -130.5t166.5 -43.5q139 0 139 98q0 42 -26.5 65t-110.5 60l-139 61q-171 75 -257 174.5t-86 233.5q0 179 132.5 289t341.5 110q163 0 281 -72t181 -200l-235 -180q-51 76 -102 109.5t-121 33.5q-57 0 -89 -22t-32 -64q0 -37 25.5 -61
t91.5 -50l155 -65q179 -75 262.5 -171t83.5 -237q0 -128 -65.5 -225t-177 -147t-252.5 -50q-181 0 -323 81.5t-216 222.5z" />
    <glyph glyph-name="uni0406" unicode="&#x406;" horiz-adv-x="622" 
d="M135 0v1352h352v-1352h-352z" />
    <glyph glyph-name="uni0407" unicode="&#x407;" horiz-adv-x="622" 
d="M135 0v1352h352v-1352h-352zM-170 1673q0 80 61 135q58 58 138 58q85 0 142.5 -55.5t57.5 -137.5q0 -76 -59.5 -133t-140.5 -57q-78 0 -138 57q-61 58 -61 133zM393 1671q0 78 60 135q61 58 139 58q85 0 143 -55.5t58 -137.5q0 -76 -60 -133t-141 -57q-77 0 -137 57
q-62 59 -62 133z" />
    <glyph glyph-name="uni0408" unicode="&#x408;" horiz-adv-x="817" 
d="M25 0v299l129 -4q97 0 136.5 30.5t39.5 104.5v922h352v-961q0 -206 -115 -311t-336 -105q-100 0 -206 25z" />
    <glyph glyph-name="uni0409" unicode="&#x409;" horiz-adv-x="1996" 
d="M1933 465q0 -208 -147 -336.5t-375 -128.5h-565v1034h-260v-10q-1 -249 -20 -429t-53.5 -299t-90.5 -189.5t-123 -100t-160 -31.5q-66 0 -139 25v299q20 -4 55 -4q69 0 111.5 72t64 242.5t21.5 457.5v285h946v-420h213q147 0 265.5 -58.5t187.5 -166t69 -242.5zM1575 465
q0 72 -44.5 116t-117.5 44h-215v-318h215q74 0 118 43t44 115z" />
    <glyph glyph-name="uni040A" unicode="&#x40a;" horiz-adv-x="2070" 
d="M135 0v1352h352v-453h433v453h352v-453h213q147 0 265.5 -56t187.5 -159.5t69 -234.5q0 -202 -147 -325.5t-375 -123.5h-565v582h-433v-582h-352zM1272 307h215q73 0 117.5 39.5t44.5 102.5q0 66 -44 104.5t-118 38.5h-215v-285z" />
    <glyph glyph-name="uni040B" unicode="&#x40b;" horiz-adv-x="1611" 
d="M1505 315v-315h-352v281q0 118 -53 178.5t-152 60.5q-105 0 -190 -43v-477h-352v1034h-386v318h1164v-318h-426v-235q105 45 227 45q235 0 377.5 -139t142.5 -390z" />
    <glyph glyph-name="uni040C" unicode="&#x40c;" horiz-adv-x="1423" 
d="M1419 0h-418l-514 674v-674h-352v1352h352v-613l447 613h409l-464 -643zM573 1483l132 381h423v-62l-301 -319h-254z" />
    <glyph glyph-name="uni040D" unicode="&#x40d;" horiz-adv-x="1468" 
d="M1221 1376h112v-1376h-352v702l-733 -727h-113v1377h352v-695zM672 1483l-301 319v62h424l131 -381h-254z" />
    <glyph glyph-name="uni040E" unicode="&#x40e;" horiz-adv-x="1308" 
d="M924 1352h381l-445 -1000q-46 -103 -84.5 -165.5t-94 -113t-128 -73t-176.5 -25.5q-86 0 -184 25v299q94 -4 110 -4q108 0 178 55l-477 1002h393l275 -629zM301 1845v19h277v-29q0 -123 104 -123t104 123v29h277v-19q0 -167 -107 -274t-274 -107t-274 107t-107 274z" />
    <glyph glyph-name="uni040F" unicode="&#x40f;" horiz-adv-x="1427" 
d="M1292 1352v-1352h-411v-289h-332v289h-414v1352h352v-1035h453v1035h352z" />
    <glyph glyph-name="uni0410" unicode="&#x410;" horiz-adv-x="1349" 
d="M967 0l-49 113h-486l-49 -113h-379l614 1376h113l615 -1376h-379zM793 395l-117 314l-119 -314h236z" />
    <glyph glyph-name="uni0411" unicode="&#x411;" horiz-adv-x="1277" 
d="M135 0v1352h969v-318h-617v-198h279q200 0 328.5 -111.5t128.5 -298.5q0 -188 -130 -307t-327 -119h-631zM487 297h256q64 0 100 33.5t36 95.5t-36 94.5t-100 32.5h-256v-256z" />
    <glyph glyph-name="uni0412" unicode="&#x412;" horiz-adv-x="1277" 
d="M1223 401q0 -174 -130.5 -287.5t-326.5 -113.5h-631v1352h488q197 0 326.5 -112t129.5 -288q0 -136 -82 -227q108 -44 167 -126.5t59 -197.5zM600 1055h-127v-238h127q63 0 99 32.5t36 86.5t-36 86.5t-99 32.5zM879 416q0 59 -36 89t-100 30h-270v-238h270q64 0 100 30
t36 89z" />
    <glyph glyph-name="uni0413" unicode="&#x413;" horiz-adv-x="1095" 
d="M135 0v1352h912v-318h-560v-1034h-352z" />
    <glyph glyph-name="uni0414" unicode="&#x414;" horiz-adv-x="1538" 
d="M1307 317h190v-606h-352v289h-752v-289h-352v606h113q71 55 103 244t32 526v265h1018v-1035zM530 317h424v717h-331q-3 -488 -93 -717z" />
    <glyph glyph-name="uni0415" unicode="&#x415;" horiz-adv-x="1181" 
d="M135 0v1352h938v-318h-586v-186h418v-295h-418v-236h611v-317h-963z" />
    <glyph glyph-name="uni0416" unicode="&#x416;" horiz-adv-x="2060" 
d="M2056 0h-418l-432 668v-668h-352v668l-432 -668h-418l504 705l-469 647h410l405 -609v609h352v-609l406 609h409l-469 -647z" />
    <glyph glyph-name="uni0417" unicode="&#x417;" horiz-adv-x="1212" 
d="M1147 403q0 -198 -142.5 -313t-392.5 -115q-188 0 -331 85.5t-215 238.5l243 172q115 -172 301 -172q88 0 140.5 32t52.5 93q0 52 -41 81.5t-115 29.5h-190v282h149q68 0 107 31.5t39 83.5q0 55 -42.5 88t-111.5 33q-160 0 -248 -172l-244 172q72 156 205 239.5t312 83.5
q222 0 347.5 -107t125.5 -302q0 -166 -123 -267q83 -45 128.5 -121.5t45.5 -175.5z" />
    <glyph glyph-name="uni0418" unicode="&#x418;" horiz-adv-x="1468" 
d="M1221 1376h112v-1376h-352v702l-733 -727h-113v1377h352v-695z" />
    <glyph glyph-name="uni0419" unicode="&#x419;" horiz-adv-x="1468" 
d="M1221 1376h112v-1376h-352v702l-733 -727h-113v1377h352v-695zM420 1845v19h276v-29q0 -60 27 -91.5t78 -31.5q104 0 104 123v29h277v-19q0 -167 -107 -274t-274 -107t-274 107t-107 274z" />
    <glyph glyph-name="uni041A" unicode="&#x41a;" horiz-adv-x="1423" 
d="M1419 0h-418l-514 674v-674h-352v1352h352v-613l447 613h409l-464 -643z" />
    <glyph glyph-name="uni041B" unicode="&#x41b;" horiz-adv-x="1374" 
d="M252 1352h987v-1352h-352v1034h-301q-1 -209 -14 -370t-39.5 -277.5t-62.5 -195.5t-87 -126t-109.5 -67.5t-134.5 -22.5q-66 0 -139 25v299q20 -4 55 -4q69 0 111.5 72t64 242.5t21.5 457.5v285z" />
    <glyph glyph-name="uni041C" unicode="&#x41c;" horiz-adv-x="1646" 
d="M1399 1376h112v-1376h-352v567l-280 -327h-113l-279 325v-565h-352v1376h113l575 -702z" />
    <glyph glyph-name="uni041D" unicode="&#x41d;" horiz-adv-x="1468" 
d="M135 0v1352h352v-494h494v494h352v-1352h-352v541h-494v-541h-352z" />
    <glyph glyph-name="uni041E" unicode="&#x41e;" horiz-adv-x="1589" 
d="M66 676q-3 142 55 273t157 225.5t234.5 149.5t280.5 52q116 2 227.5 -32.5t202.5 -99.5t160 -151.5t106 -194.5t35 -222q3 -143 -56 -274.5t-159 -225.5t-235.5 -148.5t-280.5 -52.5q-146 -2 -281 52.5t-234 148.5t-157 225.5t-55 274.5zM1163 676q0 166 -105 271.5
t-263 105.5q-163 0 -266 -105t-103 -272q0 -170 102 -275q102 -102 267 -102q159 0 263.5 105t104.5 272z" />
    <glyph glyph-name="uni041F" unicode="&#x41f;" horiz-adv-x="1447" 
d="M135 0v1352h1178v-1352h-352v1034h-474v-1034h-352z" />
    <glyph glyph-name="uni0420" unicode="&#x420;" horiz-adv-x="1243" 
d="M135 0v1352h531q228 0 375 -128.5t147 -336.5q0 -135 -69 -242.5t-187.5 -166t-265.5 -58.5h-179v-420h-352zM487 727h181q73 0 117 44t44 116t-43.5 114.5t-117.5 42.5h-181v-317z" />
    <glyph glyph-name="uni0421" unicode="&#x421;" horiz-adv-x="1480" 
d="M66 676q-2 142 56 273t156.5 225.5t234.5 149.5t284 52q202 0 364 -95t254 -267l-268 -183q-133 222 -352 222q-162 0 -265.5 -105t-103.5 -274q0 -168 102 -273q105 -102 267 -102q220 0 352 221l268 -182q-93 -172 -255 -267.5t-365 -95.5q-146 -2 -282 52.5
t-235 148.5t-157 225t-55 275z" />
    <glyph glyph-name="uni0422" unicode="&#x422;" horiz-adv-x="1204" 
d="M426 0v1034h-406v318h1164v-318h-406v-1034h-352z" />
    <glyph glyph-name="uni0423" unicode="&#x423;" horiz-adv-x="1308" 
d="M924 1352h381l-445 -1000q-46 -103 -84.5 -165.5t-94 -113t-128 -73t-176.5 -25.5q-86 0 -184 25v299q94 -4 110 -4q108 0 178 55l-477 1002h393l275 -629z" />
    <glyph glyph-name="uni0424" unicode="&#x424;" horiz-adv-x="1773" 
d="M1061 121v-162h-352v162q-289 18 -467 164q-176 147 -176 403q0 254 174 397q175 144 469 162v146h352v-146q292 -18 469 -166q178 -144 178 -401q0 -253 -178 -397q-175 -144 -469 -162zM1368 690q0 123 -76.5 186t-230.5 74v-532q149 11 228 80t79 192zM709 418v532
q-147 -11 -225 -80.5t-78 -191.5q0 -121 75.5 -184.5t227.5 -75.5z" />
    <glyph glyph-name="uni0425" unicode="&#x425;" horiz-adv-x="1275" 
d="M1272 0h-398l-237 379l-236 -379h-397l440 686l-415 666h397l211 -361l211 361h397l-409 -666z" />
    <glyph glyph-name="uni0426" unicode="&#x426;" horiz-adv-x="1523" 
d="M1151 -289v289h-1016v1352h352v-1035h453v1035h352v-1035h191v-606h-332z" />
    <glyph glyph-name="uni0427" unicode="&#x427;" horiz-adv-x="1363" 
d="M877 1352h352v-1352h-352v469q-116 -43 -254 -43q-253 0 -397 144t-144 405v377h352v-342q0 -133 61.5 -196.5t198.5 -63.5q107 0 183 28v574z" />
    <glyph glyph-name="uni0428" unicode="&#x428;" horiz-adv-x="2064" 
d="M135 0v1352h352v-1035h369v1035h352v-1035h369v1035h352v-1352h-1794z" />
    <glyph glyph-name="uni0429" unicode="&#x429;" horiz-adv-x="2160" 
d="M1788 -289v289h-1653v1352h352v-1035h369v1035h352v-1035h369v1035h352v-1035h191v-606h-332z" />
    <glyph glyph-name="uni042A" unicode="&#x42a;" horiz-adv-x="1478" 
d="M328 0v1034h-308v318h660v-420h213q147 0 265.5 -58.5t187.5 -166t69 -242.5q0 -208 -147 -336.5t-375 -128.5h-565zM680 307h215q74 0 118 43t44 115t-44.5 116t-117.5 44h-215v-318z" />
    <glyph glyph-name="uni042B" unicode="&#x42b;" horiz-adv-x="1888" 
d="M135 0v1352h352v-420h213q147 0 266 -58.5t188 -166t69 -242.5q0 -208 -147.5 -336.5t-375.5 -128.5h-565zM487 307h215q74 0 118 43t44 115t-44.5 116t-117.5 44h-215v-318zM1401 0v1352h352v-1352h-352z" />
    <glyph glyph-name="uni042C" unicode="&#x42c;" horiz-adv-x="1286" 
d="M135 0v1352h352v-420h213q147 0 266 -58.5t188 -166t69 -242.5q0 -208 -147.5 -336.5t-375.5 -128.5h-565zM487 307h215q74 0 118 43t44 115t-44.5 116t-117.5 44h-215v-318z" />
    <glyph glyph-name="uni042D" unicode="&#x42d;" horiz-adv-x="1480" 
d="M1415 676q3 -144 -55 -275t-157 -225t-235 -148.5t-282 -52.5q-203 0 -365 95.5t-255 267.5l268 182q132 -221 352 -221q125 0 217 62t129 171h-465v295h461q-42 105 -132 165.5t-210 60.5q-219 0 -352 -222l-268 183q92 172 254 267t364 95q148 3 284 -52t234.5 -149.5
t156.5 -225.5t56 -273z" />
    <glyph glyph-name="uni042E" unicode="&#x42e;" horiz-adv-x="2105" 
d="M2040 676q2 -142 -56 -273.5t-155.5 -226t-230.5 -149.5t-275 -52q-259 0 -452 159.5t-236 406.5h-148v-541h-352v1352h352v-494h158q59 230 245.5 374t432.5 144q143 3 276 -52t231 -149.5t155.5 -225.5t54.5 -273zM1679 676q0 165 -102 271t-254 106t-254 -106
t-102 -271t102 -271t254 -106t254 106t102 271z" />
    <glyph glyph-name="uni042F" unicode="&#x42f;" horiz-adv-x="1310" 
d="M682 1352h494v-1352h-353v397h-114l-275 -397h-373l320 463q-122 62 -190 170t-68 244q0 210 156 342.5t403 132.5zM823 705v339h-155q-82 0 -134.5 -47.5t-52.5 -122.5t52.5 -122t134.5 -47h155z" />
    <glyph glyph-name="uni0430" unicode="&#x430;" horiz-adv-x="1136" 
d="M1030 594v-594h-321v84q-115 -109 -295 -109q-162 0 -257.5 92t-95.5 226q0 142 108 223.5t294 81.5h215v16q0 62 -39 96.5t-117 34.5q-67 0 -124 -28t-132 -96l-164 223q104 106 214.5 155.5t248.5 49.5q218 0 341.5 -118t123.5 -337zM678 375v8h-166q-44 0 -69 -20.5
t-25 -57.5t27.5 -58.5t76.5 -21.5q69 0 112.5 41t43.5 109z" />
    <glyph glyph-name="uni0431" unicode="&#x431;" horiz-adv-x="1267" 
d="M1204 496q0 -229 -153 -374t-396 -145q-260 0 -412.5 170.5t-152.5 460.5v142q1 123 15 217t46.5 177.5t86.5 143.5t135 107.5t193 76.5t259 44q172 15 230 28q56 15 57 15v-318l-59 -12q-67 -14 -238 -25q-119 -8 -193 -27t-122.5 -60t-68.5 -102.5t-25 -160.5
q120 156 337 156q202 0 331.5 -144t129.5 -370zM844 494q0 85 -56 140.5t-141 55.5t-140.5 -55.5t-55.5 -140.5q0 -82 57 -139.5t139 -57.5q85 0 141 56t56 141z" />
    <glyph glyph-name="uni0432" unicode="&#x432;" horiz-adv-x="1144" 
d="M1081 315q0 -138 -106.5 -226.5t-263.5 -88.5h-588v1024h510q161 0 270 -80t109 -219q0 -108 -72 -180q141 -74 141 -230zM455 776v-141h149q96 0 96 70q0 38 -23 54.5t-73 16.5h-149zM766 328q0 38 -27.5 60t-72.5 22h-211v-164h211q45 0 72.5 22t27.5 60z" />
    <glyph glyph-name="uni0433" unicode="&#x433;" horiz-adv-x="950" 
d="M123 0v1024h792v-295h-440v-729h-352z" />
    <glyph glyph-name="uni0434" unicode="&#x434;" horiz-adv-x="1380" 
d="M1149 295h170v-584h-332v289h-635v-289h-332v584h109q55 53 81.5 167t37.5 333l10 229h891v-729zM487 295h312v434h-234v-4q-9 -275 -78 -430z" />
    <glyph glyph-name="uni0435" unicode="&#x435;" horiz-adv-x="1163" 
d="M1077 389h-655q58 -117 229 -117q136 0 269 80l127 -239q-181 -138 -408 -138q-123 0 -230.5 41.5t-183 113t-119 171t-43.5 211.5q0 148 72.5 271.5t198.5 194.5t276 71q144 0 257 -66.5t173 -177t60 -242.5q0 -84 -23 -174zM410 618h356q-1 68 -50.5 111t-119.5 43
q-67 0 -116.5 -40.5t-69.5 -113.5z" />
    <glyph glyph-name="uni0436" unicode="&#x436;" horiz-adv-x="1814" 
d="M1815 0h-414l-328 496v-496h-352v496l-328 -496h-393l354 530l-344 494h408l303 -449v449h352v-449l303 449h408l-334 -477z" />
    <glyph glyph-name="uni0437" unicode="&#x437;" horiz-adv-x="1036" 
d="M965 305q0 -166 -109 -248t-334 -82q-317 0 -471 187l189 211q101 -101 256 -101q131 0 131 64q0 26 -25.5 41.5t-69.5 15.5h-147v246h127q33 0 53.5 14.5t20.5 40.5q0 58 -92 58q-130 0 -234 -90l-188 210q159 177 444 177q198 0 305 -81t107 -233q0 -124 -92 -213
q63 -41 96 -97.5t33 -119.5z" />
    <glyph glyph-name="uni0438" unicode="&#x438;" horiz-adv-x="1249" 
d="M1014 1049h112v-1049h-352v461l-538 -486h-113v1049h352v-461z" />
    <glyph glyph-name="uni0439" unicode="&#x439;" horiz-adv-x="1249" 
d="M1014 1049h112v-1049h-352v461l-538 -486h-113v1049h352v-461zM264 1546v51h277v-51q0 -133 104 -133q105 0 105 133v51h276v-51q0 -167 -107 -274t-274 -107t-274 107t-107 274z" />
    <glyph glyph-name="uni043A" unicode="&#x43a;" horiz-adv-x="1234" 
d="M1235 0h-412l-348 512v-512h-352v1024h352v-465l344 465h391l-360 -469z" />
    <glyph glyph-name="uni043B" unicode="&#x43b;" horiz-adv-x="1224" 
d="M213 1024h889v-1024h-350v729h-211v-45q-6 -387 -90.5 -548t-282.5 -161q-55 0 -137 25v289q16 -4 39 -4q54 0 84 45t44.5 155.5t14.5 309.5v229z" />
    <glyph glyph-name="uni043C" unicode="&#x43c;" horiz-adv-x="1427" 
d="M123 0v1049h113l477 -514l483 514h109v-1049h-353v367l-184 -195h-113l-180 193v-365h-352z" />
    <glyph glyph-name="uni043D" unicode="&#x43d;" horiz-adv-x="1249" 
d="M123 0v1024h352v-354h299v354h352v-1024h-352v375h-299v-375h-352z" />
    <glyph glyph-name="uni043E" unicode="&#x43e;" horiz-adv-x="1243" 
d="M63 512q-3 144 72.5 269t205.5 198t280 70q112 2 216.5 -40.5t180 -115.5t120 -173t42.5 -208q2 -108 -42.5 -208t-120 -173t-180 -115.5t-216.5 -40.5q-150 -3 -280 70t-205.5 198t-72.5 269zM819 512q0 92 -55.5 152.5t-140.5 60.5q-88 0 -143.5 -59.5t-55.5 -153.5
q0 -96 55.5 -154.5t143.5 -58.5q86 0 141 60t55 153z" />
    <glyph glyph-name="uni043F" unicode="&#x43f;" horiz-adv-x="1232" 
d="M123 0v1024h987v-1024h-352v729h-283v-729h-352z" />
    <glyph glyph-name="uni0440" unicode="&#x440;" horiz-adv-x="1284" 
d="M1221 514q0 -233 -140 -386t-352 -153q-159 0 -262 95v-439h-352v1393h321v-106q94 131 293 131q215 0 353.5 -151t138.5 -384zM860 512q0 100 -57 158.5t-144 58.5q-85 0 -141.5 -57t-56.5 -158t56.5 -160t141.5 -59t143 59t58 158z" />
    <glyph glyph-name="uni0441" unicode="&#x441;" horiz-adv-x="1132" 
d="M63 512q-3 146 73 271t206.5 197t280.5 69q156 0 275 -73t183 -202l-243 -186q-43 68 -93.5 102.5t-117.5 34.5q-92 0 -147.5 -59.5t-55.5 -153.5t55.5 -153.5t147.5 -59.5q123 0 211 135l243 -184q-64 -129 -183 -202t-275 -73q-150 -3 -280.5 69t-206.5 197t-73 271z
" />
    <glyph glyph-name="uni0442" unicode="&#x442;" horiz-adv-x="989" 
d="M317 0v729h-297v295h949v-295h-299v-729h-353z" />
    <glyph glyph-name="uni0443" unicode="&#x443;" horiz-adv-x="1171" 
d="M795 1024h372l-481 -1079q-79 -176 -184.5 -257t-261.5 -81q-95 0 -197 24v295q27 -1 55.5 -2t43 -1.5t20.5 -0.5q77 0 123 25.5t77 95.5l17 35l-375 946h375l196 -575z" />
    <glyph glyph-name="uni0444" unicode="&#x444;" horiz-adv-x="1646" 
d="M999 -16v-353h-352v355q-259 18 -422 153q-162 137 -162 377q0 162 77 281.5t207 181.5t300 70v487h352v-489q256 -18 420 -156q164 -135 164 -375q0 -242 -162 -381t-422 -151zM657 279v475q-245 -15 -245 -242q0 -103 64 -162.5t181 -70.5zM1235 520q0 105 -66.5 167
t-179.5 67v-475q246 15 246 241z" />
    <glyph glyph-name="uni0445" unicode="&#x445;" horiz-adv-x="1132" 
d="M1133 0h-392l-176 268l-174 -268h-391l371 526l-351 498h392l153 -242l156 242h391l-350 -498z" />
    <glyph glyph-name="uni0446" unicode="&#x446;" horiz-adv-x="1318" 
d="M926 -289v289h-803v1024h350v-729h264v729h350v-729h170v-584h-331z" />
    <glyph glyph-name="uni0447" unicode="&#x447;" horiz-adv-x="1167" 
d="M692 1024h352v-1024h-352v334q-74 -27 -196 -27q-206 0 -319.5 126t-113.5 349v242h353v-213q0 -94 37 -140t116 -46q74 0 123 14v385z" />
    <glyph glyph-name="uni0448" unicode="&#x448;" horiz-adv-x="1828" 
d="M123 0v1024h350v-729h266v729h351v-729h266v729h350v-1024h-1583z" />
    <glyph glyph-name="uni0449" unicode="&#x449;" horiz-adv-x="1937" 
d="M1544 -289v289h-1421v1024h350v-729h266v729h351v-729h266v729h350v-729h170v-584h-332z" />
    <glyph glyph-name="uni044A" unicode="&#x44a;" horiz-adv-x="1296" 
d="M279 0v729h-259v295h611v-258h147q129 0 231 -43.5t163 -131.5t61 -208t-61 -208t-163 -131.5t-231 -43.5h-499zM631 295h141q102 0 102 84q0 44 -27 68t-75 24h-141v-176z" />
    <glyph glyph-name="uni044B" unicode="&#x44b;" horiz-adv-x="1648" 
d="M123 0v1024h352v-258h148q197 0 325.5 -102t128.5 -281t-128.5 -281t-325.5 -102h-500zM1174 0v1024h352v-1024h-352zM475 295h141q103 0 103 84q0 44 -27.5 68t-75.5 24h-141v-176z" />
    <glyph glyph-name="uni044C" unicode="&#x44c;" horiz-adv-x="1140" 
d="M123 0v1024h352v-258h148q197 0 325.5 -102t128.5 -281t-128.5 -281t-325.5 -102h-500zM475 295h141q103 0 103 84q0 44 -27.5 68t-75.5 24h-141v-176z" />
    <glyph glyph-name="uni044D" unicode="&#x44d;" horiz-adv-x="1132" 
d="M1069 512q0 -148 -74 -271.5t-203.5 -194.5t-285.5 -71q-296 0 -455 273l232 176q95 -141 225 -141q66 0 115.5 30t74.5 84h-260v232h258q-26 54 -75.5 83t-112.5 29q-129 0 -225 -141l-232 176q159 273 455 273q156 0 285.5 -71t203.5 -194.5t74 -271.5z" />
    <glyph glyph-name="uni044E" unicode="&#x44e;" horiz-adv-x="1687" 
d="M1624 512q0 -146 -72 -269.5t-195.5 -195.5t-269.5 -72q-185 0 -323 111q-136 113 -180 289h-109v-375h-352v1024h352v-354h115q45 166 182 272q137 107 315 107q146 0 269.5 -72t195.5 -195.5t72 -269.5zM1272 512q0 93 -54.5 153t-138.5 60q-85 0 -139.5 -59.5
t-54.5 -153.5t54.5 -153.5t139.5 -59.5q84 0 138.5 60t54.5 153z" />
    <glyph glyph-name="uni044F" unicode="&#x44f;" horiz-adv-x="1177" 
d="M555 1024h500v-1024h-353v279h-55l-235 -279h-392l281 332q-97 47 -149 130t-52 193q0 167 123 269q124 100 332 100zM459 645q0 -41 29.5 -66.5t76.5 -25.5h137v176h-137q-49 0 -77.5 -23t-28.5 -61z" />
    <glyph glyph-name="uni0450" unicode="&#x450;" horiz-adv-x="1163" 
d="M1077 389h-655q58 -117 229 -117q136 0 269 80l127 -239q-181 -138 -408 -138q-123 0 -230.5 41.5t-183 113t-119 171t-43.5 211.5q0 148 72.5 271.5t198.5 194.5t276 71q144 0 257 -66.5t173 -177t60 -242.5q0 -84 -23 -174zM410 618h356q-1 68 -50.5 111t-119.5 43
q-67 0 -116.5 -40.5t-69.5 -113.5zM485 1176l-301 360v61h424l131 -421h-254z" />
    <glyph glyph-name="uni0451" unicode="&#x451;" horiz-adv-x="1163" 
d="M1077 389h-655q58 -117 229 -117q136 0 269 80l127 -239q-181 -138 -408 -138q-123 0 -230.5 41.5t-183 113t-119 171t-43.5 211.5q0 148 72.5 271.5t198.5 194.5t276 71q144 0 257 -66.5t173 -177t60 -242.5q0 -84 -23 -174zM410 618h356q-1 68 -50.5 111t-119.5 43
q-67 0 -116.5 -40.5t-69.5 -113.5zM150 1389q0 78 59 134t143 56q80 0 138.5 -56t58.5 -134q0 -79 -58.5 -136t-138.5 -57q-84 0 -143 56.5t-59 136.5zM672 1389q0 78 59 134t143 56q80 0 138.5 -56t58.5 -134q0 -79 -58.5 -136t-138.5 -57q-84 0 -143 56.5t-59 136.5z" />
    <glyph glyph-name="uni0452" unicode="&#x452;" horiz-adv-x="1243" 
d="M1137 549v-526q0 -202 -112.5 -309t-317.5 -107q-99 0 -170 24v295q16 -1 34.5 -2t29 -1.5t15.5 -0.5q90 0 129 31.5t39 103.5v441q0 67 -41.5 109t-107.5 42t-107 -42t-41 -109v-498h-352v1092h-155v284h155v160h352v-160h377v-284h-377v-222q111 97 267 97
q171 0 277 -115.5t106 -302.5z" />
    <glyph glyph-name="uni0453" unicode="&#x453;" horiz-adv-x="950" 
d="M123 0v1024h792v-295h-440v-729h-352zM381 1176l131 421h424v-61l-301 -360h-254z" />
    <glyph glyph-name="uni0454" unicode="&#x454;" horiz-adv-x="1132" 
d="M850 424l231 -176q-159 -273 -454 -273q-156 0 -285.5 71t-204 194.5t-74.5 271.5t74.5 271.5t204 194.5t285.5 71q295 0 454 -273l-231 -176q-96 141 -225 141q-63 0 -113 -29t-76 -83h258v-232h-260q25 -54 75 -84t116 -30q130 0 225 141z" />
    <glyph glyph-name="uni0455" unicode="&#x455;" horiz-adv-x="933" 
d="M23 172l163 209q133 -127 283 -127q90 0 90 45q0 16 -12.5 26.5t-46.5 24.5l-115 47q-158 64 -227.5 138t-69.5 192q0 151 107.5 236.5t289.5 85.5q241 0 385 -150l-165 -215q-104 88 -218 88q-71 0 -71 -39q0 -17 15.5 -29t53.5 -26l103 -41q161 -64 230 -134.5
t69 -187.5q0 -158 -119 -249q-123 -91 -305 -91q-137 0 -252.5 51.5t-187.5 145.5z" />
    <glyph glyph-name="uni0456" unicode="&#x456;" horiz-adv-x="581" 
d="M74 1386q0 88 62 148.5t153 60.5t154 -60.5t63 -148.5q0 -86 -63 -146t-154 -60t-153 59t-62 147zM115 0v1024h352v-1024h-352z" />
    <glyph glyph-name="uni0457" unicode="&#x457;" horiz-adv-x="581" 
d="M-8 1386q0 99 39 154t108 55t108.5 -55t39.5 -154q0 -100 -38 -153t-110 -53t-109.5 53t-37.5 153zM305 1386q0 99 39.5 154t108.5 55t108 -55t39 -154q0 -100 -37.5 -153t-109.5 -53t-110 53t-38 153zM115 0v1024h352v-1024h-352z" />
    <glyph glyph-name="uni0458" unicode="&#x458;" horiz-adv-x="581" 
d="M-133 -369v295q16 -1 35 -2t29.5 -1.5t15.5 -0.5q90 0 129 31.5t39 103.5v967h352v-1001q0 -202 -112.5 -309t-317.5 -107q-99 0 -170 24zM74 1386q0 88 62 148.5t153 60.5t154 -60.5t63 -148.5q0 -86 -63 -146t-154 -60t-153 59t-62 147z" />
    <glyph glyph-name="uni0459" unicode="&#x459;" horiz-adv-x="1755" 
d="M1692 393q0 -182 -129 -287.5t-326 -105.5h-498v729h-198v-45q-6 -387 -90.5 -548t-282.5 -161q-55 0 -137 25v289q16 -4 39 -4q54 0 84 45t44.5 155.5t14.5 309.5v229h877v-258h147q198 0 326.5 -99.5t128.5 -273.5zM1333 389q0 37 -29.5 59.5t-72.5 22.5h-141v-176h141
q46 0 74 23.5t28 70.5z" />
    <glyph glyph-name="uni045A" unicode="&#x45a;" horiz-adv-x="1761" 
d="M1698 362q0 -173 -129 -268q-128 -94 -326 -94h-500v430h-268v-430h-352v1024h352v-299h268v299h353v-299h147q195 0 326 -96q129 -95 129 -267zM1339 362q0 35 -27 56.5t-65 21.5h-151v-155h151q40 0 66 20t26 57z" />
    <glyph glyph-name="uni045B" unicode="&#x45b;" horiz-adv-x="1243" 
d="M1137 549v-549h-353v498q0 67 -41.5 109t-107.5 42t-107 -42t-41 -109v-498h-352v1092h-155v284h155v160h352v-160h377v-284h-377v-222q111 97 267 97q171 0 277 -115.5t106 -302.5z" />
    <glyph glyph-name="uni045C" unicode="&#x45c;" horiz-adv-x="1234" 
d="M1235 0h-412l-348 512v-512h-352v1024h352v-465l344 465h391l-360 -469zM510 1176l131 421h424v-61l-301 -360h-254z" />
    <glyph glyph-name="uni045D" unicode="&#x45d;" horiz-adv-x="1249" 
d="M1014 1049h112v-1049h-352v461l-538 -486h-113v1049h352v-461zM520 1176l-301 360v61h424l131 -421h-254z" />
    <glyph glyph-name="uni045E" unicode="&#x45e;" horiz-adv-x="1171" 
d="M795 1024h372l-481 -1079q-79 -176 -184.5 -257t-261.5 -81q-95 0 -197 24v295q27 -1 55.5 -2t43 -1.5t20.5 -0.5q77 0 123 25.5t77 95.5l17 35l-375 946h375l196 -575zM207 1546v51h276v-51q0 -133 105 -133q104 0 104 133v51h277v-51q0 -167 -107 -274t-274 -107
t-274 107t-107 274z" />
    <glyph glyph-name="uni045F" unicode="&#x45f;" horiz-adv-x="1212" 
d="M1090 1024v-1024h-318v-289h-332v289h-317v1024h350v-729h266v729h351z" />
    <glyph glyph-name="uni0462" unicode="&#x462;" horiz-adv-x="1490" 
d="M340 0v969h-320v284h320v140h352v-140h398v-284h-398v-123h221q239 0 376.5 -115t137.5 -313q0 -197 -138.5 -307.5t-383.5 -110.5h-565zM692 307h223q72 0 113 31.5t41 85.5t-42.5 86.5t-111.5 32.5h-223v-236z" />
    <glyph glyph-name="uni0463" unicode="&#x463;" horiz-adv-x="1255" 
d="M238 0v758h-258v266h258v512h352v-512h340v-266h-340v-96h188q177 0 295 -89q119 -88 119 -241q0 -150 -118.5 -241t-295.5 -91h-540zM590 266h162q82 0 82 66q0 63 -82 63h-162v-129z" />
    <glyph glyph-name="uni0472" unicode="&#x472;" horiz-adv-x="1589" 
d="M1524 676q3 -143 -56 -274.5t-159 -225.5t-235.5 -148.5t-280.5 -52.5q-146 -2 -281 52.5t-234 148.5t-157 225.5t-55 274.5q-3 142 55 273t157 225.5t234.5 149.5t280.5 52q116 2 227.5 -32.5t202.5 -99.5t160 -151.5t106 -194.5t35 -222zM434 807q90 43 184 43
q59 0 175 -29q105 -30 178 -30q96 0 176 38q-41 109 -135.5 171.5t-218.5 62.5q-131 0 -227.5 -69t-131.5 -187zM1149 528q-84 -41 -178 -41q-69 0 -178 31q-116 29 -175 29q-93 0 -172 -39q41 -103 133 -161t214 -58q128 0 223 63.5t133 175.5z" />
    <glyph glyph-name="uni0473" unicode="&#x473;" horiz-adv-x="1243" 
d="M1180 512q3 -146 -73 -271t-206 -197t-280 -69q-151 0 -279.5 71t-203.5 194.5t-75 271.5t75 271.5t203.5 194.5t279.5 71q150 3 280 -69t206 -197t73 -271zM412 614q51 23 90 23q46 0 119 -21q73 -20 122 -20q38 0 88 20q-26 64 -81.5 100t-128.5 36q-75 0 -129.5 -36
t-79.5 -102zM834 414q-54 -23 -93 -23q-47 0 -120 21q-70 20 -119 20q-40 0 -92 -22q25 -66 80.5 -102t130.5 -36t131.5 37.5t81.5 104.5z" />
    <glyph glyph-name="uni0474" unicode="&#x474;" horiz-adv-x="1382" 
d="M1382 1348v-301q-50 6 -77 6q-52 0 -83.5 -27.5t-62.5 -91.5l-428 -959h-113l-614 1377h399l275 -670l172 422q57 139 143.5 205.5t220.5 66.5q89 0 168 -28z" />
    <glyph glyph-name="uni0475" unicode="&#x475;" horiz-adv-x="1159" 
d="M1159 1024v-295h-63q-45 0 -71 -18t-46 -58l-338 -678h-113l-524 1049h373l209 -461l108 242q58 128 128 186t182 58q82 0 155 -25z" />
    <glyph glyph-name="uni0490" unicode="&#x490;" horiz-adv-x="1034" 
d="M135 0v1352h518v288h332v-606h-498v-1034h-352z" />
    <glyph glyph-name="uni0491" unicode="&#x491;" horiz-adv-x="950" 
d="M123 0v1024h461v289h331v-584h-440v-729h-352z" />
    <glyph glyph-name="uni0492" unicode="&#x492;" horiz-adv-x="1048" 
d="M991 1034h-504v-258h299v-295h-299v-481h-352v481h-155v295h155v576h856v-318z" />
    <glyph glyph-name="uni0493" unicode="&#x493;" horiz-adv-x="950" 
d="M915 729h-440v-145h227v-275h-227v-309h-352v309h-143v275h143v440h792v-295z" />
    <glyph glyph-name="uni0496" unicode="&#x496;" horiz-adv-x="2076" 
d="M1823 317h233v-606h-332v289h-86l-432 668v-668h-352v668l-432 -668h-418l504 705l-469 647h410l405 -609v609h352v-609l406 609h409l-469 -647z" />
    <glyph glyph-name="uni0497" unicode="&#x497;" horiz-adv-x="1888" 
d="M1626 295h201v-584h-332v289h-59l-349 518v-518h-352v518l-348 -518h-387l365 553l-340 471h407l303 -430v430h352v-430l304 430h407l-342 -471z" />
    <glyph glyph-name="uni0498" unicode="&#x498;" horiz-adv-x="1212" 
d="M1147 403q0 -198 -142.5 -313t-392.5 -115q-188 0 -331 85.5t-215 238.5l243 172q115 -172 301 -172q88 0 140.5 32t52.5 93q0 52 -41 81.5t-115 29.5h-190v282h149q68 0 107 31.5t39 83.5q0 55 -42.5 88t-111.5 33q-160 0 -248 -172l-244 172q72 156 205 239.5t312 83.5
q222 0 347.5 -107t125.5 -302q0 -166 -123 -267q83 -45 128.5 -121.5t45.5 -175.5zM326 -375v230q37 -2 129 -2q49 0 76.5 27.5t27.5 76.5v98l135 58q66 -37 103 -97t37 -133q0 -120 -96 -198t-255 -78q-81 0 -157 18z" />
    <glyph glyph-name="uni0499" unicode="&#x499;" horiz-adv-x="1036" 
d="M965 305q0 -166 -109 -248t-334 -82q-317 0 -471 187l189 211q101 -101 256 -101q131 0 131 64q0 26 -25.5 41.5t-69.5 15.5h-147v246h127q33 0 53.5 14.5t20.5 40.5q0 58 -92 58q-130 0 -234 -90l-188 210q159 177 444 177q198 0 305 -81t107 -233q0 -124 -92 -213
q63 -41 96 -97.5t33 -119.5zM242 -375v230q37 -2 129 -2q49 0 76.5 27.5t27.5 76.5v98l135 58q66 -37 103 -97t37 -133q0 -120 -96 -198t-255 -78q-81 0 -157 18z" />
    <glyph glyph-name="uni049A" unicode="&#x49a;" horiz-adv-x="1439" 
d="M1178 317h241v-606h-332v289h-86l-514 674v-674h-352v1352h352v-613l447 613h409l-464 -641z" />
    <glyph glyph-name="uni049B" unicode="&#x49b;" horiz-adv-x="1288" 
d="M1022 295h205v-584h-332v289h-59l-361 522v-522h-352v1024h352v-434l336 434h391l-368 -463z" />
    <glyph glyph-name="uni04A0" unicode="&#x4a0;" horiz-adv-x="1771" 
d="M1767 0h-417l-514 674v-674h-353v1034h-463v318h816v-613l446 613h410l-465 -643z" />
    <glyph glyph-name="uni04A1" unicode="&#x4a1;" horiz-adv-x="1513" 
d="M1513 0h-391l-368 532v-532h-353v729h-381v295h734v-446l344 446h391l-367 -463z" />
    <glyph glyph-name="uni04A2" unicode="&#x4a2;" horiz-adv-x="1564" 
d="M1192 -289v289h-211v541h-494v-541h-352v1352h352v-494h494v494h352v-1035h191v-606h-332z" />
    <glyph glyph-name="uni04A3" unicode="&#x4a3;" horiz-adv-x="1337" 
d="M944 -289v289h-170v375h-299v-375h-352v1024h352v-354h299v354h352v-729h150v-584h-332z" />
    <glyph glyph-name="uni04AA" unicode="&#x4aa;" horiz-adv-x="1480" 
d="M66 676q-2 142 56 273t156.5 225.5t234.5 149.5t284 52q202 0 364 -95t254 -267l-268 -183q-133 222 -352 222q-162 0 -265.5 -105t-103.5 -274q0 -168 102 -273q105 -102 267 -102q220 0 352 221l268 -182q-93 -172 -255 -267.5t-365 -95.5q-146 -2 -282 52.5
t-235 148.5t-157 225t-55 275zM498 -375v230q37 -2 129 -2q49 0 76.5 27.5t27.5 76.5v98l135 58q66 -37 103 -97t37 -133q0 -120 -96 -198t-255 -78q-81 0 -157 18z" />
    <glyph glyph-name="uni04AB" unicode="&#x4ab;" horiz-adv-x="1132" 
d="M63 512q-3 146 73 271t206.5 197t280.5 69q156 0 275 -73t183 -202l-243 -186q-43 68 -93.5 102.5t-117.5 34.5q-92 0 -147.5 -59.5t-55.5 -153.5t55.5 -153.5t147.5 -59.5q123 0 211 135l243 -184q-64 -129 -183 -202t-275 -73q-150 -3 -280.5 69t-206.5 197t-73 271z
M317 -375v230q37 -2 129 -2q50 0 77.5 27.5t27.5 76.5v98l135 58q66 -37 102.5 -97t36.5 -133q0 -121 -95.5 -198.5t-254.5 -77.5q-81 0 -158 18z" />
    <glyph glyph-name="uni04AE" unicode="&#x4ae;" horiz-adv-x="1288" 
d="M1284 1352l-463 -834v-518h-352v514l-465 838h389l252 -471l252 471h387z" />
    <glyph glyph-name="uni04AF" unicode="&#x4af;" horiz-adv-x="1169" 
d="M1165 1024l-405 -1024v-369h-352v369l-404 1024h373l209 -657l207 657h372z" />
    <glyph glyph-name="uni04B0" unicode="&#x4b0;" horiz-adv-x="1288" 
d="M1284 1352l-457 -824h281v-295h-287v-233h-352v233h-287v295h279l-457 824h389l252 -471l252 471h387z" />
    <glyph glyph-name="uni04B1" unicode="&#x4b1;" horiz-adv-x="1169" 
d="M1165 1024l-401 -1024h246v-272h-250v-97h-352v97h-248v272h246l-402 1024h373l209 -657l207 657h372z" />
    <glyph glyph-name="uni04B2" unicode="&#x4b2;" horiz-adv-x="1312" 
d="M1071 317h221v-606h-331v289h-87l-237 379l-236 -379h-397l440 686l-415 666h397l211 -361l211 361h397l-409 -666z" />
    <glyph glyph-name="uni04B3" unicode="&#x4b3;" horiz-adv-x="1193" 
d="M924 295h209v-584h-332v289h-60l-176 268l-174 -268h-391l371 526l-351 498h392l153 -242l156 242h391l-350 -498z" />
    <glyph glyph-name="uni04B6" unicode="&#x4b6;" horiz-adv-x="1460" 
d="M1229 317h190v-606h-332v289h-210v469q-116 -43 -254 -43q-253 0 -397 144t-144 405v377h352v-342q0 -133 61.5 -196.5t198.5 -63.5q107 0 183 28v574h352v-1035z" />
    <glyph glyph-name="uni04B7" unicode="&#x4b7;" horiz-adv-x="1277" 
d="M1047 295h170v-584h-332v289h-191v348q-90 -41 -198 -41q-206 0 -319.5 126t-113.5 349v242h353v-213q0 -94 37 -140t116 -46q72 0 125 26v373h353v-729z" />
    <glyph glyph-name="uni04BA" unicode="&#x4ba;" horiz-adv-x="1363" 
d="M1282 377v-377h-352v342q0 133 -61.5 196.5t-198.5 63.5q-104 0 -183 -29v-573h-352v1352h352v-469q116 43 254 43q253 0 397 -144t144 -405z" />
    <glyph glyph-name="uni04BB" unicode="&#x4bb;" horiz-adv-x="1222" 
d="M1116 631v-631h-352v580q0 67 -42 109t-108 42t-106.5 -41.5t-40.5 -109.5v-580h-352v1536h352v-584q111 97 266 97q171 0 277 -115.5t106 -302.5z" />
    <glyph glyph-name="uni04C0" unicode="&#x4c0;" horiz-adv-x="622" 
d="M135 0v1352h352v-1352h-352z" />
    <glyph glyph-name="uni04C1" unicode="&#x4c1;" horiz-adv-x="2060" 
d="M2056 0h-418l-432 668v-668h-352v668l-432 -668h-418l504 705l-469 647h410l405 -609v609h352v-609l406 609h409l-469 -647zM649 1845v19h277v-29q0 -123 104 -123q51 0 78 31.5t27 91.5v29h276v-19q0 -167 -107 -274t-274 -107t-274 107t-107 274z" />
    <glyph glyph-name="uni04C2" unicode="&#x4c2;" horiz-adv-x="1814" 
d="M1815 0h-414l-328 496v-496h-352v496l-328 -496h-393l354 530l-344 494h408l303 -449v449h352v-449l303 449h408l-334 -477zM516 1546v51h277v-51q0 -133 104 -133t104 133v51h277v-51q0 -167 -107 -274t-274 -107t-274 107t-107 274z" />
    <glyph glyph-name="uni04CF" unicode="&#x4cf;" horiz-adv-x="598" 
d="M123 0v1536h352v-1536h-352z" />
    <glyph glyph-name="uni04D0" unicode="&#x4d0;" horiz-adv-x="1349" 
d="M967 0l-49 113h-486l-49 -113h-379l614 1376h113l615 -1376h-379zM793 395l-117 314l-119 -314h236zM295 1845v19h276v-29q0 -60 27 -91.5t78 -31.5q104 0 104 123v29h277v-19q0 -167 -107 -274t-274 -107t-274 107t-107 274z" />
    <glyph glyph-name="uni04D1" unicode="&#x4d1;" horiz-adv-x="1136" 
d="M1030 594v-594h-321v84q-115 -109 -295 -109q-162 0 -257.5 92t-95.5 226q0 142 108 223.5t294 81.5h215v16q0 62 -39 96.5t-117 34.5q-67 0 -124 -28t-132 -96l-164 223q104 106 214.5 155.5t248.5 49.5q218 0 341.5 -118t123.5 -337zM678 375v8h-166q-44 0 -69 -20.5
t-25 -57.5t27.5 -58.5t76.5 -21.5q69 0 112.5 41t43.5 109zM190 1546v51h277v-51q0 -133 104 -133q105 0 105 133v51h276v-51q0 -167 -107 -274t-274 -107t-274 107t-107 274z" />
    <glyph glyph-name="uni04D4" unicode="&#x4d4;" horiz-adv-x="1787" 
d="M1208 317h496v-317h-780l-21 113h-467l-57 -113h-379l684 1352h995v-318h-587l30 -186h389v-295h-342zM784 850l-211 -455h281z" />
    <glyph glyph-name="uni04D5" unicode="&#x4d5;" horiz-adv-x="1777" 
d="M1692 387h-654q59 -115 226 -115q135 0 268 80l127 -239q-181 -138 -406 -138q-264 0 -415 181q-126 -181 -392 -181q-186 0 -285.5 87t-99.5 229q0 146 107.5 228.5t294.5 82.5h215v12q0 62 -39 96.5t-115 34.5q-66 0 -123 -28.5t-135 -95.5l-164 223
q104 106 214.5 155.5t248.5 49.5q211 0 336 -113q131 113 324 113q144 0 256.5 -66.5t172.5 -177t60 -242.5q0 -90 -22 -176zM1020 602h360q-1 77 -48 123.5t-120 46.5q-69 0 -120.5 -45.5t-71.5 -124.5zM678 375v12h-166q-44 0 -69 -21.5t-25 -58.5q0 -39 26.5 -60.5
t75.5 -21.5q70 0 114 41t44 109z" />
    <glyph glyph-name="uni04D6" unicode="&#x4d6;" horiz-adv-x="1181" 
d="M135 0v1352h938v-318h-586v-186h418v-295h-418v-236h611v-317h-963zM211 1845v19h276v-29q0 -60 27 -91.5t78 -31.5q104 0 104 123v29h277v-19q0 -167 -107 -274t-274 -107t-274 107t-107 274z" />
    <glyph glyph-name="uni04D7" unicode="&#x4d7;" horiz-adv-x="1163" 
d="M1077 389h-655q58 -117 229 -117q136 0 269 80l127 -239q-181 -138 -408 -138q-123 0 -230.5 41.5t-183 113t-119 171t-43.5 211.5q0 148 72.5 271.5t198.5 194.5t276 71q144 0 257 -66.5t173 -177t60 -242.5q0 -84 -23 -174zM410 618h356q-1 68 -50.5 111t-119.5 43
q-67 0 -116.5 -40.5t-69.5 -113.5zM201 1546v51h276v-51q0 -133 105 -133q104 0 104 133v51h277v-51q0 -167 -107 -274t-274 -107t-274 107t-107 274z" />
    <glyph glyph-name="uni04D8" unicode="&#x4d8;" horiz-adv-x="1503" 
d="M1438 678q4 -191 -95 -355t-266 -257.5t-358 -90.5q-283 0 -468 179.5t-185 451.5q0 123 22 197h977q-31 119 -121.5 185.5t-220.5 66.5q-200 0 -344 -197l-238 205q102 149 250 231t330 82q148 2 282 -52t230 -147.5t151.5 -224t53.5 -274.5zM1057 526h-651
q9 -111 102 -170q92 -57 215 -57q118 0 207 60.5t127 166.5z" />
    <glyph glyph-name="uni04D9" unicode="&#x4d9;" horiz-adv-x="1163" 
d="M1100 512q0 -148 -72.5 -271.5t-198.5 -194.5t-276 -71q-144 0 -257 66.5t-173 177t-60 242.5q0 84 23 174h655q-59 117 -229 117q-135 0 -268 -80l-127 239q181 138 407 138q123 0 230.5 -41.5t183 -113t119 -171t43.5 -211.5zM754 406h-357q1 -68 50.5 -111t119.5 -43
q67 0 117 40.5t70 113.5z" />
    <glyph glyph-name="uni04E2" unicode="&#x4e2;" horiz-adv-x="1468" 
d="M1221 1376h112v-1376h-352v702l-733 -727h-113v1377h352v-695zM453 1526v274h696v-274h-696z" />
    <glyph glyph-name="uni04E3" unicode="&#x4e3;" horiz-adv-x="1249" 
d="M1014 1049h112v-1049h-352v461l-538 -486h-113v1049h352v-461zM317 1249v275h656v-275h-656z" />
    <glyph glyph-name="uni04E6" unicode="&#x4e6;" horiz-adv-x="1589" 
d="M66 676q-3 142 55 273t157 225.5t234.5 149.5t280.5 52q116 2 227.5 -32.5t202.5 -99.5t160 -151.5t106 -194.5t35 -222q3 -143 -56 -274.5t-159 -225.5t-235.5 -148.5t-280.5 -52.5q-146 -2 -281 52.5t-234 148.5t-157 225.5t-55 274.5zM1163 676q0 166 -105 271.5
t-263 105.5q-163 0 -266 -105t-103 -272q0 -170 102 -275q102 -102 267 -102q159 0 263.5 105t104.5 272zM313 1673q0 78 60 135q61 58 139 58q85 0 143 -55.5t58 -137.5q0 -76 -60 -133t-141 -57q-77 0 -137 57q-62 59 -62 133zM877 1671q0 79 59 135q61 58 139 58
q85 0 143 -55.5t58 -137.5q0 -76 -60 -133t-141 -57q-77 0 -137 57q-61 58 -61 133z" />
    <glyph glyph-name="uni04E7" unicode="&#x4e7;" horiz-adv-x="1243" 
d="M63 512q-3 144 72.5 269t205.5 198t280 70q112 2 216.5 -40.5t180 -115.5t120 -173t42.5 -208q2 -108 -42.5 -208t-120 -173t-180 -115.5t-216.5 -40.5q-150 -3 -280 70t-205.5 198t-72.5 269zM819 512q0 92 -55.5 152.5t-140.5 60.5q-88 0 -143.5 -59.5t-55.5 -153.5
q0 -96 55.5 -154.5t143.5 -58.5q86 0 141 60t55 153zM162 1389q0 78 59.5 134t143.5 56q80 0 138 -56t58 -134q0 -79 -58 -136t-138 -57q-84 0 -143.5 56.5t-59.5 136.5zM684 1389q0 78 59.5 134t143.5 56q80 0 138 -56t58 -134q0 -79 -58 -136t-138 -57q-84 0 -143.5 56.5
t-59.5 136.5z" />
    <glyph glyph-name="uni04E8" unicode="&#x4e8;" horiz-adv-x="1589" 
d="M1524 676q3 -143 -56 -274.5t-159 -225.5t-235.5 -148.5t-280.5 -52.5q-146 -2 -281 52.5t-234 148.5t-157 225.5t-55 274.5q-3 142 55 273t157 225.5t234.5 149.5t280.5 52q116 2 227.5 -32.5t202.5 -99.5t160 -151.5t106 -194.5t35 -222zM449 844h692
q-44 103 -136.5 161t-211.5 58q-121 0 -212 -58t-132 -161zM1157 549h-725q35 -122 131.5 -191t229.5 -69t230 69t134 191z" />
    <glyph glyph-name="uni04E9" unicode="&#x4e9;" horiz-adv-x="1243" 
d="M1180 512q3 -146 -73 -271t-206 -197t-280 -69q-151 0 -279.5 71t-203.5 194.5t-75 271.5t75 271.5t203.5 194.5t279.5 71q150 3 280 -69t206 -197t73 -271zM416 627h411q-61 125 -206 125q-72 0 -125.5 -32.5t-79.5 -92.5zM827 397h-411q26 -60 79.5 -92.5t125.5 -32.5
t126 32.5t80 92.5z" />
    <glyph glyph-name="uni04EE" unicode="&#x4ee;" horiz-adv-x="1308" 
d="M924 1352h381l-445 -1000q-46 -103 -84.5 -165.5t-94 -113t-128 -73t-176.5 -25.5q-86 0 -184 25v299q94 -4 110 -4q108 0 178 55l-477 1002h393l275 -629zM334 1526v274h696v-274h-696z" />
    <glyph glyph-name="uni04EF" unicode="&#x4ef;" horiz-adv-x="1171" 
d="M795 1024h372l-481 -1079q-79 -176 -184.5 -257t-261.5 -81q-95 0 -197 24v295q27 -1 55.5 -2t43 -1.5t20.5 -0.5q77 0 123 25.5t77 95.5l17 35l-375 946h375l196 -575zM258 1249v275h655v-275h-655z" />
    <glyph glyph-name="uni04F2" unicode="&#x4f2;" horiz-adv-x="1308" 
d="M924 1352h381l-445 -1000q-46 -103 -84.5 -165.5t-94 -113t-128 -73t-176.5 -25.5q-86 0 -184 25v299q94 -4 110 -4q108 0 178 55l-477 1002h393l275 -629zM285 1483l131 381h362v-62l-260 -319h-233zM795 1483l131 381h362v-62l-260 -319h-233z" />
    <glyph glyph-name="uni04F3" unicode="&#x4f3;" horiz-adv-x="1171" 
d="M795 1024h372l-481 -1079q-79 -176 -184.5 -257t-261.5 -81q-95 0 -197 24v295q27 -1 55.5 -2t43 -1.5t20.5 -0.5q77 0 123 25.5t77 95.5l17 35l-375 946h375l196 -575zM227 1176l131 421h363v-61l-260 -360h-234zM696 1176l131 421h363v-61l-260 -360h-234z" />
    <glyph glyph-name="Wgrave" unicode="&#x1e80;" horiz-adv-x="2078" 
d="M1661 1352h393l-557 -1377h-113l-344 707l-346 -707h-112l-557 1377h393l254 -650l311 674h113l311 -674zM911 1483l-301 319v62h424l131 -381h-254z" />
    <glyph glyph-name="wgrave" unicode="&#x1e81;" horiz-adv-x="1763" 
d="M1386 1024h373l-504 -1049h-112l-260 490l-262 -490h-113l-504 1049h373l211 -477l237 502h113l244 -488zM758 1176l-301 360v61h424l131 -421h-254z" />
    <glyph glyph-name="Wacute" unicode="&#x1e82;" horiz-adv-x="2078" 
d="M1661 1352h393l-557 -1377h-113l-344 707l-346 -707h-112l-557 1377h393l254 -650l311 674h113l311 -674zM901 1483l131 381h424v-62l-301 -319h-254z" />
    <glyph glyph-name="wacute" unicode="&#x1e83;" horiz-adv-x="1763" 
d="M1386 1024h373l-504 -1049h-112l-260 490l-262 -490h-113l-504 1049h373l211 -477l237 502h113l244 -488zM754 1176l131 421h424v-61l-301 -360h-254z" />
    <glyph glyph-name="Wdieresis" unicode="&#x1e84;" horiz-adv-x="2078" 
d="M1661 1352h393l-557 -1377h-113l-344 707l-346 -707h-112l-557 1377h393l254 -650l311 674h113l311 -674zM559 1673q0 79 59 135q61 58 140 58q85 0 142.5 -55.5t57.5 -137.5q0 -76 -59.5 -133t-140.5 -57q-77 0 -137 57q-62 59 -62 133zM1122 1671q0 78 60 135
q61 58 139 58q85 0 143 -55.5t58 -137.5q0 -76 -60 -133t-141 -57q-77 0 -137 57q-62 59 -62 133z" />
    <glyph glyph-name="wdieresis" unicode="&#x1e85;" horiz-adv-x="1763" 
d="M1386 1024h373l-504 -1049h-112l-260 490l-262 -490h-113l-504 1049h373l211 -477l237 502h113l244 -488zM422 1389q0 78 59.5 134t143.5 56q80 0 138 -56t58 -134q0 -79 -58 -136t-138 -57q-84 0 -143.5 56.5t-59.5 136.5zM944 1389q0 78 59.5 134t143.5 56
q80 0 138 -56t58 -134q0 -79 -58 -136t-138 -57q-84 0 -143.5 56.5t-59.5 136.5z" />
    <glyph glyph-name="uni1E9E" unicode="&#x1e9e;" horiz-adv-x="1523" 
d="M1462 438q0 -138 -66.5 -245t-176 -162.5t-242.5 -55.5q-233 0 -410 166l178 252q104 -96 209 -96q69 0 111.5 40t42.5 107q0 75 -58.5 111.5t-181.5 36.5h-163v86l180 356h-398v-1034h-352v1352h1225v-92l-197 -394q134 -44 216.5 -156.5t82.5 -271.5z" />
    <glyph glyph-name="Ygrave" unicode="&#x1ef2;" horiz-adv-x="1288" 
d="M1284 1352l-463 -834v-518h-352v514l-465 838h389l252 -471l252 471h387zM516 1483l-301 319v62h424l131 -381h-254z" />
    <glyph glyph-name="ygrave" unicode="&#x1ef3;" horiz-adv-x="1171" 
d="M795 1024h372l-481 -1079q-79 -176 -184.5 -257t-261.5 -81q-95 0 -197 24v295q27 -1 55.5 -2t43 -1.5t20.5 -0.5q77 0 123 25.5t77 95.5l17 35l-375 946h375l196 -575zM463 1176l-301 360v61h424l131 -421h-254z" />
    <glyph glyph-name="uni2009" unicode="&#x2009;" horiz-adv-x="286" 
 />
    <glyph glyph-name="endash" unicode="&#x2013;" horiz-adv-x="1024" 
d="M61 518v295h902v-295h-902z" />
    <glyph glyph-name="emdash" unicode="&#x2014;" horiz-adv-x="2048" 
d="M102 518v295h1844v-295h-1844z" />
    <glyph glyph-name="uni2015" unicode="&#x2015;" horiz-adv-x="2048" 
d="M102 518v295h1844v-295h-1844z" />
    <glyph glyph-name="quoteleft" unicode="&#x2018;" horiz-adv-x="645" 
d="M90 754l133 598h266v-598h-399z" />
    <glyph glyph-name="quoteright" unicode="&#x2019;" horiz-adv-x="645" 
d="M156 754v598h399l-133 -598h-266z" />
    <glyph glyph-name="quotesinglbase" unicode="&#x201a;" horiz-adv-x="645" 
d="M156 -301v598h399l-133 -598h-266z" />
    <glyph glyph-name="quotedblleft" unicode="&#x201c;" horiz-adv-x="1202" 
d="M90 754l133 598h266v-598h-399zM647 754l133 598h267v-598h-400z" />
    <glyph glyph-name="quotedblright" unicode="&#x201d;" horiz-adv-x="1202" 
d="M156 754v598h399l-133 -598h-266zM713 754v598h399l-133 -598h-266z" />
    <glyph glyph-name="quotedblbase" unicode="&#x201e;" horiz-adv-x="1202" 
d="M156 -301v598h399l-133 -598h-266zM713 -301v598h399l-133 -598h-266z" />
    <glyph glyph-name="dagger" unicode="&#x2020;" horiz-adv-x="1032" 
d="M340 406v522h-264v295h264v313h352v-313h264v-295h-264v-522h-352z" />
    <glyph glyph-name="daggerdbl" unicode="&#x2021;" horiz-adv-x="1032" 
d="M340 195v251h-264v295h264v248h-264v295h264v252h352v-252h264v-295h-264v-248h264v-295h-264v-251h-352z" />
    <glyph glyph-name="bullet" unicode="&#x2022;" horiz-adv-x="940" 
d="M96 561q0 152 109.5 257.5t265.5 105.5q157 0 265 -105.5t108 -257.5t-108 -257t-265 -105q-156 0 -265.5 105t-109.5 257z" />
    <glyph glyph-name="ellipsis" unicode="&#x2026;" horiz-adv-x="1658" 
d="M600 205q0 98 66 163.5t168 65.5q98 0 162.5 -66t64.5 -163q0 -99 -64.5 -164.5t-162.5 -65.5q-102 0 -168 65.5t-66 164.5zM57 205q0 98 66 163.5t168 65.5q98 0 162.5 -66t64.5 -163q0 -99 -64.5 -164.5t-162.5 -65.5q-102 0 -168 65.5t-66 164.5zM1143 205
q0 98 65.5 163.5t167.5 65.5q98 0 163 -66t65 -163q0 -98 -65 -164t-163 -66q-102 0 -167.5 65.5t-65.5 164.5z" />
    <glyph glyph-name="perthousand" unicode="&#x2030;" horiz-adv-x="2537" 
d="M102 1036q0 145 105 242.5t254 97.5t253.5 -97.5t104.5 -242.5q0 -144 -104.5 -243t-253.5 -99t-254 99t-105 243zM367 0l780 1352h276l-782 -1352h-274zM553 1036q0 44 -26 73.5t-64 29.5q-43 0 -68.5 -28t-25.5 -75t25 -74.5t69 -27.5q39 0 64.5 28t25.5 74zM1718 322
q0 145 105 242.5t254 97.5t253.5 -97.5t104.5 -242.5q0 -144 -104.5 -243t-253.5 -99t-254 99t-105 243zM969 319q0 145 104.5 242.5t253.5 97.5t254 -97.5t105 -242.5q0 -144 -105 -243t-254 -99t-253.5 99t-104.5 243zM2169 322q0 44 -26 73t-64 29q-43 0 -68.5 -27.5
t-25.5 -74.5q0 -48 25 -75.5t69 -27.5q39 0 64.5 28.5t25.5 74.5zM1419 319q0 44 -26 73.5t-64 29.5q-43 0 -68.5 -28t-25.5 -75t25 -74.5t69 -27.5q39 0 64.5 28t25.5 74z" />
    <glyph glyph-name="minute" unicode="&#x2032;" horiz-adv-x="645" 
d="M133 754l66 598h399l-199 -598h-266z" />
    <glyph glyph-name="second" unicode="&#x2033;" horiz-adv-x="1202" 
d="M133 754l66 598h399l-199 -598h-266zM690 754l66 598h399l-199 -598h-266z" />
    <glyph glyph-name="guilsinglleft" unicode="&#x2039;" horiz-adv-x="743" 
d="M469 59l-422 455v92l422 457l223 -195l-266 -307l266 -307z" />
    <glyph glyph-name="guilsinglright" unicode="&#x203a;" horiz-adv-x="743" 
d="M274 59l-223 195l266 307l-266 307l223 195l422 -457v-92z" />
    <glyph glyph-name="fraction" unicode="&#x2044;" horiz-adv-x="532" 
d="M-262 0l780 1352h277l-783 -1352h-274z" />
    <glyph glyph-name="uni2070" unicode="&#x2070;" horiz-adv-x="878" 
d="M76 1178q0 196 96 316t266 120q176 0 271 -123q94 -119 94 -313q0 -196 -96 -324q-94 -125 -269 -125q-174 0 -268 125t-94 324zM547 1176q0 111 -26.5 159.5t-82.5 48.5q-55 0 -80.5 -48.5t-25.5 -159.5q0 -112 26 -165t80 -53q56 0 82.5 53t26.5 165z" />
    <glyph glyph-name="uni2074" unicode="&#x2074;" horiz-adv-x="794" 
d="M780 1069v-205h-92v-119h-229v119h-441v66l248 667h258l-198 -528h135l4 195h223v-195h92z" />
    <glyph glyph-name="uni2075" unicode="&#x2075;" horiz-adv-x="763" 
d="M702 1036q0 -131 -99.5 -219t-248.5 -88q-117 0 -207 56t-133 155l172 121q39 -56 74 -79.5t82 -23.5q46 0 75 19t29 55q0 37 -31 52.5t-100 15.5h-204v497h548v-225h-311v-67q31 8 72 8q109 0 195.5 -78.5t86.5 -198.5z" />
    <glyph glyph-name="uni2076" unicode="&#x2076;" horiz-adv-x="765" 
d="M719 1051q0 -136 -101 -229t-235 -93q-135 0 -235.5 93.5t-100.5 232.5q0 65 26 121t91 141l213 280h293l-189 -249q95 -21 166 -101q72 -81 72 -196zM473 1051q0 38 -26.5 65t-63.5 27t-63.5 -27t-26.5 -65t26.5 -65.5t63.5 -27.5t63.5 27.5t26.5 65.5z" />
    <glyph glyph-name="uni2077" unicode="&#x2077;" horiz-adv-x="720" 
d="M61 1597h627v-65l-346 -787h-270l288 627h-299v225z" />
    <glyph glyph-name="uni2078" unicode="&#x2078;" horiz-adv-x="802" 
d="M741 983q0 -117 -95 -185.5t-245 -68.5t-245 68.5t-95 185.5q0 137 138 201q-101 73 -101 190q0 111 83.5 175.5t219.5 64.5t220 -64.5t84 -175.5q0 -114 -101 -190q137 -64 137 -201zM326 1362q0 -23 16.5 -39t58.5 -37q40 20 58 37t18 39q0 24 -21.5 39.5t-54.5 15.5
t-54 -15.5t-21 -39.5zM494 993q0 28 -22 48.5t-71 39.5q-49 -20 -71.5 -40t-22.5 -48q0 -65 94 -65q46 0 69.5 17.5t23.5 47.5z" />
    <glyph glyph-name="uni2079" unicode="&#x2079;" horiz-adv-x="765" 
d="M719 1288q0 -65 -26 -121t-91 -141l-213 -281h-293l189 250q-95 21 -166 101q-72 81 -72 196q0 136 101 229t235 93q135 0 235.5 -93.5t100.5 -232.5zM473 1292q0 38 -26.5 65t-63.5 27t-63.5 -27t-26.5 -65t26.5 -65t63.5 -27t63.5 27t26.5 65z" />
    <glyph glyph-name="uni207A" unicode="&#x207a;" horiz-adv-x="874" 
d="M307 797v260h-252v229h252v260h258v-260h252v-229h-252v-260h-258z" />
    <glyph glyph-name="uni207B" unicode="&#x207b;" horiz-adv-x="874" 
d="M55 1057v229h762v-229h-762z" />
    <glyph glyph-name="uni207C" unicode="&#x207c;" horiz-adv-x="874" 
d="M72 1231v227h729v-227h-729zM72 887v231h729v-231h-729z" />
    <glyph glyph-name="uni207D" unicode="&#x207d;" horiz-adv-x="591" 
d="M86 1171q0 256 98.5 431t268.5 249l106 -157q-244 -164 -244 -523q0 -363 244 -526l-106 -153q-169 69 -268 246t-99 433z" />
    <glyph glyph-name="uni207E" unicode="&#x207e;" horiz-adv-x="591" 
d="M139 492l-106 153q243 165 243 526q0 365 -243 523l106 157q167 -72 267 -248t100 -432q0 -257 -100 -433t-267 -246z" />
    <glyph glyph-name="uni2080" unicode="&#x2080;" horiz-adv-x="878" 
d="M76 186q0 196 96 316.5t266 120.5q176 0 271 -123q94 -119 94 -314q0 -193 -96 -321q-95 -127 -269 -127q-173 0 -268 127q-94 125 -94 321zM547 184q0 111 -26.5 160t-82.5 49q-55 0 -80.5 -49t-25.5 -160q0 -112 26 -164.5t80 -52.5q56 0 82.5 52.5t26.5 164.5z" />
    <glyph glyph-name="uni2081" unicode="&#x2081;" horiz-adv-x="782" 
d="M80 -246v226h209v401h-187v225h437v-626h170v-226h-629z" />
    <glyph glyph-name="uni2082" unicode="&#x2082;" horiz-adv-x="808" 
d="M518 -20h213v-226l-665 -2v51l305 336q92 103 92 174q0 38 -19.5 59t-52.5 21q-32 0 -50.5 -21.5t-18.5 -62.5q0 -2 0.5 -8t1.5 -19.5t2 -27.5h-250q-8 31 -8 72q0 120 92 208.5t235 88.5q139 0 230 -82q94 -79 94 -205q0 -84 -45.5 -163.5t-141.5 -178.5z" />
    <glyph glyph-name="uni2083" unicode="&#x2083;" horiz-adv-x="745" 
d="M684 41q0 -127 -98.5 -215t-241.5 -88q-115 0 -202 56t-130 155l172 121q36 -56 70.5 -79.5t79.5 -23.5q44 0 69 19t25 55q0 37 -31 52.5t-100 15.5h-109v61l136 211h-240v225h590v-65l-158 -244q75 -34 121.5 -101t46.5 -155z" />
    <glyph glyph-name="uni2084" unicode="&#x2084;" horiz-adv-x="794" 
d="M780 78v-205h-92v-119h-229v119h-441v66l248 667h258l-198 -528h135l4 194h223v-194h92z" />
    <glyph glyph-name="uni2085" unicode="&#x2085;" horiz-adv-x="763" 
d="M702 45q0 -131 -99.5 -219t-248.5 -88q-117 0 -207 56t-133 155l172 121q39 -56 74 -79.5t82 -23.5q46 0 75 19t29 55q0 37 -31 52.5t-100 15.5h-204v497h548v-225h-311v-68q35 9 72 9q109 0 195.5 -78.5t86.5 -198.5z" />
    <glyph glyph-name="uni2086" unicode="&#x2086;" horiz-adv-x="765" 
d="M719 59q0 -136 -101 -228.5t-235 -92.5q-136 0 -236 93t-100 232q0 66 26 122t91 141l213 280h293l-189 -250q96 -21 166 -100q72 -81 72 -197zM473 59q0 38 -26.5 65.5t-63.5 27.5t-63.5 -27.5t-26.5 -65.5t26.5 -65t63.5 -27t63.5 27t26.5 65z" />
    <glyph glyph-name="uni2087" unicode="&#x2087;" horiz-adv-x="720" 
d="M61 606h627v-65l-346 -787h-270l288 627h-299v225z" />
    <glyph glyph-name="uni2088" unicode="&#x2088;" horiz-adv-x="802" 
d="M741 -8q0 -117 -95 -185.5t-245 -68.5t-245 68.5t-95 185.5q0 136 138 201q-101 73 -101 190q0 111 83.5 175.5t219.5 64.5t220 -64.5t84 -175.5q0 -114 -101 -190q137 -64 137 -201zM326 371q0 -23 16.5 -39t58.5 -37q40 20 58 37t18 39q0 24 -21.5 39.5t-54.5 15.5
t-54 -15.5t-21 -39.5zM494 2q0 28 -22 48.5t-71 39.5q-49 -20 -71.5 -40t-22.5 -48q0 -65 94 -65q46 0 69.5 17.5t23.5 47.5z" />
    <glyph glyph-name="uni2089" unicode="&#x2089;" horiz-adv-x="765" 
d="M719 297q0 -65 -26 -121t-91 -141l-213 -281h-293l189 250q-96 21 -166 100q-72 81 -72 197q0 136 101 229t235 93q135 0 235.5 -93.5t100.5 -232.5zM473 301q0 38 -26.5 65t-63.5 27t-63.5 -27t-26.5 -65t26.5 -65t63.5 -27t63.5 27t26.5 65z" />
    <glyph glyph-name="uni208A" unicode="&#x208a;" horiz-adv-x="874" 
d="M307 -197v260h-252v230h252v260h258v-260h252v-230h-252v-260h-258z" />
    <glyph glyph-name="uni208B" unicode="&#x208b;" horiz-adv-x="874" 
d="M55 63v230h762v-230h-762z" />
    <glyph glyph-name="uni208C" unicode="&#x208c;" horiz-adv-x="874" 
d="M72 238v227h729v-227h-729zM72 -106v231h729v-231h-729z" />
    <glyph glyph-name="uni208D" unicode="&#x208d;" horiz-adv-x="591" 
d="M86 178q0 256 98.5 431t268.5 249l106 -158q-244 -164 -244 -522q0 -363 244 -526l-106 -154q-169 69 -268 246.5t-99 433.5z" />
    <glyph glyph-name="uni208E" unicode="&#x208e;" horiz-adv-x="591" 
d="M139 -502l-106 154q243 165 243 526q0 364 -243 522l106 158q167 -72 267 -248t100 -432q0 -257 -100 -433.5t-267 -246.5z" />
    <glyph glyph-name="lira" unicode="&#x20a4;" horiz-adv-x="1218" 
d="M637 274h493v-274h-1064v72q104 84 162 146t83 122h-225v213h231q-14 44 -41 90h-190v213h94q-12 50 -12 105q0 187 137 301t344 114q188 0 320 -100t182 -293l-289 -104q-55 174 -188 174q-69 0 -109.5 -42.5t-40.5 -111.5q0 -7 4 -43h334v-213h-227q31 -67 37 -90h190
v-213h-194q-12 -37 -31 -66z" />
    <glyph glyph-name="peseta" unicode="&#x20a7;" horiz-adv-x="1329" 
d="M1329 952v-274h-155q-47 -186 -207 -295q-159 -111 -381 -111h-58v-272h-352v678h-156v274h156v400h410q223 0 381 -107q162 -110 207 -293h155zM588 1065h-60v-135h303q-59 135 -243 135zM834 700h-306v-141h60q189 0 246 141z" />
    <glyph glyph-name="Euro" unicode="&#x20ac;" horiz-adv-x="1378" 
d="M1069 436l244 -186q-68 -125 -208 -200t-312 -75q-213 0 -371.5 112t-228.5 306h-193v234h145q-2 10 -2 51v39h-143v233h188q68 197 228 311.5t377 114.5q172 0 312 -74.5t208 -199.5l-244 -187q-46 64 -115 101t-151 37q-137 0 -217 -103h393l-66 -233h-407
q-2 -10 -2 -41q0 -39 2 -49h383l-66 -234h-231q82 -94 211 -94q82 0 151 37t115 100z" />
    <glyph glyph-name="uni20AE" unicode="&#x20ae;" horiz-adv-x="1204" 
d="M1184 1034h-406v-149l301 73v-284l-301 -74v-90l301 74v-285l-301 -74v-225h-352v158l-301 -74v285l301 73v90l-301 -73v284l301 74v217h-406v318h1164v-318z" />
    <glyph glyph-name="uni20B4" unicode="&#x20b4;" horiz-adv-x="1103" 
d="M1004 950h100v-233h-1104v233h641q2 4 2 21q0 82 -115 82q-123 0 -245 -84l-168 241q74 80 181 123t234 43q214 0 344 -110.5t130 -292.5v-23zM0 393v234h1104v-234h-678q0 -49 32.5 -71.5t102.5 -22.5q80 0 166.5 22t153.5 60l147 -250q-195 -156 -467 -156
q-229 0 -361.5 111.5t-133.5 306.5h-66z" />
    <glyph glyph-name="uni20B8" unicode="&#x20b8;" horiz-adv-x="1204" 
d="M20 1034v318h1164v-318h-1164zM426 0v627h-406v317h1164v-317h-406v-627h-352z" />
    <glyph glyph-name="uni20B9" unicode="&#x20b9;" horiz-adv-x="1130" 
d="M981 1118h-201q29 -54 43 -110h158v-234h-158q-49 -230 -286 -315l444 -459h-438l-406 420v254h139q128 0 177 100h-316v234h316q-25 47 -71 72.5t-106 25.5h-139v246h844v-234z" />
    <glyph glyph-name="uni20BA" unicode="&#x20ba;" horiz-adv-x="1128" 
d="M1083 510q0 -256 -196 -394.5t-559 -138.5h-162v424l-158 -71v284l158 72v90l-158 -71v284l158 72v291h352v-152l322 148v-285l-322 -148v-90l322 148v-285l-322 -147v-232q125 21 195.5 81t70.5 151q0 62 -2 82h287q14 -46 14 -113z" />
    <glyph glyph-name="uni20BD" unicode="&#x20bd;" horiz-adv-x="1255" 
d="M176 0v168h-156v274h156v90h-156v295h156v525h559q197 0 326 -109.5t129 -298.5q0 -127 -61 -221.5t-163.5 -142.5t-230.5 -48h-207v-90h500v-274h-500v-168h-352zM528 827h181q52 0 87 30t35 83q0 54 -34.5 85.5t-87.5 31.5h-181v-230z" />
    <glyph glyph-name="uni20BF" unicode="&#x20bf;" horiz-adv-x="1185" 
d="M850 92v-295h-244v273h-100v-273h-244v273h-127v1212h127v250h244v-250h100v250h244v-309q83 -48 128.5 -125.5t45.5 -173.5q0 -131 -86 -217q83 -42 127.5 -113t44.5 -164q0 -120 -70 -210.5t-190 -127.5zM594 1016h-156v-213h156q56 0 88.5 28.5t32.5 77.5t-32.5 78
t-88.5 29zM803 442q0 51 -32 79t-89 28h-244v-213h244q57 0 89 27.5t32 78.5z" />
    <glyph glyph-name="uni2113" unicode="&#x2113;" horiz-adv-x="1114" 
d="M758 291q39 0 153 12l62 6v-295q-139 -39 -285 -39q-200 0 -315 86t-135 256l-64 -34q-1 -1 -7 -4.5t-16 -10t-22 -12.5l-149 276l251 156v395q0 237 115.5 357.5t323.5 120.5q188 0 285.5 -99t97.5 -295q0 -194 -105 -344t-364 -327v-58q0 -78 42.5 -112.5t131.5 -34.5z
M584 1098v-213q95 74 132.5 133.5t37.5 134.5q0 113 -74 113q-96 0 -96 -168z" />
    <glyph glyph-name="uni2116" unicode="&#x2116;" horiz-adv-x="2295" 
d="M981 676v676h352v-1377h-112l-734 711v-686h-352v1376h113zM1516 825q0 145 104.5 242.5t253.5 97.5t253.5 -97.5t104.5 -242.5q0 -144 -104.5 -243t-253.5 -99t-253.5 99t-104.5 243zM1778 825q0 -47 26 -74.5t70 -27.5t70 27.5t26 74.5t-26 75t-70 28t-70 -28t-26 -75z
M1538 143v213h672v-213h-672z" />
    <glyph glyph-name="uni2117" unicode="&#x2117;" horiz-adv-x="1589" 
d="M66 674q-3 143 57 275t160.5 225.5t234.5 148.5t275 53q114 2 224.5 -32.5t202 -99.5t161 -151.5t107.5 -194.5t36 -222q3 -142 -57 -273.5t-160.5 -225.5t-236 -149.5t-277.5 -52.5q-141 -2 -276 53t-235.5 148.5t-160 225t-55.5 272.5zM1309 674q3 149 -72.5 267.5
t-194.5 179.5t-251 59q-132 2 -249 -59t-190.5 -179.5t-70.5 -267.5q0 -114 42 -210t113 -159t163 -98t192 -35t193 35t165.5 98t116 159t43.5 210zM543 319v715h303q131 0 216 -71.5t85 -188.5t-85 -188.5t-216 -71.5h-84v-195h-219zM762 707h84q36 0 56 17.5t20 49.5
t-20.5 51t-55.5 19h-84v-137z" />
    <glyph glyph-name="trademark" unicode="&#x2122;" horiz-adv-x="2000" 
d="M936 432v936h92l395 -463l394 463h90v-936h-289v293l-152 -176h-90l-149 174v-291h-291zM272 432v658h-258v262h805v-262h-258v-658h-289z" />
    <glyph glyph-name="uni2126" unicode="&#x2126;" horiz-adv-x="1609" 
d="M1350 317h163v-317h-602v317q128 62 195.5 159t67.5 220q0 157 -104.5 257t-268.5 100t-264.5 -97.5t-100.5 -255.5q0 -258 262 -383v-317h-602v317h150q-170 164 -170 398q-3 133 55 256.5t157 212.5t234.5 141.5t280.5 50.5q193 3 363.5 -87.5t271 -245t96.5 -328.5
q0 -235 -184 -398z" />
    <glyph glyph-name="estimated" unicode="&#x212e;" horiz-adv-x="1628" 
d="M1497 670h-1114v-400q74 -101 188.5 -157t259.5 -56q155 0 290 64t231 174l55 -51q-101 -124 -251 -194t-322 -70q-147 -2 -280 52.5t-228.5 147.5t-150.5 221t-52 267q-3 142 54.5 274t153.5 226.5t226 150.5t266 53q123 2 247 -43t221 -122.5t157 -190.5t57 -236
q0 -66 -8 -110zM383 1079v-331h862v362q-74 88 -179 135t-232 47q-141 0 -258 -56t-193 -157z" />
    <glyph glyph-name="uni2150" unicode="&#x2150;" horiz-adv-x="2035" 
d="M80 500v225h209v401h-187v226h437v-627h170v-225h-629zM520 0l780 1352h277l-782 -1352h-275zM1376 852h627v-66l-346 -786h-271l289 627h-299v225z" />
    <glyph glyph-name="uni2151" unicode="&#x2151;" horiz-adv-x="2019" 
d="M80 500v225h209v401h-187v226h437v-627h170v-225h-629zM520 0l780 1352h277l-782 -1352h-275zM1972 543q0 -65 -26 -121t-91 -141l-213 -281h-292l188 250q-96 21 -166 100q-72 81 -72 197q0 136 101 228.5t235 92.5q136 0 236 -93t100 -232zM1726 547q0 38 -26.5 65
t-63.5 27t-63.5 -27t-26.5 -65t26.5 -65t63.5 -27t63.5 27t26.5 65z" />
    <glyph glyph-name="uni2152" unicode="&#x2152;" horiz-adv-x="2975" 
d="M80 500v225h209v401h-187v226h437v-627h170v-225h-629zM520 0l780 1352h277l-782 -1352h-275zM1395 0v225h209v402h-187v225h436v-627h170v-225h-628zM2173 432q0 196 96 316t266 120q177 0 271 -123q94 -119 94 -313q0 -195 -96 -323q-94 -125 -269 -125
q-174 0 -268 125t-94 323zM2644 430q0 111 -26.5 160t-82.5 49q-55 0 -80.5 -49t-25.5 -160q0 -112 26 -164.5t80 -52.5q56 0 82.5 52.5t26.5 164.5z" />
    <glyph glyph-name="uni2153" unicode="&#x2153;" horiz-adv-x="2060" 
d="M80 500v225h209v401h-187v226h437v-627h170v-225h-629zM520 0l780 1352h277l-782 -1352h-275zM1999 287q0 -127 -98.5 -215t-241.5 -88q-115 0 -202 56t-130 155l172 120q36 -56 70.5 -79t79.5 -23q44 0 69 19t25 55t-30.5 51.5t-100.5 15.5h-109v62l135 211h-239v225
h590v-66l-158 -243q75 -34 121.5 -101t46.5 -155z" />
    <glyph glyph-name="uni2154" unicode="&#x2154;" horiz-adv-x="2086" 
d="M518 725h213v-225l-665 -2v51l305 336q92 103 92 174q0 38 -19.5 59t-52.5 21q-32 0 -50.5 -21.5t-18.5 -62.5q0 -2 0.5 -8.5t1.5 -20t2 -27.5h-250q-8 31 -8 72q0 120 92 208.5t235 88.5q139 0 230 -82q94 -79 94 -205q0 -84 -45.5 -163.5t-141.5 -178.5zM547 0
l780 1352h277l-783 -1352h-274zM2025 287q0 -127 -98 -215t-241 -88q-115 0 -202 56t-130 155l172 120q36 -56 70 -79t79 -23q44 0 69 19t25 55t-30.5 51.5t-100.5 15.5h-108v62l135 211h-240v225h590v-66l-157 -243q75 -34 121 -101t46 -155z" />
    <glyph glyph-name="uni2155" unicode="&#x2155;" horiz-adv-x="2062" 
d="M80 500v225h209v401h-187v226h437v-627h170v-225h-629zM520 0l780 1352h277l-782 -1352h-275zM2001 291q0 -131 -99.5 -219t-248.5 -88q-117 0 -207 56t-133 155l172 120q39 -56 73.5 -79t81.5 -23q46 0 75.5 19.5t29.5 54.5q0 36 -30.5 51.5t-100.5 15.5h-205v498h549
v-225h-311v-68q31 8 71 8q109 0 196 -78t87 -198z" />
    <glyph glyph-name="uni2156" unicode="&#x2156;" horiz-adv-x="2088" 
d="M518 725h213v-225l-665 -2v51l305 336q92 103 92 174q0 38 -19.5 59t-52.5 21q-32 0 -50.5 -21.5t-18.5 -62.5q0 -2 0.5 -8.5t1.5 -20t2 -27.5h-250q-8 31 -8 72q0 120 92 208.5t235 88.5q139 0 230 -82q94 -79 94 -205q0 -84 -45.5 -163.5t-141.5 -178.5zM547 0
l780 1352h277l-783 -1352h-274zM2028 291q0 -131 -100 -219t-249 -88q-117 0 -207 56t-133 155l172 120q38 -56 73.5 -79t82.5 -23q46 0 75.5 19.5t29.5 54.5q0 36 -31 51.5t-101 15.5h-204v498h549v-225h-312v-68q31 8 72 8q109 0 196 -78t87 -198z" />
    <glyph glyph-name="uni2157" unicode="&#x2157;" horiz-adv-x="1953" 
d="M684 786q0 -127 -98.5 -215t-241.5 -88q-115 0 -202 56t-130 155l172 121q36 -56 70.5 -79t79.5 -23q44 0 69 18.5t25 54.5q0 37 -31 52.5t-100 15.5h-109v61l136 211h-240v226h590v-66l-158 -244q75 -34 121.5 -101t46.5 -155zM412 0l780 1352h276l-782 -1352h-274z
M1892 291q0 -131 -99.5 -219t-248.5 -88q-117 0 -207 56t-133 155l172 120q38 -56 73.5 -79t82.5 -23q46 0 75 19t29 55t-30.5 51.5t-100.5 15.5h-205v498h549v-225h-311v-68q31 8 72 8q109 0 195.5 -78t86.5 -198z" />
    <glyph glyph-name="uni2158" unicode="&#x2158;" horiz-adv-x="2095" 
d="M780 823v-205h-92v-118h-229v118h-441v66l248 668h258l-198 -529h135l4 195h223v-195h92zM553 0l780 1352h277l-783 -1352h-274zM2034 291q0 -131 -99.5 -219t-248.5 -88q-117 0 -207 56t-133 155l172 120q39 -56 73.5 -79t81.5 -23q46 0 75.5 19.5t29.5 54.5
q0 36 -30.5 51.5t-100.5 15.5h-205v498h549v-225h-312v-68q31 8 72 8q109 0 196 -78t87 -198z" />
    <glyph glyph-name="uni2159" unicode="&#x2159;" horiz-adv-x="1916" 
d="M80 500v225h209v401h-187v226h437v-627h170v-225h-629zM520 0l780 1352h277l-782 -1352h-275zM1870 305q0 -136 -101 -228.5t-235 -92.5q-136 0 -236 93t-100 232q0 65 26 121t91 141l213 281h293l-189 -250q96 -21 166 -100q72 -81 72 -197zM1624 305q0 38 -26.5 65
t-63.5 27t-63.5 -27t-26.5 -65t26.5 -65t63.5 -27t63.5 27t26.5 65z" />
    <glyph glyph-name="uni215A" unicode="&#x215a;" horiz-adv-x="1826" 
d="M702 791q0 -131 -99.5 -219.5t-248.5 -88.5q-117 0 -207 56t-133 155l172 121q38 -56 73.5 -79t82.5 -23q46 0 75 19t29 54q0 37 -31 52.5t-100 15.5h-204v498h548v-226h-311v-67q31 8 72 8q109 0 195.5 -78t86.5 -198zM430 0l780 1352h277l-782 -1352h-275zM1780 305
q0 -136 -101 -228.5t-235 -92.5q-136 0 -236 93t-100 232q0 65 26 121t91 141l213 281h293l-189 -250q96 -21 166 -100q72 -81 72 -197zM1534 305q0 38 -26.5 65t-63.5 27t-63.5 -27t-26.5 -65t26.5 -65t63.5 -27t63.5 27t26.5 65z" />
    <glyph glyph-name="oneeighth" unicode="&#x215b;" horiz-adv-x="2025" 
d="M80 500v225h209v401h-187v226h437v-627h170v-225h-629zM520 0l780 1352h277l-782 -1352h-275zM1964 238q0 -117 -95 -185.5t-245 -68.5t-245 68.5t-95 185.5q0 136 137 200q-100 72 -100 191q0 111 83.5 175t219.5 64t219.5 -64t83.5 -175q0 -116 -100 -191
q137 -64 137 -200zM1548 616q0 -23 16.5 -38.5t59.5 -36.5q41 20 58.5 36.5t17.5 38.5q0 25 -21.5 40.5t-54.5 15.5t-54.5 -15.5t-21.5 -40.5zM1716 248q0 29 -21.5 49t-70.5 39q-49 -20 -71.5 -40t-22.5 -48q0 -66 94 -66q46 0 69 18t23 48z" />
    <glyph glyph-name="threeeighths" unicode="&#x215c;" horiz-adv-x="1916" 
d="M684 786q0 -127 -98.5 -215t-241.5 -88q-115 0 -202 56t-130 155l172 121q36 -56 70.5 -79t79.5 -23q44 0 69 18.5t25 54.5q0 37 -31 52.5t-100 15.5h-109v61l136 211h-240v226h590v-66l-158 -244q75 -34 121.5 -101t46.5 -155zM412 0l780 1352h276l-782 -1352h-274z
M1855 238q0 -117 -94.5 -185.5t-244.5 -68.5t-245 68.5t-95 185.5q0 136 137 200q-101 73 -101 191q0 111 84 175t220 64t219.5 -64t83.5 -175q0 -115 -101 -191q137 -64 137 -200zM1440 616q0 -23 16.5 -38.5t59.5 -36.5q40 20 57.5 36.5t17.5 38.5q0 25 -21.5 40.5
t-53.5 15.5q-33 0 -54.5 -15.5t-21.5 -40.5zM1608 248q0 29 -21.5 49t-70.5 39q-49 -20 -72 -40t-23 -48q0 -66 95 -66q46 0 69 18t23 48z" />
    <glyph glyph-name="fiveeighths" unicode="&#x215d;" horiz-adv-x="1935" 
d="M702 791q0 -131 -99.5 -219.5t-248.5 -88.5q-117 0 -207 56t-133 155l172 121q38 -56 73.5 -79t82.5 -23q46 0 75 19t29 54q0 37 -31 52.5t-100 15.5h-204v498h548v-226h-311v-67q31 8 72 8q109 0 195.5 -78t86.5 -198zM430 0l780 1352h277l-782 -1352h-275zM1874 238
q0 -117 -95 -185.5t-245 -68.5t-245 68.5t-95 185.5q0 136 137 200q-100 72 -100 191q0 111 83.5 175t219.5 64t219.5 -64t83.5 -175q0 -116 -100 -191q137 -64 137 -200zM1458 616q0 -23 16.5 -38.5t59.5 -36.5q41 20 58.5 36.5t17.5 38.5q0 25 -21.5 40.5t-54.5 15.5
t-54.5 -15.5t-21.5 -40.5zM1626 248q0 29 -21.5 49t-70.5 39q-49 -20 -71.5 -40t-22.5 -48q0 -66 94 -66q46 0 69 18t23 48z" />
    <glyph glyph-name="seveneighths" unicode="&#x215e;" horiz-adv-x="1763" 
d="M61 1352h627v-66l-346 -786h-270l288 626h-299v226zM258 0l780 1352h277l-783 -1352h-274zM1702 238q0 -117 -95 -185.5t-245 -68.5t-245 68.5t-95 185.5q0 136 137 200q-100 72 -100 191q0 111 83.5 175t219.5 64t219.5 -64t83.5 -175q0 -116 -100 -191
q137 -64 137 -200zM1286 616q0 -23 16.5 -38.5t59.5 -36.5q41 20 58.5 36.5t17.5 38.5q0 25 -21.5 40.5t-54.5 15.5t-54.5 -15.5t-21.5 -40.5zM1454 248q0 29 -21.5 49t-70.5 39q-49 -20 -71.5 -40t-22.5 -48q0 -66 94 -66q46 0 69 18t23 48z" />
    <glyph glyph-name="arrowleft" unicode="&#x2190;" horiz-adv-x="1331" 
d="M1249 518h-544l-136 8l275 -276l-207 -207l-588 588v63l588 588l207 -207l-271 -270l132 8h544v-295z" />
    <glyph glyph-name="arrowup" unicode="&#x2191;" horiz-adv-x="1331" 
d="M1284 672l-209 -207l-260 262l8 -121v-530h-317v530l8 119l-258 -260l-209 207l586 590h63z" />
    <glyph glyph-name="arrowright" unicode="&#x2192;" horiz-adv-x="1331" 
d="M694 1282l588 -588v-63l-588 -588l-207 207l275 276l-135 -8h-545v295h545l131 -8l-271 270z" />
    <glyph glyph-name="arrowdown" unicode="&#x2193;" horiz-adv-x="1331" 
d="M1075 864l209 -207l-588 -589h-63l-586 589l209 207l258 -260l-8 119v530h317v-530l-8 -121z" />
    <glyph glyph-name="arrowboth" unicode="&#x2194;" horiz-adv-x="1998" 
d="M1329 1282l588 -588v-63l-588 -588l-207 207l275 276l-135 -8h-557l-136 8l275 -276l-207 -207l-588 588v63l588 588l207 -207l-271 -270l132 8h557l131 -8l-271 270z" />
    <glyph glyph-name="arrowupdn" unicode="&#x2195;" horiz-adv-x="1331" 
d="M817 375l258 260l209 -207l-586 -590h-63l-588 590l209 207l260 -262l-8 121v364l8 121l-260 -262l-209 207l588 589h63l586 -589l-209 -207l-258 260l8 -119v-364z" />
    <glyph glyph-name="uni2196" unicode="&#x2196;" horiz-adv-x="1331" 
d="M793 733l428 -430l-215 -215l-426 428l-72 82v-405h-305v872l43 45h856v-295h-404z" />
    <glyph glyph-name="uni2197" unicode="&#x2197;" horiz-adv-x="1331" 
d="M1085 1110l43 -45v-872h-305v405l-71 -82l-426 -428l-215 215l428 430l94 82h-404v295h856z" />
    <glyph glyph-name="uni2198" unicode="&#x2198;" horiz-adv-x="1331" 
d="M823 1096h305v-873l-43 -45h-856v295h404l-94 82l-428 430l215 215l426 -428l71 -82v406z" />
    <glyph glyph-name="uni2199" unicode="&#x2199;" horiz-adv-x="1331" 
d="M793 555l-95 -82h404v-295h-856l-43 45v873h305v-406l72 82l426 428l215 -215z" />
    <glyph glyph-name="partialdiff" unicode="&#x2202;" horiz-adv-x="1335" 
d="M1233 739q2 -213 -84 -389.5t-238 -277t-336 -97.5q-132 0 -239.5 48.5t-173.5 146t-66 229.5q0 198 141.5 321.5t374.5 123.5q131 0 258 -39q-8 131 -58 192.5t-153 61.5q-72 0 -123 -30t-110 -101l-219 188q158 260 471 260q259 0 407 -174.5t148 -462.5zM846 510
q-127 31 -215 31t-131 -34t-43 -93q0 -58 38.5 -94.5t106.5 -36.5q82 0 147.5 57.5t96.5 169.5z" />
    <glyph glyph-name="uni2206" unicode="&#x2206;" horiz-adv-x="1349" 
d="M731 1376l574 -1284v-92h-1260v92l573 1284h113zM829 317l-151 349l-156 -349h307z" />
    <glyph glyph-name="product" unicode="&#x220f;" horiz-adv-x="1447" 
d="M135 -248v1600h1178v-1600h-352v1282h-474v-1282h-352z" />
    <glyph glyph-name="summation" unicode="&#x2211;" horiz-adv-x="1159" 
d="M565 70h510v-318h-1044v74l395 749l-395 703v74h1020v-318h-478l238 -422v-73z" />
    <glyph glyph-name="minus" unicode="&#x2212;" 
d="M74 518v295h997v-295h-997z" />
    <glyph glyph-name="uni2219" unicode="&#x2219;" horiz-adv-x="573" 
d="M57 664q0 98 66 163.5t168 65.5q98 0 162.5 -66t64.5 -163q0 -99 -64.5 -164.5t-162.5 -65.5q-102 0 -168 65.5t-66 164.5z" />
    <glyph glyph-name="radical" unicode="&#x221a;" horiz-adv-x="1505" 
d="M1204 1536h301l-1050 -1808h-113v594h-342v274h608v-84z" />
    <glyph glyph-name="infinity" unicode="&#x221e;" horiz-adv-x="1867" 
d="M1851 662q0 -118 -54.5 -219t-161 -164.5t-244.5 -63.5q-139 0 -246 60t-211 178q-100 -118 -208 -178t-249 -60q-139 0 -246 63.5t-161 164.5t-54 219t54 219t161 165t246 64q136 0 245 -59t212 -174q103 116 211 174.5t244 58.5q139 0 246.5 -64t161.5 -165t54 -219z
M760 666q-63 69 -121 103t-123 34q-75 0 -118.5 -35t-43.5 -100q0 -66 44.5 -106t119.5 -40q63 0 119 35t123 109zM1513 666q0 65 -43.5 101t-117.5 36q-65 0 -122 -34t-120 -103q66 -74 122 -109t120 -35q74 0 117.5 39t43.5 105z" />
    <glyph glyph-name="integral" unicode="&#x222b;" horiz-adv-x="778" 
d="M0 -248v295l104 -4q85 0 128.5 40.5t43.5 129.5q0 56 -18 176l-41 254q-76 428 -76 569q0 199 117 304.5t330 105.5q95 0 190 -25v-294l-104 4q-85 0 -128.5 -40.5t-43.5 -129.5q0 -56 18 -179l41 -251q76 -428 76 -570q0 -199 -117 -304t-330 -105q-98 0 -190 24z" />
    <glyph glyph-name="approxequal" unicode="&#x2248;" 
d="M635 705l-172 104q-44 26 -63.5 34.5t-41.5 8.5q-30 0 -46.5 -20t-16.5 -52v-28h-262q-6 40 -6 77q0 148 83 244t197 96q92 0 174 -53l172 -104q44 -26 63.5 -34.5t41.5 -8.5q30 0 46.5 19.5t16.5 51.5v29h262q7 -47 7 -78q0 -148 -83.5 -244t-197.5 -96q-91 0 -174 54z
M635 213l-172 104q-44 26 -63.5 34.5t-41.5 8.5q-30 0 -46.5 -19.5t-16.5 -51.5v-29h-262q-6 40 -6 78q0 148 83 244t197 96q92 0 174 -53l172 -105q44 -26 63.5 -34.5t41.5 -8.5q30 0 46.5 20t16.5 52v29h262q7 -47 7 -78q0 -148 -83.5 -244t-197.5 -96q-92 0 -174 53z" />
    <glyph glyph-name="notequal" unicode="&#x2260;" 
d="M1057 1225l-111 -189h107v-295h-281l-92 -155h373v-295h-547l-111 -189h-303l111 189h-107v295h281l92 155h-373v295h547l111 189h303z" />
    <glyph glyph-name="lessequal" unicode="&#x2264;" 
d="M1044 1192v-295l-385 -133l385 -135v-295l-985 383v92zM88 0v274h956v-274h-956z" />
    <glyph glyph-name="greaterequal" unicode="&#x2265;" 
d="M102 1192l985 -383v-92l-985 -383v295l385 135l-385 133v295zM102 0v274h957v-274h-957z" />
    <glyph glyph-name="uni24EA" unicode="&#x24ea;" horiz-adv-x="2002" 
d="M117 676q-4 176 67 341t191 285t285 191t341 68q174 4 339 -67.5t286 -192.5t192.5 -286t67.5 -339q4 -175 -67.5 -340t-192.5 -285.5t-286 -192t-339 -67.5q-176 -4 -341 67t-285 191.5t-191 285.5t-67 341zM1614 676q2 130 -46 247t-131 199.5t-197 130t-239 45.5
q-125 2 -239 -45.5t-196.5 -130t-130.5 -199.5t-46 -247q-3 -173 79.5 -318t224 -226.5t308.5 -78.5q167 -3 309 78.5t224.5 226.5t79.5 318zM606 682q0 205 103 338q101 131 292 131q192 0 293 -131q103 -133 103 -338q0 -212 -103 -348q-102 -135 -293 -135
q-190 0 -292 135q-103 136 -103 348zM1112 680q0 114 -27 164.5t-84 50.5q-56 0 -82 -50t-26 -165q0 -117 26.5 -171t81.5 -54q56 0 83.5 54t27.5 171z" />
    <glyph glyph-name="uni24FF" unicode="&#x24ff;" horiz-adv-x="2002" 
d="M117 676q-4 176 67 341t191 285t285 191t341 68q174 4 339 -67.5t286 -192.5t192.5 -286t67.5 -339q4 -175 -67.5 -340t-192.5 -285.5t-286 -192t-339 -67.5q-176 -4 -341 67t-285 191.5t-191 285.5t-67 341zM1397 682q0 205 -103 338q-101 131 -293 131
q-191 0 -292 -131q-103 -133 -103 -338q0 -212 103 -348q102 -135 292 -135q191 0 293 135q103 136 103 348zM893 680q0 115 26 165t82 50q57 0 84 -50.5t27 -164.5q0 -117 -27.5 -171t-83.5 -54q-55 0 -81.5 54t-26.5 171z" />
    <glyph glyph-name="filledbox" unicode="&#x25a0;" horiz-adv-x="1495" 
d="M184 113v1126h1127v-1126h-1127z" />
    <glyph glyph-name="uni25A1" unicode="&#x25a1;" horiz-adv-x="1495" 
d="M184 113v1126h1127v-1126h-1127zM475 397h545v557h-545v-557z" />
    <glyph glyph-name="uni25AA" unicode="&#x25aa;" horiz-adv-x="1085" 
d="M152 123v778h780v-778h-780z" />
    <glyph glyph-name="uni25AB" unicode="&#x25ab;" horiz-adv-x="1085" 
d="M152 123v778h780v-778h-780zM422 387h240v250h-240v-250z" />
    <glyph glyph-name="triagup" unicode="&#x25b2;" horiz-adv-x="1495" 
d="M61 113l-20 37l686 1202h41l686 -1202l-20 -37h-1373z" />
    <glyph glyph-name="uni25B3" unicode="&#x25b3;" horiz-adv-x="1495" 
d="M768 1352l686 -1202l-20 -37h-1373l-20 37l686 1202h41zM981 397l-233 408l-234 -408h467z" />
    <glyph glyph-name="uni25B4" unicode="&#x25b4;" horiz-adv-x="1085" 
d="M74 123l-21 37l469 821h41l469 -821l-20 -37h-938z" />
    <glyph glyph-name="uni25B5" unicode="&#x25b5;" horiz-adv-x="1085" 
d="M563 981l469 -821l-20 -37h-938l-21 37l469 821h41zM670 330l-127 223l-125 -223h252z" />
    <glyph glyph-name="uni25B6" unicode="&#x25b6;" horiz-adv-x="1495" 
d="M283 -25l-37 21v1360l37 20l1052 -680v-41z" />
    <glyph glyph-name="uni25B7" unicode="&#x25b7;" horiz-adv-x="1495" 
d="M283 1376l1052 -680v-41l-1052 -680l-37 21v1360zM842 676l-305 196v-393z" />
    <glyph glyph-name="uni25B8" unicode="&#x25b8;" horiz-adv-x="1085" 
d="M262 31l-37 20v924l37 20l719 -460v-41z" />
    <glyph glyph-name="uni25B9" unicode="&#x25b9;" horiz-adv-x="1085" 
d="M262 995l719 -460v-41l-719 -463l-37 20v924zM612 514l-178 113v-226z" />
    <glyph glyph-name="triagrt" unicode="&#x25ba;" horiz-adv-x="1968" 
d="M242 -25l-37 21v1360l37 20l1685 -680v-41z" />
    <glyph glyph-name="uni25BB" unicode="&#x25bb;" horiz-adv-x="1968" 
d="M242 1376l1685 -680v-41l-1685 -680l-37 21v1360zM1202 676l-706 287v-574z" />
    <glyph glyph-name="triagdn" unicode="&#x25bc;" horiz-adv-x="1495" 
d="M61 1239h1373l20 -37l-686 -1202h-41l-686 1202z" />
    <glyph glyph-name="uni25BD" unicode="&#x25bd;" horiz-adv-x="1495" 
d="M1434 1239l20 -37l-686 -1202h-41l-686 1202l20 37h1373zM981 954h-467l234 -407z" />
    <glyph glyph-name="uni25BE" unicode="&#x25be;" horiz-adv-x="1085" 
d="M522 43l-469 821l21 37h938l20 -37l-469 -821h-41z" />
    <glyph glyph-name="uni25BF" unicode="&#x25bf;" horiz-adv-x="1085" 
d="M1012 901l20 -37l-469 -821h-41l-469 821l21 37h938zM670 694h-252l125 -223z" />
    <glyph glyph-name="uni25C0" unicode="&#x25c0;" horiz-adv-x="1495" 
d="M1212 -25l-1052 680v41l1052 680l37 -20v-1360z" />
    <glyph glyph-name="uni25C1" unicode="&#x25c1;" horiz-adv-x="1495" 
d="M1212 1376l37 -20v-1360l-37 -21l-1052 680v41zM958 872l-305 -196l305 -197v393z" />
    <glyph glyph-name="uni25C2" unicode="&#x25c2;" horiz-adv-x="1085" 
d="M823 31l-719 463v41l719 460l37 -20v-924z" />
    <glyph glyph-name="uni25C3" unicode="&#x25c3;" horiz-adv-x="1085" 
d="M823 995l37 -20v-924l-37 -20l-719 463v41zM651 399v228l-178 -113z" />
    <glyph glyph-name="triaglf" unicode="&#x25c4;" horiz-adv-x="1968" 
d="M1726 -25l-1685 680v41l1685 680l37 -20v-1360z" />
    <glyph glyph-name="uni25C5" unicode="&#x25c5;" horiz-adv-x="1968" 
d="M1726 1376l37 -20v-1360l-37 -21l-1685 680v41zM1473 963l-707 -287l707 -287v574z" />
    <glyph glyph-name="lozenge" unicode="&#x25ca;" horiz-adv-x="1361" 
d="M737 1376l437 -700l-437 -701h-112l-437 701l437 700h112zM530 676l162 -250l144 250l-152 244z" />
    <glyph glyph-name="circle" unicode="&#x25cb;" horiz-adv-x="1495" 
d="M70 678q-3 131 53 256.5t150 217t220 146.5t257 52q131 3 256 -52t217.5 -147t147.5 -216.5t52 -254.5q4 -175 -89.5 -334.5t-251.5 -255.5t-332 -92q-129 -3 -255.5 53.5t-220 149.5t-150.5 220t-54 257zM1133 680q0 161 -112 273t-271 112q-160 0 -275 -114t-115 -273
q0 -161 115 -278t273 -117q160 0 272.5 117.5t112.5 279.5z" />
    <glyph glyph-name="uni25CF" unicode="&#x25cf;" horiz-adv-x="1495" 
d="M70 678q-3 131 53 256.5t150 217t220 146.5t257 52q131 3 256 -52t217.5 -147t147.5 -216.5t52 -254.5q4 -175 -89.5 -334.5t-251.5 -255.5t-332 -92q-129 -3 -255.5 53.5t-220 149.5t-150.5 220t-54 257z" />
    <glyph glyph-name="uni261C" unicode="&#x261c;" horiz-adv-x="2478" 
d="M2433 596v-92l-184 -152l110 -370l-84 -58l-487 305q-205 -101 -398.5 -157t-345.5 -56q-131 0 -197.5 42t-66.5 114q0 43 25 74q-92 35 -92 121q0 57 49 100q-72 31 -72 106q0 38 21 68h-357q-166 0 -246.5 56t-80.5 173q0 125 95 172.5t308 47.5q114 0 305 -15
q7 94 72 149.5t154 55.5q37 0 84.5 -14.5t84.5 -38.5l521 -322l39 -12q80 -26 88 -29l497 312l84 -58l-110 -370zM971 1049q111 -15 192 -29l-94 51q-25 14 -49 14q-37 0 -49 -36zM1712 401v291q-232 96 -606 154q-368 57 -803 57q-63 0 -63 -39t63 -39h176q400 0 660 -20
v-162h-240q-7 0 -12.5 -5.5t-5.5 -12.5q0 -8 5.5 -13.5t12.5 -5.5h264v-162h-239q-8 0 -13.5 -5.5t-5.5 -12.5t5.5 -12.5t13.5 -5.5h262v-162q-122 -17 -178 -17h-17q-7 0 -12.5 -5.5t-5.5 -12.5t5.5 -12.5t12.5 -5.5q125 0 338 59q208 57 383 149zM1915 729v-358l176 -107
l-55 174l151 113l-151 111l55 174z" />
    <glyph glyph-name="uni261E" unicode="&#x261e;" horiz-adv-x="2478" 
d="M2451 870q0 -117 -80.5 -173t-246.5 -56h-357q21 -30 21 -68q0 -75 -72 -106q49 -43 49 -100q0 -86 -92 -121q25 -31 25 -74q0 -72 -66.5 -114t-197.5 -42q-152 0 -345.5 56t-398.5 157l-487 -305l-84 58l110 370l-184 152v92l184 152l-110 370l84 58l497 -312q8 3 88 29
l39 12l521 322q37 24 85 38.5t85 14.5q89 0 153.5 -55.5t71.5 -149.5q190 15 305 15q213 0 308 -47.5t95 -172.5zM1409 1071l-94 -51q81 14 192 29q-12 36 -49 36q-24 0 -49 -14zM2238 864q0 39 -63 39q-435 0 -803 -57q-374 -58 -606 -154v-291q178 -93 381 -149
q213 -59 340 -59q7 0 12.5 5.5t5.5 12.5t-5.5 12.5t-12.5 5.5h-17q-56 0 -178 17v162h262q8 0 13.5 5.5t5.5 12.5t-5.5 12.5t-13.5 5.5h-239v162h264q7 0 12.5 5.5t5.5 13.5q0 7 -5.5 12.5t-12.5 5.5h-240v162q260 20 660 20h176q63 0 63 39zM563 371v358l-176 107l55 -174
l-151 -111l151 -113l-55 -174z" />
    <glyph glyph-name="uni2661" unicode="&#x2661;" horiz-adv-x="1761" 
d="M1655 975q0 -102 -49 -193q-48 -91 -170 -225l-531 -582h-49l-530 582q-120 131 -172 225q-48 94 -48 193q0 172 116 286.5t280 114.5q129 0 231.5 -72t147.5 -190q45 118 147.5 190t231.5 72q164 0 279.5 -114.5t115.5 -286.5zM1286 928q0 54 -30.5 84t-79.5 30
q-76 0 -129 -78.5t-74 -207.5h-182q-21 129 -75 207.5t-130 78.5q-49 0 -80 -30t-31 -84q0 -34 16 -71t32 -58t39 -47l24 -27l295 -338l295 338l41 47q69 75 69 156z" />
    <glyph glyph-name="heart" unicode="&#x2665;" horiz-adv-x="1761" 
d="M856 -25l-530 582q-120 131 -172 225q-48 94 -48 193q0 172 116 286.5t280 114.5q129 0 231.5 -72t147.5 -190q45 118 147.5 190t231.5 72q164 0 279.5 -114.5t115.5 -286.5q0 -105 -49 -193q-48 -91 -170 -225l-531 -582h-49z" />
    </font>
</defs>
</svg>
